osu file format v14

[General]
AudioFilename: audio.mp3
AudioLeadIn: 0
PreviewTime: 4922
Countdown: 0
SampleSet: Soft
StackLeniency: 0.2
Mode: 0
LetterboxInBreaks: 0
WidescreenStoryboard: 1

[Editor]
Bookmarks: 5645,17211,22994,34560,46126,57693,69259,80825,92391,103958,109741,115524,121307,127090,138657,150223,161789,173355,179138,184922,190705,196488,208054,219620,225404,236970,248536,254319,260102,265885,271669,273114,276006,278898,281789,284681,286126,287572,299138
DistanceSpacing: 0.3
BeatDivisor: 4
GridSize: 8
TimelineZoom: 5.099998

[Metadata]
Title:Wan Shen Ji
TitleUnicode:万神纪(人声本家·初定高燃版)
Artist:Fei Zao Jun
ArtistUnicode:肥皂菌
Creator:CyberX
Version:Huo guang
Source:
Tags:Chinese 邪叫教主 肥皂菌 大司乐坊 海鲜面 T-L-S 司鼓君 chinesedrum bass drum Erhu pipa Chinesezither
BeatmapID:1960774
BeatmapSetID:938632

[Difficulty]
HPDrainRate:4
CircleSize:4
OverallDifficulty:8
ApproachRate:9.6
SliderMultiplier:3.59999990463257
SliderTickRate:1

[Events]
//Background and Video events
0,0,"68.png",0,0
//Break Periods
2,138857,140316
2,141748,143208
2,144639,146099
//Storyboard Layer 0 (Background)
//Storyboard Layer 1 (Fail)
//Storyboard Layer 2 (Pass)
//Storyboard Layer 3 (Foreground)
//Storyboard Sound Samples

[TimingPoints]
5645,361.44578313253,4,2,2,60,1,0
5645,-125,4,2,2,60,0,0
8536,-125,4,2,1,50,0,0
8898,-125,4,2,2,40,0,0
9259,-125,4,2,1,30,0,0
9440,-125,4,2,1,40,0,0
9620,-125,4,2,1,50,0,0
9801,-125,4,2,1,40,0,0
9982,-125,4,2,2,60,0,0
14681,-125,4,2,1,60,0,0
15765,-125,4,2,2,60,0,0
17211,-200,4,2,2,20,0,0
22994,-142.857142857143,4,2,2,20,0,0
22995,-142.857142857143,4,2,2,60,0,0
24440,-200,4,2,2,60,0,0
25885,-142.857142857143,4,2,2,60,0,0
27331,-200,4,2,2,60,0,0
28416,-142.857142857143,4,2,2,60,0,0
40344,-142.857142857143,4,2,1,5,0,0
43236,-142.857142857143,4,2,1,30,0,0
45404,-142.857142857143,4,2,1,40,0,0
46126,-100,4,2,2,70,0,0
47211,-100,4,2,1,70,0,0
49018,-100,4,2,2,70,0,0
50102,-100,4,2,1,70,0,0
51910,-100,4,2,2,70,0,0
52994,-100,4,2,1,70,0,0
60584,-200,4,2,1,70,0,0
60946,-100,4,2,1,70,0,0
67814,-100,4,2,2,70,0,0
68536,-200,4,2,2,70,0,0
69620,-125,4,2,2,70,0,0
80825,-125,4,2,1,70,0,0
81187,-125,4,2,2,70,0,0
89500,-125,4,2,1,70,0,0
89861,-125,4,2,2,70,0,0
90223,-250,4,2,2,70,0,0
90584,-125,4,2,2,70,0,0
92391,-200,4,2,1,70,0,0
97452,-100,4,2,1,70,0,0
98175,-200,4,2,1,70,0,0
102873,-200,4,2,2,70,0,0
103958,-83.3333333333333,4,2,2,80,0,1
127090,-142.857142857143,4,2,2,70,0,0
129982,-142.857142857143,4,2,1,60,0,0
130163,-142.857142857143,4,2,1,50,0,0
130343,-142.857142857143,4,2,1,60,0,0
130524,-142.857142857143,4,2,1,70,0,0
130705,-142.857142857143,4,2,2,70,0,0
131066,-142.857142857143,4,2,1,70,0,0
150223,-125,4,2,1,70,0,0
161789,-200,4,2,2,70,0,0
166849,-100,4,2,2,70,0,0
167572,-200,4,2,2,70,0,0
170825,-142.857142857143,4,2,2,70,0,0
171187,-100,4,2,2,70,0,0
172994,-100,4,2,2,80,0,0
173355,-66.6666666666667,4,2,2,80,0,1
184922,-58.8235294117647,4,2,2,80,0,1
196488,-125,4,2,2,70,0,0
203717,-100,4,2,2,70,0,0
204982,-142.857142857143,4,2,2,70,0,0
207331,-100,4,2,2,70,0,0
208054,-100,4,2,1,70,0,0
214922,-83.3333333333333,4,2,1,70,0,0
215644,-100,4,2,1,70,0,0
218175,-100,4,2,2,70,0,0
219620,-100,4,2,1,70,0,0
225404,-125,4,2,2,70,0,0
236970,-166.666666666667,4,2,1,70,0,0
248536,-66.6666666666667,4,2,2,80,0,1
268777,-58.8235294117647,4,2,2,80,0,1
271669,-142.857142857143,4,2,2,80,0,0
273114,-142.857142857143,4,2,2,80,0,1
276006,-142.857142857143,4,2,1,80,0,0
283958,-142.857142857143,4,2,2,60,0,0
286849,-142.857142857143,4,2,2,70,0,0
287572,-142.857142857143,4,2,2,60,0,0

[Colours]
Combo1 : 254,205,221
Combo2 : 254,239,206
Combo3 : 243,249,175
Combo4 : 181,255,184
Combo5 : 190,255,245
Combo6 : 174,234,249
Combo7 : 206,206,254
Combo8 : 254,206,254

[HitObjects]
31,303,5645,6,0,P|138:272|341:261,1,287.999992370606,4|0,0:0|0:0,0:0:0:0:
117,357,6367,6,0,P|227:343|429:364,1,287.999992370606,4|4,0:0|0:0,0:0:0:0:
467,267,7090,5,4,0:0:0:0:
417,193,7813,5,0,0:0:0:0:
479,133,8175,1,0,0:0:0:0:
399,115,8536,6,0,L|89:106,1,287.999992370606,0|0,0:0|0:0,0:0:0:0:
0,31,9259,6,0,L|304:16,1,287.999992370606,0|0,0:0|0:0,0:0:0:0:
29,112,9982,5,4,0:0:0:0:
37,207,10705,5,0,0:0:0:0:
65,349,11428,6,0,P|86:191|73:47,1,287.999992370606,4|0,0:0|0:0,0:0:0:0:
166,1,12151,6,0,P|187:159|174:303,1,287.999992370606,4|4,0:0|0:0,0:0:0:0:
104,384,12873,2,0,P|134:371|179:368,1,71.9999980926514,4|0,0:0|0:0,0:0:0:0:
256,359,13235,5,0,0:0:0:0:
346,369,13596,1,4,0:0:0:0:
442,344,13958,1,0,0:0:0:0:
373,292,14319,6,0,P|357:186|373:135,1,143.999996185303,4|0,0:0|0:0,0:0:0:0:
424,80,14681,5,0,0:0:0:0:
353,34,15042,1,0,0:0:0:0:
365,152,15404,5,0,0:0:0:0:
282,133,15765,2,0,L|269:208,1,71.9999980926514,4|0,0:0|0:0,0:0:0:0:
334,239,16126,5,0,0:0:0:0:
304,12,17211,6,0,B|271:54|216:52|216:52|414:176|414:176|496:109|396:54|396:54|214:253|244:376|244:376|206:212|171:162|171:162|73:199|45:326|45:326|120:355|188:293,1,1439.99996185303,4|0,0:0|0:0,0:0:0:0:
256,192,20193,12,0,22904,0:0:0:0:
36,284,22994,6,0,P|28:200|200:110,1,251.999985633851,4|0,0:0|0:0,0:0:0:0:
242,179,23717,2,0,P|250:263|78:353,1,251.999985633851,0|4,0:0|0:2,0:0:0:0:
147,101,24440,6,0,L|424:91,1,269.999992847443,8|0,2:0|0:0,0:0:0:0:
490,34,25163,5,0,0:0:0:0:
483,129,25524,1,0,0:0:0:0:
475,224,25885,6,0,P|457:298|330:232,1,251.999985633851,0|0,0:0|0:0,0:0:0:0:
123,279,26608,2,0,P|141:353|268:287,1,251.999985633851,0|4,0:0|0:0,0:0:0:0:
31,274,27331,6,0,P|111:229|237:224,2,179.999995231629,8|0|0,0:0|0:0|0:0,0:0:0:0:
272,182,28416,2,0,P|260:121|216:76,1,125.999992816925,0|0,0:0|0:0,0:0:0:0:
120,50,28777,5,4,0:0:0:0:
57,129,29138,2,0,B|45:157|45:157|274:129,1,251.999985633851,0|0,0:0|0:0,0:0:0:0:
354,34,29861,2,0,L|344:177,1,125.999992816925,4|0,0:0|0:0,0:0:0:0:
357,368,30223,1,8,0:0:0:0:
449,349,30946,6,0,P|428:278|294:344,1,251.999985633851,0|0,0:0|0:0,0:0:0:0:
357,368,31669,2,0,P|334:275|388:89,2,251.999985633851,2|0|0,0:3|0:0|0:0,0:0:0:0:
452,129,32753,6,0,P|432:75|348:30,1,125.999992816925,6|0,0:0|0:0,0:0:0:0:
211,172,33114,2,0,P|231:226|315:271,1,125.999992816925,8|0,0:0|0:0,0:0:0:0:
193,0,33476,6,0,P|139:16|94:100,1,125.999992816925,0|0,0:0|0:0,0:0:0:0:
38,324,33837,2,0,B|68:371|109:399|158:388|158:388|163:348|84:337|41:244|78:169,1,377.999978450776,0|0,0:0|0:0,0:0:0:0:
213,156,34560,5,2,0:1:0:0:
319,160,34922,1,0,0:0:0:0:
403,218,35283,1,0,0:0:0:0:
444,329,35644,1,0,0:0:0:0:
476,252,36006,5,0,0:0:0:0:
455,124,36367,1,0,0:0:0:0:
373,36,36729,1,0,0:0:0:0:
243,14,37090,1,0,0:0:0:0:
141,45,37452,5,0,0:0:0:0:
273,44,37813,1,0,0:0:0:0:
371,94,38175,1,0,0:0:0:0:
429,204,38536,1,0,0:0:0:0:
411,330,38898,5,0,0:0:0:0:
352,233,39259,1,0,0:0:0:0:
242,174,39620,1,0,0:0:0:0:
86,154,39982,1,0,0:0:0:0:
256,192,40343,12,0,43054,0:0:0:0:
256,192,43235,5,0,0:0:0:0:
256,192,43958,5,0,0:0:0:0:
44,345,44681,6,0,L|38:282,3,62.9999964084627,0|0|0|0,0:0|0:0|0:0|0:0,0:0:0:0:
129,339,45042,2,0,L|123:276,3,62.9999964084627,0|0|0|0,0:0|0:0|0:0|0:0,0:0:0:0:
214,333,45404,6,0,L|208:270,3,62.9999964084627,0|0|0|0,0:0|0:0|0:0|0:0,0:0:0:0:
299,327,45765,2,0,L|293:264,3,62.9999964084627,0|0|0|0,0:0|0:0|0:0|0:0,0:0:0:0:
481,243,46126,6,0,L|313:225,1,89.9999976158143,4|0,0:0|0:0,0:0:0:0:
279,171,46307,1,4,0:0:0:0:
45,63,47211,5,8,0:0:0:0:
7,143,47391,2,0,P|131:171|351:96,1,359.999990463257,2|0,0:0|0:0,0:0:0:0:
231,60,47934,2,0,P|251:134|337:212,1,179.999995231629,8|0,0:0|0:0,0:0:0:0:
445,158,48295,2,0,P|371:178|293:264,1,179.999995231629,0|0,0:0|0:0,0:0:0:0:
254,379,48657,2,0,P|340:317|422:329,1,179.999995231629,8|0,0:0|0:0,0:0:0:0:
493,346,49018,5,4,0:0:0:0:
100,304,49199,5,4,0:0:0:0:
100,304,50102,5,10,0:0:0:0:
71,231,50283,6,0,P|121:379|142:238,1,359.999990463257,2|0,0:0|0:0,0:0:0:0:
257,353,50825,2,0,P|368:305|442:321,2,179.999995231629,8|0|0,0:0|0:0|0:0,0:0:0:0:
245,257,51367,2,0,P|268:199|295:169,1,89.9999976158143,0|0,0:0|0:0,0:0:0:0:
343,126,51548,2,0,P|400:101|440:99,1,89.9999976158143,10|0,0:0|0:0,0:0:0:0:
512,100,51729,1,0,0:0:0:0:
256,16,51910,5,4,0:0:0:0:
256,368,52090,5,4,0:0:0:0:
120,271,52994,6,0,B|99:225|99:225|88:91,1,179.999995231629,8|2,0:0|0:0,0:0:0:0:
52,28,53355,1,0,0:0:0:0:
148,34,53536,1,2,0:0:0:0:
244,40,53717,1,8,0:0:0:0:
340,46,54078,6,0,P|298:130|319:229,1,179.999995231629,0|0,0:0|0:0,0:0:0:0:
392,351,54440,2,0,P|390:274|376:170,1,179.999995231629,8|0,0:0|0:0,0:0:0:0:
283,287,54801,5,2,0:0:0:0:
171,265,54982,1,0,0:0:0:0:
59,243,55163,1,8,0:0:0:0:
298,314,55343,5,0,0:0:0:0:
171,265,55524,1,2,0:0:0:0:
43,215,55705,1,2,0:0:0:0:
309,348,55885,5,8,0:0:0:0:
171,265,56066,1,0,0:0:0:0:
32,181,56247,1,2,0:0:0:0:
301,378,56428,5,0,0:0:0:0:
170,265,56608,1,8,0:0:0:0:
39,150,56789,1,2,0:0:0:0:
178,354,56970,6,0,L|169:244,1,89.9999976158143,0|0,0:0|0:0,0:0:0:0:
129,187,57151,2,0,L|120:77,1,89.9999976158143,0|0,0:0|0:0,0:0:0:0:
170,18,57331,5,10,0:0:0:0:
28,17,57512,2,0,L|37:127,1,89.9999976158143,0|0,0:0|0:0,0:0:0:0:
204,144,57693,6,0,L|449:121,1,179.999995231629,4|0,0:1|0:0,0:0:0:0:
410,13,58054,6,0,P|361:29|334:70,1,89.9999976158143,8|0,0:0|0:0,0:0:0:0:
454,172,58235,2,0,P|405:156|378:115,1,89.9999976158143,0|0,0:0|0:0,0:0:0:0:
293,137,58416,2,0,P|277:186|236:213,1,89.9999976158143,0|0,0:0|0:0,0:0:0:0:
156,224,58596,1,2,0:0:0:0:
30,235,58777,6,0,B|43:362|43:362|118:353|118:353|104:235,1,269.999992847443,10|0,0:0|0:0,0:0:0:0:
44,361,59138,6,0,L|232:366,1,179.999995231629,2|0,0:0|0:0,0:0:0:0:
300,319,59500,2,0,L|488:324,1,179.999995231629,8|2,0:0|0:0,0:0:0:0:
179,385,59861,6,0,L|0:371,1,179.999995231629,0|2,0:0|0:0,0:0:0:0:
332,289,60223,2,0,L|519:304,1,179.999995231629,8|0,0:0|0:0,0:0:0:0:
508,152,60584,6,0,P|482:188|458:244,1,89.9999976158143,2|2,0:0|0:0,0:0:0:0:
371,259,60946,6,0,P|336:177|344:153,1,89.9999976158143,8|0,0:0|0:0,0:0:0:0:
239,115,61126,2,0,P|321:80|345:88,1,89.9999976158143,0|0,0:0|0:0,0:0:0:0:
441,18,61307,6,0,P|322:68|288:56,1,89.9999976158143,2|0,0:0|0:0,0:0:0:0:
270,152,61488,2,0,P|219:33|231:0,1,89.9999976158143,2|0,0:0|0:0,0:0:0:0:
129,16,61669,6,0,B|125:48|125:48|172:250,1,179.999995231629,8|0,0:0|0:0,0:0:0:0:
28,236,62030,6,0,L|109:307,1,89.9999976158143,2|0,0:0|0:0,0:0:0:0:
256,339,62211,1,0,0:0:0:0:
167,326,62391,1,8,0:0:0:0:
58,59,62572,6,0,L|109:153,1,89.9999976158143,2|0,0:0|0:0,0:0:0:0:
237,233,62753,1,0,0:0:0:0:
158,191,62934,1,0,0:0:0:0:
328,276,63114,6,0,B|369:243|412:264|412:264|456:285|522:257,2,179.999995231629,10|0|6,0:0|0:0|0:1,0:0:0:0:
432,352,63837,6,0,P|410:301|417:250,1,89.9999976158143,8|0,0:0|0:0,0:0:0:0:
388,185,64018,2,0,P|408:133|449:102,1,89.9999976158143,0|0,0:0|0:0,0:0:0:0:
485,40,64199,6,0,L|385:33,1,89.9999976158143,0|0,0:0|0:0,0:0:0:0:
283,54,64379,2,0,L|183:47,1,89.9999976158143,2|0,0:0|0:0,0:0:0:0:
119,29,64560,6,0,B|97:72|97:72|331:49,1,269.999992847443,10|0,0:0|0:0,0:0:0:0:
433,110,64922,6,0,P|345:143|231:121,1,179.999995231629,2|0,0:0|0:0,0:0:0:0:
81,152,65283,2,0,P|169:185|283:163,1,179.999995231629,8|0,0:0|0:0,0:0:0:0:
482,206,65644,6,0,P|372:247|230:219,1,179.999995231629,0|2,0:0|0:0,0:0:0:0:
44,258,66006,2,0,P|153:299|295:271,1,179.999995231629,8|0,0:0|0:0,0:0:0:0:
268,355,66367,6,0,L|252:167,2,179.999995231629,2|0|8,0:0|0:0|0:0,0:0:0:0:
344,315,66910,5,0,0:0:0:0:
431,290,67090,1,2,0:0:0:0:
344,315,67452,5,10,0:0:0:0:
268,355,67813,1,4,0:1:0:0:
173,347,68175,5,0,0:0:0:0:
44,365,68536,6,0,P|67:338|88:365,3,44.9999988079071,0|0|2|0,0:0|0:0|0:0|0:0,0:0:0:0:
129,238,68898,2,0,P|133:270|124:296,1,44.9999988079071,0|0,0:0|0:0,0:0:0:0:
220,139,69078,2,0,P|207:158|189:172,1,44.9999988079071,2|0,0:0|0:0,0:0:0:0:
43,158,69259,5,8,0:1:0:0:
54,17,69620,6,0,P|93:91|163:105,1,143.999996185303,0|0,0:0|0:0,0:0:0:0:
218,60,69982,2,0,L|400:47,1,143.999996185303,0|0,0:0|0:0,0:0:0:0:
462,15,70343,6,0,P|426:88|378:254,1,215.999994277954,4|0,0:0|0:0,0:0:0:0:
315,279,70705,2,0,P|305:232|310:186,1,71.9999980926514,4|0,0:0|0:0,0:0:0:0:
480,190,70885,2,0,P|490:237|485:283,1,71.9999980926514,2|4,0:0|0:0,0:0:0:0:
288,361,71066,6,0,P|339:313|409:314,1,143.999996185303,2|4,0:0|0:0,0:0:0:0:
512,362,71428,6,0,P|449:349|311:344,1,143.999996185303,0|6,0:0|0:0,0:0:0:0:
225,273,71789,2,0,P|171:308|70:402,1,143.999996185303,0|0,0:0|0:0,0:0:0:0:
306,247,72151,1,0,0:0:0:0:
117,242,72512,6,0,P|114:159|141:180,1,143.999996185303,0|0,0:0|0:0,0:0:0:0:
169,112,72873,2,0,P|239:92|297:105,2,71.9999980926514,0|0|0,0:0|0:0|0:0,0:0:0:0:
229,172,73235,2,0,P|334:171|392:97,1,143.999996185303,0|2,0:0|0:0,0:0:0:0:
465,148,73596,6,0,P|447:87|432:71,1,71.9999980926514,6|2,0:0|0:0,0:0:0:0:
358,2,73777,2,0,P|340:33|335:68,1,71.9999980926514,2|0,0:3|0:0,0:0:0:0:
379,262,73958,2,0,P|396:230|373:122,1,143.999996185303,0|6,0:0|0:0,0:0:0:0:
250,8,74319,6,0,B|234:41|234:41|262:155,1,143.999996185303,2|4,0:3|0:0,0:0:0:0:
262,376,74681,2,0,B|278:343|278:343|250:229,1,143.999996185303,0|0,0:0|0:0,0:0:0:0:
105,288,75042,6,0,P|220:244|367:239,1,215.999994277954,4|0,0:1|0:0,0:0:0:0:
464,288,75404,2,0,B|474:330|474:330|417:343|417:343|405:297,1,143.999996185303,0|2,0:0|0:0,0:0:0:0:
391,211,75765,6,0,P|375:122|390:27,1,143.999996185303,0|4,0:0|0:0,0:0:0:0:
475,5,76126,2,0,P|491:94|476:189,1,143.999996185303,0|2,0:0|0:0,0:0:0:0:
376,144,76488,6,0,P|330:114|282:115,1,71.9999980926514,6|0,0:0|0:0,0:0:0:0:
301,25,76669,2,0,P|266:29|235:46,1,71.9999980926514,0|4,0:0|0:0,0:0:0:0:
116,89,76849,2,0,L|331:79,1,215.999994277954,0|0,0:0|0:0,0:0:0:0:
448,196,77211,6,0,P|366:191|269:198,1,143.999996185303,0|4,0:0|0:0,0:0:0:0:
206,164,77572,2,0,P|137:182|36:221,1,143.999996185303,0|2,0:0|0:0,0:0:0:0:
49,358,77934,2,0,B|14:176|14:176|24:146,1,215.999994277954,0|0,0:0|0:0,0:0:0:0:
119,19,78295,6,0,L|112:209,2,143.999996185303,0|0|0,0:0|0:0|0:0,0:0:0:0:
204,45,78837,1,6,0:0:0:0:
206,164,79018,6,0,L|199:354,1,143.999996185303,0|0,0:0|0:0,0:0:0:0:
117,363,79379,6,0,P|123:324|123:282,1,71.9999980926514,6|0,0:0|0:0,0:0:0:0:
279,258,79560,2,0,P|285:297|285:339,1,71.9999980926514,2|0,0:3|0:3,0:0:0:0:
69,215,79741,1,0,0:0:0:0:
327,168,79922,1,6,0:0:0:0:
74,97,80102,6,0,P|192:95|315:83,1,215.999994277954,2|0,0:3|0:0,0:0:0:0:
395,7,80464,2,0,P|373:97|379:184,2,143.999996185303,0|6|2,0:0|0:0|0:0,0:0:0:0:
465,185,81187,6,0,P|422:244|325:224,1,143.999996185303,0|0,0:0|0:0,0:0:0:0:
273,220,81548,2,0,P|267:262|284:384,1,143.999996185303,0|4,0:0|0:0,0:0:0:0:
153,289,81910,2,0,P|154:217|172:148,1,143.999996185303,0|2,0:0|0:0,0:0:0:0:
236,56,82271,6,0,P|242:95|257:149,2,71.9999980926514,6|0|0,0:0|0:0|0:0,0:0:0:0:
408,67,82632,2,0,P|344:8|233:41,1,143.999996185303,0|6,0:0|0:0,0:0:0:0:
333,147,82994,2,0,P|413:179|509:29,2,287.999992370606,0|0|0,0:0|0:0|0:0,0:0:0:0:
258,210,84078,6,0,B|250:249|250:249|274:375,1,143.999996185303,0|0,0:0|0:0,0:0:0:0:
169,234,84440,2,0,B|150:132|150:132|158:93,1,143.999996185303,0|6,0:0|0:0,0:0:0:0:
354,17,84801,6,0,B|365:71|365:71|331:248,1,215.999994277954,0|0,0:0|0:0,0:0:0:0:
257,287,85163,5,6,0:0:0:0:
156,341,85343,1,2,0:3:0:0:
35,354,85524,1,0,0:0:0:0:
303,356,85885,6,0,L|488:348,2,143.999996185303,2|4|0,0:3|0:0|0:0,0:0:0:0:
214,323,86428,1,6,0:0:0:0:
111,214,86608,5,4,0:1:0:0:
28,31,86970,6,0,P|43:65|32:21,1,143.999996185303,2|0,0:0|0:0,0:0:0:0:
68,143,87331,6,0,P|42:167|26:199,1,71.9999980926514,0|0,0:0|0:0,0:0:0:0:
217,88,87512,2,0,P|182:86|148:98,1,71.9999980926514,4|0,0:0|0:0,0:0:0:0:
248,165,87693,2,0,P|353:175|492:178,1,215.999994277954,0|0,0:0|0:0,0:0:0:0:
392,25,88054,5,6,0:0:0:0:
366,123,88235,1,0,0:0:0:0:
357,224,88416,1,0,0:0:0:0:
402,372,88777,6,0,P|376:325|371:306,2,71.9999980926514,0|0|4,0:0|0:0|0:0,0:0:0:0:
512,269,89138,6,0,L|405:265,1,71.9999980926514,0|0,0:0|0:0,0:0:0:0:
296,307,89319,2,0,L|189:303,1,71.9999980926514,2|0,0:0|0:0,0:0:0:0:
50,340,89500,5,2,0:0:0:0:
116,274,89861,6,0,B|105:244|95:236|95:236|85:195,1,71.9999980926514,0|0,0:0|0:0,0:0:0:0:
29,197,90042,2,0,B|58:186|67:176|67:176|108:166,1,71.9999980926514,0|0,0:0|0:0,0:0:0:0:
180,115,90223,6,0,B|208:127|221:127|221:127|257:148,1,71.9999980926514,0|6,0:0|0:0,0:0:0:0:
344,163,90584,6,0,B|372:238|398:261|398:261|423:366,1,215.999994277954,0|0,0:0|0:0,0:0:0:0:
315,368,90946,6,0,P|307:323|307:295,1,71.9999980926514,6|0,0:0|0:0,0:0:0:0:
477,199,91126,2,0,P|485:244|485:272,1,71.9999980926514,2|0,0:3|0:0,0:0:0:0:
344,163,91307,5,0,0:0:0:0:
420,99,91488,1,6,0:0:0:0:
499,30,91669,6,0,P|424:22|356:6,2,143.999996185303,2|4|0,0:3|0:0|0:0,0:0:0:0:
256,58,92211,1,6,0:0:0:0:
165,115,92391,6,0,B|123:121|102:140|102:140|76:132|34:151,1,134.999996423721,4|0,0:1|0:0,0:0:0:0:
63,208,92753,6,0,B|56:166|38:145|38:145|46:119|26:77,1,134.999996423721,0|0,0:0|0:0,0:0:0:0:
0,232,93114,6,0,B|41:225|63:207|63:207|89:215|130:195,1,134.999996423721,8|0,0:0|0:0,0:0:0:0:
213,191,93476,1,0,0:0:0:0:
284,259,93657,1,0,0:0:0:0:
378,251,93837,6,0,B|384:292|403:314|403:314|395:340|414:381,1,134.999996423721,2|0,0:0|0:0,0:0:0:0:
476,350,94199,6,0,B|434:356|413:375|413:375|387:367|345:386,1,134.999996423721,0|0,0:0|0:0,0:0:0:0:
493,266,94560,6,0,B|486:224|468:203|468:203|476:177|456:135,1,134.999996423721,8|0,0:0|0:0,0:0:0:0:
394,24,94922,5,0,0:0:0:0:
368,132,95102,1,0,0:0:0:0:
251,200,95283,6,0,B|259:258|286:288|286:288|275:325|302:384,2,179.999995231629,2|0|8,0:0|0:0|0:0,0:0:0:0:
167,214,96367,2,0,P|156:135|166:103,1,89.9999976158143,0|0,0:0|0:0,0:0:0:0:
337,83,96729,6,0,P|347:161|337:193,2,89.9999976158143,2|0|0,0:0|0:0|0:0,0:0:0:0:
250,25,97271,1,0,0:0:0:0:
140,6,97452,6,0,B|153:58|153:58|150:67|150:67|165:114|165:114|178:150|287:116|287:116|296:107|296:107|309:107|309:107|337:84|337:84|355:106|386:103,1,359.999990463257,8|0,0:0|0:0,0:0:0:0:
504,166,98175,6,0,B|475:175|475:175|459:213|459:213|405:251,1,134.999996423721,2|0,0:0|0:0,0:0:0:0:
452,293,98536,6,0,B|443:264|443:264|405:248|405:248|367:194,1,134.999996423721,0|0,0:0|0:0,0:0:0:0:
281,204,98898,6,0,B|251:197|251:197|218:222|218:222|152:228,1,134.999996423721,8|0,0:0|0:0,0:0:0:0:
45,191,99259,5,0,0:0:0:0:
56,292,99440,1,0,0:0:0:0:
99,360,99620,6,0,B|105:330|105:330|80:297|80:297|74:231,1,134.999996423721,2|0,0:0|0:0,0:0:0:0:
1,45,99982,6,0,B|6:108|6:108|31:141|31:141|25:171,1,134.999996423721,0|0,0:0|0:0,0:0:0:0:
123,157,100343,6,0,B|152:163|152:163|185:138|185:138|251:132,1,134.999996423721,8|0,0:0|0:0,0:0:0:0:
328,65,100705,5,0,0:0:0:0:
313,191,100885,1,0,0:0:0:0:
354,339,101066,6,0,P|321:290|319:273,1,44.9999988079071,2|0,0:0|0:0,0:0:0:0:
221,365,101247,2,0,P|232:307|243:293,1,44.9999988079071,0|0,0:0|0:0,0:0:0:0:
386,255,101428,6,0,P|361:236|337:201,1,44.9999988079071,0|0,0:0|0:0,0:0:0:0:
139,302,101608,2,0,P|141:258|154:226,1,44.9999988079071,0|0,0:0|0:0,0:0:0:0:
235,114,101789,6,0,L|255:279,1,134.999996423721,8|0,0:0|0:0,0:0:0:0:
176,25,102151,2,0,P|262:36|346:36,1,134.999996423721,0|0,0:0|0:0,0:0:0:0:
411,66,102512,6,0,P|398:78|366:88,1,44.9999988079071,0|0,0:1|0:0,0:0:0:0:
277,125,102693,2,0,P|259:124|229:108,1,44.9999988079071,0|0,0:0|0:0,0:0:0:0:
101,30,102873,6,0,B|72:49|72:49|97:163,1,134.999996423721,8|0,0:0|0:0,0:0:0:0:
83,265,103235,5,0,0:0:0:0:
71,302,103325,1,0,0:0:0:0:
43,337,103416,1,0,0:0:0:0:
0,361,103506,1,0,0:0:0:0:
54,358,103596,5,2,0:0:0:0:
108,337,103687,1,0,0:0:0:0:
158,297,103777,1,2,0:0:0:0:
197,242,103867,1,0,0:0:0:0:
268,201,103958,6,0,L|409:212,1,107.999993843079,4|0,0:0|0:0,0:0:0:0:
512,287,104138,2,0,L|404:278,1,107.999993843079,0|0,0:0|0:0,0:0:0:0:
470,365,104319,5,0,0:0:0:0:
463,284,104500,1,2,0:0:0:0:
456,203,104681,5,0,0:0:0:0:
449,122,104861,1,0,0:0:0:0:
442,41,105042,5,4,0:0:0:0:
361,48,105223,1,2,0:0:0:0:
276,18,105404,6,0,L|290:129,1,107.999993843079,6|0,0:0|0:0,0:0:0:0:
209,230,105584,2,0,L|195:122,1,107.999993843079,0|0,0:0|0:0,0:0:0:0:
186,23,105765,5,0,0:0:0:0:
68,13,105946,2,0,L|81:120,1,107.999993843079,6|0,0:0|0:0,0:0:0:0:
51,356,106126,5,0,0:0:0:0:
19,237,106307,1,0,0:0:0:0:
19,237,106488,6,0,L|151:223,1,107.999993843079,4|0,0:0|0:0,0:0:0:0:
199,293,106669,2,0,L|331:279,1,107.999993843079,2|0,0:0|0:0,0:0:0:0:
493,116,106849,5,4,0:1:0:0:
488,360,107030,1,0,0:0:0:0:
403,326,107211,5,0,0:0:0:0:
481,274,107391,1,0,0:0:0:0:
396,240,107572,5,0,0:0:0:0:
474,188,107753,1,6,0:0:0:0:
389,154,107934,5,0,0:0:0:0:
464,5,108114,1,0,0:0:0:0:
474,188,108295,6,0,L|466:71,1,107.999993843079,6|0,0:0|0:0,0:0:0:0:
389,154,108476,2,0,L|381:37,1,107.999993843079,2|0,0:3|0:0,0:0:0:0:
289,121,108657,6,0,L|296:228,1,107.999993843079,0|0,0:0|0:0,0:0:0:0:
204,87,108837,2,0,L|212:204,1,107.999993843079,6|0,0:0|0:0,0:0:0:0:
46,27,109018,5,2,0:3:0:0:
55,121,109199,1,4,0:0:0:0:
23,243,109379,6,0,L|38:369,1,107.999993843079,0|0,0:0|0:0,0:0:0:0:
176,368,109560,2,0,L|163:260,1,107.999993843079,6|0,0:0|0:0,0:0:0:0:
292,178,109741,6,0,L|418:193,1,107.999993843079,4|0,0:0|0:0,0:0:0:0:
417,331,109922,2,0,L|309:318,1,107.999993843079,0|0,0:0|0:0,0:0:0:0:
499,259,110102,5,0,0:0:0:0:
482,136,110283,1,2,0:0:0:0:
382,67,110464,5,0,0:0:0:0:
399,190,110644,1,4,0:0:0:0:
299,123,110825,5,0,0:0:0:0:
282,0,111006,1,2,0:0:0:0:
149,0,111187,6,0,L|161:123,1,107.999993843079,6|0,0:0|0:0,0:0:0:0:
127,248,111367,2,0,L|139:371,1,107.999993843079,0|0,0:0|0:0,0:0:0:0:
185,179,111548,5,0,0:0:0:0:
14,373,111729,6,0,L|2:250,1,107.999993843079,6|0,0:0|0:0,0:0:0:0:
51,121,111910,2,0,L|39:-2,1,107.999993843079,0|0,0:0|0:0,0:0:0:0:
80,306,112090,5,4,0:0:0:0:
185,179,112271,6,0,L|62:191,1,107.999993843079,0|0,0:0|0:0,0:0:0:0:
403,202,112452,2,0,L|295:212,1,107.999993843079,2|0,0:0|0:0,0:0:0:0:
14,373,112632,5,4,0:1:0:0:
187,295,112813,1,0,0:0:0:0:
79,305,112994,5,0,0:0:0:0:
231,367,113175,1,0,0:0:0:0:
338,377,113355,5,0,0:0:0:0:
507,262,113536,1,6,0:0:0:0:
275,283,113717,5,0,0:0:0:0:
34,178,113898,1,0,0:0:0:0:
350,206,114078,6,0,L|330:69,1,107.999993843079,6|0,0:0|0:0,0:0:0:0:
438,25,114259,2,0,L|454:132,1,107.999993843079,2|0,0:3|0:0,0:0:0:0:
227,117,114440,6,0,L|207:-20,1,107.999993843079,0|0,0:0|0:0,0:0:0:0:
107,84,114620,2,0,L|123:191,1,107.999993843079,6|0,0:0|0:0,0:0:0:0:
332,265,114801,6,0,L|469:245,1,107.999993843079,2|0,0:3|0:0,0:0:0:0:
512,353,114982,2,0,L|406:369,1,107.999993843079,4|0,0:0|0:0,0:0:0:0:
106,264,115163,6,0,L|0:280,1,107.999993843079,0|0,0:0|0:0,0:0:0:0:
74,384,115343,2,0,L|211:364,1,107.999993843079,6|0,0:0|0:0,0:0:0:0:
265,384,115524,6,0,L|249:261,1,107.999993843079,4|0,0:0|0:0,0:0:0:0:
265,119,115705,2,0,L|249:-4,1,107.999993843079,0|0,0:0|0:0,0:0:0:0:
53,52,115885,5,0,0:0:0:0:
155,58,116066,1,2,0:0:0:0:
257,64,116247,5,0,0:0:0:0:
359,70,116428,1,4,0:0:0:0:
461,76,116608,5,0,0:0:0:0:
455,178,116789,1,2,0:0:0:0:
353,172,116970,6,0,L|369:282,1,107.999993843079,6|0,0:0|0:0,0:0:0:0:
248,240,117151,2,0,L|264:350,1,107.999993843079,0|0,0:0|0:0,0:0:0:0:
454,334,117331,1,0,0:0:0:0:
248,240,117512,6,0,L|138:256,1,107.999993843079,6|0,0:0|0:0,0:0:0:0:
73,150,117693,1,0,0:0:0:0:
216,35,117873,1,0,0:0:0:0:
121,23,118054,6,0,L|11:39,1,107.999993843079,0|0,0:0|0:0,0:0:0:0:
321,49,118235,2,0,L|431:33,1,107.999993843079,2|0,0:0|0:0,0:0:0:0:
175,113,118416,5,4,0:1:0:0:
197,211,118596,1,0,0:0:0:0:
262,147,118777,5,0,0:0:0:0:
284,245,118958,1,0,0:0:0:0:
349,181,119138,5,0,0:0:0:0:
371,279,119319,1,6,0:0:0:0:
436,215,119500,5,0,0:0:0:0:
458,313,119681,1,0,0:0:0:0:
344,360,119861,6,0,L|331:222,1,107.999993843079,6|0,0:0|0:0,0:0:0:0:
251,39,120042,2,0,L|264:177,1,107.999993843079,2|0,0:3|0:0,0:0:0:0:
316,332,120223,6,0,L|303:194,1,107.999993843079,0|0,0:0|0:0,0:0:0:0:
223,11,120404,2,0,L|236:149,1,107.999993843079,6|0,0:0|0:0,0:0:0:0:
115,188,120584,6,0,L|-8:200,1,107.999993843079,2|0,0:3|0:0,0:0:0:0:
94,291,120765,2,0,L|202:281,1,107.999993843079,4|0,0:0|0:0,0:0:0:0:
318,115,120946,6,0,L|425:104,1,107.999993843079,0|0,0:0|0:0,0:0:0:0:
512,197,121126,2,0,L|405:208,1,107.999993843079,6|0,0:0|0:0,0:0:0:0:
141,33,121307,6,0,L|151:140,1,107.999993843079,6|0,0:0|0:0,0:0:0:0:
47,119,121488,2,0,L|58:227,1,107.999993843079,0|0,0:0|0:0,0:0:0:0:
28,361,121669,5,0,0:0:0:0:
3,280,121849,1,2,0:0:0:0:
120,368,122030,5,0,0:0:0:0:
95,287,122211,1,4,0:0:0:0:
212,375,122391,5,0,0:0:0:0:
187,294,122572,1,2,0:0:0:0:
304,382,122753,6,0,L|270:272,1,107.999993843079,6|0,0:0|0:0,0:0:0:0:
364,285,122934,2,0,L|330:175,1,107.999993843079,0|0,0:0|0:0,0:0:0:0:
300,77,123114,5,0,0:0:0:0:
127,11,123295,2,0,L|161:121,1,107.999993843079,6|0,0:0|0:0,0:0:0:0:
189,217,123476,5,0,0:0:0:0:
11,193,123657,1,4,0:0:0:0:
11,193,123837,6,0,L|107:255,1,107.999993843079,0|0,0:0|0:0,0:0:0:0:
68,350,124018,2,0,L|183:335,1,107.999993843079,2|0,0:0|0:0,0:0:0:0:
283,322,124199,5,4,0:1:0:0:
385,334,124379,1,0,0:0:0:0:
486,345,124560,1,0,0:0:0:0:
283,322,124741,6,0,L|361:237,1,107.999993843079,0|0,0:0|0:0,0:0:0:0:
447,292,124922,2,0,L|452:177,1,107.999993843079,4|0,0:0|0:0,0:0:0:0:
458,50,125102,5,0,0:0:0:0:
356,38,125283,1,0,0:0:0:0:
255,27,125464,6,0,L|268:145,1,107.999993843079,0|0,0:0|0:0,0:0:0:0:
257,357,125644,2,0,L|244:239,1,107.999993843079,6|0,0:0|0:0,0:0:0:0:
153,129,125825,6,0,P|147:176|144:237,1,107.999993843079,2|0,0:3|0:0,0:0:0:0:
358,254,126006,2,0,P|365:196|368:147,1,107.999993843079,0|0,0:0|0:0,0:0:0:0:
174,326,126187,6,0,P|227:333|314:338,1,107.999993843079,6|0,0:0|0:0,0:0:0:0:
337,57,126367,2,0,P|280:49|197:45,1,107.999993843079,2|0,0:3|0:0,0:0:0:0:
59,72,126548,6,0,P|52:122|41:277,1,107.999993843079,4|0,0:0|0:0,0:0:0:0:
451,310,126729,2,0,P|460:253|469:105,1,107.999993843079,0|0,0:0|0:0,0:0:0:0:
256,192,127090,12,8,129259,0:0:0:0:
121,40,129620,6,0,P|74:95|2:94,1,125.999992816925,0|0,0:0|0:0,0:0:0:0:
0,184,129982,6,0,P|-3:261|8:336,1,125.999992816925,0|0,0:0|0:0,0:0:0:0:
103,352,130343,5,0,0:0:0:0:
92,244,130705,1,8,0:0:0:0:
194,286,131066,2,0,P|246:223|305:251,1,125.999992816925,0|0,0:0|0:0,0:0:0:0:
423,347,131428,6,0,B|333:323|333:323|296:329,2,125.999992816925,2|0|0,0:0|0:0|0:0,0:0:0:0:
490,121,131970,1,0,0:0:0:0:
490,121,132151,6,0,B|469:133|469:133|486:131|486:131|477:146|477:146|499:230|405:281,1,188.999989225388,8|0,0:0|0:0,0:0:0:0:
382,161,132512,2,0,P|389:83|380:-19,1,125.999992816925,0|0,0:0|0:0,0:0:0:0:
294,20,132873,6,0,P|245:28|169:52,2,125.999992816925,2|2|8,0:0|0:0|0:0,0:0:0:0:
245,132,133416,1,0,0:0:0:0:
255,227,133596,1,0,0:0:0:0:
265,322,133777,1,2,0:0:0:0:
170,357,133958,6,0,P|166:277|142:217,1,125.999992816925,10|0,0:0|0:0,0:0:0:0:
24,135,134319,6,0,P|28:215|52:275,1,125.999992816925,2|0,0:0|0:0,0:0:0:0:
265,322,134681,2,0,P|308:254|324:192,1,125.999992816925,8|2,0:0|0:0,0:0:0:0:
452,81,135042,6,0,P|384:37|322:21,1,125.999992816925,0|2,0:0|0:0,0:0:0:0:
166,0,135404,2,0,P|122:67|106:129,1,125.999992816925,8|0,0:0|0:0,0:0:0:0:
164,206,135765,5,2,0:0:0:0:
46,188,135946,1,0,0:0:0:0:
91,305,136126,5,8,0:0:0:0:
109,187,136307,1,0,0:0:0:0:
9,343,136488,6,0,P|78:329|160:337,1,125.999992816925,2|0,0:0|0:0,0:0:0:0:
211,340,136849,2,0,P|280:350|354:386,1,125.999992816925,8|0,0:0|0:0,0:0:0:0:
512,270,137211,6,0,P|443:284|361:276,1,125.999992816925,2|0,0:0|0:0,0:0:0:0:
310,273,137572,2,0,P|240:262|166:226,1,125.999992816925,8|0,0:0|0:0,0:0:0:0:
160,163,137934,6,0,P|197:149|225:129,3,62.9999964084627,0|0|2|0,0:0|0:0|0:0|0:0,0:0:0:0:
37,73,138295,6,0,P|50:109|70:137,3,62.9999964084627,8|0|2|0,0:0|0:0|0:0|0:0,0:0:0:0:
142,38,138657,5,2,0:0:0:0:
261,185,140825,6,0,P|231:173|278:110,1,125.999992816925,0|0,0:0|0:0,0:0:0:0:
131,304,141187,2,0,P|223:282|398:279,1,251.999985633851,0|0,0:0|0:0,0:0:0:0:
80,104,143717,6,0,P|96:100|154:178,1,125.999992816925,0|0,0:0|0:0,0:0:0:0:
80,104,144078,2,0,L|54:392,1,251.999985633851,0|0,0:0|0:0,0:0:0:0:
475,322,146608,6,0,L|343:335,1,125.999992816925,0|0,0:0|0:0,0:0:0:0:
74,371,146970,2,0,P|121:309|273:352,1,251.999985633851,0|0,0:0|0:0,0:0:0:0:
475,322,147693,6,0,P|490:273|478:196,2,125.999992816925,0|0|0,0:0|0:0|0:0,0:0:0:0:
400,144,148235,1,0,0:0:0:0:
400,144,148416,2,0,P|339:147|257:163,1,125.999992816925,0|0,0:0|0:0,0:0:0:0:
238,261,148777,5,0,0:0:0:0:
211,352,148958,1,0,0:0:0:0:
291,246,149138,5,0,0:0:0:0:
265,337,149319,1,0,0:0:0:0:
150,264,149500,6,0,P|114:269|70:273,3,62.9999964084627,0|0|0|0,0:0|0:0|0:0|0:0,0:0:0:0:
368,191,149861,6,0,P|404:196|448:200,3,62.9999964084627,0|0|0|0,0:0|0:0|0:0|0:0,0:0:0:0:
320,84,150223,6,0,P|246:103|161:109,1,143.999996185303,2|0,0:0|0:0,0:0:0:0:
61,32,150584,6,0,B|58:69|58:69|84:176,1,143.999996185303,8|0,0:0|0:0,0:0:0:0:
27,355,150946,2,0,P|53:291|122:269,1,143.999996185303,0|0,0:0|0:0,0:0:0:0:
187,330,151307,6,0,P|253:342|349:349,1,143.999996185303,10|0,0:0|0:0,0:0:0:0:
490,352,151669,6,0,P|455:362|420:371,1,71.9999980926514,2|0,0:0|0:0,0:0:0:0:
469,266,151849,2,0,P|434:276|399:285,1,71.9999980926514,0|0,0:0|0:0,0:0:0:0:
448,180,152030,6,0,P|413:190|269:194,1,143.999996185303,8|0,0:0|0:0,0:0:0:0:
368,53,152391,2,0,L|383:247,2,143.999996185303,0|0|8,0:0|0:0|0:0,0:0:0:0:
270,25,152934,2,0,P|240:46|227:86,1,71.9999980926514,0|0,0:0|0:0,0:0:0:0:
256,192,153114,5,2,0:0:0:0:
181,360,153476,6,0,B|162:248|162:248|171:207,1,143.999996185303,8|0,0:0|0:0,0:0:0:0:
19,260,153837,2,0,L|188:246,1,143.999996185303,2|2,0:0|0:0,0:0:0:0:
260,311,154199,6,0,L|429:297,1,143.999996185303,8|0,0:0|0:0,0:0:0:0:
405,152,154560,6,0,P|406:188|412:224,1,71.9999980926514,2|0,0:0|0:0,0:0:0:0:
317,181,154741,2,0,P|311:145|311:110,1,71.9999980926514,0|0,0:0|0:0,0:0:0:0:
218,75,154922,6,0,P|219:146|238:216,1,143.999996185303,8|2,0:0|0:0,0:0:0:0:
241,354,155283,6,0,P|255:277|328:253,1,143.999996185303,0|0,0:0|0:0,0:0:0:0:
506,152,155644,2,0,P|442:152|362:148,1,143.999996185303,10|0,0:0|0:0,0:0:0:0:
145,48,156006,6,0,L|156:124,1,71.9999980926514,6|0,0:1|0:0,0:0:0:0:
56,221,156367,6,0,P|45:309|93:386,1,143.999996185303,8|0,0:0|0:0,0:0:0:0:
255,288,156729,2,0,P|266:200|218:123,1,143.999996185303,0|0,0:0|0:0,0:0:0:0:
11,127,157090,6,0,L|174:118,1,143.999996185303,10|0,0:0|0:0,0:0:0:0:
251,43,157452,6,0,P|285:32|328:29,1,71.9999980926514,2|0,0:0|0:0,0:0:0:0:
314,136,157632,2,0,P|280:147|237:150,1,71.9999980926514,0|0,0:0|0:0,0:0:0:0:
387,218,157813,6,0,P|411:125|403:46,1,143.999996185303,8|2,0:0|0:0,0:0:0:0:
489,218,158175,2,0,B|471:249|471:249|490:388,1,143.999996185303,0|2,0:0|0:0,0:0:0:0:
258,334,158536,6,0,B|289:352|289:352|428:333,2,143.999996185303,8|0|2,0:0|0:0|0:0,0:0:0:0:
177,352,159259,6,0,P|176:301|179:276,1,71.9999980926514,8|0,0:0|0:0,0:0:0:0:
29,247,159440,2,0,P|30:298|27:323,1,71.9999980926514,0|0,0:0|0:0,0:0:0:0:
116,151,159620,6,0,P|108:227|104:306,1,143.999996185303,2|0,0:0|0:0,0:0:0:0:
19,126,159982,2,0,P|53:62|122:37,1,143.999996185303,8|0,0:0|0:0,0:0:0:0:
305,29,160343,5,0,0:0:0:0:
403,33,160524,1,0,0:0:0:0:
211,116,160705,5,8,0:0:0:0:
441,124,160886,1,2,0:0:0:0:
159,248,161066,6,0,P|211:249|263:257,3,71.9999980926514,0|0|0|0,0:0|0:0|0:0|0:0,0:0:0:0:
455,353,161428,6,0,P|402:355|349:351,3,71.9999980926514,10|0|0|0,0:0|0:0|0:0|0:0,0:0:0:0:
320,295,161789,6,0,B|326:279|322:267|322:267|333:262|333:262|295:220|299:162,1,134.999996423721,4|0,0:1|0:0,0:0:0:0:
245,29,162151,6,0,B|250:44|260:51|260:51|255:62|255:62|311:70|345:117,1,134.999996423721,0|0,0:0|0:0,0:0:0:0:
509,167,162512,6,0,B|494:158|482:160|482:160|479:148|479:148|431:177|375:163,1,134.999996423721,0|0,0:0|0:0,0:0:0:0:
300,174,162873,5,0,0:0:0:0:
153,191,163054,1,2,0:0:0:0:
35,12,163235,6,0,B|29:28|33:39|33:39|22:45|22:45|60:86|58:143,1,134.999996423721,6|0,0:0|0:0,0:0:0:0:
129,309,163596,6,0,B|123:292|127:281|127:281|116:275|116:275|154:234|152:177,1,134.999996423721,0|0,0:0|0:0,0:0:0:0:
272,63,163958,6,0,B|255:57|244:61|244:61|238:50|238:50|197:88|140:86,1,134.999996423721,0|0,0:0|0:0,0:0:0:0:
9,355,164319,5,0,0:0:0:0:
170,316,164500,1,0,0:0:0:0:
330,340,164681,6,0,P|418:357|503:385,3,179.999995231629,2|0|2|0,0:0|0:0|0:3|0:0,0:0:0:0:
195,359,166126,5,4,0:0:0:0:
284,272,166307,1,0,0:0:0:0:
335,173,166488,5,0,0:0:0:0:
349,58,166669,1,6,0:0:0:0:
230,29,166849,6,0,B|221:50|221:50|230:29|230:29|312:25|312:25|330:34|330:34|452:29|452:29|454:61|454:61|467:75|467:75|472:125,1,359.999990463257,0|0,0:0|0:0,0:0:0:0:
460,302,167572,6,0,B|498:333|494:367|494:367|455:377|421:346,1,134.999996423721,4|0,0:1|0:0,0:0:0:0:
387,197,167933,6,0,B|386:147|414:128|414:128|447:152|445:198,1,134.999996423721,0|0,0:0|0:0,0:0:0:0:
312,317,168295,6,0,B|262:317|243:289|243:289|267:256|313:258,1,134.999996423721,0|0,0:0|0:0,0:0:0:0:
126,362,168657,5,0,0:0:0:0:
122,224,168837,1,6,0:0:0:0:
206,164,169018,6,0,B|237:198|229:229|229:229|191:233|163:200,1,146.249996125698,6|0,0:0|0:0,0:0:0:0:
101,69,169379,6,0,B|98:22|125:4|125:4|156:25|156:67,1,146.249996125698,0|0,0:0|0:0,0:0:0:0:
74,187,169741,6,0,B|39:218|8:210|8:210|4:172|37:144,1,146.249996125698,0|0,0:0|0:0,0:0:0:0:
156,67,170102,5,0,0:0:0:0:
292,82,170283,1,2,0:0:0:0:
444,144,170464,6,0,P|468:100|469:83,1,44.9999988079071,0|0,0:0|0:0,0:0:0:0:
426,29,170644,2,0,P|382:5|365:4,1,44.9999988079071,0|0,0:0|0:0,0:0:0:0:
309,51,170825,6,0,P|285:95|285:116,1,62.9999964084627,0|0,0:0|0:0,0:0:0:0:
353,231,171006,2,0,P|397:255|418:255,1,62.9999964084627,0|0,0:0|0:0,0:0:0:0:
230,270,171187,6,0,P|198:326|198:354,1,89.9999976158143,0|0,0:0|0:0,0:0:0:0:
408,255,171367,2,0,P|351:223|323:223,1,89.9999976158143,6|0,0:0|0:0,0:0:0:0:
134,60,171548,6,0,P|99:141|114:236,1,179.999995231629,0|0,0:0|0:0,0:0:0:0:
378,327,171910,6,0,P|413:246|398:151,1,179.999995231629,6|2,0:0|0:3,0:0:0:0:
255,192,172271,6,0,P|259:259|271:371,1,179.999995231629,0|0,0:0|0:0,0:0:0:0:
471,258,172632,5,2,0:3:0:0:
448,242,172723,1,0,0:0:0:0:
414,229,172813,1,6,0:0:0:0:
369,223,172904,1,0,0:0:0:0:
315,225,172994,5,0,0:0:0:0:
256,248,173084,1,0,0:0:0:0:
202,296,173175,1,4,0:0:0:0:
167,369,173265,1,0,0:0:0:0:
341,349,173355,6,0,B|32:323|32:323|51:150|51:150|257:168|257:168|267:47,1,810.000009441377,4|2,0:0|0:0,0:0:0:0:
72,30,174078,6,0,B|192:40|192:40|195:33|195:33|197:41|197:41|360:56|360:56|410:59|410:59|413:67|413:67|418:60|418:60|485:65|485:65|482:106|482:106|487:114|487:114|481:118|481:118|479:162|479:162|420:157|420:157|418:206|418:206|411:211|411:211|418:216|418:216|415:271|415:271|317:265,1,810.000009441377,0|2,0:0|0:0,0:0:0:0:
75,280,174801,6,0,B|57:316|57:316|61:351|61:351|89:382|89:382|30:316|30:316|24:317|24:317|26:309|26:309|-36:240|-36:240|41:192|41:192|41:136|41:136|149:84,1,540.000006294251,6|0,0:0|0:0,0:0:0:0:
269,80,175343,1,6,0:0:0:0:
269,80,175524,6,0,B|204:26|204:26|287:48|287:48|240:176|240:176,1,270.000003147125,0|6,0:0|0:0,0:0:0:0:
133,300,175885,5,0,0:0:0:0:
421,243,176066,1,0,0:0:0:0:
283,356,176247,6,0,B|269:260|252:140|252:140|424:245|424:245|132:304|132:304|117:211,1,810.000009441377,4|0,0:1|0:0,0:0:0:0:
55,159,176970,5,0,0:0:0:0:
66,24,177151,1,6,0:0:0:0:
180,73,177331,6,0,P|273:64|494:64,1,270.000003147125,0|0,0:0|0:0,0:0:0:0:
498,176,177693,5,6,0:0:0:0:
363,164,177873,1,2,0:3:0:0:
228,164,178054,5,0,0:0:0:0:
124,203,178235,6,0,B|125:220|125:220|132:268|132:268|122:283|122:283|134:356|134:356|200:346|200:346|216:359|216:359|326:370|326:370|301:294|301:294|287:236|287:236|296:211|296:211|281:127|281:127|281:38|281:38|348:51|348:51|396:36,1,810.000009441377,6|0,0:0|0:0,0:0:0:0:
375,126,178958,1,6,0:0:0:0:
45,43,179138,6,0,B|125:18|125:18|136:45|136:45|222:23|222:23|196:168|196:168|273:192|273:192|239:312|239:312|336:317|336:317|406:379|406:379|466:345,1,810.000009441377,4|6,0:0|0:0,0:0:0:0:
481,209,179861,6,0,B|363:205|363:205|347:238|347:238|171:230|171:230|121:313|121:313|39:362|39:362|40:268|40:268|25:247|25:247|42:184|42:184|133:120,1,810.000009441377,0|2,0:0|0:0,0:0:0:0:
265,55,180584,6,0,B|219:16|219:16|224:69|224:69|214:121|214:121|274:90|274:90|296:63|296:63|365:46|365:46|351:108|351:108|361:124|361:124|315:175|315:175|381:262|381:262|346:358|346:358|482:334,1,810.000009441377,6|6,0:0|0:0,0:0:0:0:
492,259,181307,6,0,B|534:193|534:193|382:167|382:167|397:264|397:264|134:236,1,540.000006294251,0|0,0:0|0:0,0:0:0:0:
75,336,181849,1,2,0:0:0:0:
48,109,182030,6,0,B|72:176|72:176|92:169|92:169|64:253|64:253|149:175|149:175|178:39|178:39|299:35|299:35|334:59|334:59|464:45|464:45|356:153,1,810.000009441377,4|0,0:1|0:0,0:0:0:0:
252,123,182753,5,0,0:0:0:0:
239,198,182934,1,6,0:0:0:0:
244,275,183114,5,0,0:0:0:0:
265,349,183295,1,0,0:0:0:0:
512,360,183476,6,0,B|441:331|441:331|461:291|461:291|318:233,2,270.000003147125,6|2|0,0:0|0:3|0:0,0:0:0:0:
239,198,184018,1,6,0:0:0:0:
239,198,184199,6,0,B|168:203|168:203|239:198|239:198|257:131|257:131|292:74|292:74|370:71|370:71|410:20|410:20|451:64|451:64|526:61,1,540.000006294251,2|0,0:3|0:0,0:0:0:0:
39,249,184741,1,6,0:0:0:0:
39,249,184922,6,0,B|31:193|31:193|-13:137|-13:137|57:151|57:151|96:95|96:95|100:164|100:164|124:211|124:211|115:275|115:275|141:360|141:360|194:274|194:274|261:187|261:187|298:281|298:281|255:338,1,917.999993190766,4|2,0:0|0:0,0:0:0:0:
391,368,185644,6,0,B|479:330|479:330|422:233|422:233|454:135|454:135|441:12|441:12|504:65|504:65|355:81|355:81|348:30|348:30|150:47,1,917.999993190766,0|2,0:0|0:0,0:0:0:0:
10,100,186367,6,0,B|20:206|20:206|170:190|170:190|204:132|204:132|217:285|217:285|290:278|290:278|302:397,1,611.99999546051,6|0,0:0|0:0,0:0:0:0:
72,378,186910,1,6,0:0:0:0:
72,378,187090,6,0,B|63:300|63:300|298:279,1,305.999997730255,0|4,0:0|0:0,0:0:0:0:
432,354,187452,5,0,0:0:0:0:
442,201,187632,1,2,0:0:0:0:
449,22,187813,6,0,B|447:59|447:59|366:56|366:56|363:122|363:122|372:123|372:123|363:122|363:122|360:180|360:180|301:175|301:175|293:177|293:177|244:174|244:174|239:263|239:263|246:268|246:268|239:269|239:269|233:355|233:355|121:350|121:350|126:268|126:268|84:264|84:264|79:257|79:257|35:254|35:254|28:333,1,917.999993190766,4|0,0:1|0:0,0:0:0:0:
124,86,188536,6,0,B|42:85|42:85|60:85|60:85|40:248|40:248|34:262|34:262|28:345|28:345|173:353|173:353|187:348|187:348|325:355|325:355|330:271|330:271|455:280|455:280|458:218,1,917.999993190766,0|0,0:0|0:0,0:0:0:0:
473,139,189259,5,6,0:0:0:0:
371,143,189440,1,2,0:3:0:0:
269,148,189620,5,0,0:0:0:0:
167,153,189801,2,0,B|164:75|164:75|405:65,1,305.999997730255,6|2,0:0|0:3,0:0:0:0:
271,226,190163,1,4,0:0:0:0:
271,226,190343,6,0,B|277:354|277:354|468:346,1,305.999997730255,0|6,0:0|0:0,0:0:0:0:
469,267,190705,6,0,B|422:272|422:272|378:267|378:267|320:276|320:276|277:287|277:287|250:269|250:269|189:280|189:280|139:274|139:274|51:288|51:288|37:173|37:173|47:173|47:173|37:173|37:173|26:91|26:91|177:74|177:74|186:153|186:153|144:158,1,917.999993190766,4|0,0:0|0:0,0:0:0:0:
26,367,191428,6,0,B|207:346|207:346|252:287|252:287|242:262|242:262|270:190|270:190|279:122|279:122|269:99|269:99|273:41|273:41|319:47|319:47|346:24|346:24|360:50|360:50|438:62|438:62|471:66|471:66|438:62|438:62|402:58|402:58|394:128|394:128|440:136,1,917.999993190766,0|0,0:0|0:0,0:0:0:0:
472,214,192151,6,0,B|466:266|466:266|78:223|78:223|91:125|91:125|188:136,1,611.99999546051,6|0,0:0|0:0,0:0:0:0:
326,76,192693,1,6,0:0:0:0:
326,76,192873,6,0,B|299:110|299:110|270:20|270:20|325:192,1,305.999997730255,0|4,0:0|0:0,0:0:0:0:
455,346,193235,5,0,0:0:0:0:
303,327,193416,1,2,0:0:0:0:
153,351,193596,6,0,B|150:296|150:296|140:279|140:279|137:172|137:172|128:165|128:165|119:22|119:22|0:31|0:31|6:128|6:128|136:120,1,611.99999546051,4|0,0:0|0:0,0:0:0:0:
45,353,194138,1,0,0:0:0:0:
45,353,194319,6,0,B|36:264|36:264|287:238|287:238|268:63|268:63|164:72,1,611.99999546051,0|0,0:0|0:0,0:0:0:0:
154,163,194861,1,0,0:0:0:0:
154,163,195042,6,0,L|472:134,1,305.999997730255,6|2,0:0|0:3,0:0:0:0:
354,40,195404,6,0,L|383:358,1,305.999997730255,0|6,0:0|0:0,0:0:0:0:
457,344,195765,5,2,0:3:0:0:
303,352,195946,1,4,0:0:0:0:
189,359,196126,5,0,0:0:0:0:
49,368,196307,1,6,0:0:0:0:
239,136,196488,6,0,L|247:224,1,71.9999980926514,10|0,0:1|0:0,0:0:0:0:
267,255,196669,2,0,L|259:167,1,71.9999980926514,0|0,0:0|0:0,0:0:0:0:
246,122,196849,6,0,L|242:227,1,71.9999980926514,0|0,0:0|0:0,0:0:0:0:
262,268,197030,2,0,L|265:162,1,71.9999980926514,2|0,0:0|0:0,0:0:0:0:
256,107,197211,6,0,L|236:232,1,71.9999980926514,0|0,0:0|0:0,0:0:0:0:
254,283,197392,2,0,L|273:157,1,71.9999980926514,4|0,0:0|0:0,0:0:0:0:
271,91,197572,6,0,L|250:159,1,71.9999980926514,0|0,0:0|0:0,0:0:0:0:
243,300,197753,2,0,L|264:231,1,71.9999980926514,2|0,0:0|0:0,0:0:0:0:
291,73,197934,6,0,L|256:151,1,71.9999980926514,6|0,0:0|0:0,0:0:0:0:
227,318,198115,2,0,L|263:239,1,71.9999980926514,0|4,0:0|0:0,0:0:0:0:
318,54,198295,6,0,L|265:142,1,71.9999980926514,0|0,0:0|0:0,0:0:0:0:
205,337,198476,2,0,L|259:248,1,71.9999980926514,6|0,0:0|0:0,0:0:0:0:
352,36,198657,6,0,L|276:134,1,71.9999980926514,0|0,0:0|0:0,0:0:0:0:
177,356,198838,2,0,L|254:259,1,71.9999980926514,4|0,0:0|0:0,0:0:0:0:
396,19,199018,6,0,L|347:70,1,71.9999980926514,0|0,0:0|0:0,0:0:0:0:
36,226,199379,6,0,L|107:221,1,71.9999980926514,4|0,0:1|0:0,0:0:0:0:
464,134,199560,2,0,L|326:146,1,71.9999980926514,0|0,0:0|0:0,0:0:0:0:
58,197,199741,6,0,L|134:201,1,71.9999980926514,0|0,0:0|0:0,0:0:0:0:
449,162,199922,2,0,L|325:158,1,71.9999980926514,0|0,0:0|0:0,0:0:0:0:
77,176,200102,6,0,L|150:187,1,71.9999980926514,0|0,0:0|0:0,0:0:0:0:
431,186,200283,2,0,L|321:169,1,71.9999980926514,6|0,0:0|0:0,0:0:0:0:
98,158,200464,6,0,L|168:180,1,71.9999980926514,0|0,0:0|0:0,0:0:0:0:
413,208,200645,2,0,L|317:181,1,71.9999980926514,0|0,0:0|0:0,0:0:0:0:
119,145,200825,6,0,L|186:177,1,71.9999980926514,6|0,0:0|0:0,0:0:0:0:
394,222,201006,2,0,L|311:187,1,71.9999980926514,2|0,0:3|0:0,0:0:0:0:
139,135,201187,6,0,L|202:174,1,71.9999980926514,0|0,0:0|0:0,0:0:0:0:
375,235,201368,2,0,L|306:195,1,71.9999980926514,6|0,0:0|0:0,0:0:0:0:
158,128,201548,6,0,L|214:176,1,71.9999980926514,2|0,0:3|0:0,0:0:0:0:
358,244,201729,2,0,L|300:201,1,71.9999980926514,0|0,0:0|0:0,0:0:0:0:
175,124,201910,6,0,L|226:177,1,71.9999980926514,0|0,0:0|0:0,0:0:0:0:
342,250,202090,2,0,L|289:201,1,71.9999980926514,6|0,0:0|0:0,0:0:0:0:
166,373,202271,6,0,P|198:296|274:268,1,143.999996185303,4|0,0:0|0:0,0:0:0:0:
490,345,202632,5,0,0:0:0:0:
490,345,202813,2,0,B|459:361|459:361|411:351|411:351|410:341|410:341|355:365|343:373,1,143.999996185303,2|0,0:0|0:0,0:0:0:0:
464,121,203355,6,0,L|485:311,1,143.999996185303,0|0,0:0|0:0,0:0:0:0:
240,356,203717,6,0,B|273:384|359:377|344:299|311:250|251:279|251:279|196:305|217:192|185:195|147:198|147:198|194:149|233:127|233:127|147:107|182:4|182:4|157:42|121:58|121:58|241:70|282:36|282:36|326:2|384:52|384:52|334:77|341:113,1,1079.99997138977,4|0,0:0|0:0,0:0:0:0:
415,128,204982,6,0,P|429:159|431:204,1,62.9999964084627,0|0,0:0|0:0,0:0:0:0:
410,268,205163,5,4,0:1:0:0:
412,288,205253,1,0,0:0:0:0:
414,309,205343,1,0,0:0:0:0:
416,330,205434,1,0,0:0:0:0:
341,364,205524,5,0,0:0:0:0:
339,344,205614,1,0,0:0:0:0:
337,323,205704,1,0,0:0:0:0:
335,302,205795,1,0,0:0:0:0:
255,214,205885,5,0,0:0:0:0:
257,234,205975,1,0,0:0:0:0:
259,255,206065,1,0,0:0:0:0:
261,276,206156,1,0,0:0:0:0:
199,363,206247,5,0,0:0:0:0:
197,343,206337,1,0,0:0:0:0:
195,322,206427,1,0,0:0:0:0:
193,301,206518,1,0,0:0:0:0:
176,207,206608,5,6,0:0:0:0:
260,204,206698,1,0,0:0:0:0:
344,199,206788,1,2,0:3:0:0:
424,126,206849,5,0,0:0:0:0:
372,103,206969,5,0,0:0:0:0:
377,48,207090,5,0,0:0:0:0:
431,37,207210,5,0,0:0:0:0:
458,84,207331,6,0,B|453:117|453:117|460:123|460:123|457:178|457:178|473:188|473:188|464:229|499:253|499:253|490:351|490:351|477:329|477:329|428:323|428:323|375:351|375:351|308:344|308:344|242:303|242:303|85:289,1,719.999980926514,2|8,0:3|0:1,0:0:0:0:
42,353,208416,6,0,P|46:279|47:248,1,89.9999976158143,10|0,0:0|0:0,0:0:0:0:
202,208,208597,2,0,P|198:282|197:313,1,89.9999976158143,0|0,0:0|0:0,0:0:0:0:
31,266,208777,6,0,P|35:192|36:161,1,89.9999976158143,0|0,0:0|0:0,0:0:0:0:
191,121,208958,2,0,P|187:195|186:226,1,89.9999976158143,2|0,0:0|0:0,0:0:0:0:
20,179,209138,6,0,P|24:105|25:74,1,89.9999976158143,10|0,0:0|0:0,0:0:0:0:
180,34,209319,2,0,P|176:108|175:139,1,89.9999976158143,0|0,0:0|0:0,0:0:0:0:
111,302,209500,5,2,0:0:0:0:
200,295,209681,1,0,0:0:0:0:
290,289,209861,5,8,0:0:0:0:
380,283,210042,1,2,0:0:0:0:
122,347,210223,5,0,0:0:0:0:
204,311,210404,1,2,0:0:0:0:
286,274,210584,5,8,0:0:0:0:
369,238,210765,1,0,0:0:0:0:
451,201,210946,5,6,0:1:0:0:
452,98,211307,6,0,P|410:97|353:93,1,89.9999976158143,8|0,0:0|0:0,0:0:0:0:
219,40,211488,2,0,P|260:39|317:35,1,89.9999976158143,0|0,0:0|0:0,0:0:0:0:
472,165,211669,6,0,P|430:164|373:160,1,89.9999976158143,2|0,0:0|0:0,0:0:0:0:
239,107,211850,2,0,P|280:106|337:102,1,89.9999976158143,2|0,0:0|0:0,0:0:0:0:
492,232,212030,6,0,P|450:231|393:227,1,89.9999976158143,8|0,0:0|0:0,0:0:0:0:
259,174,212211,2,0,P|300:173|357:169,1,89.9999976158143,0|0,0:0|0:0,0:0:0:0:
307,360,212391,5,2,0:0:0:0:
267,280,212572,1,0,0:0:0:0:
193,231,212753,1,8,0:0:0:0:
104,228,212934,1,2,0:0:0:0:
246,367,213114,5,0,0:0:0:0:
236,278,213295,1,0,0:0:0:0:
183,207,213476,1,10,0:0:0:0:
100,173,213657,1,0,0:0:0:0:
18,94,213837,5,2,0:0:0:0:
106,16,214019,5,0,0:0:0:0:
119,58,214109,1,0,0:0:0:0:
144,96,214199,1,8,0:0:0:0:
267,115,214379,6,0,P|264:65|250:20,1,89.9999976158143,0|0,0:0|0:0,0:0:0:0:
412,116,214559,5,0,0:0:0:0:
371,195,214651,1,0,0:0:0:0:
301,250,214741,1,2,0:0:0:0:
189,271,214922,6,0,B|182:299|182:299|154:322|154:322|241:304|241:304|252:310|252:310|278:278|278:278|309:261|309:261|325:269|325:269|397:299|397:299|473:276|473:276|456:353|456:353|396:299|396:299|360:365|360:365|331:382|331:382|260:381,1,755.999956901552,10|0,0:0|0:0,0:0:0:0:
83,365,215644,5,8,0:0:0:0:
39,266,215825,1,2,0:0:0:0:
23,160,216006,5,0,0:0:0:0:
35,53,216187,1,0,0:0:0:0:
139,129,216367,5,10,0:0:0:0:
211,49,216548,1,0,0:0:0:0:
172,229,216729,5,2,0:0:0:0:
278,241,216910,5,0,0:0:0:0:
328,221,217000,1,0,0:0:0:0:
367,185,217090,1,8,0:0:0:0:
407,82,217271,5,0,0:0:0:0:
416,354,217452,5,2,0:0:0:0:
455,265,217542,1,0,0:0:0:0:
459,168,217632,1,2,0:0:0:0:
332,33,217813,5,8,0:0:0:0:
184,21,218175,5,6,0:0:0:0:
201,36,218265,1,0,0:0:0:0:
185,58,218355,5,2,0:3:0:0:
200,75,218445,1,0,0:0:0:0:
181,94,218536,5,0,0:0:0:0:
191,114,218626,1,0,0:0:0:0:
171,129,218717,5,6,0:0:0:0:
177,151,218807,1,0,0:0:0:0:
152,164,218898,5,2,0:3:0:0:
156,185,218988,1,0,0:0:0:0:
129,193,219078,5,4,0:0:0:0:
128,215,219168,1,0,0:0:0:0:
99,218,219259,5,0,0:0:0:0:
94,240,219349,1,0,0:0:0:0:
63,237,219440,5,6,0:0:0:0:
56,258,219530,1,0,0:0:0:0:
0,384,219620,5,2,0:0:0:0:
0,384,219982,5,0,0:0:0:0:
0,384,220343,5,0,0:0:0:0:
0,384,220705,5,0,0:0:0:0:
83,348,221066,5,0,0:0:0:0:
83,348,221428,5,0,0:0:0:0:
83,348,221789,5,0,0:0:0:0:
83,348,222151,5,0,0:0:0:0:
176,334,222512,5,2,0:0:0:0:
176,334,222693,1,0,0:0:0:0:
176,334,222873,5,8,0:0:0:0:
176,334,223054,1,0,0:0:0:0:
273,339,223235,5,2,0:0:0:0:
273,339,223416,1,2,0:0:0:0:
273,339,223596,5,8,0:0:0:0:
273,339,223777,1,0,0:0:0:0:
375,368,223958,5,2,0:0:0:0:
405,348,224138,1,0,0:0:0:0:
427,320,224319,5,8,0:0:0:0:
440,287,224500,1,2,0:0:0:0:
487,178,224681,5,0,0:0:0:0:
417,163,224861,1,2,0:0:0:0:
349,183,225042,5,10,0:0:0:0:
299,234,225223,1,0,0:0:0:0:
275,314,225404,6,0,P|266:234|266:155,1,143.999996185303,4|0,0:0|0:0,0:0:0:0:
188,20,225946,1,2,0:0:0:0:
188,20,226126,6,0,P|179:100|179:179,1,143.999996185303,0|4,0:0|0:0,0:0:0:0:
3,227,226488,6,0,P|118:208|257:201,1,215.999994277954,0|0,0:0|0:0,0:0:0:0:
208,330,226849,6,0,P|238:302|288:302,3,71.9999980926514,6|0|0|4,0:0|0:0|0:0|0:0,0:0:0:0:
293,353,227211,6,0,P|297:312|336:280,3,71.9999980926514,0|0|6|0,0:0|0:0|0:0|0:0,0:0:0:0:
372,315,227572,6,0,P|349:280|358:231,3,71.9999980926514,0|0|4|0,0:0|0:0|0:0|0:0,0:0:0:0:
408,235,227934,6,0,P|368:223|343:179,3,71.9999980926514,0|0|2|0,0:0|0:0|0:0|0:0,0:0:0:0:
282,66,228295,6,0,B|255:99|255:99|270:237,1,143.999996185303,4|0,0:1|0:0,0:0:0:0:
200,31,228657,2,0,P|266:36|393:26,1,143.999996185303,0|0,0:0|0:0,0:0:0:0:
457,64,229018,6,0,P|416:110|343:153,1,143.999996185303,0|0,0:0|0:0,0:0:0:0:
61,102,229379,2,0,P|102:148|175:191,1,143.999996185303,0|0,0:0|0:0,0:0:0:0:
226,354,229741,5,4,0:0:0:0:
216,268,229922,1,2,0:3:0:0:
297,282,230102,5,0,0:0:0:0:
287,196,230283,1,4,0:0:0:0:
256,277,230464,5,2,0:3:0:0:
256,277,230825,5,0,0:0:0:0:
52,223,231187,6,0,B|71:329|71:329|102:375,1,143.999996185303,4|0,0:0|0:0,0:0:0:0:
162,110,231729,6,0,L|132:267,2,143.999996185303,2|0|0,0:0|0:0|0:0,0:0:0:0:
169,328,232271,2,0,P|276:325|395:317,1,215.999994277954,0|0,0:0|0:0,0:0:0:0:
500,253,232632,6,0,P|498:205|509:151,3,71.9999980926514,6|0|0|4,0:0|0:0|0:0|0:0,0:0:0:0:
409,246,232994,6,0,P|407:198|418:144,3,71.9999980926514,0|0|6|0,0:0|0:0|0:0|0:0,0:0:0:0:
318,239,233355,6,0,P|316:191|327:137,3,71.9999980926514,0|0|0|0,0:0|0:0|0:0|0:0,0:0:0:0:
227,232,233717,6,0,P|225:184|236:130,3,71.9999980926514,0|0|0|0,0:0|0:0|0:0|0:0,0:0:0:0:
127,122,234078,6,0,P|167:58|240:58,1,143.999996185303,4|0,0:1|0:0,0:0:0:0:
204,329,234440,2,0,P|140:289|140:216,1,143.999996185303,0|0,0:0|0:0,0:0:0:0:
367,340,234801,6,0,P|220:373|116:270,2,287.999992370606,0|0|2,0:0|0:0|0:0,0:0:0:0:
420,255,235705,1,2,0:3:0:0:
348,128,235885,6,0,B|329:100|329:100|351:246,1,143.999996185303,0|0,0:0|0:0,0:0:0:0:
138,255,236247,6,0,P|100:218|94:177,1,71.9999980926514,0|0,0:0|0:0,0:0:0:0:
115,18,236428,2,0,P|153:55|159:96,1,71.9999980926514,0|0,0:0|0:0,0:0:0:0:
8,148,236608,6,0,P|45:110|86:104,1,71.9999980926514,0|0,0:0|0:0,0:0:0:0:
245,125,236789,1,2,0:0:0:0:
305,336,236970,6,0,P|188:347|161:329,2,107.999993843079,2|0|8,0:0|0:0|0:0,0:0:0:0:
360,178,237512,2,0,P|359:226|373:291,1,107.999993843079,0|0,0:0|0:0,0:0:0:0:
254,143,238416,6,0,P|260:98|305:39,2,107.999993843079,2|0|8,0:0|0:0|0:0,0:0:0:0:
144,75,238958,1,2,0:0:0:0:
383,31,239138,1,0,0:0:0:0:
48,16,239500,6,0,P|28:50|20:81,1,53.9999969215394,10|0,0:0|0:0,0:0:0:0:
41,209,239681,6,0,P|21:175|13:144,1,53.9999969215394,0|0,0:0|0:0,0:0:0:0:
95,118,239861,1,2,0:0:0:0:
210,305,240404,6,0,P|209:335|212:361,1,53.9999969215394,0|0,0:0|0:0,0:0:0:0:
297,319,240584,2,0,P|298:289|295:263,1,53.9999969215394,0|0,0:0|0:0,0:0:0:0:
184,195,240765,1,0,0:0:0:0:
255,185,240945,5,8,0:0:0:0:
327,179,241126,1,0,0:0:0:0:
135,98,241307,5,2,0:0:0:0:
253,81,241487,1,0,0:0:0:0:
372,71,241668,5,8,0:0:0:0:
257,318,241849,1,2,0:0:0:0:
99,274,242753,6,0,B|79:269|79:269|97:372,2,107.999993843079,2|0|8,0:0|0:0|0:0,0:0:0:0:
165,158,243295,2,0,L|185:276,1,107.999993843079,0|0,0:0|0:0,0:0:0:0:
421,182,244199,6,0,B|441:177|441:177|423:280,2,107.999993843079,2|0|8,0:0|0:0|0:0,0:0:0:0:
355,66,244741,2,0,L|335:184,1,107.999993843079,2|0,0:0|0:0,0:0:0:0:
255,361,245283,5,10,0:0:0:0:
264,308,245464,1,0,0:0:0:0:
253,255,245644,1,2,0:0:0:0:
123,20,246187,2,0,P|92:43|75:68,1,53.9999969215394,0|0,0:0|0:0,0:0:0:0:
27,134,246367,6,0,P|50:165|75:182,1,53.9999969215394,0|0,0:0|0:0,0:0:0:0:
141,231,246548,2,0,P|172:208|189:183,1,53.9999969215394,2|0,0:0|0:0,0:0:0:0:
84,310,246730,6,0,P|107:341|132:358,1,53.9999969215394,10|0,0:0|0:0,0:0:0:0:
259,252,246910,2,0,P|274:275|294:293,1,53.9999969215394,0|0,0:0|0:0,0:0:0:0:
436,298,247090,6,0,P|405:338|338:383,1,107.999993843079,2|0,0:0|0:0,0:0:0:0:
254,384,247361,1,0,0:0:0:0:
254,384,247452,6,0,P|213:353|168:286,1,107.999993843079,8|2,0:0|0:0,0:0:0:0:
365,124,247723,1,0,0:0:0:0:
365,124,247813,6,0,P|377:155|384:195,1,53.9999969215394,0|0,0:0|0:0,0:0:0:0:
382,174,247994,2,0,P|350:186|310:193,1,53.9999969215394,0|0,0:0|0:0,0:0:0:0:
243,137,248175,6,0,P|230:105|223:65,1,53.9999969215394,10|0,0:0|0:0,0:0:0:0:
303,17,248355,2,0,P|334:4|374:-2,1,53.9999969215394,0|0,0:0|0:0,0:0:0:0:
329,98,248536,6,0,P|195:80|43:68,2,270.000003147125,4|0|0,0:0|0:0|0:0,0:0:0:0:
430,93,249078,1,2,0:0:0:0:
230,156,249259,5,0,0:0:0:0:
430,93,249440,1,0,0:0:0:0:
230,156,249620,5,4,0:0:0:0:
430,93,249801,1,2,0:0:0:0:
127,269,249982,6,0,P|260:251|412:239,2,270.000003147125,6|0|0,0:0|0:0|0:0,0:0:0:0:
512,369,250524,6,0,P|378:351|226:339,2,270.000003147125,6|0|4,0:0|0:0|0:0,0:0:0:0:
114,366,251066,6,0,P|112:238|91:74,2,270.000003147125,0|2|4,0:0|0:0|0:1,0:0:0:0:
0,137,251608,1,0,0:0:0:0:
207,37,251789,5,0,0:0:0:0:
0,118,251970,1,0,0:0:0:0:
214,55,252151,5,0,0:0:0:0:
0,98,252331,1,6,0:0:0:0:
217,75,252512,5,0,0:0:0:0:
0,78,252693,1,0,0:0:0:0:
218,95,252873,6,0,P|229:200|266:366,2,270.000003147125,6|2|0,0:0|0:3|0:0,0:0:0:0:
458,10,253416,6,0,P|428:115|410:281,2,270.000003147125,6|2|4,0:0|0:3|0:0,0:0:0:0:
314,372,253958,1,0,0:0:0:0:
234,265,254138,1,6,0:0:0:0:
104,273,254319,6,0,P|263:197|381:195,2,270.000003147125,4|0|0,0:0|0:0|0:0,0:0:0:0:
24,296,254861,1,2,0:0:0:0:
41,163,255042,5,0,0:0:0:0:
126,60,255223,1,4,0:0:0:0:
280,19,255404,5,0,0:0:0:0:
383,104,255585,1,2,0:0:0:0:
473,43,255765,6,0,L|142:12,2,270.000003147125,6|0|0,0:0|0:0|0:0,0:0:0:0:
15,123,256307,6,0,L|346:92,2,270.000003147125,6|0|6,0:0|0:0|0:0,0:0:0:0:
510,191,256849,6,0,B|497:224|497:224|217:166,2,270.000003147125,0|0|4,0:0|0:0|0:1,0:0:0:0:
165,179,257391,1,0,0:0:0:0:
184,265,257572,5,0,0:0:0:0:
243,332,257753,1,0,0:0:0:0:
327,361,257934,6,0,B|131:346|131:346|137:258,2,270.000003147125,0|6|0,0:0|0:0|0:0,0:0:0:0:
512,294,258476,1,0,0:0:0:0:
512,294,258657,6,0,L|211:270,2,270.000003147125,6|2|0,0:0|0:3|0:0,0:0:0:0:
341,100,259199,1,6,0:0:0:0:
341,100,259379,6,0,B|336:206|336:206|428:212|428:212|432:133,2,270.000003147125,2|4|0,0:3|0:0|0:0,0:0:0:0:
206,155,259922,1,6,0:0:0:0:
207,71,260102,6,0,B|209:20|209:20|469:32,2,270.000003147125,4|0|0,0:0|0:0|0:0,0:0:0:0:
101,184,260644,1,2,0:0:0:0:
82,52,260825,6,0,L|122:346,2,270.000003147125,0|4|0,0:0|0:0|0:0,0:0:0:0:
289,247,261367,2,0,L|309:391,1,135.000001573563,2|0,0:0|0:0,0:0:0:0:
205,368,261548,6,0,B|183:183|183:183|271:174,2,270.000003147125,6|0|0,0:0|0:0|0:0,0:0:0:0:
62,316,262090,2,0,L|216:298,1,135.000001573563,6|0,0:0|0:0,0:0:0:0:
391,284,262271,6,0,B|386:223|386:223|448:218|448:218|461:371,2,270.000003147125,0|4|0,0:0|0:0|0:0,0:0:0:0:
391,95,262813,1,2,0:0:0:0:
391,95,262994,2,0,B|255:106|255:106|272:265,2,270.000003147125,4|0|0,0:1|0:0|0:0,0:0:0:0:
164,317,263536,6,0,L|149:181,1,135.000001573563,0|0,0:0|0:0,0:0:0:0:
18,49,263717,2,0,L|299:28,2,270.000003147125,0|6|0,0:0|0:0|0:0,0:0:0:0:
74,131,264259,2,0,L|50:284,1,135.000001573563,0|0,0:0|0:0,0:0:0:0:
15,343,264440,6,0,B|-12:366|-12:366|256:336,2,270.000003147125,6|2|0,0:0|0:3|0:0,0:0:0:0:
318,369,264982,1,6,0:0:0:0:
318,369,265163,2,0,B|294:161|294:161|327:99,2,270.000003147125,2|0|0,0:3|0:0|0:0,0:0:0:0:
512,183,265705,2,0,L|332:195,1,135.000001573563,6|0,0:0|0:0,0:0:0:0:
211,47,265885,6,0,B|213:79|213:79|422:66|422:66|420:34,2,270.000003147125,4|0|0,0:0|0:0|0:0,0:0:0:0:
75,162,266428,2,0,B|69:84|69:84|133:79,1,135.000001573563,2|0,0:0|0:0,0:0:0:0:
280,228,266608,6,0,L|-10:245,2,270.000003147125,0|4|0,0:0|0:0|0:0,0:0:0:0:
378,347,267151,2,0,L|399:200,1,135.000001573563,2|0,0:0|0:0,0:0:0:0:
395,25,267331,6,0,B|357:128|357:128|459:116|459:116|397:64,2,270.000003147125,4|0|0,0:0|0:0|0:0,0:0:0:0:
245,44,267873,6,0,L|274:337,2,270.000003147125,6|0|0,0:0|0:0|0:0,0:0:0:0:
195,372,268416,5,0,0:0:0:0:
182,237,268596,1,2,0:0:0:0:
80,79,268777,6,0,B|102:22|19:31|41:82|41:82|94:288,2,305.999997730255,4|0|0,0:1|0:0|0:0,0:0:0:0:
40,366,269319,2,0,B|53:358|35:337|35:337|18:372|18:372|202:337,1,152.999998865128,0|0,0:0|0:0,0:0:0:0:
349,333,269500,6,0,B|384:382|422:307|367:298|367:298|166:230,2,305.999997730255,0|0|0,0:0|0:0|0:0,0:0:0:0:
237,355,270042,1,0,0:0:0:0:
278,49,270223,6,0,B|287:63|287:63|274:31|274:31|250:124|250:124|281:321,2,305.999997730255,6|2|0,0:0|0:3|0:0,0:0:0:0:
154,134,270765,6,0,B|134:171|134:171|146:149|146:149|253:152|433:132,2,305.999997730255,6|2|4,0:0|0:3|0:0,0:0:0:0:
24,236,271307,6,0,P|85:249|185:270,1,152.999998865128,0|0,0:0|0:0,0:0:0:0:
494,266,271488,2,0,P|433:279|333:300,1,152.999998865128,6|0,0:0|0:0,0:0:0:0:
256,192,271669,12,0,273024,0:0:0:0:
83,375,273114,6,0,B|51:330|51:330|113:298|108:224|6:208|6:208|131:150|82:69|31:34|31:34|83:66|124:72|124:72|160:45|181:0|181:0|165:43|174:81|174:81|261:77|294:29|294:29|258:78|226:127|226:127|272:193|332:173|332:173|363:100|428:77|514:162|514:162|501:234|440:303|359:253|359:253|341:355|256:366|256:366|277:301|247:255|247:255|213:252|176:278|176:278|162:237|162:189,1,2015.99988507081,6|2,0:1|0:0,0:0:0:0:
5,113,276367,5,8,0:0:0:0:
63,91,276548,1,0,0:0:0:0:
94,38,276729,5,2,0:0:0:0:
125,156,276910,1,2,0:0:0:0:
196,324,277090,5,8,0:0:0:0:
84,353,277452,6,0,P|68:265|63:204,2,125.999992816925,2|0|8,0:0|0:0|0:0,0:0:0:0:
210,227,277994,2,0,L|351:215,1,125.999992816925,2|0,0:0|0:0,0:0:0:0:
446,119,278355,2,0,P|452:148|454:190,1,62.9999964084627,2|0,0:0|0:0,0:0:0:0:
456,275,278536,6,0,P|440:300|411:331,1,62.9999964084627,8|0,0:0|0:0,0:0:0:0:
305,366,278717,2,0,P|275:372|233:374,1,62.9999964084627,0|0,0:0|0:0,0:0:0:0:
268,293,278898,6,0,P|268:235|257:157,1,125.999992816925,6|0,0:1|0:0,0:0:0:0:
150,42,279259,5,8,0:0:0:0:
195,84,279440,1,0,0:0:0:0:
256,92,279620,5,2,0:0:0:0:
311,63,279801,1,2,0:0:0:0:
339,8,279982,5,8,0:0:0:0:
441,28,280343,6,0,B|426:46|426:46|448:173,1,125.999992816925,2|0,0:0|0:0,0:0:0:0:
269,220,280705,2,0,B|287:235|287:235|414:213,1,125.999992816925,8|0,0:0|0:0,0:0:0:0:
495,357,281066,6,0,P|457:316|380:300,1,125.999992816925,0|0,0:0|0:0,0:0:0:0:
269,220,281428,2,0,P|259:261|262:302,1,62.9999964084627,8|0,0:0|0:0,0:0:0:0:
225,115,281608,2,0,P|188:136|162:168,1,62.9999964084627,0|0,0:0|0:0,0:0:0:0:
45,32,281789,5,2,0:0:0:0:
48,136,281970,1,0,0:0:0:0:
59,241,282151,5,8,0:0:0:0:
79,344,282331,1,0,0:0:0:0:
45,32,282512,5,2,0:0:0:0:
163,41,282873,1,8,0:0:0:0:
280,83,283235,1,0,0:0:0:0:
384,186,283596,1,8,0:0:0:0:
465,116,283958,5,4,0:0:0:0:
347,125,284319,1,0,0:0:0:0:
230,167,284681,1,0,0:0:0:0:
126,270,285042,1,0,0:0:0:0:
34,330,285404,5,4,0:0:0:0:
75,334,285765,1,0,0:0:0:0:
116,343,286126,5,6,0:0:0:0:
155,358,286307,1,2,0:3:0:0:
254,356,286488,5,0,0:0:0:0:
328,275,286669,1,6,0:0:0:0:
258,198,286849,5,2,0:3:0:0:
261,101,287030,1,0,0:0:0:0:
320,28,287211,5,0,0:0:0:0:
388,3,287391,1,6,0:0:0:0:
452,7,287572,5,6,0:1:0:0:
256,192,287663,12,0,296247,0:0:0:0:
