osu file format v14

[General]
AudioFilename: Feed Me - One Click Headshot.mp3
AudioLeadIn: 0
PreviewTime: 56867
Countdown: 0
SampleSet: None
StackLeniency: 0.3
Mode: 0
LetterboxInBreaks: 0
WidescreenStoryboard: 1

[Editor]
Bookmarks: 126685
DistanceSpacing: 1.6
BeatDivisor: 8
GridSize: 8
TimelineZoom: 2.999999

[Metadata]
Title:One Click Headshot
TitleUnicode:One Click Headshot
Artist:Feed Me
ArtistUnicode:Feed Me
Creator:Side
Version:Try hitting me
Source:
Tags:I sexually identify as irreversible
BeatmapID:1628071
BeatmapSetID:774641

[Difficulty]
HPDrainRate:6
CircleSize:7
OverallDifficulty:8.6
ApproachRate:9.4
SliderMultiplier:2.2
SliderTickRate:1

[Events]
//Background and Video events
0,0,"sorrymariroselul.jpg",0,0
//Break Periods
2,39613,51950
//Storyboard Layer 0 (Background)
//Storyboard Layer 1 (Fail)
//Storyboard Layer 2 (Pass)
//Storyboard Layer 3 (Foreground)
//Storyboard Sound Samples

[TimingPoints]
4504,545.454545454546,4,2,0,80,1,0
12958,-90.9090909090909,4,2,0,80,0,0
13231,-100,4,2,0,80,0,0
20867,-100,4,2,0,80,0,0
56867,-50,4,2,0,80,0,0
108685,-100,4,2,0,80,0,0
109231,-50,4,2,0,80,0,0

[Colours]
Combo1 : 214,155,75
Combo2 : 16,243,45
Combo3 : 207,211,216
Combo4 : 24,170,17

[HitObjects]
146,245,4504,6,0,B|127:209|127:209|133:177|133:177|115:142,1,110
366,245,5049,2,0,B|384:209|384:209|378:177|378:177|396:142,1,110
395,143,5458,1,0,0:0:0:0:
316,200,5594,6,0,L|268:227,1,55
170,154,5867,2,0,L|217:181,1,55
204,302,6140,2,0,L|205:248,1,55
274,148,6413,1,0,0:0:0:0:
231,219,6549,1,0,0:0:0:0:
144,269,6685,6,0,B|97:237|97:237|106:212|106:212|95:186,1,110
36,215,7094,1,0,0:0:0:0:
42,281,7231,2,0,L|58:333,1,55
154,377,7504,2,0,L|138:325,1,55
234,369,7776,1,0,0:0:0:0:
179,146,8049,1,0,0:0:0:0:
258,214,8185,1,0,0:0:0:0:
258,214,8322,2,0,L|310:197,1,55
204,307,8594,2,0,L|256:290,1,55
152,247,8867,6,0,B|116:257|116:257|86:246|86:246|47:258,1,110
224,101,9413,2,0,B|259:90|259:90|289:101|289:101|328:89,1,110
328,88,9822,1,0,0:0:0:0:
259,155,9958,2,0,L|276:207,1,55
173,162,10231,2,0,L|156:110,1,55
268,155,10504,2,0,L|289:218,1,55
164,162,10776,1,0,0:0:0:0:
150,243,10913,1,0,0:0:0:0:
193,332,11049,6,0,B|246:312|246:312|249:284|249:284|267:268,1,110
317,320,11458,1,0,0:0:0:0:
364,266,11594,2,0,L|351:213,2,55
366,41,12140,5,0,0:0:0:0:
306,79,12276,1,0,0:0:0:0:
374,33,12413,2,0,L|313:16,1,55
171,132,12685,5,0,0:0:0:0:
238,174,12821,1,0,0:0:0:0:
161,125,12958,2,0,L|218:106,1,60.5000018463135
405,218,13231,6,0,B|424:254|424:254|418:286|418:286|436:321,1,110
107,218,13776,2,0,B|88:254|88:254|94:286|94:286|76:321,1,110
77,318,14185,1,0,0:0:0:0:
159,265,14322,2,0,L|210:292,1,55
289,224,14594,2,0,L|262:275,1,55
330,354,14867,2,0,L|279:327,1,55
217,214,15140,1,0,0:0:0:0:
244,310,15276,1,0,0:0:0:0:
148,336,15413,5,0,0:0:0:0:
239,149,15685,2,0,L|290:130,1,55
193,99,15958,2,0,L|244:80,1,55
336,180,16231,2,0,L|285:199,1,55
144,144,16504,1,0,0:0:0:0:
382,133,16776,1,0,0:0:0:0:
269,289,16913,1,0,0:0:0:0:
269,289,17050,2,0,B|279:316|279:316|272:342,1,55
214,197,17322,2,0,B|207:222|207:222|217:249,1,55
259,49,17594,6,0,B|253:89|253:89|270:117|270:117|265:153,1,110
119,358,18140,2,0,B|124:317|124:317|107:289|107:289|112:253,1,110
111,253,18549,1,0,0:0:0:0:
59,332,18685,2,0,L|6:321,1,55
77,236,18958,2,0,L|130:247,1,55
201,162,19231,2,0,L|148:151,1,55
219,66,19504,1,0,0:0:0:0:
289,108,19640,1,0,0:0:0:0:
290,191,19776,5,0,0:0:0:0:
236,254,20867,5,0,0:0:0:0:
173,197,21004,1,0,0:0:0:0:
228,136,21140,1,0,0:0:0:0:
290,191,21276,1,0,0:0:0:0:
218,265,21413,5,0,0:0:0:0:
163,179,21550,1,0,0:0:0:0:
245,125,21686,1,0,0:0:0:0:
299,207,21822,1,0,0:0:0:0:
231,194,21958,5,0,0:0:0:0:
404,160,22231,1,0,0:0:0:0:
247,107,22504,1,0,0:0:0:0:
157,244,22776,1,0,0:0:0:0:
157,244,22913,1,0,0:0:0:0:
218,265,23049,1,0,0:0:0:0:
218,265,23322,6,0,L|272:258,1,55
163,179,23594,1,0,0:0:0:0:
163,179,23867,6,0,L|109:172,1,55
218,93,24139,1,0,0:0:0:0:
403,60,24413,1,0,0:0:0:0:
224,80,24685,2,0,L|169:80,1,55
271,139,24958,2,0,L|326:139,1,55
427,164,25231,5,0,0:0:0:0:
427,164,25504,2,0,L|481:161,1,55
360,98,25776,2,0,B|357:69|357:69|373:88,1,55
427,164,26049,2,0,B|430:193|430:193|413:173,1,55
296,232,26322,5,0,0:0:0:0:
138,309,26594,1,0,0:0:0:0:
300,343,26867,1,0,0:0:0:0:
361,215,27140,1,0,0:0:0:0:
361,215,27276,1,0,0:0:0:0:
310,173,27413,1,0,0:0:0:0:
310,173,27685,6,0,L|304:227,1,55
238,97,27958,1,0,0:0:0:0:
238,97,28231,6,0,L|243:151,1,55
310,21,28504,1,0,0:0:0:0:
135,37,28776,1,0,0:0:0:0:
311,98,29049,2,0,L|306:152,1,55
224,16,29322,1,0,0:0:0:0:
400,64,29594,5,0,0:0:0:0:
386,137,29731,1,0,0:0:0:0:
384,55,29867,2,0,L|385:110,1,55
471,208,30140,5,0,0:0:0:0:
485,135,30277,1,0,0:0:0:0:
487,217,30413,2,0,L|486:162,1,55
324,229,30685,5,0,0:0:0:0:
187,118,30958,1,0,0:0:0:0:
226,289,31231,1,0,0:0:0:0:
239,202,31504,1,0,0:0:0:0:
239,202,31640,1,0,0:0:0:0:
324,229,31776,1,0,0:0:0:0:
324,229,32049,6,0,L|335:283,1,55
158,235,32322,1,0,0:0:0:0:
158,235,32594,6,0,L|147:289,1,55
324,241,32867,1,0,0:0:0:0:
184,152,33140,1,0,0:0:0:0:
305,156,33413,2,0,L|358:144,1,55
240,200,33685,2,0,L|187:188,1,55
312,32,33958,5,0,0:0:0:0:
312,32,34231,2,0,L|261:54,1,55
416,88,34504,2,0,B|449:75|449:75|446:94,1,55
382,212,34776,2,0,B|349:225|349:225|351:205,1,55
492,138,35049,5,0,0:0:0:0:
384,277,35322,1,0,0:0:0:0:
398,113,35594,1,0,0:0:0:0:
491,248,35867,1,0,0:0:0:0:
491,248,36004,1,0,0:0:0:0:
448,305,36140,1,0,0:0:0:0:
448,305,36413,6,0,L|427:253,1,55
214,306,36685,1,0,0:0:0:0:
214,306,36958,6,0,L|234:254,1,55
443,362,37231,1,0,0:0:0:0:
219,361,37504,1,0,0:0:0:0:
396,327,37776,2,0,L|450:324,1,55
264,328,38049,1,0,0:0:0:0:
396,327,38322,5,0,0:0:0:0:
359,265,38458,1,0,0:0:0:0:
326,348,38594,2,0,L|380:345,1,55
220,237,38867,5,0,0:0:0:0:
257,175,39003,1,0,0:0:0:0:
290,258,39139,2,0,L|235:255,1,55
362,167,39413,5,0,0:0:0:0:
138,108,52504,6,0,L|128:162,1,55
296,56,52776,2,0,L|315:111,1,55
232,168,53049,2,0,L|235:222,1,55
392,48,53322,2,0,L|425:96,1,55
144,192,53594,6,0,L|130:249,1,55
328,160,53867,2,0,L|349:210,1,55
88,96,54140,2,0,L|82:150,1,55
328,24,54413,2,0,L|369:72,1,55
106,225,54685,6,0,L|120:279,1,55
462,229,54958,2,0,L|447:283,1,55
197,256,55231,6,0,L|202:311,1,55
381,255,55504,2,0,L|376:310,1,55
296,296,55776,2,0,L|291:352,1,55
280,296,56049,2,0,L|285:352,1,55
256,192,56322,12,0,56731,0:0:0:0:
252,131,56867,6,0,B|281:165|281:165|273:184|273:184|306:199|306:199|263:223|263:223|329:256|329:256|262:259|233:295,1,330
224,367,57413,5,0,0:0:0:0:
410,109,57549,1,0,0:0:0:0:
410,109,57685,1,0,0:0:0:0:
410,109,57822,1,0,0:0:0:0:
118,266,57958,5,0,0:0:0:0:
468,193,58094,1,0,0:0:0:0:
468,193,58231,1,0,0:0:0:0:
468,193,58367,1,0,0:0:0:0:
119,116,58504,5,0,0:0:0:0:
444,300,58640,1,0,0:0:0:0:
444,300,58776,1,0,0:0:0:0:
444,300,58913,1,0,0:0:0:0:
253,81,59049,6,0,B|142:35|142:35|165:74,1,165
245,238,59322,2,0,B|355:284|355:284|333:245,1,165
249,159,59594,1,0,0:0:0:0:
15,237,59731,1,0,0:0:0:0:
122,186,59867,6,0,P|159:182|111:207,1,165
320,72,60140,6,0,L|432:56,1,110
428,327,60413,1,0,0:0:0:0:
320,312,60549,1,0,0:0:0:0:
328,184,60685,6,0,B|360:200|360:200|384:176|384:176|424:176,1,110
176,96,60958,2,0,B|144:80|144:80|120:104|120:104|85:102|85:102|32:152,1,165
216,352,61231,6,0,B|222:309|191:282|191:282|217:269|217:269|159:273|171:205|216:223|216:223|207:190|230:166|230:166|253:142|244:110,1,330
320,312,61776,5,0,0:0:0:0:
176,72,61913,1,0,0:0:0:0:
176,72,62049,1,0,0:0:0:0:
176,72,62185,1,0,0:0:0:0:
417,248,62322,5,0,0:0:0:0:
107,190,62458,1,0,0:0:0:0:
107,190,62594,1,0,0:0:0:0:
107,190,62731,1,0,0:0:0:0:
410,116,62867,5,0,0:0:0:0:
133,320,63004,1,0,0:0:0:0:
133,320,63140,1,0,0:0:0:0:
133,320,63276,1,0,0:0:0:0:
287,126,63413,6,0,B|286:92|286:92|255:73|253:35|291:17|319:40|319:40|311:56,1,165
355,278,63685,2,0,B|294:265|294:265|303:308|303:308|236:317,1,165
42,161,63958,2,0,P|16:125|60:131,1,110
68,339,64231,1,0,0:0:0:0:
68,339,64367,1,0,0:0:0:0:
360,136,64504,6,0,B|396:94|397:21|397:21|381:41|357:43|357:43|366:66|353:103,1,220
216,335,64913,2,0,B|174:293|165:233|210:224|251:254|239:292|190:311|145:277|117:216,1,220
458,288,65322,1,0,0:0:0:0:
294,266,65458,1,0,0:0:0:0:
70,27,65594,6,0,B|58:54|25:67|25:67|88:66|88:66|49:81|49:81|77:89|77:89|65:103|65:103|97:142|42:151|87:224,1,330
344,339,66140,5,0,0:0:0:0:
164,34,66276,1,0,0:0:0:0:
164,34,66413,1,0,0:0:0:0:
164,34,66549,1,0,0:0:0:0:
184,353,66685,5,0,0:0:0:0:
333,33,66822,1,0,0:0:0:0:
333,33,66958,1,0,0:0:0:0:
333,33,67094,1,0,0:0:0:0:
65,253,67231,5,0,0:0:0:0:
425,129,67367,1,0,0:0:0:0:
425,129,67504,1,0,0:0:0:0:
425,129,67640,1,0,0:0:0:0:
241,342,67776,6,0,B|215:311|173:318|173:318|182:294|182:294|151:279|139:248,1,165
161,26,68049,2,0,B|186:56|228:49|228:49|220:74|220:74|251:89|262:119,1,165
114,320,68322,1,0,0:0:0:0:
355,272,68458,1,0,0:0:0:0:
264,374,68594,6,0,B|229:347|241:299|241:299|252:260|214:227,1,165
327,347,68867,6,0,B|363:329|363:329|431:343,1,110
465,148,69140,1,0,0:0:0:0:
379,158,69276,1,0,0:0:0:0:
250,283,69413,6,0,B|229:244|187:243|187:243|203:241|214:227,1,110
349,77,69685,2,0,L|185:102,1,165
93,303,69958,6,0,B|85:278|91:250|103:263|115:239|101:215|101:215|45:213|26:159|66:114|121:124|132:170|132:170|98:199|57:193|56:157|102:174,1,385
148,287,70504,5,0,0:0:0:0:
490,222,70641,1,0,0:0:0:0:
490,222,70777,1,0,0:0:0:0:
490,222,70913,1,0,0:0:0:0:
105,152,71050,5,0,0:0:0:0:
458,156,71185,1,0,0:0:0:0:
458,156,71323,1,0,0:0:0:0:
458,156,71459,1,0,0:0:0:0:
136,34,71594,5,0,0:0:0:0:
476,90,71731,1,0,0:0:0:0:
476,90,71867,1,0,0:0:0:0:
476,90,72004,1,0,0:0:0:0:
259,339,72140,6,0,B|225:353|225:353|197:331|197:331|159:323,1,110
258,55,72413,2,0,B|292:41|292:41|320:63|320:63|357:70,1,110
155,180,72685,1,0,0:0:0:0:
350,222,72822,1,0,0:0:0:0:
207,172,72958,1,0,0:0:0:0:
362,235,73094,6,0,B|300:247|300:247|297:225|309:207|309:207|274:216|250:200,1,165
203,149,73367,1,0,0:0:0:0:
192,236,73504,1,0,0:0:0:0:
65,203,73640,1,0,0:0:0:0:
80,289,73776,6,0,B|94:291|94:291|110:283|110:283|110:306|110:306|126:287|126:287|127:310|127:310|140:293|140:293|145:313|145:313|155:300|155:300|159:316|159:316|169:306|169:306|168:317|168:317|178:311|178:311|179:319|179:319|185:314|185:314|186:321|186:321|243:318|216:347|280:337,1,330
464,344,74322,6,0,B|425:364|389:344|389:344|383:368|383:368|371:357|371:357|359:368|359:368|335:354|308:365|308:365|296:346|276:336|276:336|332:327|361:281,1,330
426,288,74867,5,0,0:0:0:0:
114,240,75004,1,0,0:0:0:0:
114,240,75140,1,0,0:0:0:0:
114,240,75276,1,0,0:0:0:0:
332,212,75413,6,0,P|316:131|331:50,1,165
458,3,75685,2,0,P|473:83|458:164,1,165
380,267,75958,5,0,0:0:0:0:
130,65,76094,1,0,0:0:0:0:
130,65,76231,1,0,0:0:0:0:
130,65,76367,1,0,0:0:0:0:
346,347,76504,5,0,0:0:0:0:
235,48,76640,1,0,0:0:0:0:
235,48,76777,1,0,0:0:0:0:
235,48,76913,1,0,0:0:0:0:
268,362,77049,5,0,0:0:0:0:
331,54,77185,1,0,0:0:0:0:
331,54,77322,1,0,0:0:0:0:
331,54,77458,1,0,0:0:0:0:
205,270,77594,6,0,B|107:294|107:294|152:249,1,165
174,91,77867,2,0,B|272:67|272:67|226:111,1,165
291,273,78140,6,0,B|313:316|313:316|371:271|363:218,1,165
97,140,78413,2,0,B|74:96|74:96|16:141|24:194,1,165
308,115,78685,6,0,B|335:103|360:104|360:104|353:73|353:73|378:81|378:81|378:67|378:67|391:69|391:69|439:48|494:83|490:158|420:176,1,330
349,176,79231,5,0,0:0:0:0:
64,321,79367,1,0,0:0:0:0:
64,321,79504,1,0,0:0:0:0:
64,321,79640,1,0,0:0:0:0:
316,362,79776,6,0,P|394:336|459:286,1,165
425,174,80049,2,0,P|346:199|281:249,1,165
246,332,80322,5,0,0:0:0:0:
326,40,80458,1,0,0:0:0:0:
326,40,80594,1,0,0:0:0:0:
326,40,80731,1,0,0:0:0:0:
151,264,80867,5,0,0:0:0:0:
425,131,81003,1,0,0:0:0:0:
425,131,81139,1,0,0:0:0:0:
425,131,81276,1,0,0:0:0:0:
116,153,81413,5,0,0:0:0:0:
403,254,81549,1,0,0:0:0:0:
403,254,81685,1,0,0:0:0:0:
403,254,81822,1,0,0:0:0:0:
191,101,81958,6,0,P|217:53|252:150,1,220
287,320,82367,2,0,P|261:368|226:271,1,220
244,98,82776,5,0,0:0:0:0:
235,323,82913,1,0,0:0:0:0:
139,181,83049,6,0,B|103:120|103:120|88:170|88:170|62:152|62:152|17:210|49:280|49:280|73:248,1,330
81,323,83594,5,0,0:0:0:0:
144,55,83731,1,0,0:0:0:0:
144,55,83867,1,0,0:0:0:0:
144,55,84004,1,0,0:0:0:0:
328,104,84140,6,0,P|342:184|327:266,1,165
441,296,84413,2,0,P|426:215|441:133,1,165
400,49,84685,5,0,0:0:0:0:
133,214,84822,1,0,0:0:0:0:
133,214,84958,1,0,0:0:0:0:
133,214,85094,1,0,0:0:0:0:
320,11,85231,5,0,0:0:0:0:
245,312,85368,1,0,0:0:0:0:
245,312,85504,1,0,0:0:0:0:
245,312,85640,1,0,0:0:0:0:
232,25,85776,5,0,0:0:0:0:
393,290,85913,1,0,0:0:0:0:
393,290,86049,1,0,0:0:0:0:
393,290,86185,1,0,0:0:0:0:
153,359,86322,6,0,B|116:337|116:337|103:257|103:257|129:225,1,165
298,136,86594,2,0,B|334:157|334:157|347:237|347:237|321:269,1,165
161,185,86867,6,0,B|115:167|115:167|64:223|64:223|24:222,1,165
288,310,87140,2,0,B|334:328|334:328|385:272|385:272|424:272,1,165
224,101,87413,6,0,B|203:160|203:160|232:154|232:154|207:222|207:222|265:207|265:207|229:306,1,330
147,326,87958,5,0,0:0:0:0:
468,241,88094,1,0,0:0:0:0:
468,241,88231,1,0,0:0:0:0:
468,241,88367,1,0,0:0:0:0:
304,192,88504,6,0,P|227:219|164:273,1,165
56,208,88777,2,0,P|133:180|197:126,1,165
241,25,89049,5,0,0:0:0:0:
304,192,89185,1,0,0:0:0:0:
304,192,89322,1,0,0:0:0:0:
304,192,89458,1,0,0:0:0:0:
147,378,89594,6,0,B|125:336|125:336|130:273,1,110
281,369,89867,1,0,0:0:0:0:
281,369,90004,1,0,0:0:0:0:
53,249,90140,6,0,B|78:208|78:208|134:182,1,110
147,378,90413,1,0,0:0:0:0:
147,378,90550,1,0,0:0:0:0:
117,103,90685,6,0,B|172:104|172:104|258:174,1,165
505,143,90958,2,0,B|450:142|450:142|363:71,1,165
256,192,91231,12,0,91640,0:0:0:0:
81,200,91776,6,0,B|62:236|62:236|94:260|92:306|92:306|133:298|156:261|147:215|147:215|190:237|190:237|204:281|204:281|156:261,1,385
2,303,92322,5,0,0:0:0:0:
355,356,92458,1,0,0:0:0:0:
355,356,92594,1,0,0:0:0:0:
355,356,92731,1,0,0:0:0:0:
69,162,92867,5,0,0:0:0:0:
395,304,93003,1,0,0:0:0:0:
395,304,93139,1,0,0:0:0:0:
395,304,93276,1,0,0:0:0:0:
170,43,93413,5,0,0:0:0:0:
448,264,93549,2,0,L|505:261,1,55
355,356,93685,1,0,0:0:0:0:
355,356,93822,1,0,0:0:0:0:
196,261,93958,6,0,P|184:180|218:106,1,165
358,77,94231,2,0,P|369:157|335:231,1,165
228,354,94504,5,0,0:0:0:0:
77,115,94640,2,0,L|67:60,1,55
157,145,94776,2,0,L|147:90,1,55
218,91,94913,2,0,L|208:36,1,55
156,311,95049,5,0,0:0:0:0:
292,137,95185,1,0,0:0:0:0:
15,235,95322,2,0,P|62:207|115:192,1,110
448,277,95594,6,0,B|446:311|446:311|411:272|411:272|381:293|381:293|341:289|341:289|367:323|349:369|302:376|267:340|286:298,1,330
95,347,96140,6,0,B|77:307|103:269|103:269|94:256|94:256|112:246|112:246|36:216|36:216|111:157|111:157|115:192,1,330
30,357,96685,5,0,0:0:0:0:
30,47,96822,1,0,0:0:0:0:
30,47,96958,1,0,0:0:0:0:
30,47,97094,1,0,0:0:0:0:
224,326,97231,5,0,0:0:0:0:
224,16,97368,1,0,0:0:0:0:
224,16,97504,1,0,0:0:0:0:
224,16,97640,1,0,0:0:0:0:
397,368,97776,5,0,0:0:0:0:
397,58,97913,2,0,L|447:35,1,55
377,178,98049,1,0,0:0:0:0:
377,178,98185,1,0,0:0:0:0:
168,168,98322,6,0,B|138:157|109:170|109:170|84:154|84:154|74:161|74:161|83:188|83:188|71:200|63:215,1,165
292,185,98594,2,0,B|316:164|319:132|319:132|346:119|346:119|345:107|345:107|317:101|317:101|312:84|303:70,1,165
215,283,98867,2,0,B|220:314|246:333|246:333|244:362|244:362|255:367|255:367|274:346|274:346|291:351|308:349,1,165
301,256,99140,1,0,0:0:0:0:
301,256,99276,1,0,0:0:0:0:
57,334,99413,6,0,P|91:230|84:120,1,220
441,11,99822,2,0,P|407:114|414:224,1,220
238,114,100231,1,0,0:0:0:0:
274,270,100367,1,0,0:0:0:0:
54,194,100504,6,0,B|81:191|81:191|83:219|83:219|98:165|98:165|102:200|102:200|125:175|167:186|150:203|190:243|256:232|256:150|186:135|177:218,1,330
137,290,101049,5,0,0:0:0:0:
392,97,101185,1,0,0:0:0:0:
392,97,101322,1,0,0:0:0:0:
392,97,101458,1,0,0:0:0:0:
230,353,101594,5,0,0:0:0:0:
273,37,101730,1,0,0:0:0:0:
273,37,101867,1,0,0:0:0:0:
273,37,102003,1,0,0:0:0:0:
338,326,102140,5,0,0:0:0:0:
144,72,102276,2,0,L|89:65,1,55
44,223,102413,1,0,0:0:0:0:
44,223,102549,1,0,0:0:0:0:
212,105,102685,6,0,L|376:89,1,165
321,292,102958,2,0,L|156:307,1,165
136,136,103231,5,0,0:0:0:0:
374,215,103367,2,0,L|428:209,1,55
316,150,103504,2,0,L|370:144,1,55
321,292,103640,2,0,L|375:286,1,55
267,219,103776,5,0,0:0:0:0:
267,219,103913,1,0,0:0:0:0:
181,323,104049,2,0,P|177:266|100:307,1,165
50,304,104322,6,0,P|95:215|198:374,1,385
310,354,104867,6,0,B|327:311|323:280|323:280|341:327|341:327|353:281|340:229|340:229|388:271|418:188|418:188|433:236,1,385
399,352,105413,5,0,0:0:0:0:
438,75,105549,1,0,0:0:0:0:
438,75,105685,1,0,0:0:0:0:
438,75,105822,1,0,0:0:0:0:
172,189,105958,5,0,0:0:0:0:
449,228,106094,1,0,0:0:0:0:
449,228,106230,1,0,0:0:0:0:
449,228,106367,1,0,0:0:0:0:
167,47,106504,5,0,0:0:0:0:
128,324,106640,2,0,L|39:348,1,55
97,183,106776,1,0,0:0:0:0:
97,183,106913,1,0,0:0:0:0:
168,279,107049,6,0,L|277:266,1,110
372,50,107322,2,0,L|262:62,1,110
395,251,107594,2,0,L|383:141,1,110
150,75,107867,2,0,L|163:184,1,110
388,129,108140,5,0,0:0:0:0:
163,184,108276,1,0,0:0:0:0:
311,102,108413,1,0,0:0:0:0:
244,214,108549,1,0,0:0:0:0:
275,156,108685,6,0,B|271:141|271:141|256:135|256:135|264:121|264:121|244:120|244:120|260:104|260:104|230:103|230:103|253:80|253:80|237:75,1,165
122,197,109231,6,0,B|81:197|57:168|57:168|52:198|27:212|27:212|52:234|87:243|87:243|45:257|45:257|69:278|69:278|50:333,1,330
134,280,109776,5,0,0:0:0:0:
415,233,109913,1,0,0:0:0:0:
415,233,110049,1,0,0:0:0:0:
415,233,110185,1,0,0:0:0:0:
338,120,110322,6,0,L|173:108,1,165
174,264,110594,2,0,L|338:275,1,165
393,83,110867,5,0,0:0:0:0:
112,130,111004,1,0,0:0:0:0:
112,130,111140,1,0,0:0:0:0:
112,130,111276,1,0,0:0:0:0:
423,125,111413,5,0,0:0:0:0:
174,264,111550,1,0,0:0:0:0:
174,264,111686,1,0,0:0:0:0:
174,264,111822,1,0,0:0:0:0:
465,154,111958,5,0,0:0:0:0:
279,369,112095,1,0,0:0:0:0:
279,369,112231,1,0,0:0:0:0:
279,369,112367,1,0,0:0:0:0:
59,336,112504,6,0,B|42:268|42:268|69:269|68:269|68:269|46:237|61:200,1,165
130,23,112776,2,0,B|167:70|167:70|117:102|131:161,1,165
325,161,113049,6,0,B|339:102|289:70|289:70|327:23,1,165
397,203,113322,2,0,B|411:237|389:269|389:269|388:269|415:268|415:268|398:336,1,165
200,329,113594,6,0,B|218:289|218:289|158:286|158:286|178:241|178:241|216:243|216:243|235:204|235:204|204:199|204:199|231:139,1,330
197,49,114140,5,0,0:0:0:0:
492,19,114276,1,0,0:0:0:0:
492,19,114413,1,0,0:0:0:0:
492,19,114549,1,0,0:0:0:0:
322,104,114685,6,0,P|271:173|254:254,1,165
409,378,114958,2,0,P|460:309|476:227,1,165
398,47,115231,5,0,0:0:0:0:
327,320,115367,1,0,0:0:0:0:
327,320,115504,1,0,0:0:0:0:
327,320,115640,1,0,0:0:0:0:
213,35,115776,5,0,0:0:0:0:
263,311,115912,1,0,0:0:0:0:
263,311,116049,1,0,0:0:0:0:
263,311,116185,1,0,0:0:0:0:
40,102,116322,5,0,0:0:0:0:
202,331,116458,1,0,0:0:0:0:
202,331,116595,1,0,0:0:0:0:
202,331,116731,1,0,0:0:0:0:
392,378,116867,6,0,P|442:362|499:334,1,110
481,219,117140,2,0,P|430:233|374:263,1,110
371,265,117549,5,0,0:0:0:0:
384,383,117685,1,0,0:0:0:0:
475,222,117822,1,0,0:0:0:0:
486,344,117958,6,0,B|443:360|443:360|397:339|397:339|342:368|342:368|311:338|311:338|244:368|244:368|193:346,1,330
57,361,118504,1,0,0:0:0:0:
52,60,118640,1,0,0:0:0:0:
52,60,118776,1,0,0:0:0:0:
52,60,118913,1,0,0:0:0:0:
208,64,119049,6,0,L|372:74,1,165
455,242,119322,2,0,L|290:231,1,165
111,207,119594,5,0,0:0:0:0:
416,229,119731,1,0,0:0:0:0:
416,229,119867,1,0,0:0:0:0:
416,229,120004,1,0,0:0:0:0:
69,280,120140,5,0,0:0:0:0:
374,302,120277,1,0,0:0:0:0:
374,302,120413,1,0,0:0:0:0:
374,302,120550,1,0,0:0:0:0:
27,353,120685,5,0,0:0:0:0:
332,375,120822,1,0,0:0:0:0:
332,375,120958,1,0,0:0:0:0:
332,375,121095,1,0,0:0:0:0:
176,265,121231,6,0,B|173:179|173:179|223:113,1,165
311,302,121504,2,0,B|358:239|358:239|355:153,1,165
100,310,121776,6,0,B|63:267|63:267|69:210|69:210|33:173,1,165
349,380,122049,2,0,B|405:375|405:375|441:331|441:331|492:329,1,165
314,68,122322,6,0,B|294:97|294:97|305:134|305:134|274:177|274:177|312:197|312:197|236:250|236:250|232:344,1,330
289,377,122867,5,0,0:0:0:0:
504,172,123004,1,0,0:0:0:0:
504,172,123140,1,0,0:0:0:0:
504,172,123276,1,0,0:0:0:0:
356,37,123413,6,0,P|333:115|346:196,1,165
445,368,123685,2,0,P|467:289|454:208,1,165
309,0,123958,5,0,0:0:0:0:
94,205,124095,1,0,0:0:0:0:
94,205,124231,1,0,0:0:0:0:
94,205,124367,1,0,0:0:0:0:
231,322,124504,6,0,L|340:312,1,110
344,315,124776,2,0,L|235:325,1,110
130,188,125049,6,0,L|239:178,1,110
243,181,125321,2,0,L|134:191,1,110
88,344,125594,5,0,0:0:0:0:
133,191,125731,1,0,0:0:0:0:
288,240,125867,1,0,0:0:0:0:
333,87,126004,1,0,0:0:0:0:
70,340,126140,5,0,0:0:0:0:
131,184,126277,1,0,0:0:0:0:
289,250,126413,1,0,0:0:0:0:
350,94,126550,1,0,0:0:0:0:
224,242,126685,5,0,0:0:0:0:
