osu file format v14

[General]
AudioFilename: audio.mp3
AudioLeadIn: 0
PreviewTime: 110517
Countdown: 0
SampleSet: Soft
StackLeniency: 0.7
Mode: 0
LetterboxInBreaks: 0
WidescreenStoryboard: 1

[Editor]
Bookmarks: 93822
DistanceSpacing: 1
BeatDivisor: 2
GridSize: 4
TimelineZoom: 1.2

[Metadata]
Title:Rozovoe vino
TitleUnicode:Розовое вино
Artist:Feduk & Allj
ArtistUnicode:Feduk & Элджей
Creator:Marmowka
Version:ZLO's Normal
Source:
Tags:russian hip-hop rap zlodeuka-
BeatmapID:1522129
BeatmapSetID:718212

[Difficulty]
HPDrainRate:4
CircleSize:4
OverallDifficulty:4
ApproachRate:5
SliderMultiplier:1.5
SliderTickRate:2

[Events]
//Background and Video events
0,0,"GG1.jpg",0,0
//Break Periods
2,75761,82187
2,160804,171926
//Storyboard Layer 0 (Background)
//Storyboard Layer 1 (Fail)
//Storyboard Layer 2 (Pass)
//Storyboard Layer 3 (Foreground)
//Storyboard Sound Samples

[TimingPoints]
10344,521.739130434783,4,2,0,45,1,0
43735,-100,4,2,0,45,0,1
59387,-100,4,2,0,45,0,0
110517,-100,4,2,0,45,0,1
110648,-100,4,2,0,45,0,0
127213,-100,4,2,0,45,0,1
141822,-100,4,2,0,45,0,0
177300,-100,4,2,0,45,0,1
192952,-100,4,2,0,45,0,0

[Colours]
Combo1 : 255,128,255
Combo2 : 255,0,255
Combo3 : 128,128,192
Combo4 : 128,0,255

[HitObjects]
256,192,22344,12,0,24952,0:0:0:0:
72,335,27039,6,0,L|63:261,1,75,0|0,0:0|0:0,0:0:0:0:
68,185,27561,1,0,0:0:0:0:
74,110,27822,1,0,0:0:0:0:
136,151,28083,2,0,P|173:154|212:151,1,75,0|0,0:0|0:0,0:0:0:0:
283,132,28604,1,0,0:0:0:0:
352,104,28865,1,0,0:0:0:0:
415,64,29126,6,0,L|454:127,1,75,0|0,0:0|0:0,0:0:0:0:
391,169,29648,2,0,L|418:237,1,75,0|0,0:0|0:0,0:0:0:0:
353,276,30170,2,0,L|368:348,1,75,0|0,0:0|0:0,0:0:0:0:
295,365,30691,1,0,0:0:0:0:
255,220,31213,6,0,L|270:147,1,75,0|0,0:0|0:0,0:0:0:0:
230,82,31735,1,0,0:0:0:0:
157,63,31996,1,0,0:0:0:0:
88,92,32257,2,0,P|94:129|88:166,1,75,0|0,0:0|0:0,0:0:0:0:
49,230,32778,2,0,P|43:267|49:304,1,75,0|0,0:0|0:0,0:0:0:0:
112,343,33300,5,0,0:0:0:0:
257,307,33822,1,0,0:0:0:0:
402,343,34344,2,0,B|425:307|401:259|401:259|413:195,1,150,0|0,0:0|0:0,0:0:0:0:
439,128,35126,1,0,0:0:0:0:
465,57,35387,6,0,L|389:42,1,75,0|0,0:0|0:0,0:0:0:0:
317,27,35909,1,0,0:0:0:0:
182,92,36430,1,0,0:0:0:0:
304,179,36952,1,0,0:0:0:0:
168,244,37474,6,0,L|94:231,1,75,0|0,0:0|0:0,0:0:0:0:
53,167,37996,2,0,L|65:93,1,75,0|0,0:0|0:0,0:0:0:0:
135,68,38517,2,0,P|169:135|222:189,1,150,0|0,0:0|0:0,0:0:0:0:
371,188,39561,6,0,P|398:164|423:134,1,75,0|0,0:0|0:0,0:0:0:0:
427,58,40083,1,0,0:0:0:0:
357,30,40344,1,0,0:0:0:0:
290,63,40604,2,0,P|257:81|222:95,1,75
150,116,41126,1,0,0:0:0:0:
74,116,41387,1,0,0:0:0:0:
79,190,41648,6,0,L|81:267,1,75,0|0,0:0|0:0,0:0:0:0:
155,274,42170,2,0,L|157:351,1,75,0|0,0:0|0:0,0:0:0:0:
229,331,42691,2,0,B|272:314|322:320|322:320|348:315|378:322,1,150,0|0,0:0|0:0,0:0:0:0:
453,192,43735,6,0,B|428:189|408:179|408:179|380:181,1,75,4|0,0:0|0:0,0:0:0:0:
306,194,44257,1,8,0:0:0:0:
231,204,44517,1,0,0:0:0:0:
157,216,44778,2,0,L|83:207,2,75,0|0|8,0:0|0:0|0:0,0:0:0:0:
204,274,45561,1,0,0:0:0:0:
256,327,45822,6,0,P|292:336|331:339,1,75,0|0,0:0|0:0,0:0:0:0:
374,278,46344,2,0,P|364:241|360:204,1,75,8|0,0:0|0:0,0:0:0:0:
374,131,46865,2,0,P|383:94|387:57,1,75,0|0,0:0|0:0,0:0:0:0:
312,65,47387,2,0,L|237:77,1,75,8|0,0:0|0:0,0:0:0:0:
251,150,47909,6,0,L|263:225,1,75,0|0,0:0|0:0,0:0:0:0:
192,250,48430,1,8,0:0:0:0:
121,275,48691,1,0,0:0:0:0:
48,295,48952,2,0,L|36:220,1,75,0|0,0:0|0:0,0:0:0:0:
107,198,49474,2,0,L|117:111,1,75,8|0,0:0|0:0,0:0:0:0:
126,49,49996,6,0,L|213:59,1,75,0|0,0:0|0:0,0:0:0:0:
261,13,50517,2,0,L|339:52,1,75,8|0,0:0|0:0,0:0:0:0:
395,12,51039,2,0,L|455:75,1,75,0|0,0:0|0:0,0:0:0:0:
496,122,51561,1,8,0:0:0:0:
490,196,51822,1,0,0:0:0:0:
415,191,52083,5,0,0:0:0:0:
404,265,52344,1,0,0:0:0:0:
389,338,52604,2,0,B|357:338|318:316|318:316|275:324|243:319,1,150,8|0,0:0|0:0,0:0:0:0:
170,301,53387,1,0,0:0:0:0:
95,306,53648,2,0,P|57:307|20:303,1,75,8|0,0:0|0:0,0:0:0:0:
28,228,54170,6,0,P|31:190|30:153,1,75,0|0,0:0|0:0,0:0:0:0:
14,79,54691,1,8,0:0:0:0:
68,27,54952,1,0,0:0:0:0:
141,42,55213,2,0,B|192:59|242:42|242:42|290:54,1,150,0|8,0:0|0:0,0:0:0:0:
424,116,56257,5,0,0:0:0:0:
356,148,56517,1,0,0:0:0:0:
288,180,56778,2,0,L|211:171,1,75,8|0,0:0|0:0,0:0:0:0:
138,171,57300,2,0,L|63:179,1,75,0|0,0:0|0:0,0:0:0:0:
34,248,57822,1,8,0:0:0:0:
71,313,58083,1,0,0:0:0:0:
145,308,58344,6,0,P|180:302|219:300,1,75,0|0,0:0|0:0,0:0:0:0:
294,300,58865,2,0,P|331:301|368:307,1,75,8|0,0:0|0:0,0:0:0:0:
440,327,59387,2,0,L|449:175,1,150,0|0,0:0|0:0,0:0:0:0:
365,52,60430,6,0,B|340:57|320:72|320:72|295:76,1,75,4|0,0:0|0:0,0:0:0:0:
219,76,60952,2,0,B|194:72|194:72|174:57|149:52,1,75,8|0,0:0|0:0,0:0:0:0:
109,116,61474,1,0,0:0:0:0:
67,178,61735,1,0,0:0:0:0:
22,238,61996,2,0,L|49:313,1,75,8|0,0:0|0:0,0:0:0:0:
119,330,62517,6,0,L|269:319,1,150,0|8,0:0|0:0,0:0:0:0:
380,219,63561,2,0,L|230:208,1,150,0|8,0:0|0:0,0:0:0:0:
155,197,64344,1,0,0:0:0:0:
88,162,64604,6,0,P|79:126|78:89,1,75,0|0,0:0|0:0,0:0:0:0:
138,42,65126,2,0,P|174:51|211:52,1,75,8|0,0:0|0:0,0:0:0:0:
287,49,65648,1,0,0:0:0:0:
361,42,65909,1,0,0:0:0:0:
435,32,66170,2,0,L|442:113,1,75,8|0,0:0|0:0,0:0:0:0:
366,116,66691,6,0,L|359:197,1,75,0|0,0:0|0:0,0:0:0:0:
286,208,67213,2,0,P|240:159|193:209,1,150,8|0,0:0|0:0,0:0:0:0:
100,325,68257,2,0,P|87:289|87:253,1,75,8|0,0:0|0:0,0:0:0:0:
157,278,68778,6,0,L|227:308,1,75,0|0,0:0|0:0,0:0:0:0:
295,337,69300,1,8,0:0:0:0:
353,290,69561,1,0,0:0:0:0:
405,235,69822,2,0,L|401:158,1,75,0|0,0:0|0:0,0:0:0:0:
329,137,70344,2,0,L|333:60,1,75,8|0,0:0|0:0,0:0:0:0:
257,63,70865,6,0,L|178:68,1,75,0|0,0:0|0:0,0:0:0:0:
107,79,71387,1,8,0:0:0:0:
113,153,71648,1,0,0:0:0:0:
122,227,71909,2,0,L|114:304,1,75,0|0,0:0|0:0,0:0:0:0:
108,376,72430,1,8,0:0:0:0:
181,362,72691,1,0,0:0:0:0:
252,340,72952,6,0,L|270:190,1,150,0|8,0:0|0:0,0:0:0:0:
395,109,73996,2,0,L|412:257,1,150,0|8,0:0|0:0,0:0:0:0:
300,357,75039,5,0,0:0:0:0:
273,209,75561,1,0,0:0:0:0:
371,299,83387,5,0,0:0:0:0:
405,153,83909,1,0,0:0:0:0:
142,297,84952,1,0,0:0:0:0:
107,150,85474,6,0,B|257:135,1,150,0|8,0:0|0:0,0:0:0:0:
347,253,86517,2,0,B|197:238,1,150,0|8,0:0|0:0,0:0:0:0:
49,212,87561,6,0,B|64:62,1,150,0|8,0:0|0:0,0:0:0:0:
171,166,88604,2,0,B|186:316,1,150,0|8,0:0|0:0,0:0:0:0:
313,235,89648,6,0,B|328:85,1,150,0|8,0:0|0:0,0:0:0:0:
435,189,90691,2,0,B|450:339,1,150,0|8,0:0|0:0,0:0:0:0:
301,359,91735,5,0,0:0:0:0:
200,247,92257,2,0,B|174:189|201:140|201:140|257:175|307:160|307:160|287:99|305:48,1,337.5,8|0,0:0|0:0,0:0:0:0:
404,100,93822,6,0,P|413:141|417:175,1,75,4|0,0:0|0:0,0:0:0:0:
422,248,94344,2,0,P|349:235|274:248,1,150,8|0,0:0|0:0,0:0:0:0:
210,285,95126,1,0,0:0:0:0:
140,312,95387,2,0,P|117:283|103:245,1,75,8|0,0:0|0:0,0:0:0:0:
145,185,95909,6,0,P|168:155|181:120,1,75,0|0,0:0|0:0,0:0:0:0:
184,45,96430,2,0,P|256:64|328:45,1,150,8|0,0:0|0:0,0:0:0:0:
396,14,97213,1,0,0:0:0:0:
392,88,97474,2,0,L|389:168,1,75,8|0,0:0|0:0,0:0:0:0:
463,172,97996,6,0,L|466:252,2,75,0|0|8,0:0|0:0|0:0,0:0:0:0:
389,162,98778,1,0,0:0:0:0:
314,157,99039,2,0,P|247:125|236:55,1,150,0|8,0:0|0:0,0:0:0:0:
160,51,99822,1,0,0:0:0:0:
88,74,100083,6,0,P|93:148|38:192,1,150,0|8,0:0|0:0,0:0:0:0:
12,262,100865,1,0,0:0:0:0:
35,333,101126,2,0,L|111:344,1,75,0|0,0:0|0:0,0:0:0:0:
129,271,101648,2,0,L|205:260,1,75,8|0,0:0|0:0,0:0:0:0:
277,245,102170,6,0,P|268:208|268:170,1,75,0|0,0:0|0:0,0:0:0:0:
342,178,102691,2,0,P|352:141|371:108,1,75,8|0,0:0|0:0,0:0:0:0:
436,73,103213,1,0,0:0:0:0:
448,147,103474,1,0,0:0:0:0:
456,221,103735,2,0,L|447:298,1,75,8|0,0:0|0:0,0:0:0:0:
377,324,104257,6,0,L|225:331,1,150,0|8,0:0|0:0,0:0:0:0:
152,337,105039,1,0,0:0:0:0:
76,337,105300,2,0,L|84:256,1,75,0|0,0:0|0:0,0:0:0:0:
157,249,105822,2,0,L|165:168,1,75,8|0,0:0|0:0,0:0:0:0:
168,99,106344,6,0,P|204:89|238:75,1,75,0|0,0:0|0:0,0:0:0:0:
279,137,106865,2,0,P|309:115|336:90,1,75,8|0,0:0|0:0,0:0:0:0:
296,25,107387,1,0,0:0:0:0:
238,74,107648,1,0,0:0:0:0:
175,33,107909,2,0,L|98:41,1,75,8|0,0:0|0:0,0:0:0:0:
26,55,108430,6,0,L|37:207,1,150,0|0,0:0|0:0,0:0:0:0:
50,354,109474,1,0,0:0:0:0:
173,268,109996,1,0,0:0:0:0:
154,119,110517,6,0,B|184:118|204:104|204:104|227:105,1,75,4|0,0:0|0:0,0:0:0:0:
296,131,111039,2,0,P|333:141|369:143,1,75,8|0,0:0|0:0,0:0:0:0:
433,102,111561,2,0,P|449:67|457:32,2,75,0|0|8,0:0|0:0|0:0,0:0:0:0:
434,177,112343,1,0,0:0:0:0:
445,251,112604,6,0,L|453:328,1,75,0|0,0:0|0:0,0:0:0:0:
380,304,113126,2,0,L|354:377,1,75,8|0,0:0|0:0,0:0:0:0:
297,325,113648,2,0,L|248:385,1,75,0|0,0:0|0:0,0:0:0:0:
206,321,114170,2,0,L|136:354,1,75,8|0,0:0|0:0,0:0:0:0:
77,308,114691,6,0,P|69:267|68:228,1,75,0|0,0:0|0:0,0:0:0:0:
70,158,115212,1,8,0:0:0:0:
97,88,115473,1,0,0:0:0:0:
144,146,115735,2,0,P|180:150|218:146,1,75,0|0,0:0|0:0,0:0:0:0:
275,195,116257,2,0,P|312:190|349:194,1,75,8|0,0:0|0:0,0:0:0:0:
417,224,116778,6,0,L|470:171,1,75,0|0,0:0|0:0,0:0:0:0:
401,140,117300,2,0,L|426:69,1,75,8|0,0:0|0:0,0:0:0:0:
350,74,117822,2,0,L|343:-1,1,75,0|0,0:0|0:0,0:0:0:0:
270,17,118343,1,8,0:0:0:0:
196,30,118604,1,0,0:0:0:0:
203,104,118865,5,0,0:0:0:0:
141,146,119126,1,0,0:0:0:0:
79,188,119387,2,0,B|66:239|105:280|105:280|93:307|93:329,1,150,8|0,0:0|0:0,0:0:0:0:
167,324,120169,1,0,0:0:0:0:
241,314,120430,2,0,L|318:324,1,75,8|0,0:0|0:0,0:0:0:0:
321,248,120952,6,0,L|398:238,1,75,0|0,0:0|0:0,0:0:0:0:
467,215,121474,1,8,0:0:0:0:
493,144,121734,1,0,0:0:0:0:
463,75,121996,2,0,B|410:61|362:84|362:84|335:72|313:72,1,150,0|8,0:0|0:0,0:0:0:0:
283,218,123039,5,0,0:0:0:0:
228,269,123299,1,0,0:0:0:0:
173,321,123561,2,0,L|98:311,1,75,8|0,0:0|0:0,0:0:0:0:
104,236,124083,2,0,L|29:226,1,75,0|0,0:0|0:0,0:0:0:0:
22,151,124604,1,8,0:0:0:0:
70,94,124865,1,0,0:0:0:0:
145,97,125126,6,0,P|182:102|225:105,1,75,0|0,0:0|0:0,0:0:0:0:
294,105,125648,2,0,P|331:102|368:97,1,75,8|0,0:0|0:0,0:0:0:0:
442,84,126170,2,0,B|464:114|447:161|473:153|473:153|463:202|463:256,1,187.5,0|0,0:0|0:0,0:0:0:0:
368,317,127213,6,0,P|331:308|293:303,1,75,4|0,0:0|0:0,0:0:0:0:
219,303,127735,2,0,P|181:307|145:316,1,75,8|0,0:0|0:0,0:0:0:0:
72,336,128257,2,0,P|56:301|48:266,2,75,0|0|8,0:0|0:0|0:0,0:0:0:0:
145,316,129039,1,0,0:0:0:0:
126,243,129300,6,0,L|118:166,1,75,0|0,0:0|0:0,0:0:0:0:
193,175,129822,2,0,L|219:102,1,75,8|0,0:0|0:0,0:0:0:0:
285,137,130344,2,0,L|334:77,1,75,0|0,0:0|0:0,0:0:0:0:
387,129,130866,2,0,L|457:96,1,75,8|0,0:0|0:0,0:0:0:0:
466,171,131387,6,0,P|463:209|466:248,1,75,0|0,0:0|0:0,0:0:0:0:
482,318,131908,1,8,0:0:0:0:
407,328,132169,1,0,0:0:0:0:
332,337,132430,2,0,P|276:338|256:337,1,75,0|0,0:0|0:0,0:0:0:0:
195,294,132952,2,0,P|157:292|120:294,1,75,8|0,0:0|0:0,0:0:0:0:
45,302,133474,6,0,L|38:227,1,75,0|0,0:0|0:0,0:0:0:0:
112,213,133996,2,0,L|137:142,1,75,8|0,0:0|0:0,0:0:0:0:
210,157,134518,2,0,L|263:104,1,75,0|0,0:0|0:0,0:0:0:0:
319,54,135039,1,8,0:0:0:0:
379,9,135300,1,0,0:0:0:0:
389,83,135561,5,0,0:0:0:0:
395,157,135822,1,0,0:0:0:0:
402,231,136083,2,0,B|415:282|376:323|376:323|388:350|388:372,1,150,8|0,0:0|0:0,0:0:0:0:
313,365,136865,1,0,0:0:0:0:
238,357,137126,2,0,L|223:282,1,75,8|0,0:0|0:0,0:0:0:0:
297,270,137648,6,0,L|312:195,1,75,0|0,0:0|0:0,0:0:0:0:
286,125,138170,1,8,0:0:0:0:
241,64,138430,1,0,0:0:0:0:
172,32,138692,2,0,B|119:18|71:41|71:41|44:29|22:29,1,150,0|8,0:0|0:0,0:0:0:0:
23,179,139735,5,0,0:0:0:0:
66,240,139995,1,0,0:0:0:0:
113,298,140257,2,0,L|188:288,1,75,8|0,0:0|0:0,0:0:0:0:
213,358,140779,2,0,L|288:348,1,75,0|0,0:0|0:0,0:0:0:0:
361,339,141300,1,8,0:0:0:0:
435,329,141561,1,0,0:0:0:0:
492,280,141822,6,0,P|497:243|500:200,1,75,0|0,0:0|0:0,0:0:0:0:
431,173,142344,2,0,P|426:136|423:93,1,75,8|0,0:0|0:0,0:0:0:0:
421,23,142866,2,0,B|385:22|356:56|356:56|293:40|250:75,1,187.5,0|0,0:0|0:0,0:0:0:0:
184,166,143909,6,0,L|34:155,1,150,4|8,0:0|0:0,0:0:0:0:
25,229,144691,1,0,0:0:0:0:
35,303,144952,2,0,L|185:292,1,150,0|8,0:0|0:0,0:0:0:0:
259,289,145735,1,0,0:0:0:0:
329,315,145996,6,0,P|362:321|403:325,2,75,0|0|8,0:0|0:0|0:0,0:0:0:0:
315,241,146778,1,0,0:0:0:0:
304,166,147039,2,0,P|298:126|309:90,2,75,0|0|8,0:0|0:0|0:0,0:0:0:0:
371,132,147822,1,0,0:0:0:0:
445,141,148083,6,0,L|465:297,1,150,0|8,0:0|0:0,0:0:0:0:
416,348,148865,1,0,0:0:0:0:
389,280,149126,2,0,L|370:131,1,150,0|8,0:0|0:0,0:0:0:0:
307,93,149909,1,0,0:0:0:0:
232,103,150170,6,0,P|194:103|159:124,2,75,0|0|8,0:0|0:0|0:0,0:0:0:0:
213,175,150952,1,0,0:0:0:0:
257,235,151213,2,0,P|276:267|292:302,2,75,0|0|8,0:0|0:0|0:0,0:0:0:0:
182,244,151996,1,0,0:0:0:0:
125,293,152257,6,0,L|45:166,1,150,0|8,0:0|0:0,0:0:0:0:
93,109,153039,1,0,0:0:0:0:
136,48,153300,2,0,L|287:16,1,150,0|8,0:0|0:0,0:0:0:0:
355,36,154083,1,0,0:0:0:0:
429,46,154344,6,0,P|446:81|458:116,1,75,0|0,0:0|0:0,0:0:0:0:
389,146,154865,2,0,P|393:184|392:221,1,75,8|0,0:0|0:0,0:0:0:0:
320,242,155387,2,0,P|310:279|297:314,1,75,0|0,0:0|0:0,0:0:0:0:
223,298,155909,2,0,P|201:330|176:358,1,75,8|0,0:0|0:0,0:0:0:0:
102,350,156430,6,0,P|80:323|70:268,1,75
100,214,156952,1,8,0:0:0:0:
156,164,157213,1,0,0:0:0:0:
226,138,157474,2,0,L|233:60,1,75
306,75,157996,2,0,L|313:-3,1,75,8|0,0:0|0:0,0:0:0:0:
380,32,158517,5,0,0:0:0:0:
445,69,158778,1,0,0:0:0:0:
508,109,159039,2,0,P|499:144|495:182,1,75,8|0,0:0|0:0,0:0:0:0:
499,257,159561,2,0,P|495:294|485:330,1,75,0|0,0:0|0:0,0:0:0:0:
411,340,160083,2,0,L|330:351,2,75,8|0|4,0:0|0:0|0:0,0:0:0:0:
256,192,173126,12,0,175213,0:0:0:0:
56,342,177300,6,0,P|47:307|45:266,1,75,4|0,0:0|0:0,0:0:0:0:
45,192,177822,2,0,P|46:154|56:118,1,75,8|0,0:0|0:0,0:0:0:0:
99,56,178344,2,0,L|176:49,2,75,0|0|8,0:0|0:0|0:0,0:0:0:0:
130,123,179126,1,0,0:0:0:0:
161,191,179387,6,0,P|161:229|165:267,1,75,0|0,0:0|0:0,0:0:0:0:
239,258,179909,2,0,P|251:293|268:328,1,75,8|0,0:0|0:0,0:0:0:0:
338,302,180430,2,0,P|362:331|389:357,1,75,0|0,0:0|0:0,0:0:0:0:
445,306,180952,2,0,P|477:325|512:340,1,75,8|0,0:0|0:0,0:0:0:0:
511,264,181474,6,0,L|503:190,1,75,0|0,0:0|0:0,0:0:0:0:
493,114,181996,1,8,0:0:0:0:
482,39,182257,1,0,0:0:0:0:
424,87,182517,2,0,P|388:93|346:91,1,75,0|0,0:0|0:0,0:0:0:0:
275,78,183039,2,0,P|237:76|200:82,1,75,8|0,0:0|0:0,0:0:0:0:
160,145,183561,6,0,L|176:224,1,75,0|0,0:0|0:0,0:0:0:0:
176,293,184083,2,0,L|161:366,1,75,8|0,0:0|0:0,0:0:0:0:
86,367,184604,2,0,L|71:293,1,75,0|0,0:0|0:0,0:0:0:0:
53,220,185126,1,8,0:0:0:0:
36,146,185387,1,0,0:0:0:0:
109,133,185648,5,0,0:0:0:0:
178,104,185909,1,0,0:0:0:0:
232,52,186170,2,0,B|283:39|324:78|324:78|351:66|373:66,1,150,8|0,0:0|0:0,0:0:0:0:
367,140,186952,1,0,0:0:0:0:
360,214,187213,2,0,L|366:295,1,75,8|0,0:0|0:0,0:0:0:0:
290,283,187735,6,0,L|296:364,1,75,0|0,0:0|0:0,0:0:0:0:
370,362,188257,1,8,0:0:0:0:
444,364,188517,1,0,0:0:0:0:
483,300,188779,2,0,B|497:247|474:199|474:199|486:172|486:150,1,150,0|8,0:0|0:0,0:0:0:0:
337,132,189822,5,0,0:0:0:0:
262,136,190082,1,0,0:0:0:0:
186,141,190344,2,0,L|111:131,1,75,8|0,0:0|0:0,0:0:0:0:
81,199,190866,2,0,L|6:189,1,75,0|0,0:0|0:0,0:0:0:0:
18,114,191387,1,8,0:0:0:0:
33,40,191648,1,0,0:0:0:0:
256,192,191909,12,4,193996,3:0:0:0:
