osu file format v14

[General]
AudioFilename: audio.mp3
AudioLeadIn: 0
PreviewTime: 110517
Countdown: 0
SampleSet: Soft
StackLeniency: 0.7
Mode: 0
LetterboxInBreaks: 0
WidescreenStoryboard: 0

[Editor]
DistanceSpacing: 0.7
BeatDivisor: 4
GridSize: 32
TimelineZoom: 1.2

[Metadata]
Title:Rozovoe vino
TitleUnicode:Розовое вино
Artist:Feduk & Allj
ArtistUnicode:Feduk & Элджей
Creator:Marmowka
Version:Easy
Source:
Tags:russian hip-hop rap zlodeuka-
BeatmapID:1522128
BeatmapSetID:718212

[Difficulty]
HPDrainRate:4
CircleSize:3
OverallDifficulty:3
ApproachRate:3
SliderMultiplier:1.4
SliderTickRate:1

[Events]
//Background and Video events
0,0,"GG1.jpg",0,0
//Break Periods
2,77326,90295
2,160804,171686
//Storyboard Layer 0 (Background)
//Storyboard Layer 1 (Fail)
//Storyboard Layer 2 (Pass)
//Storyboard Layer 3 (Foreground)
//Storyboard Sound Samples

[TimingPoints]
10344,521.739130434783,4,2,0,45,1,0
43735,-100,4,2,0,45,0,1
59387,-100,4,2,0,45,0,0
110517,-100,4,2,0,45,0,1
110648,-100,4,2,0,45,0,0
127213,-100,4,2,0,45,0,1
141822,-100,4,2,0,45,0,0
177300,-100,4,2,0,45,0,1
192952,-100,4,2,0,45,0,0

[Colours]
Combo1 : 255,128,255
Combo2 : 255,0,255
Combo3 : 128,128,192
Combo4 : 128,0,255

[HitObjects]
256,192,22344,12,0,24952,0:0:0:0:
173,115,27039,6,0,P|102:130|80:196,1,140,0|0,0:0|0:0,0:0:0:0:
80,285,28083,1,0,0:0:0:0:
159,342,28604,1,0,0:0:0:0:
250,307,29126,2,0,B|353:281|353:281|410:299,2,140,0|0|0,0:0|0:0|0:0,0:0:0:0:
173,245,30691,1,0,0:0:0:0:
264,209,31213,5,0,0:0:0:0:
352,166,31735,2,0,P|304:118|229:117,2,140
377,261,33300,2,0,P|444:197|447:137,1,140
422,59,34344,2,0,B|332:21|332:21|288:32,1,140,0|0,0:0|0:0,0:0:0:0:
235,112,35387,6,0,L|221:263,2,140,0|0|0,0:0|0:0|0:0,0:0:0:0:
190,24,36952,1,0,0:0:0:0:
96,40,37474,2,0,P|37:78|30:155,1,140,0|0,0:0|0:0,0:0:0:0:
25,240,38517,2,0,P|37:306|94:342,1,140
193,341,39561,6,0,B|266:320|344:341|344:341|296:324|264:294|266:236,1,280
250,154,41126,1,0,0:0:0:0:
173,93,41648,2,0,P|99:84|32:103,1,140,0|0,0:0|0:0,0:0:0:0:
41,198,42691,2,0,P|116:206|198:178,1,140,0|0,0:0|0:0,0:0:0:0:
270,219,43735,6,0,P|239:267|260:358,1,140,4|8,0:0|0:0,0:0:0:0:
336,294,44779,1,0,0:0:0:0:
429,321,45300,1,8,0:0:0:0:
503,257,45822,2,0,L|490:104,2,140,0|8|0,0:0|0:0|0:0,0:0:0:0:
409,227,47387,2,0,L|397:68,1,140,8|0,0:0|0:0,0:0:0:0:
321,25,48431,6,0,P|259:48|225:115,2,140,8|0|8,0:0|0:0|0:0,0:0:0:0:
322,123,49996,2,0,L|302:274,1,140,0|8,0:0|0:0,0:0:0:0:
244,339,51039,2,0,P|162:351|111:315,1,140,0|8,0:0|0:0,0:0:0:0:
190,255,52083,6,0,L|206:114,2,140,0|8|0,0:0|0:0|0:0,0:0:0:0:
95,227,53648,1,8,0:0:0:0:
63,134,54170,2,0,P|15:172|1:253,1,140,0|8,0:0|0:0,0:0:0:0:
47,331,55213,2,0,B|157:345|157:345|195:330,1,140,0|8,0:0|0:0,0:0:0:0:
258,269,56257,6,0,L|246:115,1,140,0|8,0:0|0:0,0:0:0:0:
170,68,57300,1,0,0:0:0:0:
154,164,57822,1,8,0:0:0:0:
247,129,58344,2,0,P|330:145|352:202,1,140,0|8,0:0|0:0,0:0:0:0:
444,220,59387,2,0,P|406:272|328:285,1,140
238,277,60430,6,0,B|131:274|131:274|85:300,1,140,4|8,0:0|0:0,0:0:0:0:
29,356,61474,1,0,0:0:0:0:
0,261,61996,1,8,0:0:0:0:
12,163,62517,2,0,P|17:97|73:44,2,140,0|8|0,0:0|0:0|0:0,0:0:0:0:
105,136,64083,1,8,0:0:0:0:
159,54,64604,6,0,L|303:48,1,140,0|8,0:0|0:0,0:0:0:0:
388,88,65648,2,0,B|400:115|400:115|376:267,1,140,0|8,0:0|0:0,0:0:0:0:
319,299,66691,2,0,P|248:287|237:210,1,140,0|8,0:0|0:0,0:0:0:0:
246,131,67735,1,0,0:0:0:0:
298,48,68257,1,8,0:0:0:0:
386,89,68778,6,0,P|451:131|464:207,2,140,0|8|0,0:0|0:0|0:0,0:0:0:0:
373,185,70344,1,8,0:0:0:0:
394,280,70865,2,0,P|330:271|278:204,2,140,0|8|0,0:0|0:0|0:0,0:0:0:0:
373,185,72430,1,8,0:0:0:0:
301,117,72952,6,0,P|236:121|186:181,1,140,0|8,0:0|0:0,0:0:0:0:
177,271,73996,1,0,0:0:0:0:
231,352,74517,1,8,0:0:0:0:
256,192,75039,12,4,77126,0:0:0:0:
256,192,91735,12,4,93822,0:0:0:0:
427,259,94865,6,0,L|404:110,1,140,0|8,0:0|0:0,0:0:0:0:
328,60,95909,1,0,0:0:0:0:
251,120,96430,2,0,P|194:160|120:149,2,140,8|0|8,0:0|0:0|0:0,0:0:0:0:
170,63,97996,6,0,P|102:54|39:106,1,140,0|8,0:0|0:0,0:0:0:0:
21,184,99039,2,0,L|40:323,1,140,0|8,0:0|0:0,0:0:0:0:
121,374,100083,2,0,L|274:359,1,140,0|8,0:0|0:0,0:0:0:0:
356,341,101126,1,0,0:0:0:0:
421,267,101648,2,0,B|399:228|399:180|399:180|389:203|358:216,1,140,8|0,0:0|0:0,0:0:0:0:
319,125,102691,5,8,0:0:0:0:
236,71,103213,2,0,L|83:62,1,140,0|8,0:0|0:0,0:0:0:0:
15,118,104257,1,0,0:0:0:0:
5,215,104778,2,0,P|20:299|62:353,2,140,8|0|8,0:0|0:0|0:0,0:0:0:0:
96,177,106344,6,0,B|206:168|206:168|244:181,1,140,0|8,0:0|0:0,0:0:0:0:
300,249,107387,2,0,B|407:265|407:265|456:242,1,140,0|8,0:0|0:0,0:0:0:0:
476,162,108430,2,0,P|476:94|411:55,1,140,0|8,0:0|0:0,0:0:0:0:
329,91,109474,1,0,0:0:0:0:
238,52,109996,1,0,0:0:0:0:
177,128,110517,6,0,L|193:272,1,140,4|8,0:0|0:0,0:0:0:0:
261,337,111561,1,0,0:0:0:0:
312,254,112082,1,8,0:0:0:0:
366,335,112604,2,0,B|461:322|461:322|505:338,2,140,0|8|0,0:0|0:0|0:0,0:0:0:0:
261,337,114169,1,8,0:0:0:0:
175,288,114691,5,0,0:0:0:0:
92,343,115213,2,0,P|31:296|21:225,2,140,8|0|8,0:0|0:0|0:0,0:0:0:0:
115,247,116778,2,0,P|182:183|177:121,1,140,0|8,0:0|0:0,0:0:0:0:
225,51,117822,2,0,B|390:37,1,140,0|8,0:0|0:0,0:0:0:0:
425,116,118865,6,0,L|284:129,2,140,0|8|0,0:0|0:0|0:0,0:0:0:0:
507,169,120430,1,8,0:0:0:0:
508,267,120952,2,0,P|489:319|400:343,1,140,0|8,0:0|0:0,0:0:0:0:
319,322,121995,2,0,P|242:309|179:321,1,140,0|8,0:0|0:0,0:0:0:0:
93,277,123039,6,0,P|73:213|105:145,2,140,0|8|0,0:0|0:0|0:0,0:0:0:0:
172,217,124604,1,8,0:0:0:0:
259,261,125126,2,0,P|327:278|404:255,1,140,0|8,0:0|0:0,0:0:0:0:
449,180,126170,2,0,P|479:89|512:57,1,140,0|8,0:0|0:0,0:0:0:0:
416,29,127213,6,0,P|365:49|263:38,1,140,4|8,0:0|0:0,0:0:0:0:
185,22,128257,1,0,0:0:0:0:
93,57,128778,1,8,0:0:0:0:
163,125,129300,2,0,B|175:231|175:231|158:272,2,140,0|8|0,0:0|0:0|0:0,0:0:0:0:
254,161,130865,2,0,B|267:262|267:262|290:293,1,140,8|0,0:0|0:0,0:0:0:0:
372,342,131909,6,0,P|440:307|461:249,2,140,8|0|8,0:0|0:0|0:0,0:0:0:0:
365,245,133474,2,0,L|372:102,1,140,0|8,0:0|0:0,0:0:0:0:
295,43,134517,2,0,B|191:47|191:47|223:90,1,140,0|8,0:0|0:0,0:0:0:0:
260,161,135561,6,0,P|281:219|249:301,2,140,0|8|0,0:0|0:0|0:0,0:0:0:0:
173,225,137126,1,8,0:0:0:0:
89,173,137648,2,0,P|66:112|90:43,1,140,0|8,0:0|0:0,0:0:0:0:
183,17,138691,2,0,B|331:16,1,140,0|8,0:0|0:0,0:0:0:0:
418,37,139735,6,0,P|478:88|476:169,1,140,0|8,0:0|0:0,0:0:0:0:
463,239,140778,1,0,0:0:0:0:
368,212,141300,1,8,0:0:0:0:
285,264,141822,2,0,L|129:279,1,140,0|8,0:0|0:0,0:0:0:0:
89,197,142865,2,0,L|242:182,1,140,0|8,0:0|0:0,0:0:0:0:
326,173,143909,6,0,P|384:230|379:296,1,140,4|8,0:0|0:0,0:0:0:0:
312,351,144952,2,0,B|201:360|201:360|148:346,1,140,0|8,0:0|0:0,0:0:0:0:
88,303,145996,2,0,B|61:268|61:268|62:156,2,140,0|8|0,0:0|0:0|0:0,0:0:0:0:
173,255,147561,1,8,0:0:0:0:
245,189,148083,6,0,P|270:114|223:49,1,140,0|8,0:0|0:0,0:0:0:0:
148,39,149126,2,0,B|49:47|49:47|73:68|77:90,1,140,0|8,0:0|0:0,0:0:0:0:
129,159,150170,1,0,0:0:0:0:
141,256,150691,1,8,0:0:0:0:
77,330,151213,2,0,P|145:355|220:311,1,140,0|8,0:0|0:0,0:0:0:0:
281,268,152257,6,0,P|351:241|420:275,2,140,0|8|0,0:0|0:0|0:0,0:0:0:0:
347,339,153822,1,8,0:0:0:0:
444,335,154344,2,0,P|488:275|453:197,2,140,0|8|0,0:0|0:0|0:0,0:0:0:0:
347,339,155909,1,8,0:0:0:0:
281,268,156430,6,0,L|288:105,1,140,0|8,0:0|0:0,0:0:0:0:
235,44,157474,1,0,0:0:0:0:
139,66,157996,1,8,0:0:0:0:
65,130,158517,2,0,P|39:189|68:267,2,140,0|8|0,0:0|0:0|0:0,0:0:0:0:
135,198,160083,2,0,B|205:219|200:177|274:193,1,140,8|4,0:0|0:0,0:0:0:0:
256,192,173126,12,0,175213,0:0:0:0:
184,87,177300,6,0,L|191:247,1,140,4|8,0:0|0:0,0:0:0:0:
161,320,178344,1,0,0:0:0:0:
80,263,178865,1,8,0:0:0:0:
95,163,179387,2,0,P|119:99|194:91,2,140,0|8|0,0:0|0:0|0:0,0:0:0:0:
176,217,180952,2,0,B|281:210|281:210|315:171,1,140,8|0,0:0|0:0,0:0:0:0:
379,121,181996,6,0,P|403:181|364:263,2,140,8|0|8,0:0|0:0|0:0,0:0:0:0:
292,74,183561,2,0,L|137:84,1,140,0|8,0:0|0:0,0:0:0:0:
95,163,184604,2,0,P|84:244|131:303,1,140,0|8,0:0|0:0,0:0:0:0:
179,215,185648,6,0,P|260:213|307:257,2,140,0|8|0,0:0|0:0|0:0,0:0:0:0:
222,302,187213,1,8,0:0:0:0:
309,345,187735,2,0,P|386:300|395:238,1,140,0|8,0:0|0:0,0:0:0:0:
389,157,188778,2,0,B|287:123|287:123|294:147|284:162,1,140,0|8,0:0|0:0,0:0:0:0:
189,145,189822,6,0,P|119:126|86:70,1,140,0|8,0:0|0:0,0:0:0:0:
178,52,190865,1,0,0:0:0:0:
189,145,191387,1,8,0:0:0:0:
256,192,191909,12,4,193996,3:0:0:0:
