osu file format v14

[General]
AudioFilename: audio.mp3
AudioLeadIn: 0
PreviewTime: 163218
Countdown: 0
SampleSet: Soft
StackLeniency: 0.7
Mode: 0
LetterboxInBreaks: 0
WidescreenStoryboard: 1

[Editor]
Bookmarks: 11083,100922,125238
DistanceSpacing: 0.8
BeatDivisor: 4
GridSize: 16
TimelineZoom: 2

[Metadata]
Title:Swing It!!
TitleUnicode:Swing It!!
Artist:Fear, and Loathing in Las Vegas
ArtistUnicode:Fear, and Loathing in Las Vegas
Creator:MaestroSplinter
Version:Nymphe's Insane!!
Source:
Tags:falilv J-rock japanese rock Nymphe Kowari HowRengar Phase_2 gaston_2199 Megafan
BeatmapID:2231980
BeatmapSetID:1051249

[Difficulty]
HPDrainRate:5
CircleSize:3.8
OverallDifficulty:8.5
ApproachRate:9
SliderMultiplier:1.62
SliderTickRate:1

[Events]
//Background and Video events
0,0,"swing11.jpg",0,0
//Break Periods
2,115328,119289
//Storyboard Layer 0 (Background)
//Storyboard Layer 1 (Fail)
//Storyboard Layer 2 (Pass)
//Storyboard Layer 3 (Foreground)
//Storyboard Layer 4 (Overlay)
//Storyboard Sound Samples

[TimingPoints]
497,317.460317460317,4,2,22,70,1,0
497,-111.111111111111,4,2,22,70,0,0
15735,-111.111111111111,4,2,22,70,0,0
25576,-200,4,2,22,70,0,0
25893,-111.111111111111,4,2,22,70,0,0
38433,-90.9090909090909,4,2,22,80,0,1
58909,-105.263157894737,4,2,22,70,0,0
74147,317.460317460317,4,2,22,80,1,8
74153,365.853658536585,4,2,22,70,1,0
77079,-105.263157894737,4,2,22,70,0,0
88787,-100,4,2,22,70,0,0
102689,-133.333333333333,4,2,22,70,0,0
103421,-100,4,2,22,70,0,0
115128,317.460317460317,4,2,22,70,1,0
119889,-138.888888888889,4,2,22,60,0,0
120207,-133.333333333333,4,2,22,60,0,0
130366,317.460317460317,4,2,22,80,1,8
130996,317.460317460317,4,2,22,70,1,0
130996,-100,4,2,22,80,0,0
141154,-100,4,2,22,70,0,0
149091,-90.9090909090909,4,2,22,80,0,0
151313,-98.0392156862745,4,2,22,80,0,0
163853,-90.9090909090909,4,2,22,80,0,1
179726,-90.9090909090909,4,2,22,80,0,1
179805,-90.9090909090909,4,2,22,5,0,1
179884,-90.9090909090909,4,2,22,80,0,1
181075,-90.9090909090909,4,2,22,5,0,1
181154,-90.9090909090909,4,2,22,80,0,1
184170,-111.111111111111,4,2,22,70,0,0
194329,-83.3333333333333,4,2,22,80,0,1
201948,-83.3333333333333,4,2,22,80,0,1
202424,-100,4,2,22,80,0,1
207186,-100,4,2,22,80,0,0

[Colours]
Combo1 : 255,151,151
Combo2 : 255,174,215
Combo3 : 145,251,227
Combo4 : 236,250,182

[HitObjects]
77,30,497,6,0,P|90:67|96:125,1,72.8999977752686,10|0,0:0|1:0,0:0:0:0:
67,177,735,1,0,1:0:0:0:
67,177,814,2,0,P|57:219|52:275,1,72.8999977752686,8|0,0:0|0:0,0:0:0:0:
108,337,1131,2,0,B|203:327|148:290|241:274,1,145.799995550537,10|2,0:0|0:0,0:0:0:0:
366,208,1608,6,0,P|322:164|232:172,1,145.799995550537,2|0,1:2|1:0,0:0:0:0:
176,205,2004,1,0,1:0:0:0:
176,205,2084,2,0,P|168:148|184:109,1,72.8999977752686,10|0,0:0|1:0,0:0:0:0:
267,0,2401,2,0,P|279:50|279:98,1,72.8999977752686,10|0,0:0|1:0,0:0:0:0:
273,108,2639,1,2,1:2:0:0:
273,108,2719,1,0,1:0:0:0:
174,45,2877,1,8,0:0:0:0:
338,156,3036,6,0,P|389:156|434:128,1,72.8999977752686,10|0,0:0|1:0,0:0:0:0:
444,78,3274,1,0,1:0:0:0:
444,78,3354,2,0,P|488:85|525:118,1,72.8999977752686,8|0,0:0|0:0,0:0:0:0:
434,295,3671,2,0,B|347:281|409:241|286:222,1,145.799995550537,10|2,0:0|0:0,0:0:0:0:
127,238,4147,1,2,1:2:0:0:
201,149,4306,6,0,P|219:198|226:243,1,72.8999977752686,0|0,0:0|1:0,0:0:0:0:
196,295,4544,1,0,1:0:0:0:
196,295,4623,2,0,P|183:343|180:389,1,72.8999977752686,10|2,0:0|1:2,0:0:0:0:
376,339,4941,1,10,0:0:0:0:
291,266,5100,1,2,1:2:0:0:
454,298,5258,1,2,1:2:0:0:
293,374,5417,1,0,0:0:0:0:
380,238,5576,6,0,P|411:213|472:198,1,72.8999977752686,10|0,0:0|1:0,0:0:0:0:
507,153,5814,1,0,1:0:0:0:
507,153,5893,2,0,P|476:128|415:113,1,72.8999977752686,8|0,0:0|0:0,0:0:0:0:
295,110,6211,2,0,B|384:90|328:51|424:31,1,145.799995550537,10|2,0:0|0:0,0:0:0:0:
184,26,6687,6,0,L|220:190,1,145.799995550537,2|0,1:2|1:0,0:0:0:0:
178,238,7084,1,0,1:0:0:0:
178,238,7163,2,0,P|136:254|89:252,1,72.8999977752686,10|0,0:0|1:0,0:0:0:0:
4,136,7481,2,0,P|50:131|102:152,1,72.8999977752686,10|0,0:0|1:0,0:0:0:0:
102,168,7719,1,2,1:2:0:0:
102,168,7798,1,0,1:0:0:0:
185,332,7957,1,8,0:0:0:0:
245,183,8116,6,0,P|289:167|342:174,1,72.8999977752686,10|0,0:0|1:0,0:0:0:0:
370,231,8354,1,0,1:0:0:0:
370,231,8433,2,0,P|420:239|468:227,1,72.8999977752686,8|0,0:0|0:0,0:0:0:0:
505,71,8750,1,10,0:0:0:0:
376,123,8909,1,0,1:0:0:0:
506,171,9068,1,2,0:0:0:0:
429,26,9227,1,2,1:2:0:0:
295,164,9385,6,0,P|286:114|299:69,1,72.8999977752686,0|0,0:0|1:0,0:0:0:0:
303,60,9623,1,0,1:0:0:0:
303,60,9703,1,10,0:0:0:0:
402,151,9862,1,2,1:2:0:0:
263,258,10020,2,0,P|203:273|169:268,1,72.8999977752686,10|2,0:0|1:2,0:0:0:0:
28,157,10338,1,8,0:0:0:0:
45,115,10417,1,0,1:2:0:0:
83,89,10496,1,0,1:0:0:0:
132,86,10576,1,2,1:2:0:0:
174,114,10655,6,0,P|203:145|214:200,1,72.8999977752686,4|2,0:0|0:0,0:0:0:0:
86,273,10973,2,0,P|103:216|136:187,1,72.8999977752686,10|0,0:0|0:0,0:0:0:0:
218,363,11290,2,0,B|315:357|262:311|364:293,1,145.799995550537,0|2,1:2|0:0,0:0:0:0:
472,191,11766,6,0,P|459:250|453:354,1,145.799995550537,8|2,0:0|1:2,0:0:0:0:
371,118,12243,1,10,0:0:0:0:
338,217,12401,2,0,P|325:167|329:122,1,72.8999977752686,2|0,0:0|0:0,0:0:0:0:
329,23,12719,1,0,1:2:0:0:
463,136,12877,2,0,P|457:84|437:50,1,72.8999977752686,10|0,0:0|0:0,0:0:0:0:
262,84,13195,6,0,B|190:83|223:117|144:119,1,109.349996662903,2|0,1:2|0:0,0:0:0:0:
94,72,13512,2,0,P|82:119|79:172,1,72.8999977752686,8|0,0:0|0:0,0:0:0:0:
136,259,13830,1,0,1:2:0:0:
0,161,13989,2,0,P|14:210|13:266,1,72.8999977752686,2|0,1:2|0:0,0:0:0:0:
108,352,14306,6,0,P|177:353|223:313,1,109.349996662903,10|0,0:0|0:0,0:0:0:0:
250,264,14623,2,0,P|287:238|333:229,1,72.8999977752686,10|0,0:0|0:0,0:0:0:0:
395,365,14941,2,0,P|360:353|331:331,1,72.8999977752686,10|0,0:0|0:0,0:0:0:0:
363,157,15258,1,10,0:0:0:0:
479,302,15417,2,0,L|468:181,1,109.349996662903,10|0,0:0|0:0,0:0:0:0:
486,113,15735,6,0,P|454:71|383:63,1,109.349996662903,2|0,1:2|0:0,0:0:0:0:
357,73,16052,1,8,0:0:0:0:
121,190,16370,5,0,1:2:0:0:
186,108,16528,2,0,P|206:152|211:204,1,72.8999977752686,2|0,1:2|0:0,0:0:0:0:
207,287,16846,6,0,B|302:282|243:235|344:227,1,145.799995550537,10|2,0:0|1:2,0:0:0:0:
448,190,17322,2,0,L|431:325,1,109.349996662903,10|2,0:0|1:2,0:0:0:0:
379,352,17639,1,2,1:2:0:0:
362,364,17719,1,2,1:2:0:0:
336,374,17798,2,0,P|301:368|275:356,1,36.4499988876343,2|2,1:2|1:2,0:0:0:0:
210,175,17957,1,10,0:0:0:0:
330,263,18116,1,10,0:0:0:0:
197,360,18274,6,0,B|104:341|172:295|50:275,1,145.799995550537,2|8,1:2|0:0,0:0:0:0:
214,272,18750,1,2,0:0:0:0:
13,357,18909,2,0,L|2:268,1,72.8999977752686,2|0,1:2|0:0,0:0:0:0:
49,142,19227,1,2,0:0:0:0:
106,246,19385,1,10,0:0:0:0:
150,117,19544,6,0,P|189:84|237:75,1,72.8999977752686,2|10,0:0|0:0,0:0:0:0:
287,214,19862,2,0,P|253:199|227:174,1,72.8999977752686,2|10,0:0|0:0,0:0:0:0:
340,51,20179,1,2,0:0:0:0:
459,142,20338,1,2,1:2:0:0:
285,115,20496,1,10,0:0:0:0:
434,49,20655,1,2,0:0:0:0:
434,49,20735,1,0,0:0:0:0:
434,49,20814,6,0,L|412:174,1,109.349996662903,0|0,0:0|0:0,0:0:0:0:
369,214,21131,2,0,L|378:303,1,72.8999977752686,8|2,0:0|0:0,0:0:0:0:
278,378,21449,1,0,1:2:0:0:
249,285,21608,1,0,1:2:0:0:
173,362,21766,1,2,0:0:0:0:
205,212,21925,1,8,0:0:0:0:
96,310,22084,6,0,P|94:264|84:205,1,72.8999977752686,2|0,0:0|1:2,0:0:0:0:
147,112,22401,1,8,0:0:0:0:
2,249,22560,2,0,P|8:186|24:147,1,72.8999977752686,2|0,0:0|1:2,0:0:0:0:
85,48,22877,1,2,0:0:0:0:
205,212,23036,2,0,P|201:161|191:124,1,72.8999977752686,8|2,0:0|0:0,0:0:0:0:
317,12,23354,6,0,P|304:65|302:134,1,109.349996662903,4|0,0:0|0:0,0:0:0:0:
351,176,23671,2,0,P|359:215|361:268,1,72.8999977752686,8|0,0:0|0:0,0:0:0:0:
323,354,23989,1,2,1:2:0:0:
441,238,24147,2,0,P|434:288|435:342,1,72.8999977752686,2|0,1:2|0:0,0:0:0:0:
239,306,24465,6,0,B|174:284|212:258|141:241,1,109.349996662903,10|0,0:0|0:0,0:0:0:0:
90,196,24782,2,0,P|128:170|171:169,1,72.8999977752686,10|0,0:0|0:0,0:0:0:0:
256,79,25100,2,0,L|270:199,1,109.349996662903,10|0,0:0|0:0,0:0:0:0:
257,231,25417,1,2,1:2:0:0:
389,62,25576,2,0,L|377:137,1,60.75,10|0,0:0|0:0,0:0:0:0:
351,156,25893,6,0,L|367:284,1,109.349996662903,2|0,1:2|0:0,0:0:0:0:
349,336,26211,2,0,P|305:353|249:347,1,72.8999977752686,8|0,0:0|0:0,0:0:0:0:
141,260,26528,1,0,1:2:0:0:
201,349,26687,1,2,1:2:0:0:
233,212,26846,1,0,0:0:0:0:
105,349,27004,6,0,P|45:324|27:238,1,145.799995550537,10|2,0:0|1:2,0:0:0:0:
114,84,27481,2,0,P|134:151|144:219,1,109.349996662903,10|2,0:0|1:2,0:0:0:0:
174,258,27798,1,2,1:2:0:0:
190,267,27877,1,2,1:2:0:0:
214,273,27957,2,0,P|246:265|272:253,1,36.4499988876343,2|2,1:2|1:2,0:0:0:0:
340,97,28116,1,10,0:0:0:0:
217,166,28274,1,10,0:0:0:0:
368,264,28433,6,0,B|460:260|408:212|506:205,1,145.799995550537,2|8,1:2|0:0,0:0:0:0:
337,183,28909,1,2,0:0:0:0:
248,360,29068,2,0,L|256:265,1,72.8999977752686,2|0,1:2|0:0,0:0:0:0:
101,180,29385,1,2,0:0:0:0:
159,301,29544,1,8,0:0:0:0:
199,134,29703,6,0,P|240:105|291:94,1,72.8999977752686,2|2,0:0|1:2,0:0:0:0:
78,271,30020,2,0,P|30:253|4:224,1,72.8999977752686,8|2,0:0|1:2,0:0:0:0:
2,207,30258,1,0,1:2:0:0:
2,207,30338,1,2,1:2:0:0:
69,67,30496,1,2,1:2:0:0:
122,199,30655,1,8,0:0:0:0:
192,28,30814,1,0,1:2:0:0:
192,28,30893,1,0,1:2:0:0:
192,28,30973,6,0,P|248:8|322:29,1,109.349996662903,4|0,1:2|0:0,0:0:0:0:
341,79,31290,2,0,P|384:95|434:94,1,72.8999977752686,8|2,0:0|0:0,0:0:0:0:
482,146,31528,1,2,0:0:0:0:
482,146,31608,2,0,P|429:171|390:169,1,72.8999977752686,2|2,1:2|0:0,0:0:0:0:
337,249,31925,2,0,B|273:231|315:199|226:183,1,109.349996662903,8|0,0:0|0:0,0:0:0:0:
183,150,32243,6,0,P|200:202|208:290,1,109.349996662903,4|0,1:2|0:0,0:0:0:0:
167,325,32560,2,0,P|110:312|87:291,1,72.8999977752686,8|2,0:0|0:0,0:0:0:0:
48,231,32798,1,2,0:0:0:0:
48,231,32877,2,0,P|93:217|128:226,1,72.8999977752686,2|2,1:2|0:0,0:0:0:0:
277,315,33195,1,8,0:0:0:0:
126,116,33512,5,4,1:2:0:0:
258,4,33830,2,0,P|250:45|253:91,1,72.8999977752686,8|2,0:0|0:0,0:0:0:0:
313,126,34068,1,2,0:0:0:0:
313,126,34147,2,0,P|322:180|321:228,1,72.8999977752686,2|2,1:2|0:0,0:0:0:0:
413,293,34465,2,0,P|416:239|425:193,1,72.8999977752686,8|2,0:0|0:0,0:0:0:0:
223,181,34782,5,4,1:2:0:0:
315,340,34941,2,0,B|222:322|278:281|158:272,1,145.799995550537,2|2,0:0|0:0,0:0:0:0:
157,290,35338,1,2,0:0:0:0:
157,290,35417,1,2,1:2:0:0:
8,195,35576,1,2,0:0:0:0:
56,358,35735,2,0,L|64:265,1,72.8999977752686,8|2,0:0|0:0,0:0:0:0:
152,77,36052,6,0,L|172:190,1,109.349996662903,4|0,0:0|0:0,0:0:0:0:
228,237,36370,2,0,P|273:243|326:228,1,72.8999977752686,12|0,0:0|0:0,0:0:0:0:
400,98,36687,2,0,L|455:90,2,36.4499988876343,0|0|8,1:0|1:0|0:0,0:0:0:0:
254,136,37004,1,8,0:0:0:0:
431,197,37163,1,0,1:0:0:0:
431,197,37243,1,0,1:0:0:0:
431,197,37322,5,8,0:0:0:0:
353,18,37481,1,8,0:0:0:0:
303,216,37639,1,0,1:2:0:0:
477,116,37798,1,0,1:2:0:0:
221,58,37957,5,8,0:0:0:0:
397,279,38116,1,8,0:0:0:0:
64,111,38433,6,0,B|188:124|99:176|234:195,1,178.200005438233,6|0,0:0|1:0,0:0:0:0:
361,93,38909,2,0,L|344:205,1,89.1000027191163,8|0,0:0|0:0,0:0:0:0:
317,337,39227,1,0,1:0:0:0:
317,337,39385,1,0,1:0:0:0:
452,178,39544,2,0,L|468:292,1,89.1000027191163,8|0,0:0|1:0,0:0:0:0:
237,378,39862,6,0,P|155:362|103:266,1,178.200005438233,2|8,0:0|0:0,0:0:0:0:
244,140,40338,1,0,1:0:0:0:
395,259,40496,2,0,B|290:233|331:301|198:279,1,178.200005438233,2|8,0:0|0:0,0:0:0:0:
98,126,40973,6,0,B|138:189|138:189|101:298,1,178.200005438233,4|0,0:0|1:0,0:0:0:0:
325,384,41449,2,0,L|311:254,1,89.1000027191163,8|0,0:0|0:0,0:0:0:0:
442,91,41766,2,0,L|432:179,1,89.1000027191163,0|0,1:0|1:0,0:0:0:0:
228,202,42084,1,10,0:0:0:0:
228,202,42243,1,0,1:0:0:0:
384,278,42401,6,0,P|434:303|501:291,1,89.1000027191163,2|2,0:0|1:2,0:0:0:0:
314,127,42719,2,0,P|266:98|203:96,1,89.1000027191163,8|2,0:0|1:2,0:0:0:0:
284,353,43036,2,0,L|299:249,1,89.1000027191163,2|0,0:0|0:0,0:0:0:0:
394,189,43354,1,8,0:0:0:0:
178,293,43512,6,0,B|65:271|142:230|6:197,1,178.200005438233,4|2,0:0|1:2,0:0:0:0:
224,59,43989,2,0,L|240:171,1,89.1000027191163,10|0,0:0|0:0,0:0:0:0:
350,305,44306,2,0,L|362:216,1,89.1000027191163,2|0,1:2|1:0,0:0:0:0:
179,209,44623,1,8,0:0:0:0:
321,61,44782,6,0,P|389:52|448:157,1,178.200005438233,2|2,1:2|1:2,0:0:0:0:
248,280,45258,1,8,0:0:0:0:
248,280,45417,1,2,1:2:0:0:
416,375,45576,2,0,L|408:255,1,89.1000027191163,2|0,0:0|0:0,0:0:0:0:
308,158,45893,1,8,0:0:0:0:
150,371,46052,6,0,B|111:310|111:310|140:198,1,178.200005438233,6|0,0:0|1:0,0:0:0:0:
236,92,46528,2,0,P|262:71|344:73,1,89.1000027191163,10|8,0:0|0:0,0:0:0:0:
433,267,46846,2,0,P|369:259|329:219,1,89.1000027191163,2|2,1:2|1:2,0:0:0:0:
207,186,47163,1,8,0:0:0:0:
400,78,47322,6,0,L|391:186,1,89.1000027191163,10|0,2:3|0:0,0:0:0:0:
274,357,47639,2,0,L|266:268,1,89.1000027191163,2|8,1:2|0:0,0:0:0:0:
180,72,47957,1,2,1:2:0:0:
346,195,48116,1,8,0:0:0:0:
121,234,48274,1,8,0:0:0:0:
267,57,48433,1,8,0:0:0:0:
368,304,48592,6,0,P|443:294|488:190,1,178.200005438233,4|0,0:0|1:0,0:0:0:0:
207,186,49068,2,0,L|225:302,1,89.1000027191163,8|0,0:0|0:0,0:0:0:0:
387,179,49385,2,0,L|400:90,1,89.1000027191163,0|0,1:0|1:0,0:0:0:0:
264,16,49703,1,8,0:0:0:0:
264,16,49862,1,0,1:0:0:0:
125,217,50020,6,0,P|67:206|32:162,1,89.1000027191163,2|0,0:0|1:0,0:0:0:0:
273,110,50338,2,0,P|318:87|377:84,1,89.1000027191163,8|0,0:0|1:0,0:0:0:0:
244,315,50655,2,0,L|255:212,1,89.1000027191163,2|0,0:0|0:0,0:0:0:0:
169,126,50973,1,8,0:0:0:0:
357,253,51131,6,0,B|466:246|390:190|532:167,1,178.200005438233,4|0,0:0|1:0,0:0:0:0:
295,24,51608,2,0,P|276:85|272:150,1,89.1000027191163,8|0,0:0|0:0,0:0:0:0:
164,251,51925,2,0,P|156:207|141:165,1,89.1000027191163,0|0,1:0|1:0,0:0:0:0:
287,203,52243,1,10,0:0:0:0:
287,203,52401,1,2,1:2:0:0:
192,98,52560,6,0,P|134:75|84:83,1,89.1000027191163,2|2,0:0|1:2,0:0:0:0:
67,231,52877,1,8,0:0:0:0:
2,42,53036,2,0,P|43:4|115:-7,1,89.1000027191163,2|2,1:2|0:0,0:0:0:0:
201,187,53354,1,0,0:0:0:0:
284,21,53512,1,8,0:0:0:0:
108,76,53671,6,0,B|235:63|153:127|295:119,1,178.200005438233,4|0,0:0|1:0,0:0:0:0:
423,35,54147,2,0,P|403:91|397:156,1,89.1000027191163,8|0,0:0|0:0,0:0:0:0:
314,289,54465,2,0,P|305:245|289:203,1,89.1000027191163,0|0,1:0|1:0,0:0:0:0:
447,239,54782,1,8,0:0:0:0:
269,371,54941,6,0,P|202:377|131:289,1,178.200005438233,2|2,1:2|1:2,0:0:0:0:
66,170,55417,1,8,0:0:0:0:
66,170,55576,1,2,1:2:0:0:
237,96,55735,2,0,L|218:207,1,89.1000027191163,0|2,0:0|0:0,0:0:0:0:
124,77,56052,1,10,0:0:0:0:
343,249,56211,6,0,L|327:61,1,178.200005438233,6|0,0:0|1:0,0:0:0:0:
466,205,56687,2,0,L|453:314,1,89.1000027191163,8|2,0:0|0:0,0:0:0:0:
249,369,57004,2,0,L|264:258,1,89.1000027191163,0|0,1:0|1:0,0:0:0:0:
103,146,57322,1,8,0:0:0:0:
60,156,57401,1,8,0:0:0:0:
31,189,57480,1,8,0:0:0:0:
28,233,57560,1,8,0:0:0:0:
49,274,57639,6,0,P|68:298|91:317,3,44.5500013595581,4|0|8|8,1:2|1:0|0:0|0:0,0:0:0:0:
137,240,57957,2,0,P|167:235|195:225,3,44.5500013595581,8|0|8|8,0:0|1:0|0:0|0:0,0:0:0:0:
234,96,58274,2,0,L|250:165,1,44.5500013595581,4|0,1:2|1:0,0:0:0:0:
306,285,58433,2,0,L|316:217,1,44.5500013595581,0|8,1:0|0:0,0:0:0:0:
369,91,58592,1,8,0:0:0:0:
411,79,58671,1,8,0:0:0:0:
453,91,58750,1,8,0:0:0:0:
482,124,58830,1,8,0:0:0:0:
492,170,58909,6,0,P|504:222|503:273,1,76.9499979452134,4|0,0:0|1:0,0:0:0:0:
456,303,59147,1,0,1:0:0:0:
456,303,59227,2,0,P|448:350|451:407,1,76.9499979452134,8|0,0:0|1:0,0:0:0:0:
343,180,59544,2,0,P|292:158|249:166,1,76.9499979452134,0|0,0:0|1:0,0:0:0:0:
220,214,59782,1,0,1:0:0:0:
220,214,59862,2,0,P|168:226|115:217,1,76.9499979452134,8|0,0:0|0:0,0:0:0:0:
63,128,60179,5,0,0:0:0:0:
63,128,60338,1,2,0:0:0:0:
161,17,60496,2,0,P|170:61|170:129,1,76.9499979452134,8|0,0:0|1:0,0:0:0:0:
249,131,60735,1,0,1:0:0:0:
249,131,60814,2,0,P|254:64|266:29,1,76.9499979452134,2|2,0:0|0:0,0:0:0:0:
363,3,61131,2,0,P|389:62|396:143,1,115.42499691782,10|0,0:0|0:0,0:0:0:0:
454,166,61449,6,0,P|448:212|447:275,1,76.9499979452134,4|0,0:0|1:0,0:0:0:0:
487,309,61687,1,0,1:0:0:0:
487,309,61766,2,0,P|433:323|406:317,1,76.9499979452134,8|0,0:0|1:0,0:0:0:0:
262,344,62084,2,0,P|256:298|255:235,1,76.9499979452134,0|0,0:0|1:0,0:0:0:0:
295,201,62322,1,0,1:0:0:0:
295,201,62401,2,0,P|241:187|214:193,1,76.9499979452134,8|0,0:0|0:0,0:0:0:0:
141,336,62719,5,2,0:0:0:0:
104,347,62798,1,0,0:0:0:0:
67,339,62877,1,2,0:0:0:0:
39,313,62957,1,0,0:0:0:0:
20,273,63036,2,0,P|15:226|36:169,1,76.9499979452134,8|0,0:0|0:0,0:0:0:0:
159,65,63354,1,2,0:0:0:0:
172,57,63433,1,0,0:0:0:0:
185,51,63512,1,2,0:0:0:0:
201,51,63592,1,0,0:0:0:0:
219,52,63671,2,0,P|263:59|299:93,1,76.9499979452134,10|0,0:0|0:0,0:0:0:0:
429,233,63989,6,0,P|379:247|334:238,1,76.9499979452134,4|0,0:0|1:0,0:0:0:0:
295,201,64227,1,0,1:0:0:0:
295,201,64306,2,0,P|242:185|191:190,1,76.9499979452134,8|0,0:0|1:0,0:0:0:0:
72,341,64623,2,0,P|122:355|167:346,1,76.9499979452134,0|0,0:0|1:0,0:0:0:0:
206,309,64861,1,0,1:0:0:0:
206,309,64941,2,0,P|254:295|299:306,1,76.9499979452134,8|0,0:0|1:0,0:0:0:0:
391,364,65258,5,2,0:0:0:0:
391,364,65417,1,2,0:0:0:0:
459,304,65576,2,0,P|467:246|464:201,1,76.9499979452134,8|0,0:0|1:0,0:0:0:0:
416,169,65814,1,0,1:0:0:0:
416,169,65893,2,0,P|412:125|422:76,1,76.9499979452134,2|2,0:0|0:0,0:0:0:0:
473,18,66211,1,10,0:0:0:0:
295,188,66528,6,0,P|238:207|192:200,1,76.9499979452134,4|0,0:0|1:0,0:0:0:0:
165,153,66766,1,0,1:0:0:0:
165,153,66846,2,0,P|102:131|60:137,1,76.9499979452134,8|0,0:0|1:0,0:0:0:0:
170,286,67163,1,0,0:0:0:0:
259,99,67322,1,0,1:0:0:0:
259,99,67401,1,0,1:0:0:0:
259,99,67481,2,0,P|302:75|355:73,1,76.9499979452134,8|0,0:0|0:0,0:0:0:0:
475,144,67798,6,0,P|466:195|467:252,1,76.9499979452134,2|2,0:0|0:0,0:0:0:0:
390,256,68036,1,0,0:0:0:0:
390,256,68116,2,0,P|385:200|370:153,1,76.9499979452134,8|0,0:0|0:0,0:0:0:0:
271,290,68433,2,0,P|269:313|269:343,3,38.4749989726067,2|0|2|0,0:0|0:0|0:0|0:0,0:0:0:0:
190,373,68750,1,10,0:0:0:0:
141,382,68830,1,8,0:0:0:0:
92,368,68909,1,8,0:0:0:0:
51,337,68989,1,8,0:0:0:0:
21,296,69068,6,0,P|23:226|16:142,2,153.899995890427,4|8|0,0:0|0:0|1:0,0:0:0:0:
124,134,69862,1,2,1:2:0:0:
140,247,70020,2,0,P|140:200|152:151,1,76.9499979452134,8|2,0:0|1:2,0:0:0:0:
233,69,70338,6,0,B|335:76|265:129|383:142,1,153.899995890427,2|8,0:0|0:0,0:0:0:0:
512,87,70814,1,2,1:2:0:0:
457,239,70973,2,0,L|444:131,1,76.9499979452134,2|2,0:0|0:0,0:0:0:0:
307,236,71290,2,0,L|291:330,1,76.9499979452134,8|2,0:0|1:2,0:0:0:0:
156,374,71608,6,0,P|98:383|35:291,1,153.899995890427,2|8,0:0|0:0,0:0:0:0:
139,176,72084,1,2,0:0:0:0:
205,304,72243,2,0,P|217:244|218:199,1,76.9499979452134,0|0,1:0|1:0,0:0:0:0:
45,129,72560,2,0,P|31:180|36:229,1,76.9499979452134,8|0,0:0|1:0,0:0:0:0:
169,71,72877,5,8,0:0:0:0:
126,207,73036,1,0,1:0:0:0:
226,12,73195,5,4,0:0:0:0:
233,189,73354,1,0,1:0:0:0:
319,79,73512,6,0,L|340:14,2,51.2999986301422,10|8|8,0:0|0:0|0:0,0:0:0:0:
380,139,73830,2,0,L|395:187,2,51.2999986301422,8|8|8,0:0|0:0|0:0,0:0:0:0:
431,63,74153,5,10,0:0:0:0:
105,366,75616,6,0,P|105:318|96:266,1,81,8|0,0:0|1:0,0:0:0:0:
164,248,75890,2,0,P|168:188|182:141,1,81,0|0,1:0|1:0,0:0:0:0:
101,135,76165,2,0,L|96:86,1,40.5,0|0,1:0|1:0,0:0:0:0:
143,27,76348,2,0,B|229:30|170:73|274:89,1,121.5,8|2,0:0|0:0,0:0:0:0:
317,61,76713,1,10,0:0:0:0:
329,75,76805,1,0,1:0:0:0:
333,94,76896,1,0,1:0:0:0:
329,115,76988,1,0,1:0:0:0:
321,132,77079,6,0,P|306:181|302:278,1,115.42499691782,4|10,0:0|0:0,0:0:0:0:
349,298,77445,2,0,P|357:343|361:385,1,76.9499979452134,0|10,1:0|0:0,0:0:0:0:
171,376,77811,6,0,B|90:357|149:323|53:307,1,115.42499691782,0|10,1:0|0:0,0:0:0:0:
10,270,78177,2,0,P|52:236|91:238,1,76.9499979452134,0|10,1:0|0:0,0:0:0:0:
192,127,78543,6,0,L|214:256,1,115.42499691782,4|10,0:0|0:0,0:0:0:0:
261,273,78909,2,0,L|248:196,1,76.9499979452134,0|10,1:0|0:0,0:0:0:0:
388,29,79274,6,0,P|376:84|377:132,1,76.9499979452134,0|0,1:0|0:0,0:0:0:0:
431,155,79549,2,0,P|443:198|441:250,1,76.9499979452134,10|0,0:0|0:0,0:0:0:0:
398,291,79823,1,10,0:0:0:0:
282,100,80006,6,0,B|205:85|237:138|136:122,1,115.42499691782,4|10,0:0|0:0,0:0:0:0:
118,73,80372,2,0,P|81:53|34:51,1,76.9499979452134,0|10,0:0|0:0,0:0:0:0:
58,296,80738,6,0,L|77:174,1,115.42499691782,0|10,1:0|0:0,0:0:0:0:
115,171,81104,2,0,L|104:258,1,76.9499979452134,0|10,0:0|0:0,0:0:0:0:
198,363,81470,6,0,P|253:379|310:349,1,115.42499691782,4|10,0:0|0:0,0:0:0:0:
346,294,81835,2,0,P|378:266|425:262,1,76.9499979452134,0|10,0:0|0:0,0:0:0:0:
504,365,82201,6,0,L|494:231,1,115.42499691782,0|10,1:0|0:0,0:0:0:0:
480,211,82567,1,0,1:0:0:0:
406,361,82750,1,10,0:0:0:0:
241,254,82933,6,0,P|233:186|244:112,1,115.42499691782,4|10,0:0|0:0,0:0:0:0:
255,102,83299,1,0,1:0:0:0:
88,234,83482,1,10,0:0:0:0:
129,2,83665,6,0,L|147:125,1,115.42499691782,0|10,1:0|0:0,0:0:0:0:
142,155,84031,1,0,1:0:0:0:
253,18,84213,1,10,0:0:0:0:
323,211,84396,6,0,B|399:199|367:249|453:233,1,115.42499691782,4|10,0:0|0:0,0:0:0:0:
466,219,84762,1,0,1:0:0:0:
369,104,84945,1,10,0:0:0:0:
230,336,85128,6,0,B|213:290|213:290|229:202,1,115.42499691782,0|10,1:0|0:0,0:0:0:0:
235,189,85494,1,0,0:0:0:0:
96,288,85677,1,10,0:0:0:0:
0,198,85860,6,0,P|10:150|5:95,1,76.9499979452134,4|0,0:0|0:0,0:0:0:0:
84,63,86134,2,0,P|84:101|93:138,1,76.9499979452134,10|0,0:0|0:0,0:0:0:0:
147,196,86409,1,10,0:0:0:0:
258,46,86592,6,0,P|295:22|351:22,1,76.9499979452134,0|0,1:0|0:0,0:0:0:0:
401,106,86866,2,0,P|352:109|320:88,1,76.9499979452134,10|0,0:0|0:0,0:0:0:0:
256,129,87140,1,10,0:0:0:0:
512,274,87323,6,0,P|460:243|416:242,1,76.9499979452134,4|0,0:0|1:0,0:0:0:0:
378,281,87598,1,0,1:0:0:0:
378,281,87689,2,0,P|356:250|344:222,3,38.4749989726067,8|0|0|0,0:0|1:0|1:0|1:0,0:0:0:0:
264,251,88055,2,0,P|279:216|298:191,3,38.4749989726067,8|0|8|8,0:0|1:0|0:0|0:0,0:0:0:0:
199,344,88421,1,8,0:0:0:0:
177,352,88512,1,8,0:0:0:0:
152,350,88604,1,8,0:0:0:0:
126,343,88695,1,8,0:0:0:0:
109,330,88787,6,0,P|102:284|109:230,1,81,4|0,0:0|0:0,0:0:0:0:
166,207,89061,2,0,P|175:150|171:104,1,81,10|0,0:0|0:0,0:0:0:0:
120,73,89335,1,10,0:0:0:0:
255,22,89518,6,0,P|309:4|362:17,1,81,0|0,1:0|0:0,0:0:0:0:
375,71,89793,2,0,P|418:86|475:80,1,81,10|0,0:0|0:0,0:0:0:0:
509,33,90067,1,10,0:0:0:0:
489,232,90250,6,0,P|451:209|388:203,1,81,4|0,0:0|0:0,0:0:0:0:
357,252,90524,2,0,P|304:264|256:251,1,81,10|0,0:0|0:0,0:0:0:0:
227,206,90799,1,10,0:0:0:0:
74,264,90982,6,0,P|64:191|84:113,2,121.5,0|10|10,1:0|0:0|0:0,0:0:0:0:
223,337,91713,6,0,L|315:304,1,81,4|0,0:0|0:0,0:0:0:0:
347,249,91988,2,0,L|429:272,1,81,10|0,0:0|0:0,0:0:0:0:
466,336,92262,1,10,0:0:0:0:
395,165,92445,6,0,P|349:135|298:131,1,81,0|0,1:0|0:0,0:0:0:0:
258,171,92720,2,0,P|208:180|159:164,1,81,10|0,0:0|0:0,0:0:0:0:
132,113,92994,1,10,0:0:0:0:
89,251,93177,6,0,B|17:245|59:204|-41:193,2,121.5,4|10|10,0:0|0:0|0:0,0:0:0:0:
203,366,93909,6,0,P|262:360|292:330,1,81,0|0,1:0|0:0,0:0:0:0:
349,296,94183,2,0,P|305:265|257:263,1,81,10|0,0:0|0:0,0:0:0:0:
203,280,94457,1,10,0:0:0:0:
131,178,94640,6,0,P|140:121|134:73,1,81,4|0,0:0|0:0,0:0:0:0:
235,49,94915,2,0,P|219:99|217:160,1,81,10|0,0:0|0:0,0:0:0:0:
260,187,95189,1,10,0:0:0:0:
346,62,95372,6,0,P|382:30|437:26,1,81,0|0,1:0|0:0,0:0:0:0:
504,111,95646,2,0,P|462:116|416:94,1,81,10|0,0:0|0:0,0:0:0:0:
359,146,95921,1,10,0:0:0:0:
396,279,96104,6,0,B|478:277|430:234|519:231,2,121.5,4|10|10,0:0|0:0|0:0,0:0:0:0:
204,355,96835,6,0,P|155:371|118:365,1,81,0|0,1:0|0:0,0:0:0:0:
53,319,97110,2,0,P|104:286|151:292,1,81,10|0,0:0|0:0,0:0:0:0:
197,264,97384,1,10,0:0:0:0:
315,142,97567,6,0,L|225:102,1,81,4|0,0:0|0:0,0:0:0:0:
171,148,97842,2,0,L|77:167,1,81,10|0,0:0|0:0,0:0:0:0:
30,119,98116,1,10,0:0:0:0:
122,25,98299,6,0,P|162:4|224:4,1,81,0|0,1:0|0:0,0:0:0:0:
265,34,98573,2,0,P|310:49|366:41,1,81,10|0,0:0|0:0,0:0:0:0:
408,6,98848,1,10,0:0:0:0:
473,96,99031,6,0,L|465:193,1,81,4|0,0:0|1:0,0:0:0:0:
411,230,99305,1,0,1:0:0:0:
411,230,99396,2,0,L|422:326,1,81,8|0,0:0|1:0,0:0:0:0:
362,364,99671,1,0,1:0:0:0:
362,364,99762,2,0,P|327:375|300:374,3,40.5,8|0|8|8,0:0|1:0|0:0|0:0,0:0:0:0:
248,334,100128,1,8,0:0:0:0:
246,325,100220,1,8,0:0:0:0:
245,315,100311,1,8,0:0:0:0:
245,307,100402,1,8,0:0:0:0:
243,291,100494,6,0,P|177:262|104:282,2,121.5,0|8|0,1:0|0:0|1:0,0:0:0:0:
302,172,101226,2,0,P|368:143|441:163,2,121.5,2|8|0,1:2|0:0|1:0,0:0:0:0:
148,63,101957,6,0,B|67:62|113:108|-1:110,2,121.5,2|8|0,1:2|0:0|1:0,0:0:0:0:
242,11,102689,1,2,1:2:0:0:
254,29,102781,1,0,1:0:0:0:
260,56,102872,1,0,1:0:0:0:
263,86,102963,1,0,1:0:0:0:
258,116,103055,2,0,P|247:167|247:234,1,91.125003476143,8|0,0:0|0:0,0:0:0:0:
294,271,103421,6,0,B|377:264|338:226|428:226,1,121.5,6|10,0:0|0:0,0:0:0:0:
442,244,103787,1,0,0:0:0:0:
372,114,103970,1,10,0:0:0:0:
198,276,104152,6,0,P|142:293|60:254,1,121.5,2|10,1:2|0:0,0:0:0:0:
51,254,104518,1,0,0:0:0:0:
163,147,104701,1,10,0:0:0:0:
291,357,104884,6,0,P|304:295|299:243,1,81,4|0,0:0|0:0,0:0:0:0:
285,249,105159,1,10,0:0:0:0:
285,249,105250,1,0,1:0:0:0:
365,90,105433,1,10,0:0:0:0:
460,165,105616,6,0,B|383:147|416:201|311:181,1,121.5,2|10,1:2|0:0,0:0:0:0:
305,163,105982,1,0,1:0:0:0:
225,28,106165,1,10,0:0:0:0:
81,230,106348,6,0,P|72:175|87:97,1,121.5,4|10,0:0|0:0,0:0:0:0:
101,74,106713,1,0,1:0:0:0:
187,194,106896,1,10,0:0:0:0:
40,323,107079,6,0,P|96:341|172:318,1,121.5,2|10,1:2|0:0,0:0:0:0:
181,301,107445,2,0,L|239:310,2,54,2|2|2,1:2|0:0|0:0,0:0:0:0:
423,263,107811,6,0,P|381:235|333:235,1,81,4|0,0:0|0:0,0:0:0:0:
324,249,108085,1,10,0:0:0:0:
324,249,108177,1,0,0:0:0:0:
222,120,108360,1,8,0:0:0:0:
98,271,108543,6,0,P|98:219|107:161,1,81,2|0,1:2|0:0,0:0:0:0:
114,159,108817,1,10,0:0:0:0:
114,159,108909,1,0,0:0:0:0:
225,277,109092,1,10,0:0:0:0:
314,106,109274,6,0,P|357:83|440:101,1,121.5,4|10,0:0|0:0,0:0:0:0:
453,125,109640,1,0,1:0:0:0:
357,227,109823,1,10,0:0:0:0:
239,54,110006,6,0,P|225:98|223:167,1,81,2|0,1:2|0:0,0:0:0:0:
221,173,110281,1,10,0:0:0:0:
221,173,110372,1,0,1:0:0:0:
119,59,110555,1,10,0:0:0:0:
35,178,110738,6,0,L|49:314,1,121.5,4|10,0:0|0:0,0:0:0:0:
56,344,111104,1,0,0:0:0:0:
159,245,111287,1,10,0:0:0:0:
240,357,111470,6,0,P|297:364|345:337,1,81,2|0,1:2|0:0,0:0:0:0:
341,330,111744,1,0,0:0:0:0:
341,330,111835,1,2,1:2:0:0:
404,190,112018,1,10,0:0:0:0:
508,384,112201,6,0,P|514:318|502:259,1,121.5,4|10,0:0|0:0,0:0:0:0:
486,232,112567,1,0,0:0:0:0:
425,339,112750,1,10,0:0:0:0:
303,231,112933,6,0,P|263:201|166:187,1,121.5,2|10,1:2|0:0,0:0:0:0:
160,214,113299,1,0,1:0:0:0:
256,98,113482,1,10,0:0:0:0:
85,119,113665,6,0,P|70:164|66:227,1,81,4|0,0:0|1:0,0:0:0:0:
19,262,113939,1,0,1:0:0:0:
19,262,114031,2,0,P|26:291|29:329,3,40.5,8|0|0|0,0:0|1:0|1:0|1:0,0:0:0:0:
99,363,114396,2,0,L|148:356,1,40.5,8|0,0:0|1:0,0:0:0:0:
229,274,114579,2,0,L|161:240,1,40.5,8|8,0:0|0:0,0:0:0:0:
268,377,114762,1,8,0:0:0:0:
292,369,114854,1,8,0:0:0:0:
313,352,114945,1,8,0:0:0:0:
331,331,115037,1,8,0:0:0:0:
343,297,115128,5,4,0:0:0:0:
76,43,119889,6,0,P|86:89|88:119,1,58.3200014238282,2|0,0:0|1:0,0:0:0:0:
53,170,120128,1,0,1:0:0:0:
53,170,120207,2,0,B|122:157|106:215|183:207,1,121.500004634857,12|0,0:0|0:0,0:0:0:0:
236,28,120842,1,8,0:0:0:0:
236,28,121318,6,0,P|288:-1|366:21,1,121.500004634857,0|0,1:0|1:0,0:0:0:0:
478,163,121794,2,0,P|427:143|411:120,1,60.7500023174287,0|0,1:0|0:0,0:0:0:0:
342,109,122112,2,0,L|479:88,1,121.500004634857,8|0,0:0|0:0,0:0:0:0:
343,220,122588,1,0,0:0:0:0:
236,114,122747,6,0,P|226:176|231:253,1,121.500004634857,0|0,1:0|0:0,0:0:0:0:
129,368,123381,1,8,0:0:0:0:
129,368,123858,6,0,P|127:312|117:286,1,60.7500023174287,0|0,1:0|0:0,0:0:0:0:
184,204,124175,1,0,1:0:0:0:
42,311,124334,2,0,P|45:254|54:226,1,60.7500023174287,0|0,1:0|0:0,0:0:0:0:
124,123,124651,2,0,P|137:166|140:207,1,60.7500023174287,8|0,0:0|0:0,0:0:0:0:
209,302,124969,1,2,0:0:0:0:
278,190,125127,1,0,1:0:0:0:
278,190,125207,1,0,1:0:0:0:
278,190,125286,6,0,B|354:184|317:151|405:137,1,121.500004634857,12|0,0:0|0:0,0:0:0:0:
502,384,125921,1,8,0:0:0:0:
502,384,126239,1,0,1:2:0:0:
426,350,126397,6,0,L|435:224,1,121.500004634857,0|0,1:0|1:2,0:0:0:0:
503,125,126874,2,0,L|515:200,1,60.7500023174287,0|0,1:0|0:0,0:0:0:0:
352,59,127191,1,10,0:0:0:0:
129,252,127826,6,0,P|104:192|109:121,1,121.500004634857,0|0,1:0|0:0,0:0:0:0:
330,368,128461,1,8,0:0:0:0:
330,368,128937,6,0,P|337:319|336:285,1,60.7500023174287,0|0,1:0|0:0,0:0:0:0:
316,192,129254,1,0,1:0:0:0:
413,319,129413,2,0,P|419:266|426:238,1,60.7500023174287,0|0,1:0|0:0,0:0:0:0:
512,156,129731,6,0,P|482:130|440:121,1,60.7500023174287,8|0,0:0|0:0,0:0:0:0:
426,135,129969,1,8,0:0:0:0:
214,35,130996,5,4,0:0:0:0:
90,172,131154,2,0,B|185:169|137:115|252:116,1,162,2|2,0:0|1:2,0:0:0:0:
356,49,131630,2,0,L|342:141,1,81,8|0,0:0|0:0,0:0:0:0:
290,254,131948,1,2,0:0:0:0:
393,223,132107,1,2,0:0:0:0:
267,173,132265,5,8,0:0:0:0:
352,307,132424,1,2,1:2:0:0:
455,149,132583,2,0,P|473:189|479:239,1,81,8|0,0:0|0:0,0:0:0:0:
295,364,132900,1,2,1:2:0:0:
441,323,133059,1,2,1:2:0:0:
260,265,133218,2,0,P|216:246|170:244,1,81,8|2,0:0|0:0,0:0:0:0:
7,288,133535,5,4,0:0:0:0:
111,362,133694,2,0,B|86:307|86:307|107:187,1,162,2|2,1:2|1:2,0:0:0:0:
187,113,134170,2,0,L|195:212,1,81,10|0,0:0|0:0,0:0:0:0:
330,108,134488,1,2,1:2:0:0:
234,17,134646,1,2,1:2:0:0:
279,182,134805,6,0,P|325:201|376:196,1,81,0|2,0:0|1:2,0:0:0:0:
417,66,135122,1,10,0:0:0:0:
490,232,135281,1,0,1:2:0:0:
490,232,135361,1,0,1:2:0:0:
490,232,135440,2,0,P|498:167|485:97,2,121.5,0|0|0,1:2|1:2|1:2,0:0:0:0:
372,325,136075,6,0,P|326:349|261:348,1,81,4|2,0:0|0:0,0:0:0:0:
203,245,136392,2,0,P|266:252|312:281,1,81,8|2,0:0|1:2,0:0:0:0:
170,365,136710,2,0,B|62:335|150:302|34:279,1,162,8|2,0:0|0:0,0:0:0:0:
117,125,137186,1,2,0:0:0:0:
236,161,137345,5,8,0:0:0:0:
104,219,137503,1,2,1:2:0:0:
192,90,137662,2,0,P|236:66|300:71,1,81,8|0,0:0|0:0,0:0:0:0:
323,269,137980,1,2,1:2:0:0:
196,189,138138,1,2,1:2:0:0:
375,142,138297,2,0,L|402:233,1,81,8|0,0:0|0:0,0:0:0:0:
380,340,138615,5,8,0:0:0:0:
503,197,138773,2,0,L|471:364,1,162,2|2,0:0|1:2,0:0:0:0:
297,384,139249,2,0,L|282:274,1,81,8|2,0:0|0:0,0:0:0:0:
168,176,139567,1,8,0:0:0:0:
312,207,139726,1,2,0:0:0:0:
196,299,139884,6,0,P|131:314|89:304,1,81,2|2,0:0|1:2,0:0:0:0:
22,131,140202,1,8,0:0:0:0:
38,257,140361,2,0,L|48:206,1,40.5,0|0,1:2|1:2,0:0:0:0:
105,72,140519,5,8,0:0:0:0:
135,220,140678,1,8,0:0:0:0:
214,22,140837,5,8,0:0:0:0:
204,163,140996,1,8,0:0:0:0:
313,64,141154,6,0,P|329:103|335:157,1,81,4|0,1:2|0:0,0:0:0:0:
407,277,141472,1,10,0:0:0:0:
281,224,141630,1,2,0:0:0:0:
426,105,141789,2,0,P|415:164|415:220,1,81,0|2,1:0|0:0,0:0:0:0:
333,381,142107,2,0,P|329:340|320:301,1,81,10|0,0:0|0:0,0:0:0:0:
173,116,142424,6,0,L|156:211,1,81,2|2,1:2|0:0,0:0:0:0:
66,333,142742,1,8,0:0:0:0:
214,288,142900,1,2,0:0:0:0:
54,166,143059,2,0,L|76:264,1,81,2|2,1:2|0:0,0:0:0:0:
168,388,143376,2,0,L|179:304,1,81,10|2,0:0|0:0,0:0:0:0:
258,166,143694,6,0,P|296:139|349:135,1,81,2|0,1:2|0:0,0:0:0:0:
450,278,144011,1,8,0:0:0:0:
331,231,144170,1,2,0:0:0:0:
447,116,144329,2,0,L|434:211,1,81,0|0,1:0|0:0,0:0:0:0:
308,352,144646,2,0,L|297:271,1,81,8|0,0:0|0:0,0:0:0:0:
207,81,144964,6,0,P|172:58|116:51,1,81,2|2,1:2|0:0,0:0:0:0:
59,210,145281,2,0,P|109:194|138:163,1,81,8|0,0:0|0:0,0:0:0:0:
21,98,145599,1,2,1:2:0:0:
21,98,145757,1,2,0:0:0:0:
201,213,145916,2,0,B|281:201|227:166|330:151,1,121.5,8|0,0:0|0:0,0:0:0:0:
374,104,146234,6,0,P|385:147|376:196,1,81,4|0,1:2|0:0,0:0:0:0:
369,361,146551,1,8,0:0:0:0:
488,268,146710,1,2,0:0:0:0:
309,228,146869,2,0,P|296:284|301:330,1,81,2|2,1:2|0:0,0:0:0:0:
455,178,147186,2,0,P|468:122|463:76,1,81,10|0,0:0|0:0,0:0:0:0:
266,12,147503,6,0,L|285:115,1,81,2|2,1:2|0:0,0:0:0:0:
208,201,147821,1,8,0:0:0:0:
91,100,147980,1,2,0:0:0:0:
117,274,148138,2,0,L|126:175,1,81,2|0,1:2|0:0,0:0:0:0:
182,103,148456,1,10,0:0:0:0:
182,103,148615,1,2,0:0:0:0:
288,234,148773,6,0,B|366:218|320:189|403:162,1,121.5,2|0,1:2|0:0,0:0:0:0:
448,127,149091,2,0,L|432:279,1,133.650004078674,8|0,0:0|1:0,0:0:0:0:
386,322,149408,2,0,P|417:343|460:351,3,44.5500013595581,8|0|0|0,0:0|1:0|1:0|1:0,0:0:0:0:
302,317,149726,2,0,P|311:348|335:386,3,44.5500013595581,8|0|0|0,0:0|1:0|1:0|1:0,0:0:0:0:
220,263,150043,6,0,P|209:293|208:340,3,44.5500013595581,8|0|0|0,0:0|1:0|1:0|1:0,0:0:0:0:
318,197,150361,1,8,0:0:0:0:
318,197,150440,1,0,1:0:0:0:
318,197,150519,2,0,L|328:249,1,44.5500013595581,0|0,1:0|1:0,0:0:0:0:
243,115,150678,1,8,0:0:0:0:
243,115,150757,1,0,1:0:0:0:
243,115,150836,2,0,L|233:167,1,44.5500013595581,0|0,1:0|1:0,0:0:0:0:
179,19,150995,1,8,0:0:0:0:
128,1,151075,1,0,1:0:0:0:
69,8,151154,1,0,1:0:0:0:
26,48,151234,1,0,1:0:0:0:
8,103,151313,6,0,L|35:281,1,165.240001008545,4|8,0:0|0:0,0:0:0:0:
111,353,151789,1,2,0:0:0:0:
219,205,151948,2,0,P|164:171|112:174,1,82.6200005042725,2|2,1:2|0:0,0:0:0:0:
261,351,152265,2,0,P|324:340|363:300,1,82.6200005042725,8|2,0:0|0:0,0:0:0:0:
453,198,152583,6,0,B|343:192|403:239|296:245,1,165.240001008545,0|8,1:2|0:0,0:0:0:0:
225,119,153059,1,2,0:0:0:0:
361,36,153218,2,0,L|341:146,1,82.6200005042725,2|2,1:2|0:0,0:0:0:0:
257,237,153535,2,0,L|242:155,1,82.6200005042725,8|2,0:0|0:0,0:0:0:0:
141,35,153853,6,0,P|89:30|31:128,1,165.240001008545,0|8,1:2|0:0,0:0:0:0:
89,291,154329,1,2,0:0:0:0:
180,183,154488,2,0,P|131:151|80:159,1,82.6200005042725,2|2,1:2|0:0,0:0:0:0:
194,341,154805,1,8,0:0:0:0:
332,134,154964,6,0,B|358:189|358:189|339:297,1,165.240001008545,2|2,0:0|0:0,0:0:0:0:
450,353,155440,2,0,L|437:249,1,82.6200005042725,8|0,0:0|0:0,0:0:0:0:
255,221,155757,2,0,L|270:335,1,82.6200005042725,2|2,1:2|0:0,0:0:0:0:
427,151,156075,1,8,0:0:0:0:
427,151,156234,1,2,0:0:0:0:
311,92,156392,6,0,B|201:76|283:29|151:10,1,165.240001008545,4|8,1:2|0:0,0:0:0:0:
53,94,156869,1,0,0:0:0:0:
140,205,157027,2,0,L|162:91,1,82.6200005042725,4|0,1:2|0:0,0:0:0:0:
51,260,157345,1,10,0:0:0:0:
237,186,157503,1,8,0:0:0:0:
143,336,157662,5,0,1:2:0:0:
143,336,157821,1,8,0:0:0:0:
255,376,157980,2,0,P|309:380|360:349,1,82.6200005042725,10|0,0:0|0:0,0:0:0:0:
439,237,158297,2,0,P|386:210|340:209,1,82.6200005042725,8|8,0:0|0:0,0:0:0:0:
277,273,158615,1,2,1:2:0:0:
277,273,158773,1,8,0:0:0:0:
200,158,158932,6,0,P|207:118|220:81,3,41.3100002521362,0|0|0|0,1:2|1:2|1:2|1:2,0:0:0:0:
152,36,159249,1,2,1:2:0:0:
120,233,159408,2,0,L|113:41,1,165.240001008545,8|0,0:0|1:2,0:0:0:0:
245,2,159884,1,10,0:0:0:0:
336,120,160043,1,0,1:2:0:0:
336,120,160122,1,0,1:2:0:0:
336,120,160202,6,0,L|230:90,1,82.6200005042725,0|0,1:2|1:2,0:0:0:0:
336,245,160519,1,0,0:0:0:0:
401,69,160678,2,0,L|505:28,1,82.6200005042725,8|0,0:0|0:0,0:0:0:0:
512,224,160995,1,0,1:2:0:0:
512,224,161075,1,0,0:0:0:0:
512,224,161154,2,0,P|466:211|441:191,3,41.3100002521362,8|0|0|0,0:0|0:0|1:2|0:0,0:0:0:0:
409,156,161472,6,0,P|393:205|395:265,1,82.6200005042725,8|0,0:0|1:2,0:0:0:0:
333,372,161789,1,0,1:2:0:0:
476,320,161948,1,8,0:0:0:0:
280,201,162107,2,0,P|298:249|301:309,1,82.6200005042725,0|0,1:2|1:2,0:0:0:0:
156,384,162424,2,0,P|161:318|182:267,1,82.6200005042725,8|0,0:0|1:2,0:0:0:0:
125,235,162662,1,0,0:0:0:0:
125,235,162742,6,0,P|133:188|134:161,3,41.3100002521362,8|0|0|0,0:0|1:2|1:2|1:2,0:0:0:0:
201,147,163059,2,0,P|193:100|192:73,3,41.3100002521362,8|0|0|0,0:0|1:2|1:2|1:2,0:0:0:0:
132,46,163376,5,8,0:0:0:0:
372,135,163535,1,8,0:0:0:0:
304,379,163853,6,0,B|425:377|346:309|496:303,1,178.200005438233,6|0,0:0|1:2,0:0:0:0:
285,184,164329,2,0,L|300:297,1,89.1000027191163,10|0,0:0|0:0,0:0:0:0:
209,384,164646,1,2,1:2:0:0:
113,283,164805,1,2,1:2:0:0:
202,235,164964,1,8,0:0:0:0:
116,376,165122,6,0,P|53:370|19:248,1,178.200005438233,2|2,1:2|1:2,0:0:0:0:
92,110,165599,2,0,P|110:164|113:222,1,89.1000027191163,10|2,0:0|1:2,0:0:0:0:
213,349,165916,2,0,P|216:295|230:254,1,89.1000027191163,2|2,1:2|1:2,0:0:0:0:
337,87,166234,1,8,0:0:0:0:
441,286,166392,6,0,P|441:205|422:106,1,178.200005438233,6|0,1:2|1:2,0:0:0:0:
248,21,166869,2,0,P|231:82|238:143,1,89.1000027191163,10|0,0:0|0:0,0:0:0:0:
339,269,167186,2,0,P|336:224|322:182,1,89.1000027191163,2|0,1:2|1:2,0:0:0:0:
140,132,167503,1,8,0:0:0:0:
140,132,167662,1,0,1:2:0:0:
199,336,167821,6,0,L|215:216,1,89.1000027191163,2|2,0:0|1:2,0:0:0:0:
278,119,168138,1,10,0:0:0:0:
115,261,168297,2,0,L|106:149,1,89.1000027191163,2|2,0:0|1:2,0:0:0:0:
79,43,168615,1,2,1:2:0:0:
206,176,168773,1,8,0:0:0:0:
304,28,168932,6,0,B|423:41|348:88|470:109,1,178.200005438233,6|0,1:2|1:2,0:0:0:0:
319,260,169408,2,0,L|310:157,1,89.1000027191163,10|0,0:0|0:0,0:0:0:0:
198,57,169726,2,0,L|173:144,1,89.1000027191163,2|2,1:2|1:2,0:0:0:0:
213,297,170043,1,8,0:0:0:0:
111,75,170202,6,0,L|136:256,1,178.200005438233,2|0,1:2|1:2,0:0:0:0:
299,364,170678,2,0,P|306:303|299:250,1,89.1000027191163,10|0,0:0|0:0,0:0:0:0:
386,164,170995,1,2,1:2:0:0:
213,297,171154,2,0,P|218:236|237:173,1,89.1000027191163,2|8,1:2|0:0,0:0:0:0:
350,65,171472,6,0,P|417:63|484:151,1,178.200005438233,2|2,1:2|1:2,0:0:0:0:
372,307,171948,2,0,L|384:195,1,89.1000027191163,10|2,0:0|0:0,0:0:0:0:
217,111,172265,1,2,1:2:0:0:
267,258,172424,1,2,1:2:0:0:
334,146,172583,1,8,0:0:0:0:
159,227,172742,6,0,B|40:206|116:163|-11:137,1,178.200005438233,2|2,1:2|1:2,0:0:0:0:
232,5,173218,2,0,L|260:215,1,178.200005438233,10|2,0:0|1:2,0:0:0:0:
270,328,173694,1,2,1:2:0:0:
405,147,173853,1,8,0:0:0:0:
493,350,174011,6,0,P|413:346|345:246,1,178.200005438233,6|2,1:2|1:2,0:0:0:0:
490,117,174488,2,0,P|505:180|503:229,1,89.1000027191163,10|0,0:0|0:0,0:0:0:0:
275,209,174805,1,2,1:2:0:0:
358,80,174964,1,2,1:2:0:0:
375,247,175122,1,8,0:0:0:0:
241,94,175281,6,0,P|175:50|71:95,1,178.200005438233,2|2,1:2|1:2,0:0:0:0:
82,308,175757,1,10,0:0:0:0:
206,221,175916,1,2,1:2:0:0:
12,128,176075,2,0,L|30:245,1,89.1000027191163,2|0,1:2|0:0,0:0:0:0:
98,350,176392,1,8,0:0:0:0:
291,173,176551,6,0,B|259:241|259:241|288:371,1,178.200005438233,4|0,1:2|1:2,0:0:0:0:
440,221,177027,2,0,L|420:104,1,89.1000027191163,10|0,0:0|0:0,0:0:0:0:
253,0,177345,2,0,L|237:87,1,89.1000027191163,2|0,1:2|1:2,0:0:0:0:
169,227,177662,1,8,0:0:0:0:
169,227,177821,1,0,1:2:0:0:
341,199,177980,5,2,0:0:0:0:
154,124,178138,1,2,1:2:0:0:
249,339,178297,2,0,L|267:245,1,89.1000027191163,10|2,0:0|0:0,0:0:0:0:
311,81,178615,1,2,1:2:0:0:
198,200,178773,1,2,1:2:0:0:
395,155,178932,1,8,0:0:0:0:
215,0,179091,6,0,L|237:184,1,178.200005438233,6|0,1:2|1:2,0:0:0:0:
314,319,179567,2,0,B|399:315|356:275|465:270,1,133.650004078674,10|0,0:0|0:0,0:0:0:0:
512,245,179884,2,0,P|474:200|407:194,1,89.1000027191163,2|0,1:2|1:2,0:0:0:0:
239,258,180202,1,8,0:0:0:0:
349,57,180361,6,0,L|330:253,1,178.200005438233,2|0,1:2|1:2,0:0:0:0:
223,357,180837,2,0,B|146:344|170:396|53:371,1,133.650004078674,10|0,0:0|0:0,0:0:0:0:
22,334,181154,2,0,P|63:299|106:298,1,89.1000027191163,2|0,1:2|1:2,0:0:0:0:
209,180,181472,1,8,0:0:0:0:
319,384,181630,6,0,P|326:303|310:177,1,178.200005438233,2|2,1:2|1:2,0:0:0:0:
283,136,182027,1,0,1:0:0:0:
283,136,182107,1,8,0:0:0:0:
406,319,182265,2,0,P|413:255|426:193,1,89.1000027191163,2|2,1:2|0:0,0:0:0:0:
463,83,182583,1,0,1:2:0:0:
463,83,182662,1,0,1:0:0:0:
463,83,182742,1,8,0:0:0:0:
289,3,182900,6,0,P|305:51|304:154,1,133.650004078674,6|0,0:0|0:0,0:0:0:0:
368,182,183218,2,0,P|357:224|344:320,1,133.650004078674,6|0,1:2|0:0,0:0:0:0:
289,369,183535,1,2,1:2:0:0:
187,294,183694,2,0,L|169:231,2,44.5500013595581,2|2|4,0:0|0:0|3:0,0:0:0:0:
147,384,184011,1,8,3:0:0:0:
253,186,184170,6,0,B|349:182|293:140|402:129,1,145.799995550537,6|0,0:0|1:0,0:0:0:0:
506,98,184646,2,0,L|495:199,1,72.8999977752686,0|0,1:0|0:0,0:0:0:0:
435,358,184964,2,0,L|418:202,1,145.799995550537,8|0,0:0|0:0,0:0:0:0:
331,346,185440,1,2,1:2:0:0:
242,234,185599,6,0,L|258:314,1,72.8999977752686,0|0,0:0|1:0,0:0:0:0:
156,384,185916,2,0,L|167:312,1,72.8999977752686,0|0,1:0|0:0,0:0:0:0:
64,179,186234,2,0,P|38:251|43:336,1,145.799995550537,8|0,0:0|0:0,0:0:0:0:
165,213,186710,6,0,B|248:198|194:159|299:145,1,145.799995550537,4|0,1:2|1:0,0:0:0:0:
125,48,187186,2,0,L|149:144,1,72.8999977752686,0|0,1:0|0:0,0:0:0:0:
256,0,187503,2,0,L|238:93,1,72.8999977752686,8|0,0:0|1:0,0:0:0:0:
303,202,187821,1,0,0:0:0:0:
372,98,187980,6,0,P|422:75|510:135,2,145.799995550537,2|2|0,1:2|1:2|1:0,0:0:0:0:
409,317,188773,2,0,L|427:164,1,145.799995550537,8|0,0:0|0:0,0:0:0:0:
317,331,189249,6,0,B|229:319|270:378|166:360,1,145.799995550537,4|0,1:2|1:0,0:0:0:0:
165,195,189726,2,0,P|186:240|195:284,1,72.8999977752686,0|0,1:0|0:0,0:0:0:0:
286,84,190043,2,0,P|268:141|266:186,1,72.8999977752686,8|0,0:0|1:0,0:0:0:0:
311,249,190361,1,0,0:0:0:0:
185,95,190519,6,0,P|112:85|60:161,1,145.799995550537,2|0,1:2|1:0,0:0:0:0:
6,311,190995,2,0,P|1:245|-15:208,1,72.8999977752686,0|0,1:0|0:0,0:0:0:0:
119,313,191313,2,0,P|111:348|112:384,2,72.8999977752686,8|0|0,0:0|1:0|0:0,0:0:0:0:
227,204,191789,6,0,B|209:263|209:263|230:351,1,145.799995550537,4|0,1:2|1:0,0:0:0:0:
347,384,192265,2,0,L|357:298,1,72.8999977752686,0|0,1:0|0:0,0:0:0:0:
431,147,192583,1,8,0:0:0:0:
431,147,192662,1,0,1:0:0:0:
431,147,192742,1,0,1:0:0:0:
312,235,192900,2,0,L|303:183,1,36.4499988876343,8|0,0:0|1:0,0:0:0:0:
265,47,193059,1,2,1:2:0:0:
185,198,193218,6,0,L|196:141,2,36.4499988876343,8|0|0,0:0|1:0|1:0,0:0:0:0:
123,279,193535,2,0,L|134:323,2,36.4499988876343,8|0|0,0:0|1:0|1:0,0:0:0:0:
0,182,193853,2,0,L|15:241,1,36.4499988876343,8|0,0:0|0:0,0:0:0:0:
29,358,194011,1,0,1:0:0:0:
99,190,194170,1,8,0:0:0:0:
227,365,194329,6,0,B|345:337|273:298|408:264,1,194.399994067383,6|2,0:0|1:2,0:0:0:0:
494,149,194805,2,0,P|437:118|379:121,1,97.1999970336915,8|0,0:0|1:2,0:0:0:0:
373,141,195043,1,0,1:2:0:0:
373,141,195122,1,10,0:0:0:0:
184,203,195281,1,2,1:2:0:0:
296,46,195440,1,8,0:0:0:0:
274,262,195599,6,0,L|256:62,1,194.399994067383,6|2,0:0|1:2,0:0:0:0:
134,0,196075,2,0,L|119:95,1,97.1999970336915,8|0,0:0|1:2,0:0:0:0:
114,136,196313,1,0,1:2:0:0:
114,136,196392,1,10,0:0:0:0:
168,278,196551,1,2,1:2:0:0:
18,178,196710,1,8,0:0:0:0:
219,190,196869,6,0,B|103:199|173:269|20:270,1,194.399994067383,6|0,0:0|1:2,0:0:0:0:
276,384,197345,2,0,L|287:274,1,97.1999970336915,10|0,0:0|1:2,0:0:0:0:
292,252,197583,1,0,1:2:0:0:
292,252,197662,1,10,0:0:0:0:
371,109,197821,1,2,1:2:0:0:
402,294,197980,1,8,0:0:0:0:
231,168,198138,6,0,P|305:145|415:209,1,194.399994067383,2|2,1:2|1:2,0:0:0:0:
184,351,198615,2,0,P|116:325|89:272,1,97.1999970336915,8|2,0:0|1:2,0:0:0:0:
82,282,198853,1,0,1:2:0:0:
82,282,198932,1,8,0:0:0:0:
147,95,199091,1,2,1:2:0:0:
230,277,199249,1,10,0:0:0:0:
24,202,199408,6,0,B|145:189|70:143|197:117,1,194.399994067383,6|0,0:0|1:2,0:0:0:0:
342,14,199884,2,0,L|328:126,1,97.1999970336915,8|0,0:0|1:2,0:0:0:0:
321,147,200122,1,0,1:2:0:0:
321,147,200202,1,10,0:0:0:0:
416,311,200361,1,2,1:2:0:0:
231,224,200519,1,8,0:0:0:0:
425,96,200678,6,0,L|449:301,1,194.399994067383,6|0,0:0|1:2,0:0:0:0:
259,384,201154,2,0,L|269:271,1,97.1999970336915,8|0,0:0|1:2,0:0:0:0:
231,224,201392,1,0,1:2:0:0:
231,224,201472,2,0,L|224:120,1,97.1999970336915,10|2,0:0|1:2,0:0:0:0:
167,6,201789,1,8,0:0:0:0:
103,227,201948,6,0,L|126:23,1,194.399994067383,4|0,0:0|1:2,0:0:0:0:
0,194,202424,2,0,L|14:308,1,81,0|0,1:2|0:0,0:0:0:0:
162,384,202742,2,0,L|171:303,1,81,8|0,0:0|0:0,0:0:0:0:
240,143,203059,1,0,1:2:0:0:
338,286,203218,1,0,1:2:0:0:
338,286,203297,1,0,1:2:0:0:
338,286,203376,6,0,P|338:229|349:172,1,81,10|0,0:0|0:0,0:0:0:0:
451,56,203694,1,0,1:2:0:0:
451,56,203773,1,0,1:2:0:0:
451,56,203853,2,0,L|463:121,1,40.5,0|0,1:2|1:2,0:0:0:0:
460,208,204011,1,10,0:0:0:0:
319,42,204170,1,0,1:2:0:0:
368,185,204329,1,10,0:0:0:0:
219,104,204488,6,0,B|103:99|183:159|42:159,1,162,6|0,0:0|1:2,0:0:0:0:
34,0,204964,2,0,P|60:44|70:100,1,81,0|0,1:2|0:0,0:0:0:0:
191,272,205281,2,0,P|199:209|220:157,1,81,10|2,0:0|1:2,0:0:0:0:
302,91,205599,1,2,0:0:0:0:
302,91,205757,1,4,3:0:0:0:
341,205,205916,5,0,0:0:0:0:
406,56,206075,2,0,P|426:106|434:234,1,162,2|0,0:0|1:2,0:0:0:0:
319,376,206551,2,0,P|323:308|335:263,1,81,8|0,3:0|1:2,0:0:0:0:
133,112,206869,5,10,0:0:0:0:
180,380,207027,1,10,0:0:0:0:
285,188,207186,6,0,P|223:159|190:163,1,81,6|0,0:0|1:2,0:0:0:0:
39,232,207503,2,0,B|135:215|99:269|217:261,1,162,10|8,0:0|0:0,0:0:0:0:
421,183,207980,2,0,L|404:287,1,81,2|0,1:2|1:2,0:0:0:0:
373,344,208297,6,0,L|356:144,1,162,2|0,0:0|1:2,0:0:0:0:
308,125,208694,1,0,1:2:0:0:
308,125,208773,2,0,L|315:22,1,81,10|0,0:0|1:2,0:0:0:0:
149,181,209091,1,10,0:0:0:0:
243,261,209249,1,2,1:2:0:0:
208,108,209408,1,2,0:0:0:0:
160,270,209567,1,8,0:0:0:0:
318,225,209726,5,6,0:0:0:0:
114,165,209884,1,0,1:2:0:0:
246,339,210043,2,0,P|289:350|351:326,1,81,10|0,0:0|0:0,0:0:0:0:
201,190,210361,1,8,0:0:0:0:
201,190,210519,1,2,1:2:0:0:
111,346,210678,1,0,1:2:0:0:
111,346,210837,1,2,0:0:0:0:
18,242,210995,6,0,L|28:145,1,81,0|0,0:0|1:2,0:0:0:0:
70,100,211234,1,0,1:2:0:0:
70,100,211313,2,0,P|122:78|176:91,1,81,10|0,0:0|1:2,0:0:0:0:
256,239,211630,1,10,0:0:0:0:
145,183,211789,1,2,1:2:0:0:
285,66,211948,1,10,0:0:0:0:
327,54,212027,1,0,1:2:0:0:
371,60,212106,1,0,1:2:0:0:
409,83,212186,1,0,1:2:0:0:
435,118,212265,6,0,P|449:150|455:187,3,40.5,8|0|0|0,0:0|1:2|1:2|1:2,0:0:0:0:
468,243,212583,2,0,B|380:231|425:187|306:171,1,162,10|8,0:0|0:0,0:0:0:0:
229,258,213059,1,2,1:2:0:0:
319,351,213218,2,0,L|329:252,1,81,0|2,1:2|0:0,0:0:0:0:
241,158,213535,6,0,P|199:131|147:128,1,81,10|2,0:0|1:2,0:0:0:0:
58,222,213853,1,10,0:0:0:0:
58,222,214011,1,10,0:0:0:0:
103,55,214170,6,0,L|120:162,1,81,2|2,1:2|1:2,0:0:0:0:
142,286,214488,1,10,0:0:0:0:
142,286,214646,1,0,1:2:0:0:
305,218,214805,6,0,P|347:193|405:195,1,81,10|8,0:0|0:0,0:0:0:0:
269,376,215122,2,0,P|203:369|168:339,1,81,2|0,1:2|1:2,0:0:0:0:
96,243,215440,1,10,0:0:0:0:
96,243,215599,1,10,0:0:0:0:
180,143,215757,1,0,1:2:0:0:
218,288,215916,1,10,0:0:0:0:
96,152,216075,6,0,P|40:126|1:132,1,81,0|2,0:0|1:2,0:0:0:0:
197,266,216392,1,8,0:0:0:0:
283,146,216551,1,2,1:2:0:0:
283,146,216630,1,0,1:2:0:0:
283,146,216710,2,0,P|293:181|296:221,3,40.5,8|0|0|0,1:2|1:2|1:2|1:2,0:0:0:0:
287,270,217027,5,10,1:2:0:0:
474,103,217186,1,10,1:2:0:0:
