osu file format v14

[General]
AudioFilename: audio.mp3
AudioLeadIn: 0
PreviewTime: 163218
Countdown: 0
SampleSet: Normal
StackLeniency: 0.7
Mode: 1
LetterboxInBreaks: 0
WidescreenStoryboard: 1

[Editor]
Bookmarks: 11083,100922,120317,151274
DistanceSpacing: 0.9
BeatDivisor: 4
GridSize: 32
TimelineZoom: 2.999999

[Metadata]
Title:Swing It!!
TitleUnicode:Swing It!!
Artist:Fear, and Loathing in Las Vegas
ArtistUnicode:Fear, and Loathing in Las Vegas
Creator:MaestroSplinter
Version:Megafan's Muzukashii!!
Source:
Tags:falilv J-rock japanese rock Nymphe Kowari HowRengar Phase_2 gaston_2199 Megafan
BeatmapID:2531947
BeatmapSetID:1051249

[Difficulty]
HPDrainRate:6
CircleSize:4
OverallDifficulty:5
ApproachRate:10
SliderMultiplier:1.4
SliderTickRate:1

[Events]
//Background and Video events
0,0,"swing11.jpg",0,0
//Break Periods
2,115328,119439
//Storyboard Layer 0 (Background)
//Storyboard Layer 1 (Fail)
//Storyboard Layer 2 (Pass)
//Storyboard Layer 3 (Foreground)
//Storyboard Layer 4 (Overlay)
//Storyboard Sound Samples

[TimingPoints]
497,317.460317460317,4,1,0,70,1,0
497,-111.111111111111,4,1,0,70,0,0
38433,-86.9565217391304,4,1,0,80,0,1
38907,-90.9008271975275,4,1,0,80,0,1
39225,-93.7294966726029,4,1,0,80,0,1
39383,-95.2108921260592,4,1,0,80,0,1
39542,-96.7398664989842,4,1,0,80,0,1
39860,-99.9600159936026,4,1,0,80,0,1
40018,-101.64667615369,4,1,0,80,0,1
40177,-103.39123242349,4,1,0,80,0,1
40336,-105.196717862403,4,1,0,80,0,1
40494,-107.077845593747,4,1,0,80,0,1
40812,-111.02475852115,4,1,0,80,0,1
40971,-86.9565217391304,4,1,0,80,0,1
41447,-90.9008271975275,4,1,0,80,0,1
41764,-93.7294966726029,4,1,0,80,0,1
41923,-95.2108921260592,4,1,0,80,0,1
42082,-96.7398664989842,4,1,0,80,0,1
42241,-98.3284169124877,4,1,0,80,0,1
42558,-101.64667615369,4,1,0,80,0,1
42717,-103.39123242349,4,1,0,80,0,1
42875,-105.196717862403,4,1,0,80,0,1
43034,-109.01558922926,4,1,0,80,0,1
43352,-111.02475852115,4,1,0,80,0,1
43510,-86.9565217391304,4,1,0,80,0,1
43987,-90.9008271975275,4,1,0,80,0,1
44304,-93.7294966726029,4,1,0,80,0,1
44463,-95.2108921260592,4,1,0,80,0,1
44621,-96.7398664989842,4,1,0,80,0,1
44780,-98.3284169124877,4,1,0,80,0,1
45098,-101.64667615369,4,1,0,80,0,1
45256,-103.39123242349,4,1,0,80,0,1
45415,-105.196717862403,4,1,0,80,0,1
45574,-107.077845593747,4,1,0,80,0,1
45891,-111.02475852115,4,1,0,80,0,1
46050,-86.9565217391304,4,1,0,80,0,1
46526,-92.2849760059062,4,1,0,80,0,1
46685,-94.2063118228921,4,1,0,80,0,1
46844,-96.2093515489706,4,1,0,80,0,1
47002,-98.2994200334218,4,1,0,80,0,1
47161,-100.48231511254,4,1,0,80,0,1
47479,-105.163529288043,4,1,0,80,0,1
47637,-101.010101010101,4,1,0,80,0,1
47796,-97.0873786407767,4,1,0,80,0,1
47955,-93.4579439252337,4,1,0,80,0,1
48034,-91.7431192660551,4,1,0,80,0,1
48114,-90.0900900900901,4,1,0,80,0,1
48272,-86.9565217391304,4,1,0,80,0,1
48590,-86.9565217391304,4,1,0,80,0,1
49066,-90.9008271975275,4,1,0,80,0,1
49384,-93.7294966726029,4,1,0,80,0,1
49542,-95.2108921260592,4,1,0,80,0,1
49701,-96.7398664989842,4,1,0,80,0,1
50019,-99.9600159936026,4,1,0,80,0,1
50177,-101.64667615369,4,1,0,80,0,1
50336,-103.39123242349,4,1,0,80,0,1
50495,-105.196717862403,4,1,0,80,0,1
50653,-107.077845593747,4,1,0,80,0,1
50971,-111.02475852115,4,1,0,80,0,1
51130,-86.9565217391304,4,1,0,80,0,1
51606,-90.9008271975275,4,1,0,80,0,1
51923,-93.7294966726029,4,1,0,80,0,1
52082,-95.2108921260592,4,1,0,80,0,1
52241,-96.7398664989842,4,1,0,80,0,1
52400,-98.3284169124877,4,1,0,80,0,1
52717,-101.64667615369,4,1,0,80,0,1
52876,-103.39123242349,4,1,0,80,0,1
53034,-105.196717862403,4,1,0,80,0,1
53193,-109.01558922926,4,1,0,80,0,1
53511,-111.02475852115,4,1,0,80,0,1
53669,-86.9565217391304,4,1,0,80,0,1
54146,-90.9008271975275,4,1,0,80,0,1
54463,-93.7294966726029,4,1,0,80,0,1
54622,-95.2108921260592,4,1,0,80,0,1
54780,-96.7398664989842,4,1,0,80,0,1
54939,-98.3284169124877,4,1,0,80,0,1
55257,-101.64667615369,4,1,0,80,0,1
55415,-103.39123242349,4,1,0,80,0,1
55574,-105.196717862403,4,1,0,80,0,1
55733,-107.077845593747,4,1,0,80,0,1
56050,-111.02475852115,4,1,0,80,0,1
56209,-86.9565217391304,4,1,0,80,0,1
56685,-94.2773640049024,4,1,0,80,0,1
56844,-96.9932104752667,4,1,0,80,0,1
57003,-99.8801438274071,4,1,0,80,0,1
57320,-100,4,1,0,80,0,1
57399,-99.1768322919766,4,1,0,80,0,1
57479,-98.3574309039048,4,1,0,80,0,1
57638,-96.7773153972709,4,1,0,80,0,1
57955,-93.7470704040499,4,1,0,80,0,1
58035,-93.0232558139535,4,1,0,80,0,1
58114,-92.3105326317733,4,1,0,80,0,1
58273,-90.9090909090909,4,1,0,80,0,1
58431,-89.5495656846064,4,1,0,80,0,1
58590,-88.2378893496868,4,1,0,80,0,1
58909,-86.9565217391304,4,1,0,70,0,0
59227,-94.3396226415094,4,1,0,70,0,0
59384,-95.8864704190239,4,1,0,70,0,0
59701,-102.944204241301,4,1,0,70,0,0
59860,-106.871860639094,4,1,0,70,0,0
60018,-111.111111111111,4,1,0,70,0,0
72875,-111.111111111111,4,1,0,70,0,0
73034,-113.340133741358,4,1,0,70,0,0
73193,-115.673799884326,4,1,0,70,0,0
73510,-120.612712579906,4,1,0,70,0,0
73828,-129.87012987013,4,1,0,70,0,0
74147,317.460317460317,4,1,0,80,1,8
74153,365.853658536585,4,1,0,70,1,0
74153,-111.111111111111,4,1,0,70,0,0
75614,-86.9565217391304,4,1,0,70,0,0
76346,-86.9565217391304,4,1,0,70,0,0
76711,-97.5609756097561,4,1,0,70,0,0
76803,-100.623867981485,4,1,0,70,0,0
76894,-103.896103896104,4,1,0,70,0,0
77077,-111.111111111111,4,1,0,70,0,0
103053,-100,4,1,0,70,0,0
113663,-100,4,1,0,70,0,0
113846,-99.2950054612253,4,1,0,70,0,0
115128,317.460317460317,4,1,0,70,1,0
119887,-111.111111111111,4,1,0,60,0,0
129729,-90.9090909090909,4,1,0,60,0,0
130366,317.460317460317,4,1,0,60,1,8
130996,317.460317460317,4,1,0,80,1,0
130996,-111.111111111111,4,1,0,80,0,0
149089,-111.111111111111,4,1,0,80,0,0
149247,-109.58904109589,4,1,0,80,0,0
149406,-108.108108108108,4,1,0,80,0,0
149486,-107.376785139053,4,1,0,80,0,0
149565,-106.666666666667,4,1,0,80,0,0
149724,-105.263157894737,4,1,0,80,0,0
150041,-103.092783505155,4,1,0,80,0,0
151311,-100,4,1,0,80,0,0
162422,-100,4,1,0,80,0,0
162581,-98.5901607019619,4,1,0,80,0,0
162742,-97.9048364989231,4,1,0,80,0,0
162819,-97.2195216799533,4,1,0,80,0,0
162896,-95.8864704190239,4,1,0,80,0,0
163059,-95.2380952380953,4,1,0,80,0,0
163136,-94.5984296660675,4,1,0,80,0,0
163216,-93.3358222885944,4,1,0,80,0,0
163374,-92.1064750851985,4,1,0,80,0,0
163533,-90.9090909090909,4,1,0,80,0,0
163853,-86.9565217391304,4,1,0,80,0,1
164329,-90.9008271975275,4,1,0,80,0,1
164646,-93.7294966726029,4,1,0,80,0,1
164805,-95.2108921260592,4,1,0,80,0,1
164964,-96.7398664989842,4,1,0,80,0,1
165122,-98.3284169124877,4,1,0,80,0,1
165440,-101.64667615369,4,1,0,80,0,1
165599,-103.39123242349,4,1,0,80,0,1
165757,-105.196717862403,4,1,0,80,0,1
165916,-107.077845593747,4,1,0,80,0,1
166234,-111.02475852115,4,1,0,80,0,1
166392,-86.9565217391304,4,1,0,80,0,1
166869,-90.9008271975275,4,1,0,80,0,1
167186,-93.7294966726029,4,1,0,80,0,1
167345,-95.2108921260592,4,1,0,80,0,1
167503,-96.7398664989842,4,1,0,80,0,1
167662,-98.3284169124877,4,1,0,80,0,1
167821,-99.9600159936026,4,1,0,80,0,1
167980,-101.64667615369,4,1,0,80,0,1
168297,-105.196717862403,4,1,0,80,0,1
168456,-107.077845593747,4,1,0,80,0,1
168615,-109.01558922926,4,1,0,80,0,1
168932,-86.9565217391304,4,1,0,80,0,1
169408,-92.1064750851985,4,1,0,80,0,1
169726,-95.8864704190239,4,1,0,80,0,1
170043,-100,4,1,0,80,0,1
170202,-86.9565217391304,4,1,0,80,0,1
170678,-92.1064750851985,4,1,0,80,0,1
170837,-93.9584703561026,4,1,0,80,0,1
170995,-95.8864704190239,4,1,0,80,0,1
171313,-100,4,1,0,80,0,1
171472,-86.9565217391304,4,1,0,80,0,1
171948,-90.9008271975275,4,1,0,80,0,1
172107,-92.2934933087217,4,1,0,80,0,1
172265,-93.7294966726029,4,1,0,80,0,1
172424,-95.2108921260592,4,1,0,80,0,1
172742,-98.3284169124877,4,1,0,80,0,1
173059,-101.64667615369,4,1,0,80,0,1
173218,-103.39123242349,4,1,0,80,0,1
173535,-107.077845593747,4,1,0,80,0,1
173694,-109.01558922926,4,1,0,80,0,1
173853,-111.02475852115,4,1,0,80,0,1
174011,-86.9565217391304,4,1,0,80,0,1
174488,-90.9008271975275,4,1,0,80,0,1
174805,-93.7294966726029,4,1,0,80,0,1
174964,-95.2108921260592,4,1,0,80,0,1
175122,-96.7398664989842,4,1,0,80,0,1
175281,-98.3284169124877,4,1,0,80,0,1
175599,-101.64667615369,4,1,0,80,0,1
175757,-103.39123242349,4,1,0,80,0,1
175916,-105.196717862403,4,1,0,80,0,1
176075,-107.077845593747,4,1,0,80,0,1
176392,-111.02475852115,4,1,0,80,0,1
176551,-86.9565217391304,4,1,0,80,0,1
177027,-90.9008271975275,4,1,0,80,0,1
177345,-93.7294966726029,4,1,0,80,0,1
177503,-95.2108921260592,4,1,0,80,0,1
177662,-96.7398664989842,4,1,0,80,0,1
177821,-98.3284169124877,4,1,0,80,0,1
178138,-101.64667615369,4,1,0,80,0,1
178297,-103.39123242349,4,1,0,80,0,1
178456,-105.196717862403,4,1,0,80,0,1
178615,-107.077845593747,4,1,0,80,0,1
178932,-111.02475852115,4,1,0,80,0,1
179091,-86.9565217391304,4,1,0,80,0,1
179567,-92.1064750851985,4,1,0,80,0,1
179726,-93.9584703561026,4,1,0,80,0,1
179884,-95.8864704190239,4,1,0,80,0,1
180202,-100,4,1,0,80,0,1
180361,-86.9565217391304,4,1,0,80,0,1
180837,-92.1064750851985,4,1,0,80,0,1
180995,-93.9584703561026,4,1,0,80,0,1
181154,-95.8864704190239,4,1,0,80,0,1
181472,-100,4,1,0,80,0,1
182900,-100,4,1,0,80,0,1
183218,-103.423632506875,4,1,0,80,0,1
183535,-107.090115261091,4,1,0,80,0,1
183694,-109.022601475512,4,1,0,80,0,1
183853,-110.015116076949,4,1,0,80,0,1
184011,-111.025991184536,4,1,0,80,0,1
184170,-111.111111111111,4,1,0,70,0,0
194329,-111.111111111111,4,1,0,80,0,1
207186,-111.111111111111,4,1,0,80,0,0

[Colours]
Combo1 : 255,151,151
Combo2 : 255,174,215
Combo3 : 145,251,227
Combo4 : 236,250,182

[HitObjects]
256,192,497,5,0,0:0:0:0:
256,192,576,1,0,0:0:0:0:
256,192,655,1,0,0:0:0:0:
256,192,814,1,8,0:0:0:0:
256,192,973,1,0,0:0:0:0:
256,192,1131,1,8,0:0:0:0:
256,192,1608,1,0,0:0:0:0:
256,192,1925,1,0,0:0:0:0:
256,192,2084,1,8,0:0:0:0:
256,192,2243,1,0,0:0:0:0:
256,192,2401,1,8,0:0:0:0:
256,192,2719,1,0,0:0:0:0:
256,192,2877,1,8,0:0:0:0:
256,192,3036,1,0,0:0:0:0:
256,192,3116,1,0,0:0:0:0:
256,192,3195,1,0,0:0:0:0:
256,192,3354,1,8,0:0:0:0:
256,192,3512,1,0,0:0:0:0:
256,192,3671,1,8,0:0:0:0:
256,192,4147,1,0,0:0:0:0:
256,192,4465,1,8,0:0:0:0:
256,192,4623,1,8,0:0:0:0:
256,192,4782,1,0,0:0:0:0:
256,192,5100,1,8,0:0:0:0:
256,192,5258,1,8,0:0:0:0:
256,192,5576,1,0,0:0:0:0:
256,192,5655,1,0,0:0:0:0:
256,192,5735,1,0,0:0:0:0:
256,192,5893,1,8,0:0:0:0:
256,192,6052,1,0,0:0:0:0:
256,192,6211,1,8,0:0:0:0:
256,192,6687,1,0,0:0:0:0:
256,192,7004,1,8,0:0:0:0:
256,192,7163,1,8,0:0:0:0:
256,192,7322,1,0,0:0:0:0:
256,192,7481,1,0,0:0:0:0:
256,192,7719,1,8,0:0:0:0:
256,192,7957,1,8,0:0:0:0:
256,192,8116,1,0,0:0:0:0:
256,192,8195,1,0,0:0:0:0:
256,192,8274,1,0,0:0:0:0:
256,192,8433,1,8,0:0:0:0:
256,192,8592,1,0,0:0:0:0:
256,192,8750,1,8,0:0:0:0:
256,192,9227,1,0,0:0:0:0:
256,192,9544,1,0,0:0:0:0:
256,192,9703,1,8,0:0:0:0:
256,192,9862,1,0,0:0:0:0:
256,192,10020,1,8,0:0:0:0:
256,192,10338,1,8,0:0:0:0:
256,192,10417,1,8,0:0:0:0:
256,192,10496,1,8,0:0:0:0:
256,96,10655,5,4,0:0:0:0:
256,192,10973,1,8,0:0:0:0:
256,192,11449,1,0,0:0:0:0:
256,192,11766,1,8,0:0:0:0:
256,192,12084,1,0,0:0:0:0:
256,192,12243,1,8,0:0:0:0:
256,192,12560,1,0,0:0:0:0:
256,192,12719,1,0,0:0:0:0:
256,192,12877,1,8,0:0:0:0:
256,192,13195,1,0,0:0:0:0:
256,192,13512,1,8,0:0:0:0:
256,192,13989,1,0,0:0:0:0:
256,192,14306,1,8,0:0:0:0:
256,192,14623,1,8,0:0:0:0:
256,192,14941,1,0,0:0:0:0:
256,192,15258,1,8,0:0:0:0:
256,192,15417,1,8,0:0:0:0:
256,192,15735,1,0,0:0:0:0:
256,192,16052,1,8,0:0:0:0:
256,192,16528,1,8,0:0:0:0:
256,192,16846,1,8,0:0:0:0:
256,192,17163,1,0,0:0:0:0:
256,192,17322,1,8,0:0:0:0:
256,192,17481,1,0,0:0:0:0:
256,192,17560,1,0,0:0:0:0:
256,192,17639,1,0,0:0:0:0:
256,192,17957,1,8,0:0:0:0:
256,192,18116,1,8,0:0:0:0:
256,192,18433,1,0,0:0:0:0:
256,192,18592,1,8,0:0:0:0:
256,192,19068,1,0,0:0:0:0:
256,192,19385,1,8,0:0:0:0:
256,192,19544,1,0,0:0:0:0:
256,192,19703,1,8,0:0:0:0:
256,192,20020,1,8,0:0:0:0:
256,192,20338,1,0,0:0:0:0:
256,192,20496,1,8,0:0:0:0:
256,96,20814,5,4,0:0:0:0:
256,192,21290,1,0,0:0:0:0:
256,192,21449,1,8,0:0:0:0:
256,192,21608,1,0,0:0:0:0:
256,192,21766,1,0,0:0:0:0:
256,192,21925,1,8,0:0:0:0:
256,192,22243,1,8,0:0:0:0:
256,192,22401,1,8,0:0:0:0:
256,192,22560,1,0,0:0:0:0:
256,192,22877,1,8,0:0:0:0:
256,192,23036,1,8,0:0:0:0:
256,192,23354,1,0,0:0:0:0:
256,192,23671,1,8,0:0:0:0:
256,192,24147,1,0,0:0:0:0:
256,192,24465,1,8,0:0:0:0:
256,192,24782,1,8,0:0:0:0:
256,192,25100,1,0,0:0:0:0:
256,192,25417,1,8,0:0:0:0:
256,192,25576,1,8,0:0:0:0:
256,192,25893,1,0,0:0:0:0:
256,192,26211,1,8,0:0:0:0:
256,192,26687,1,8,0:0:0:0:
256,192,27004,1,8,0:0:0:0:
256,192,27322,1,0,0:0:0:0:
256,192,27481,1,8,0:0:0:0:
256,192,27639,1,0,0:0:0:0:
256,192,27957,1,0,0:0:0:0:
256,192,28116,1,8,0:0:0:0:
256,192,28274,1,8,0:0:0:0:
256,192,28433,1,0,0:0:0:0:
256,192,28750,1,8,0:0:0:0:
256,192,29227,1,0,0:0:0:0:
256,192,29544,1,8,0:0:0:0:
256,192,29862,1,0,0:0:0:0:
256,192,30020,1,8,0:0:0:0:
256,192,30338,1,0,0:0:0:0:
256,192,30496,1,8,0:0:0:0:
256,192,30655,1,8,0:0:0:0:
256,192,30814,1,0,0:0:0:0:
256,192,30893,1,0,0:0:0:0:
256,192,30973,1,0,0:0:0:0:
256,192,31290,1,0,0:0:0:0:
256,192,31449,1,8,0:0:0:0:
256,192,31608,1,8,0:0:0:0:
256,192,31925,1,8,0:0:0:0:
256,192,32243,1,0,0:0:0:0:
256,192,32401,1,0,0:0:0:0:
256,192,32560,1,8,0:0:0:0:
256,192,32719,1,8,0:0:0:0:
256,192,32877,1,8,0:0:0:0:
256,192,33512,1,0,0:0:0:0:
256,192,33830,1,8,0:0:0:0:
256,192,33989,1,8,0:0:0:0:
256,192,34147,1,8,0:0:0:0:
256,192,34465,1,8,0:0:0:0:
256,192,34782,1,0,0:0:0:0:
256,192,34941,1,0,0:0:0:0:
256,192,35100,1,8,0:0:0:0:
256,192,35258,1,0,0:0:0:0:
256,192,35735,1,8,0:0:0:0:
256,96,36052,5,4,0:0:0:0:
256,96,36370,5,4,0:0:0:0:
256,192,36687,1,8,0:0:0:0:
256,192,36766,1,8,0:0:0:0:
256,192,36846,1,8,0:0:0:0:
256,192,37004,1,8,0:0:0:0:
256,192,37163,1,0,0:0:0:0:
256,192,37243,1,0,0:0:0:0:
256,192,37322,1,0,0:0:0:0:
256,192,37481,1,8,0:0:0:0:
256,192,37639,1,0,0:0:0:0:
256,192,37957,1,8,0:0:0:0:
256,192,38116,1,8,0:0:0:0:
256,96,38433,5,4,0:0:0:0:
256,192,38909,1,8,0:0:0:0:
256,192,39227,1,0,0:0:0:0:
256,192,39385,1,0,0:0:0:0:
256,192,39544,1,8,0:0:0:0:
256,192,39862,1,8,0:0:0:0:
256,192,40020,1,0,0:0:0:0:
256,192,40179,1,8,0:0:0:0:
256,192,40338,1,0,0:0:0:0:
256,192,40496,1,0,0:0:0:0:
256,192,40814,1,8,0:0:0:0:
256,96,40973,5,4,0:0:0:0:
256,192,41449,1,8,0:0:0:0:
256,192,41766,1,0,0:0:0:0:
256,192,41925,1,0,0:0:0:0:
256,192,42084,1,8,0:0:0:0:
256,192,42243,1,0,0:0:0:0:
256,192,42560,1,0,0:0:0:0:
256,192,42719,1,8,0:0:0:0:
256,192,42877,1,0,0:0:0:0:
256,192,43036,1,0,0:0:0:0:
256,192,43354,1,8,0:0:0:0:
256,96,43512,5,4,0:0:0:0:
256,192,43989,1,8,0:0:0:0:
256,192,44306,1,8,0:0:0:0:
256,192,44465,1,0,0:0:0:0:
256,192,44623,1,8,0:0:0:0:
256,192,44782,1,0,0:0:0:0:
256,192,45100,1,0,0:0:0:0:
256,192,45258,1,8,0:0:0:0:
256,192,45417,1,0,0:0:0:0:
256,192,45576,1,8,0:0:0:0:
256,192,45893,1,8,0:0:0:0:
256,96,46052,5,4,0:0:0:0:
256,192,46528,1,8,0:0:0:0:
256,192,46687,1,0,0:0:0:0:
256,192,46846,1,0,0:0:0:0:
256,192,47004,1,8,0:0:0:0:
256,192,47163,1,0,0:0:0:0:
256,192,47481,1,0,0:0:0:0:
256,192,47639,1,0,0:0:0:0:
256,192,47798,1,8,0:0:0:0:
256,192,47957,1,0,0:0:0:0:
256,192,48036,1,0,0:0:0:0:
256,192,48116,1,0,0:0:0:0:
256,192,48274,1,8,0:0:0:0:
256,192,48433,1,8,0:0:0:0:
256,96,48592,5,4,0:0:0:0:
256,192,49068,1,8,0:0:0:0:
256,192,49385,1,0,0:0:0:0:
256,192,49544,1,0,0:0:0:0:
256,192,49703,1,8,0:0:0:0:
256,192,50020,1,0,0:0:0:0:
256,192,50179,1,0,0:0:0:0:
256,192,50338,1,8,0:0:0:0:
256,192,50496,1,0,0:0:0:0:
256,192,50655,1,8,0:0:0:0:
256,192,50973,1,8,0:0:0:0:
256,96,51131,5,4,0:0:0:0:
256,192,51608,1,8,0:0:0:0:
256,192,51925,1,0,0:0:0:0:
256,192,52084,1,0,0:0:0:0:
256,192,52243,1,8,0:0:0:0:
256,192,52401,1,0,0:0:0:0:
256,192,52719,1,8,0:0:0:0:
256,192,52877,1,0,0:0:0:0:
256,192,53036,1,8,0:0:0:0:
256,192,53195,1,0,0:0:0:0:
256,192,53512,1,8,0:0:0:0:
256,96,53671,5,4,0:0:0:0:
256,192,54147,1,8,0:0:0:0:
256,192,54465,1,8,0:0:0:0:
256,192,54623,1,0,0:0:0:0:
256,192,54782,1,8,0:0:0:0:
256,192,54941,1,0,0:0:0:0:
256,192,55258,1,8,0:0:0:0:
256,192,55417,1,0,0:0:0:0:
256,192,55576,1,0,0:0:0:0:
256,192,55735,1,8,0:0:0:0:
256,192,56052,1,8,0:0:0:0:
256,96,56211,5,4,0:0:0:0:
256,192,56687,1,8,0:0:0:0:
256,192,56846,1,8,0:0:0:0:
256,192,57004,1,0,0:0:0:0:
256,192,57322,1,8,0:0:0:0:
256,192,57401,1,8,0:0:0:0:
256,192,57481,1,8,0:0:0:0:
256,192,57639,1,0,0:0:0:0:
256,192,57957,1,8,0:0:0:0:
256,192,58036,1,8,0:0:0:0:
256,192,58116,1,8,0:0:0:0:
256,192,58274,1,0,0:0:0:0:
256,192,58433,1,0,0:0:0:0:
256,192,58592,1,8,0:0:0:0:
256,192,58671,1,8,0:0:0:0:
256,192,58750,1,8,0:0:0:0:
256,96,58909,5,4,0:0:0:0:
256,192,59227,1,8,0:0:0:0:
256,192,59385,1,0,0:0:0:0:
256,192,59703,1,0,0:0:0:0:
256,192,59862,1,8,0:0:0:0:
256,192,60020,1,8,0:0:0:0:
256,192,60496,1,8,0:0:0:0:
256,192,60655,1,0,0:0:0:0:
256,192,60735,1,0,0:0:0:0:
256,192,60814,1,0,0:0:0:0:
256,192,60973,1,0,0:0:0:0:
256,192,61131,1,8,0:0:0:0:
256,192,61449,1,8,0:0:0:0:
256,192,61608,1,8,0:0:0:0:
256,192,61925,1,0,0:0:0:0:
256,192,62401,1,8,0:0:0:0:
256,192,62719,1,0,0:0:0:0:
256,192,62798,1,0,0:0:0:0:
256,192,62877,1,0,0:0:0:0:
256,192,62957,1,0,0:0:0:0:
256,192,63036,1,0,0:0:0:0:
256,192,63354,1,8,0:0:0:0:
256,192,63433,1,8,0:0:0:0:
256,192,63512,1,8,0:0:0:0:
256,192,63592,1,8,0:0:0:0:
256,192,63671,1,8,0:0:0:0:
256,192,63989,1,8,0:0:0:0:
256,192,64306,1,8,0:0:0:0:
256,192,64465,1,0,0:0:0:0:
256,192,64782,1,0,0:0:0:0:
256,192,64941,1,8,0:0:0:0:
256,192,65100,1,8,0:0:0:0:
256,192,65576,1,8,0:0:0:0:
256,192,65735,1,0,0:0:0:0:
256,192,65814,1,0,0:0:0:0:
256,192,65893,1,0,0:0:0:0:
256,192,66052,1,0,0:0:0:0:
256,192,66211,1,8,0:0:0:0:
256,192,66528,1,8,0:0:0:0:
256,192,66687,1,8,0:0:0:0:
256,192,67004,1,0,0:0:0:0:
256,192,67481,1,8,0:0:0:0:
256,192,67798,1,0,0:0:0:0:
256,192,67877,1,0,0:0:0:0:
256,192,67957,1,0,0:0:0:0:
256,192,68036,1,0,0:0:0:0:
256,192,68116,1,0,0:0:0:0:
256,192,68433,1,0,0:0:0:0:
256,192,68592,1,0,0:0:0:0:
256,192,68750,1,8,0:0:0:0:
256,192,68830,1,8,0:0:0:0:
256,192,68909,1,8,0:0:0:0:
256,96,69068,5,4,0:0:0:0:
256,192,69385,1,8,0:0:0:0:
256,192,69703,1,0,0:0:0:0:
256,192,69862,1,0,0:0:0:0:
256,192,70020,1,8,0:0:0:0:
256,192,70338,1,0,0:0:0:0:
256,192,70655,1,8,0:0:0:0:
256,192,70973,1,0,0:0:0:0:
256,192,71131,1,0,0:0:0:0:
256,192,71290,1,8,0:0:0:0:
256,192,71608,1,0,0:0:0:0:
256,192,71925,1,8,0:0:0:0:
256,192,72243,1,0,0:0:0:0:
256,192,72401,1,0,0:0:0:0:
256,192,72560,1,8,0:0:0:0:
256,192,72719,1,0,0:0:0:0:
256,192,72877,1,8,0:0:0:0:
256,192,73036,1,0,0:0:0:0:
256,192,73195,1,8,0:0:0:0:
256,192,73512,1,0,0:0:0:0:
256,192,73830,1,8,0:0:0:0:
256,192,74153,1,0,0:0:0:0:
256,96,75616,5,4,0:0:0:0:
256,96,75890,5,4,0:0:0:0:
256,96,76165,5,4,0:0:0:0:
256,96,76348,5,12,0:0:0:0:
256,192,76713,1,8,0:0:0:0:
256,192,76805,1,8,0:0:0:0:
256,192,76896,1,8,0:0:0:0:
256,192,77079,1,0,0:0:0:0:
256,192,77354,1,8,0:0:0:0:
256,192,77628,1,8,0:0:0:0:
256,192,77811,1,0,0:0:0:0:
256,192,78085,1,8,0:0:0:0:
256,192,78360,1,0,0:0:0:0:
256,192,78543,1,8,0:0:0:0:
256,192,78817,1,8,0:0:0:0:
256,192,79092,1,0,0:0:0:0:
256,192,79274,1,8,0:0:0:0:
256,192,79549,1,0,0:0:0:0:
256,192,79823,1,0,0:0:0:0:
256,192,80006,1,8,0:0:0:0:
256,192,80555,1,8,0:0:0:0:
256,192,80738,1,0,0:0:0:0:
256,192,81012,1,8,0:0:0:0:
256,192,81287,1,0,0:0:0:0:
256,192,81470,1,0,0:0:0:0:
256,192,82018,1,8,0:0:0:0:
256,192,82201,1,0,0:0:0:0:
256,192,82567,1,8,0:0:0:0:
256,192,82750,1,0,0:0:0:0:
256,192,82933,1,8,0:0:0:0:
256,192,83299,1,0,0:0:0:0:
256,192,83482,1,8,0:0:0:0:
256,192,83665,1,0,0:0:0:0:
256,192,84031,1,8,0:0:0:0:
256,192,84213,1,8,0:0:0:0:
256,192,84396,1,0,0:0:0:0:
256,192,84945,1,8,0:0:0:0:
256,192,85128,1,0,0:0:0:0:
256,192,85402,1,8,0:0:0:0:
256,192,85677,1,0,0:0:0:0:
256,192,85860,1,8,0:0:0:0:
256,192,86134,1,8,0:0:0:0:
256,192,86409,1,8,0:0:0:0:
256,192,86592,1,0,0:0:0:0:
256,192,86866,1,8,0:0:0:0:
256,192,87140,1,8,0:0:0:0:
256,192,87323,1,0,0:0:0:0:
256,192,87506,2,0,B|448:192,2,188.999994232178
256,192,88787,1,0,0:0:0:0:
256,192,89061,1,8,0:0:0:0:
256,192,89336,1,8,0:0:0:0:
256,192,89519,1,0,0:0:0:0:
256,192,89793,1,8,0:0:0:0:
256,192,90068,1,0,0:0:0:0:
256,192,90251,1,8,0:0:0:0:
256,192,90525,1,8,0:0:0:0:
256,192,90799,1,0,0:0:0:0:
256,192,90982,1,8,0:0:0:0:
256,192,91257,1,8,0:0:0:0:
256,192,91531,1,0,0:0:0:0:
256,192,91714,1,8,0:0:0:0:
256,192,92263,1,8,0:0:0:0:
256,192,92446,1,0,0:0:0:0:
256,192,92811,1,8,0:0:0:0:
256,192,93177,1,0,0:0:0:0:
256,192,93726,1,8,0:0:0:0:
256,192,93909,1,0,0:0:0:0:
256,192,94275,1,8,0:0:0:0:
256,192,94457,1,8,0:0:0:0:
256,192,94641,1,8,0:0:0:0:
256,192,95007,1,0,0:0:0:0:
256,192,95190,1,0,0:0:0:0:
256,192,95372,1,0,0:0:0:0:
256,192,95738,1,8,0:0:0:0:
256,192,95921,1,8,0:0:0:0:
256,192,96104,1,0,0:0:0:0:
256,192,96653,1,8,0:0:0:0:
256,192,96836,1,0,0:0:0:0:
256,192,97110,1,8,0:0:0:0:
256,192,97385,1,0,0:0:0:0:
256,192,97568,1,8,0:0:0:0:
256,192,97842,1,8,0:0:0:0:
256,192,98116,1,8,0:0:0:0:
256,192,98299,1,0,0:0:0:0:
256,192,98574,1,8,0:0:0:0:
256,192,98848,1,8,0:0:0:0:
256,192,99031,1,0,0:0:0:0:
256,192,99213,2,0,L|448:192,2,188.999994232178
256,192,100494,1,8,0:0:0:0:
256,192,101043,1,0,0:0:0:0:
256,192,101226,1,8,0:0:0:0:
256,192,101774,1,0,0:0:0:0:
256,192,101957,1,8,0:0:0:0:
256,192,102506,1,0,0:0:0:0:
256,192,102689,1,0,0:0:0:0:
256,192,102781,1,0,0:0:0:0:
256,192,102872,1,0,0:0:0:0:
256,96,103055,5,12,0:0:0:0:
256,96,103421,5,4,0:0:0:0:
256,192,103695,1,8,0:0:0:0:
256,192,103970,1,0,0:0:0:0:
256,192,104152,1,8,0:0:0:0:
256,192,104701,1,0,0:0:0:0:
256,192,104884,1,8,0:0:0:0:
256,192,105067,1,8,0:0:0:0:
256,192,105159,1,8,0:0:0:0:
256,192,105250,1,8,0:0:0:0:
256,192,105433,1,8,0:0:0:0:
256,192,105616,1,0,0:0:0:0:
256,192,105799,1,0,0:0:0:0:
256,192,105890,1,0,0:0:0:0:
256,192,105982,1,0,0:0:0:0:
256,192,106348,1,8,0:0:0:0:
256,192,106622,1,8,0:0:0:0:
256,192,106896,1,8,0:0:0:0:
256,192,107079,1,0,0:0:0:0:
256,192,107445,1,8,0:0:0:0:
256,192,107628,1,8,0:0:0:0:
256,192,107811,1,0,0:0:0:0:
256,192,108085,1,8,0:0:0:0:
256,192,108360,1,8,0:0:0:0:
256,192,108543,1,0,0:0:0:0:
256,192,108817,1,8,0:0:0:0:
256,192,109092,1,0,0:0:0:0:
256,192,109274,1,8,0:0:0:0:
256,192,109549,1,8,0:0:0:0:
256,192,109823,1,0,0:0:0:0:
256,192,110006,1,0,0:0:0:0:
256,192,110555,1,8,0:0:0:0:
256,192,110738,1,0,0:0:0:0:
256,192,111012,1,8,0:0:0:0:
256,192,111287,1,8,0:0:0:0:
256,192,111470,1,0,0:0:0:0:
256,192,111835,1,8,0:0:0:0:
256,192,112201,1,0,0:0:0:0:
256,192,112750,1,8,0:0:0:0:
256,192,112933,1,0,0:0:0:0:
256,192,113482,1,8,0:0:0:0:
256,192,113665,1,0,0:0:0:0:
256,192,113848,2,0,B|480:192,2,211.490999281971
256,96,115128,5,4,0:0:0:0:
256,192,119889,5,8,0:0:0:0:
256,128,120207,5,4,0:0:0:0:
256,192,120842,1,8,0:0:0:0:
256,192,121318,1,0,0:0:0:0:
256,192,121635,1,0,0:0:0:0:
256,192,121794,1,0,0:0:0:0:
256,192,122112,1,8,0:0:0:0:
256,192,122747,1,0,0:0:0:0:
256,192,123381,1,8,0:0:0:0:
256,192,123858,1,0,0:0:0:0:
256,192,124175,1,0,0:0:0:0:
256,192,124334,1,0,0:0:0:0:
256,192,124651,1,8,0:0:0:0:
256,192,124969,1,8,0:0:0:0:
256,96,125286,5,12,0:0:0:0:
256,192,125921,1,8,0:0:0:0:
256,192,126397,1,0,0:0:0:0:
256,192,126715,1,8,0:0:0:0:
256,192,126874,1,0,0:0:0:0:
256,192,127191,1,8,0:0:0:0:
256,192,127826,1,0,0:0:0:0:
256,192,128461,1,8,0:0:0:0:
256,192,128937,1,0,0:0:0:0:
256,192,129254,1,8,0:0:0:0:
256,192,129413,1,0,0:0:0:0:
256,96,129731,5,4,0:0:0:0:
256,96,129969,5,4,0:0:0:0:
256,96,130996,5,4,0:0:0:0:
256,192,131313,1,8,0:0:0:0:
256,192,131472,1,0,0:0:0:0:
256,192,131630,1,8,0:0:0:0:
256,192,131948,1,8,0:0:0:0:
256,192,132107,1,0,0:0:0:0:
256,192,132424,1,0,0:0:0:0:
256,192,132583,1,8,0:0:0:0:
256,192,132900,1,0,0:0:0:0:
256,192,133059,1,0,0:0:0:0:
256,192,133218,1,8,0:0:0:0:
256,192,133535,1,0,0:0:0:0:
256,192,134011,1,8,0:0:0:0:
256,192,134170,1,8,0:0:0:0:
256,192,134488,1,8,0:0:0:0:
256,192,134646,1,0,0:0:0:0:
256,192,134964,1,0,0:0:0:0:
256,192,135122,1,8,0:0:0:0:
256,96,135440,5,4,0:0:0:0:
256,96,135678,5,4,0:0:0:0:
256,96,135916,5,4,0:0:0:0:
256,192,136075,1,8,0:0:0:0:
256,192,136551,1,0,0:0:0:0:
256,192,136710,1,8,0:0:0:0:
256,192,137027,1,8,0:0:0:0:
256,192,137186,1,8,0:0:0:0:
256,192,137345,1,0,0:0:0:0:
256,192,137662,1,8,0:0:0:0:
256,192,137980,1,8,0:0:0:0:
256,192,138138,1,0,0:0:0:0:
256,192,138297,1,8,0:0:0:0:
256,192,138615,1,8,0:0:0:0:
256,192,138773,1,8,0:0:0:0:
256,192,139091,1,0,0:0:0:0:
256,192,139408,1,8,0:0:0:0:
256,192,139567,1,0,0:0:0:0:
256,192,139726,1,0,0:0:0:0:
256,192,140202,1,8,0:0:0:0:
256,192,140361,1,0,0:0:0:0:
256,192,140440,1,0,0:0:0:0:
256,192,140519,1,0,0:0:0:0:
256,192,140678,1,8,0:0:0:0:
256,192,140837,1,8,0:0:0:0:
256,192,140996,1,8,0:0:0:0:
256,96,141154,5,4,0:0:0:0:
256,192,141472,1,8,0:0:0:0:
256,192,141630,1,0,0:0:0:0:
256,192,142107,1,8,0:0:0:0:
256,192,142424,1,0,0:0:0:0:
256,192,142583,1,0,0:0:0:0:
256,192,142900,1,8,0:0:0:0:
256,192,143059,1,0,0:0:0:0:
256,192,143376,1,8,0:0:0:0:
256,192,143535,1,0,0:0:0:0:
256,192,143694,1,8,0:0:0:0:
256,192,144011,1,8,0:0:0:0:
256,192,144170,1,0,0:0:0:0:
256,192,144329,1,0,0:0:0:0:
256,192,144646,1,8,0:0:0:0:
256,192,144964,1,0,0:0:0:0:
256,192,145122,1,8,0:0:0:0:
256,192,145281,1,0,0:0:0:0:
256,192,145599,1,8,0:0:0:0:
256,192,145757,1,0,0:0:0:0:
256,192,145916,1,8,0:0:0:0:
256,96,146234,5,4,0:0:0:0:
256,192,146551,1,8,0:0:0:0:
256,192,146710,1,8,0:0:0:0:
256,192,147186,1,8,0:0:0:0:
256,192,147503,1,0,0:0:0:0:
256,192,147821,1,8,0:0:0:0:
256,192,147980,1,0,0:0:0:0:
256,192,148138,1,8,0:0:0:0:
256,192,148456,1,0,0:0:0:0:
256,192,148773,1,0,0:0:0:0:
256,192,149091,1,8,0:0:0:0:
256,192,149249,1,0,0:0:0:0:
256,192,149408,1,8,0:0:0:0:
256,192,149488,1,8,0:0:0:0:
256,192,149567,1,8,0:0:0:0:
256,192,149726,1,8,0:0:0:0:
256,192,150043,2,0,B|416:192|416:192|416:269,2,237.65000562069
256,96,151313,5,4,0:0:0:0:
256,192,151630,1,8,0:0:0:0:
256,192,151789,1,0,0:0:0:0:
256,192,152265,1,8,0:0:0:0:
256,192,152583,1,0,0:0:0:0:
256,192,152900,1,8,0:0:0:0:
256,192,153059,1,0,0:0:0:0:
256,192,153218,1,8,0:0:0:0:
256,192,153535,1,0,0:0:0:0:
256,192,153853,1,0,0:0:0:0:
256,192,154170,1,8,0:0:0:0:
256,192,154329,1,8,0:0:0:0:
256,192,154488,1,0,0:0:0:0:
256,192,154805,1,8,0:0:0:0:
256,192,155122,1,0,0:0:0:0:
256,192,155440,1,8,0:0:0:0:
256,192,155757,1,0,0:0:0:0:
256,192,156075,1,0,0:0:0:0:
256,96,156392,5,12,0:0:0:0:
256,192,157027,1,8,0:0:0:0:
256,192,157345,1,0,0:0:0:0:
256,192,157503,1,8,0:0:0:0:
256,192,157821,1,8,0:0:0:0:
256,192,157980,1,8,0:0:0:0:
256,192,158218,1,8,0:0:0:0:
256,192,158456,1,0,0:0:0:0:
256,192,158773,1,8,0:0:0:0:
256,192,158932,1,0,0:0:0:0:
256,192,159011,1,0,0:0:0:0:
256,192,159091,1,0,0:0:0:0:
256,192,159408,1,8,0:0:0:0:
256,192,159884,1,8,0:0:0:0:
256,192,160043,1,0,0:0:0:0:
256,192,160122,1,0,0:0:0:0:
256,192,160202,1,0,0:0:0:0:
256,192,160361,1,0,0:0:0:0:
256,192,160678,1,8,0:0:0:0:
256,192,160995,1,0,0:0:0:0:
256,192,161075,1,0,0:0:0:0:
256,192,161154,1,0,0:0:0:0:
256,192,161472,1,8,0:0:0:0:
256,192,161630,1,0,0:0:0:0:
256,192,161948,1,8,0:0:0:0:
256,192,162107,1,0,0:0:0:0:
256,192,162424,1,8,0:0:0:0:
256,192,162583,1,0,0:0:0:0:
256,192,162742,1,8,0:0:0:0:
256,192,162821,1,8,0:0:0:0:
256,192,162900,1,8,0:0:0:0:
256,192,163059,1,0,0:0:0:0:
256,192,163138,1,0,0:0:0:0:
256,192,163218,1,0,0:0:0:0:
256,192,163376,1,8,0:0:0:0:
256,192,163535,1,8,0:0:0:0:
256,96,163853,5,4,0:0:0:0:
256,192,164329,1,8,0:0:0:0:
256,192,164646,1,0,0:0:0:0:
256,192,164805,1,0,0:0:0:0:
256,192,164964,1,8,0:0:0:0:
256,192,165122,1,0,0:0:0:0:
256,192,165440,1,0,0:0:0:0:
256,192,165599,1,8,0:0:0:0:
256,192,165757,1,8,0:0:0:0:
256,192,165916,1,0,0:0:0:0:
256,192,166234,1,8,0:0:0:0:
256,96,166392,5,4,0:0:0:0:
256,192,166869,1,8,0:0:0:0:
256,192,167186,1,0,0:0:0:0:
256,192,167345,1,0,0:0:0:0:
256,192,167503,1,8,0:0:0:0:
256,192,167662,1,0,0:0:0:0:
256,192,167821,1,8,0:0:0:0:
256,192,167980,1,8,0:0:0:0:
256,192,168297,1,0,0:0:0:0:
256,192,168456,1,8,0:0:0:0:
256,192,168615,1,0,0:0:0:0:
256,96,168932,5,4,0:0:0:0:
256,192,169408,1,8,0:0:0:0:
256,192,169726,1,8,0:0:0:0:
256,192,170043,1,8,0:0:0:0:
256,96,170202,5,4,0:0:0:0:
256,192,170678,1,8,0:0:0:0:
256,192,170837,1,0,0:0:0:0:
256,192,170995,1,8,0:0:0:0:
256,192,171313,1,8,0:0:0:0:
256,96,171472,5,4,0:0:0:0:
256,192,171948,1,8,0:0:0:0:
256,192,172107,1,0,0:0:0:0:
256,192,172265,1,8,0:0:0:0:
256,192,172424,1,8,0:0:0:0:
256,192,172742,1,8,0:0:0:0:
256,192,173059,1,0,0:0:0:0:
256,192,173218,1,8,0:0:0:0:
256,192,173535,1,0,0:0:0:0:
256,192,173694,1,0,0:0:0:0:
256,192,173853,1,8,0:0:0:0:
256,96,174011,5,4,0:0:0:0:
256,192,174488,1,8,0:0:0:0:
256,192,174805,1,0,0:0:0:0:
256,192,174964,1,0,0:0:0:0:
256,192,175122,1,8,0:0:0:0:
256,192,175281,1,8,0:0:0:0:
256,192,175599,1,0,0:0:0:0:
256,192,175757,1,8,0:0:0:0:
256,192,175916,1,0,0:0:0:0:
256,192,176075,1,0,0:0:0:0:
256,192,176392,1,8,0:0:0:0:
256,96,176551,5,4,0:0:0:0:
256,192,177027,1,8,0:0:0:0:
256,192,177345,1,0,0:0:0:0:
256,192,177503,1,0,0:0:0:0:
256,192,177662,1,8,0:0:0:0:
256,192,177821,1,0,0:0:0:0:
256,192,178138,1,0,0:0:0:0:
256,192,178297,1,8,0:0:0:0:
256,192,178456,1,0,0:0:0:0:
256,192,178615,1,0,0:0:0:0:
256,192,178932,1,8,0:0:0:0:
256,96,179091,5,4,0:0:0:0:
256,192,179567,1,8,0:0:0:0:
256,192,179726,1,0,0:0:0:0:
256,192,179884,1,0,0:0:0:0:
256,192,180202,1,8,0:0:0:0:
256,96,180361,5,4,0:0:0:0:
256,192,180837,1,0,0:0:0:0:
256,192,180995,1,8,0:0:0:0:
256,192,181154,1,0,0:0:0:0:
256,192,181472,1,8,0:0:0:0:
256,96,181630,5,4,0:0:0:0:
256,192,181948,1,8,0:0:0:0:
256,192,182027,1,8,0:0:0:0:
256,192,182107,1,8,0:0:0:0:
256,192,182265,1,8,0:0:0:0:
256,192,182583,1,0,0:0:0:0:
256,192,182662,1,0,0:0:0:0:
256,192,182742,1,0,0:0:0:0:
256,96,182900,5,4,0:0:0:0:
256,192,183218,1,0,0:0:0:0:
256,192,183535,1,0,0:0:0:0:
256,192,183694,1,8,0:0:0:0:
256,192,183853,1,8,0:0:0:0:
256,192,184011,1,8,0:0:0:0:
256,96,184170,5,4,0:0:0:0:
256,192,184646,1,0,0:0:0:0:
256,192,184964,1,8,0:0:0:0:
256,192,185122,1,0,0:0:0:0:
256,192,185440,1,0,0:0:0:0:
256,192,185916,1,0,0:0:0:0:
256,192,186234,1,8,0:0:0:0:
256,192,186392,1,0,0:0:0:0:
256,96,186710,5,4,0:0:0:0:
256,192,187186,1,0,0:0:0:0:
256,192,187503,1,8,0:0:0:0:
256,192,187662,1,0,0:0:0:0:
256,192,187980,1,0,0:0:0:0:
256,192,188297,1,0,0:0:0:0:
256,192,188615,1,0,0:0:0:0:
256,192,188773,1,8,0:0:0:0:
256,192,188932,1,0,0:0:0:0:
256,96,189249,5,4,0:0:0:0:
256,192,189726,1,0,0:0:0:0:
256,192,190043,1,8,0:0:0:0:
256,192,190202,1,0,0:0:0:0:
256,192,190519,1,0,0:0:0:0:
256,192,190995,1,0,0:0:0:0:
256,192,191313,1,8,0:0:0:0:
256,192,191472,1,0,0:0:0:0:
256,96,191789,5,4,0:0:0:0:
256,192,192265,1,0,0:0:0:0:
256,192,192583,1,8,0:0:0:0:
256,192,192662,1,8,0:0:0:0:
256,192,192742,1,8,0:0:0:0:
256,192,192900,1,8,0:0:0:0:
256,192,193218,1,8,0:0:0:0:
256,192,193297,1,8,0:0:0:0:
256,192,193376,1,8,0:0:0:0:
256,192,193535,1,8,0:0:0:0:
256,192,193853,1,8,0:0:0:0:
256,192,193932,1,8,0:0:0:0:
256,192,194011,1,8,0:0:0:0:
256,192,194170,1,8,0:0:0:0:
256,96,194329,5,4,0:0:0:0:
256,192,194805,1,8,0:0:0:0:
256,192,194964,1,0,0:0:0:0:
256,192,195043,1,0,0:0:0:0:
256,192,195122,1,0,0:0:0:0:
256,192,195281,1,8,0:0:0:0:
256,192,195599,1,0,0:0:0:0:
256,192,195916,1,0,0:0:0:0:
256,192,196075,1,8,0:0:0:0:
256,192,196234,1,0,0:0:0:0:
256,192,196710,1,8,0:0:0:0:
256,192,196869,1,0,0:0:0:0:
256,192,197345,1,8,0:0:0:0:
256,192,197503,1,0,0:0:0:0:
256,192,197583,1,0,0:0:0:0:
256,192,197662,1,0,0:0:0:0:
256,192,197821,1,0,0:0:0:0:
256,192,198138,1,0,0:0:0:0:
256,192,198456,1,0,0:0:0:0:
256,192,198615,1,8,0:0:0:0:
256,192,198773,1,0,0:0:0:0:
256,192,198853,1,0,0:0:0:0:
256,192,198932,1,0,0:0:0:0:
256,192,199249,1,8,0:0:0:0:
256,192,199408,1,0,0:0:0:0:
256,192,199884,1,8,0:0:0:0:
256,192,200043,1,0,0:0:0:0:
256,192,200122,1,0,0:0:0:0:
256,192,200202,1,0,0:0:0:0:
256,192,200361,1,0,0:0:0:0:
256,192,200519,1,8,0:0:0:0:
256,192,200678,1,0,0:0:0:0:
256,192,200995,1,0,0:0:0:0:
256,192,201154,1,8,0:0:0:0:
256,192,201313,1,0,0:0:0:0:
256,192,201392,1,0,0:0:0:0:
256,192,201472,1,0,0:0:0:0:
256,192,201789,1,8,0:0:0:0:
256,96,201948,5,4,0:0:0:0:
256,192,202424,1,0,0:0:0:0:
256,192,202742,1,8,0:0:0:0:
256,192,203059,1,0,0:0:0:0:
256,192,203138,1,0,0:0:0:0:
256,192,203218,1,0,0:0:0:0:
256,192,203297,1,0,0:0:0:0:
256,192,203376,1,0,0:0:0:0:
256,192,203694,1,8,0:0:0:0:
256,192,203773,1,8,0:0:0:0:
256,192,203853,1,8,0:0:0:0:
256,192,203932,1,8,0:0:0:0:
256,192,204011,1,8,0:0:0:0:
256,192,204329,1,8,0:0:0:0:
256,96,204488,5,4,0:0:0:0:
256,192,204805,1,0,0:0:0:0:
256,192,204964,1,0,0:0:0:0:
256,192,205281,1,8,0:0:0:0:
256,192,205440,1,0,0:0:0:0:
256,192,205757,1,0,0:0:0:0:
256,192,206075,1,8,0:0:0:0:
256,192,206551,1,8,0:0:0:0:
256,192,206710,1,0,0:0:0:0:
256,192,206869,1,8,0:0:0:0:
256,96,207186,5,4,0:0:0:0:
256,192,207503,1,8,0:0:0:0:
256,192,207821,1,8,0:0:0:0:
256,192,207980,1,0,0:0:0:0:
256,192,208138,1,0,0:0:0:0:
256,192,208297,1,8,0:0:0:0:
256,192,208615,1,0,0:0:0:0:
256,192,208694,1,0,0:0:0:0:
256,192,208773,1,0,0:0:0:0:
256,192,208932,1,0,0:0:0:0:
256,192,209091,1,8,0:0:0:0:
256,192,209567,1,8,0:0:0:0:
256,192,209726,1,8,0:0:0:0:
256,192,209884,1,0,0:0:0:0:
256,192,210043,1,0,0:0:0:0:
256,192,210361,1,8,0:0:0:0:
256,192,210519,1,8,0:0:0:0:
256,192,210678,1,8,0:0:0:0:
256,192,210837,1,0,0:0:0:0:
256,192,211154,1,0,0:0:0:0:
256,192,211234,1,0,0:0:0:0:
256,192,211313,1,0,0:0:0:0:
256,192,211630,1,8,0:0:0:0:
256,192,211789,1,0,0:0:0:0:
256,192,211948,1,8,0:0:0:0:
256,192,212027,1,8,0:0:0:0:
256,192,212107,1,8,0:0:0:0:
256,192,212265,1,8,0:0:0:0:
256,192,212345,1,8,0:0:0:0:
256,192,212424,1,8,0:0:0:0:
256,192,212583,1,0,0:0:0:0:
256,192,213059,1,8,0:0:0:0:
256,192,213376,1,0,0:0:0:0:
256,192,213535,1,8,0:0:0:0:
256,192,213694,1,0,0:0:0:0:
256,192,213853,1,0,0:0:0:0:
256,192,214011,1,8,0:0:0:0:
256,192,214329,1,0,0:0:0:0:
256,192,214488,1,8,0:0:0:0:
256,192,214646,1,8,0:0:0:0:
256,192,214805,1,0,0:0:0:0:
256,192,214964,1,8,0:0:0:0:
256,192,215122,1,0,0:0:0:0:
256,192,215440,1,8,0:0:0:0:
256,192,215757,1,0,0:0:0:0:
256,192,215916,1,8,0:0:0:0:
256,192,216392,1,8,0:0:0:0:
256,192,216551,1,0,0:0:0:0:
256,192,216630,1,0,0:0:0:0:
256,192,216710,1,0,0:0:0:0:
256,192,216789,1,0,0:0:0:0:
256,192,216869,1,0,0:0:0:0:
256,192,217027,1,8,0:0:0:0:
256,96,217186,5,4,0:0:0:0:
