osu file format v14

[General]
AudioFilename: audio.mp3
AudioLeadIn: 0
PreviewTime: 163218
Countdown: 0
SampleSet: Soft
StackLeniency: 0.7
Mode: 0
LetterboxInBreaks: 0
WidescreenStoryboard: 1

[Editor]
Bookmarks: 11083,100922
DistanceSpacing: 1
BeatDivisor: 4
GridSize: 16
TimelineZoom: 2.899999

[Metadata]
Title:Swing It!!
TitleUnicode:Swing It!!
Artist:Fear, and Loathing in Las Vegas
ArtistUnicode:Fear, and Loathing in Las Vegas
Creator:MaestroSplinter
Version:Kowari's Extra!!
Source:
Tags:falilv J-rock japanese rock Nymphe Kowari HowRengar Phase_2 gaston_2199 Megafan
BeatmapID:2198732
BeatmapSetID:1051249

[Difficulty]
HPDrainRate:5
CircleSize:3.8
OverallDifficulty:8.6
ApproachRate:9.2
SliderMultiplier:1.7
SliderTickRate:1

[Events]
//Background and Video events
0,0,"swing11.jpg",0,0
//Break Periods
2,115328,119319
//Storyboard Layer 0 (Background)
//Storyboard Layer 1 (Fail)
//Storyboard Layer 2 (Pass)
//Storyboard Layer 3 (Foreground)
//Storyboard Layer 4 (Overlay)
//Storyboard Sound Samples

[TimingPoints]
497,317.460317460317,4,2,22,70,1,0
497,-111.111111111111,4,2,22,70,0,0
15735,-111.111111111111,4,2,22,70,0,0
25893,-111.111111111111,4,2,22,70,0,0
38433,-90.9090909090909,4,2,22,80,0,1
58909,-105.263157894737,4,2,22,70,0,0
60655,-400,4,2,22,70,0,0
61131,-105.263157894737,4,2,22,70,0,0
65735,-400,4,2,22,70,0,0
66211,-105.263157894737,4,2,22,70,0,0
74147,317.460317460317,4,2,22,80,1,8
74153,365.853658536585,4,2,22,70,1,0
77079,-105.263157894737,4,2,22,70,0,0
88787,-100,4,2,22,70,0,0
102689,-133.333333333333,4,2,22,70,0,0
103421,-100,4,2,22,70,0,0
115128,317.460317460317,4,2,22,70,1,0
120207,-133.333333333333,4,2,22,60,0,0
130366,317.460317460317,4,2,22,80,1,8
130996,317.460317460317,4,2,22,80,1,0
130996,-100,4,2,22,80,0,0
141154,-100,4,2,22,70,0,0
149091,-90.9090909090909,4,2,22,80,0,0
163853,-90.9090909090909,4,2,22,80,0,1
170837,-90.9090909090909,4,2,22,80,0,1
179726,-90.9090909090909,4,2,22,80,0,1
179805,-90.9090909090909,4,2,22,5,0,1
179884,-90.9090909090909,4,2,22,80,0,1
181075,-90.9090909090909,4,2,22,5,0,1
181154,-90.9090909090909,4,2,22,80,0,1
184170,-111.111111111111,4,2,22,70,0,0
194329,-83.3333333333333,4,2,22,80,0,1
201948,-83.3333333333333,4,2,22,80,0,1
202424,-100,4,2,22,80,0,1
207186,-100,4,2,22,80,0,0

[Colours]
Combo1 : 255,151,151
Combo2 : 255,174,215
Combo3 : 145,251,227
Combo4 : 236,250,182

[HitObjects]
66,326,497,5,10,0:0:0:0:
66,326,576,1,0,1:0:0:0:
66,326,655,2,0,L|59:274,1,38.2499988327027,0|0,1:0|1:0,0:0:0:0:
54,158,814,6,0,B|114:163|114:163|143:180|143:180|215:185,1,152.999995330811,8|10,0:0|0:0,0:0:0:0:
330,53,1290,1,0,1:0:0:0:
173,93,1449,1,2,0:0:0:0:
328,53,1608,6,0,P|367:92|352:188,1,152.999995330811,2|0,1:2|1:0,0:0:0:0:
346,190,2004,1,0,1:0:0:0:
336,194,2084,1,10,0:0:0:0:
254,306,2243,1,0,1:0:0:0:
365,369,2401,2,0,B|434:346|434:346|488:364,2,114.749996498108,10|2|8,0:0|0:0|0:0,0:0:0:0:
250,293,3036,5,10,0:0:0:0:
250,293,3116,1,0,1:0:0:0:
250,293,3195,2,0,L|241:220,1,38.2499988327027,0|0,1:0|1:0,0:0:0:0:
228,126,3354,2,0,B|135:120|182:179|62:170,1,152.999995330811,8|10,0:0|0:0,0:0:0:0:
169,300,3830,1,0,1:0:0:0:
21,272,3989,1,2,0:0:0:0:
169,300,4147,6,0,B|258:277|258:277|294:293|285:334,1,152.999995330811,2|0,1:2|1:0,0:0:0:0:
283,339,4544,1,0,1:0:0:0:
276,348,4623,1,10,0:0:0:0:
343,202,4782,1,2,1:2:0:0:
411,358,4941,2,0,P|420:284|425:249,1,76.4999976654053,10|2,0:0|1:2,0:0:0:0:
331,121,5258,1,2,1:2:0:0:
475,197,5417,1,8,0:0:0:0:
257,266,5576,5,10,0:0:0:0:
258,246,5655,1,0,1:0:0:0:
259,227,5734,1,0,1:0:0:0:
260,208,5814,1,0,1:0:0:0:
260,189,5893,2,0,P|220:171|181:177,1,76.4999976654053,8|2,0:0|0:0,0:0:0:0:
308,41,6211,1,10,0:0:0:0:
388,161,6370,2,0,P|381:209|377:251,1,76.4999976654053,0|2,1:0|0:0,0:0:0:0:
308,41,6687,6,0,P|365:11|461:43,1,152.999995330811,2|0,1:2|1:0,0:0:0:0:
460,44,7084,1,0,1:0:0:0:
467,62,7164,2,0,P|462:118|461:148,1,76.4999976654053,10|0,0:0|1:0,0:0:0:0:
385,289,7481,1,10,0:0:0:0:
289,160,7639,1,0,1:0:0:0:
289,160,7719,1,2,1:2:0:0:
289,160,7798,2,0,P|343:139|371:150,1,76.4999976654053,0|8,1:0|0:0,0:0:0:0:
205,315,8116,5,10,0:0:0:0:
202,296,8195,1,0,1:0:0:0:
199,277,8274,1,0,1:0:0:0:
197,258,8354,1,0,1:0:0:0:
193,238,8433,2,0,P|134:233|105:232,1,76.4999976654053,8|2,0:0|0:0,0:0:0:0:
22,117,8750,1,10,0:0:0:0:
155,53,8909,2,0,P|165:107|149:136,1,76.4999976654053,0|2,1:0|0:0,0:0:0:0:
78,249,9227,6,0,P|47:298|86:380,1,152.999995330811,2|0,1:2|1:0,0:0:0:0:
103,376,9623,1,0,1:0:0:0:
121,373,9703,2,0,P|182:364|208:362,1,76.4999976654053,10|2,0:0|1:2,0:0:0:0:
292,259,10020,1,10,0:0:0:0:
175,186,10179,1,2,1:2:0:0:
305,108,10338,1,8,0:0:0:0:
333,111,10417,1,0,1:2:0:0:
361,115,10496,1,0,1:0:0:0:
390,119,10576,1,2,1:2:0:0:
420,122,10655,6,0,P|434:78|423:44,1,76.4999976654053,4|2,0:0|0:0,0:0:0:0:
353,216,10973,2,0,P|345:253|359:288,1,76.4999976654053,10|0,0:0|0:0,0:0:0:0:
305,108,11290,1,0,1:2:0:0:
201,218,11449,2,0,P|130:214|102:212,1,76.4999976654053,0|2,1:2|0:0,0:0:0:0:
16,89,11766,6,0,P|53:44|160:72,1,152.999995330811,8|2,0:0|1:2,0:0:0:0:
213,187,12243,1,10,0:0:0:0:
296,83,12401,2,0,P|347:80|392:77,1,76.4999976654053,2|0,0:0|1:2,0:0:0:0:
463,188,12719,1,0,1:2:0:0:
351,255,12877,2,0,P|334:212|341:175,1,76.4999976654053,10|0,0:0|1:0,0:0:0:0:
463,346,13195,5,2,1:2:0:0:
463,346,13512,2,0,B|376:332|376:332|354:357|301:369,1,152.999995330811,8|0,0:0|1:2,0:0:0:0:
208,258,13989,2,0,P|213:208|235:178,1,76.4999976654053,2|0,1:2|0:0,0:0:0:0:
360,89,14306,6,0,P|289:80|254:75,1,76.4999976654053,10|0,0:0|0:0,0:0:0:0:
46,160,14623,2,0,P|83:155|121:150,1,76.4999976654053,10|0,0:0|0:0,0:0:0:0:
231,258,14941,2,0,P|248:301|240:343,1,76.4999976654053,10|0,0:0|0:0,0:0:0:0:
114,255,15258,1,10,0:0:0:0:
270,151,15417,2,0,P|287:108|279:66,1,76.4999976654053,10|0,0:0|0:0,0:0:0:0:
98,5,15735,6,0,B|99:66|99:66|119:88|119:88|122:153,2,152.999995330811,2|8|0,1:2|0:0|1:2,0:0:0:0:
252,79,16528,2,0,P|312:69|343:65,1,76.4999976654053,2|0,1:2|0:0,0:0:0:0:
212,254,16846,6,0,B|198:218|198:218|212:174,1,76.4999976654053,10|0,0:0|0:0,0:0:0:0:
397,167,17163,2,0,B|411:203|411:203|397:247,1,76.4999976654053,2|10,1:2|0:0,0:0:0:0:
307,338,17481,1,2,1:2:0:0:
307,338,17560,1,2,1:2:0:0:
307,338,17639,2,0,L|305:290,3,38.2499988327027,2|2|2|2,1:2|1:2|1:2|1:2,0:0:0:0:
303,219,17957,5,10,0:0:0:0:
227,383,18116,1,10,0:0:0:0:
129,208,18274,6,0,B|41:196|41:196|14:224|23:255,1,152.999995330811,2|8,1:2|0:0,0:0:0:0:
190,351,18750,1,2,0:0:0:0:
246,163,18909,1,2,1:2:0:0:
246,163,19068,2,0,P|208:110|105:115,1,152.999995330811,0|10,1:2|0:0,0:0:0:0:
255,278,19544,6,0,P|317:273|352:269,1,76.4999976654053,2|10,0:0|0:0,0:0:0:0:
484,182,19862,2,0,P|445:178|407:175,1,76.4999976654053,2|10,0:0|0:0,0:0:0:0:
292,70,20179,1,2,0:0:0:0:
426,7,20338,2,0,P|439:50|421:99,1,76.4999976654053,2|10,1:2|0:0,0:0:0:0:
285,186,20655,5,2,0:0:0:0:
285,186,20735,1,0,0:0:0:0:
285,186,20814,2,0,P|218:183|195:182,1,76.4999976654053,4|2,0:0|0:0,0:0:0:0:
100,270,21131,2,0,P|87:314|99:355,1,76.4999976654053,8|2,0:0|0:0,0:0:0:0:
217,289,21449,1,0,1:2:0:0:
110,142,21608,1,0,1:2:0:0:
17,296,21766,1,2,0:0:0:0:
167,214,21925,1,8,0:0:0:0:
31,95,22084,6,0,P|28:166|28:188,1,76.4999976654053,2|0,0:0|1:2,0:0:0:0:
150,235,22401,1,8,0:0:0:0:
189,46,22560,2,0,P|145:35|105:52,1,76.4999976654053,2|0,0:0|1:2,0:0:0:0:
247,188,22877,2,0,P|291:199|331:182,1,76.4999976654053,2|8,0:0|0:0,0:0:0:0:
424,61,23195,5,2,0:0:0:0:
424,80,23274,1,0,0:0:0:0:
423,99,23354,2,0,L|414:235,1,114.749996498108,4|0,0:0|0:0,0:0:0:0:
424,291,23671,2,0,B|464:301|464:301|505:286,1,76.4999976654053,8|0,0:0|0:0,0:0:0:0:
319,189,23989,1,2,1:2:0:0:
317,384,24147,2,0,P|320:348|323:292,1,76.4999976654053,2|0,1:2|0:0,0:0:0:0:
167,187,24465,6,0,B|149:222|149:222|160:262,1,76.4999976654053,10|0,0:0|0:0,0:0:0:0:
351,190,24782,2,0,B|369:155|369:155|358:115,1,76.4999976654053,10|0,0:0|0:0,0:0:0:0:
216,52,25100,2,0,P|161:59|130:62,1,76.4999976654053,10|0,0:0|0:0,0:0:0:0:
18,168,25417,1,2,1:2:0:0:
158,257,25576,2,0,P|180:300|174:346,1,76.4999976654053,10|0,0:0|0:0,0:0:0:0:
265,158,25893,6,0,B|359:140|334:198|429:175,2,152.999995330811,2|8|0,1:2|0:0|1:2,0:0:0:0:
383,13,26687,2,0,P|390:66|395:105,1,76.4999976654053,2|0,1:2|0:0,0:0:0:0:
288,322,27004,6,0,P|292:284|297:246,1,76.4999976654053,10|0,0:0|0:0,0:0:0:0:
120,112,27322,2,0,P|124:149|128:187,1,76.4999976654053,2|10,1:2|0:0,0:0:0:0:
105,344,27639,1,2,1:2:0:0:
105,344,27719,1,2,1:2:0:0:
105,344,27798,2,0,L|52:356,3,38.2499988327027,2|2|2|2,1:2|1:2|1:2|1:2,0:0:0:0:
187,317,28116,5,10,0:0:0:0:
37,227,28274,1,10,0:0:0:0:
225,158,28433,6,0,B|289:164|289:164|318:184|318:184|387:185,1,152.999995330811,2|8,1:2|0:0,0:0:0:0:
195,292,28909,1,2,0:0:0:0:
107,111,29068,2,0,P|163:53|239:57,1,152.999995330811,2|2,1:2|0:0,0:0:0:0:
354,178,29544,1,8,0:0:0:0:
427,60,29703,5,2,0:0:0:0:
427,60,29862,2,0,P|368:69|334:72,1,76.4999976654053,2|8,1:2|0:0,0:0:0:0:
267,242,30179,1,2,1:2:0:0:
267,242,30258,1,0,1:2:0:0:
267,242,30338,1,2,1:2:0:0:
443,170,30496,1,2,1:2:0:0:
240,58,30655,1,8,0:0:0:0:
366,242,30814,5,0,1:2:0:0:
366,242,30893,1,0,1:2:0:0:
366,242,30973,2,0,B|387:295|387:295|346:360,1,114.749996498108,4|0,1:2|0:0,0:0:0:0:
283,365,31290,2,0,P|235:359|203:355,1,76.4999976654053,8|2,0:0|0:0,0:0:0:0:
135,217,31608,2,0,P|175:197|215:204,1,76.4999976654053,2|2,1:2|0:0,0:0:0:0:
195,368,31925,1,8,0:0:0:0:
56,302,32084,1,2,0:0:0:0:
216,203,32243,6,0,B|227:97|227:97|193:142,1,152.999995330811,4|8,1:2|0:0,0:0:0:0:
288,286,32719,1,2,0:0:0:0:
288,286,32798,1,2,0:0:0:0:
288,286,32877,2,0,P|337:298|372:288,1,76.4999976654053,2|2,1:2|0:0,0:0:0:0:
426,177,33195,2,0,P|426:131|429:92,1,76.4999976654053,8|2,0:0|0:0,0:0:0:0:
473,24,33433,5,0,0:0:0:0:
473,24,33512,2,0,P|425:12|361:38,1,114.749996498108,4|0,1:2|0:0,0:0:0:0:
309,92,33830,2,0,P|250:84|216:77,1,76.4999976654053,8|2,0:0|0:0,0:0:0:0:
119,162,34147,2,0,B|100:198|100:198|112:240,1,76.4999976654053,2|2,1:2|0:0,0:0:0:0:
333,281,34465,2,0,B|352:245|352:245|340:203,1,76.4999976654053,8|2,0:0|0:0,0:0:0:0:
195,331,34782,5,4,1:2:0:0:
139,148,34941,2,0,P|99:133|53:143,1,76.4999976654053,2|8,0:0|0:0,0:0:0:0:
256,235,35258,1,2,0:0:0:0:
256,235,35338,1,2,0:0:0:0:
256,235,35417,2,0,P|265:181|272:144,1,76.4999976654053,2|2,1:2|0:0,0:0:0:0:
299,11,35735,1,8,0:0:0:0:
299,11,36052,6,0,B|363:41|363:41|421:18,1,114.749996498108,4|0,0:0|0:0,0:0:0:0:
474,62,36370,2,0,B|486:104|486:104|468:140,1,76.4999976654053,12|0,0:0|0:0,0:0:0:0:
336,238,36687,1,0,1:0:0:0:
336,238,36766,1,0,1:0:0:0:
336,238,36846,1,8,0:0:0:0:
492,298,37004,1,8,0:0:0:0:
382,123,37163,2,0,L|368:169,1,38.2499988327027,0|0,1:0|1:0,0:0:0:0:
284,335,37322,5,8,0:0:0:0:
186,155,37481,1,8,0:0:0:0:
336,238,37639,1,0,1:2:0:0:
120,258,37798,1,0,1:2:0:0:
250,56,37957,5,8,0:0:0:0:
284,335,38116,1,8,0:0:0:0:
284,335,38433,6,0,B|219:333|219:333|191:316|191:316|128:319|128:319|149:347,1,187.000005706787,6|0,0:0|1:0,0:0:0:0:
51,211,38909,2,0,P|45:152|65:119,1,93.5000028533936,8|0,0:0|0:0,0:0:0:0:
241,44,39227,1,0,1:0:0:0:
156,170,39385,1,0,1:0:0:0:
92,0,39544,1,8,0:0:0:0:
156,170,39703,1,0,1:0:0:0:
252,27,39862,6,0,P|323:25|361:24,1,93.5000028533936,2|0,0:0|1:0,0:0:0:0:
295,251,40179,2,0,P|248:249|201:248,1,93.5000028533936,8|0,0:0|1:0,0:0:0:0:
345,136,40496,1,2,0:0:0:0:
448,265,40655,2,0,B|463:311|463:311|441:357,1,93.5000028533936,0|8,0:0|0:0,0:0:0:0:
195,229,40973,6,0,B|324:225|324:225|265:258,1,187.000005706787,4|0,0:0|1:0,0:0:0:0:
370,64,41449,2,0,P|390:113|375:166,1,93.5000028533936,8|0,0:0|0:0,0:0:0:0:
241,291,41766,1,0,1:0:0:0:
301,122,41925,1,0,1:0:0:0:
393,287,42084,1,10,0:0:0:0:
217,192,42243,1,0,1:0:0:0:
393,287,42401,5,2,0:0:0:0:
408,64,42560,2,0,P|468:58|519:55,1,93.5000028533936,2|8,1:2|0:0,0:0:0:0:
321,208,42877,1,2,1:2:0:0:
231,19,43036,2,0,B|120:10|170:68|41:56,1,187.000005706787,2|8,0:0|0:0,0:0:0:0:
186,248,43512,6,0,B|247:205|220:134|220:134|152:151,1,187.000005706787,4|2,0:0|1:2,0:0:0:0:
117,345,43989,2,0,P|188:351|227:356,1,93.5000028533936,10|0,0:0|0:0,0:0:0:0:
375,214,44306,1,2,1:2:0:0:
322,363,44465,1,0,1:0:0:0:
238,180,44623,1,8,0:0:0:0:
475,169,44782,6,0,P|490:222|464:274,1,93.5000028533936,2|2,1:2|0:0,0:0:0:0:
236,252,45100,2,0,P|224:207|239:163,1,93.5000028533936,2|8,1:2|0:0,0:0:0:0:
360,53,45417,1,2,1:2:0:0:
365,244,45576,2,0,B|350:371|350:371|330:280,1,187.000005706787,2|8,0:0|0:0,0:0:0:0:
241,119,46052,6,0,B|135:101|135:101|92:127|106:179,1,187.000005706787,6|0,0:0|1:0,0:0:0:0:
334,76,46528,2,0,P|300:34|252:26,1,93.5000028533936,10|8,0:0|0:0,0:0:0:0:
307,220,46846,1,2,1:2:0:0:
427,108,47004,1,2,1:2:0:0:
241,119,47163,1,8,0:0:0:0:
360,319,47322,6,0,B|407:328|407:328|461:300,1,93.5000028533936,10|2,2:3|0:0,0:0:0:0:
243,139,47639,2,0,B|196:130|196:130|142:158,1,93.5000028533936,2|8,1:2|0:0,0:0:0:0:
215,359,47957,1,2,1:2:0:0:
215,359,48036,1,0,1:0:0:0:
215,359,48116,1,8,0:0:0:0:
340,197,48274,1,8,0:0:0:0:
82,250,48433,1,8,0:0:0:0:
340,197,48592,6,0,B|390:234|390:234|357:375,1,187.000005706787,4|0,0:0|1:0,0:0:0:0:
220,215,49068,2,0,P|223:147|254:121,1,93.5000028533936,8|0,0:0|0:0,0:0:0:0:
400,97,49385,1,0,1:0:0:0:
233,22,49544,1,0,1:0:0:0:
340,196,49703,1,8,0:0:0:0:
454,7,49862,1,0,1:0:0:0:
340,196,50020,6,0,P|262:197|233:198,1,93.5000028533936,2|0,0:0|1:0,0:0:0:0:
59,38,50338,2,0,P|105:39|152:39,1,93.5000028533936,8|0,0:0|1:0,0:0:0:0:
183,257,50655,1,2,0:0:0:0:
62,165,50814,2,0,P|116:139|158:144,1,93.5000028533936,0|8,0:0|0:0,0:0:0:0:
234,363,51131,6,0,B|355:369|296:313|424:316,1,187.000005706787,4|0,0:0|1:0,0:0:0:0:
253,150,51608,2,0,P|259:210|261:253,1,93.5000028533936,8|0,0:0|0:0,0:0:0:0:
444,108,51925,1,0,1:0:0:0:
289,19,52084,1,0,1:0:0:0:
444,108,52243,1,10,0:0:0:0:
253,150,52401,1,2,1:2:0:0:
403,16,52560,5,2,0:0:0:0:
404,209,52719,2,0,B|447:221|447:221|499:201,1,93.5000028533936,2|8,1:2|0:0,0:0:0:0:
297,67,53036,1,2,1:2:0:0:
256,280,53195,2,0,B|185:283|185:283|146:267|146:267|51:269,1,187.000005706787,2|8,0:0|0:0,0:0:0:0:
130,37,53671,6,0,P|198:55|194:164,1,187.000005706787,4|0,0:0|1:0,0:0:0:0:
46,266,54147,2,0,P|54:193|57:165,1,93.5000028533936,8|0,0:0|0:0,0:0:0:0:
243,292,54465,1,0,1:0:0:0:
90,372,54623,1,0,1:0:0:0:
167,188,54782,1,8,0:0:0:0:
296,374,54941,6,0,B|385:348|385:348|407:364|450:370,1,140.25000428009,2|0,1:2|0:0,0:0:0:0:
495,320,55258,1,2,1:2:0:0:
359,172,55417,2,0,P|351:231|342:279,1,93.5000028533936,8|2,0:0|1:2,0:0:0:0:
503,161,55735,1,2,0:0:0:0:
388,28,55893,2,0,P|337:17|287:47,1,93.5000028533936,2|10,0:0|0:0,0:0:0:0:
239,289,56211,6,0,B|228:210|228:210|244:181|244:181|230:108,1,187.000005706787,6|0,0:0|1:0,0:0:0:0:
60,233,56687,2,0,P|104:252|162:241,1,93.5000028533936,8|2,0:0|0:0,0:0:0:0:
329,140,57004,1,0,1:0:0:0:
139,98,57163,1,0,1:0:0:0:
245,288,57322,1,8,0:0:0:0:
245,288,57401,1,8,0:0:0:0:
245,288,57481,2,0,L|249:225,1,46.7500014266968,8|8,0:0|0:0,0:0:0:0:
295,54,57639,5,4,1:2:0:0:
324,34,57718,1,0,1:0:0:0:
358,28,57797,1,8,0:0:0:0:
392,35,57877,1,8,0:0:0:0:
421,55,57957,1,8,0:0:0:0:
418,90,58036,1,0,1:0:0:0:
415,124,58115,1,8,0:0:0:0:
413,159,58195,1,8,0:0:0:0:
410,194,58274,2,0,L|417:258,3,46.7500014266968,4|0|0|8,1:2|1:0|1:0|0:0,0:0:0:0:
334,337,58592,5,8,0:0:0:0:
334,337,58671,1,8,0:0:0:0:
334,337,58750,2,0,L|341:276,1,46.7500014266968,8|8,0:0|0:0,0:0:0:0:
290,140,58909,6,0,P|235:112|161:146,1,121.124996765614,4|0,0:0|1:0,0:0:0:0:
130,187,59227,1,8,0:0:0:0:
213,313,59385,2,0,B|230:204|230:204|195:249,1,161.499995687485,0|0,1:0|1:0,0:0:0:0:
198,244,59782,1,0,1:0:0:0:
198,244,59862,1,8,0:0:0:0:
116,350,60020,5,0,1:0:0:0:
36,280,60179,2,0,B|25:238|25:238|42:199,1,80.7499978437424,2|2,0:0|0:0,0:0:0:0:
158,154,60496,2,0,B|172:119|172:119|161:77,1,80.7499978437424,8|0,0:0|1:0,0:0:0:0:
152,59,60735,1,0,1:0:0:0:
152,59,60814,1,2,0:0:0:0:
43,192,60973,1,2,0:0:0:0:
207,251,61131,2,0,B|283:235|283:235|334:254,1,121.124996765614,10|0,0:0|0:0,0:0:0:0:
384,299,61449,5,4,0:0:0:0:
290,150,61608,1,0,1:0:0:0:
290,150,61687,1,0,1:0:0:0:
290,150,61766,1,8,0:0:0:0:
449,85,61925,2,0,B|441:151|441:151|453:182|453:182|441:254,1,161.499995687485,0|0,1:0|1:0,0:0:0:0:
441,260,62322,1,0,1:0:0:0:
438,281,62401,2,0,B|395:292|395:292|351:260,1,80.7499978437424,8|0,0:0|1:0,0:0:0:0:
260,158,62719,5,2,0:0:0:0:
256,188,62798,1,0,0:0:0:0:
253,218,62877,1,2,0:0:0:0:
250,248,62957,1,0,0:0:0:0:
247,278,63036,2,0,P|240:343|238:367,1,80.7499978437424,8|0,0:0|1:0,0:0:0:0:
75,194,63354,5,2,0:0:0:0:
96,172,63433,1,0,0:0:0:0:
124,161,63512,1,2,0:0:0:0:
154,161,63592,1,0,0:0:0:0:
182,172,63671,2,0,P|222:192|261:184,1,80.7499978437424,10|2,0:0|0:0,0:0:0:0:
356,38,63989,6,0,L|228:53,1,121.124996765614,4|0,0:0|1:0,0:0:0:0:
159,66,64306,1,8,0:0:0:0:
256,187,64465,2,0,P|289:234|245:323,1,161.499995687485,0|0,1:0|1:0,0:0:0:0:
249,320,64862,1,0,1:0:0:0:
249,320,64941,1,8,0:0:0:0:
372,371,65100,5,0,1:0:0:0:
467,291,65258,2,0,P|483:241|462:208,1,80.7499978437424,2|2,0:0|0:0,0:0:0:0:
360,144,65576,2,0,P|344:94|365:61,1,80.7499978437424,8|0,0:0|1:0,0:0:0:0:
370,62,65814,1,0,1:0:0:0:
370,62,65893,1,2,0:0:0:0:
470,195,66052,1,2,0:0:0:0:
337,255,66211,2,0,B|264:238|264:238|230:248|228:272,1,121.124996765614,10|0,0:0|0:0,0:0:0:0:
239,341,66528,6,0,L|289:335,1,40.3749989218712,4|0,0:0|1:0,0:0:0:0:
109,247,66687,1,0,1:0:0:0:
109,247,66766,1,0,1:0:0:0:
109,247,66846,1,8,0:0:0:0:
212,137,67004,2,0,B|299:154|275:99|374:114,1,161.499995687485,0|0,1:0|1:0,0:0:0:0:
387,119,67401,1,0,1:0:0:0:
402,129,67481,2,0,P|394:66|388:28,1,80.7499978437424,8|0,0:0|1:0,0:0:0:0:
329,254,67798,5,2,0:0:0:0:
354,270,67877,1,0,0:0:0:0:
383,278,67956,1,2,0:0:0:0:
413,275,68036,1,0,0:0:0:0:
440,263,68116,2,0,P|488:243|524:252,1,80.7499978437424,8|0,0:0|1:0,0:0:0:0:
333,163,68433,5,2,0:0:0:0:
332,193,68512,1,0,0:0:0:0:
330,223,68591,1,2,0:0:0:0:
329,254,68671,1,0,0:0:0:0:
327,284,68750,2,0,L|323:331,1,40.3749989218712,10|8,0:0|0:0,0:0:0:0:
211,240,68909,2,0,L|215:287,1,40.3749989218712,8|8,0:0|0:0,0:0:0:0:
164,384,69068,6,0,B|88:365|88:365|34:379,1,121.124996765614,4|0,0:0|0:0,0:0:0:0:
0,316,69385,2,0,B|-12:280|-12:280|9:232,1,80.7499978437424,8|2,0:0|1:2,0:0:0:0:
103,172,69703,1,0,1:0:0:0:
186,257,69862,2,0,P|245:253|276:252,1,80.7499978437424,2|8,1:2|0:0,0:0:0:0:
103,172,70179,1,2,1:2:0:0:
217,91,70338,6,0,P|243:131|236:175,1,80.7499978437424,2|2,0:0|0:0,0:0:0:0:
92,56,70655,1,8,0:0:0:0:
226,3,70814,1,2,1:2:0:0:
92,56,70973,2,0,P|28:51|-1:51,1,80.7499978437424,2|2,0:0|0:0,0:0:0:0:
241,162,71290,2,0,P|305:157|334:157,1,80.7499978437424,8|2,0:0|1:2,0:0:0:0:
400,179,71528,5,0,1:0:0:0:
400,179,71608,2,0,P|431:238|367:327,1,161.499995687485,2|8,0:0|0:0,0:0:0:0:
238,256,72084,1,2,0:0:0:0:
238,256,72163,1,0,0:0:0:0:
238,256,72243,1,0,1:0:0:0:
298,373,72401,1,0,1:0:0:0:
344,243,72560,1,8,0:0:0:0:
146,279,72719,1,0,1:0:0:0:
228,63,72877,5,8,0:0:0:0:
344,243,73036,1,0,1:0:0:0:
159,174,73195,1,4,0:0:0:0:
351,109,73354,1,0,1:0:0:0:
249,265,73512,5,10,0:0:0:0:
228,302,73618,2,0,P|179:313|162:310,1,53.8333318958283,8|8,0:0|0:0,0:0:0:0:
63,193,73830,5,8,0:0:0:0:
84,156,73936,2,0,P|133:145|150:148,1,53.8333318958283,8|8,0:0|0:0,0:0:0:0:
177,219,74153,5,10,0:0:0:0:
369,32,75616,6,0,L|360:142,1,85,8|0,0:0|1:0,0:0:0:0:
325,185,75890,1,0,1:0:0:0:
325,185,75982,2,0,L|331:238,1,42.5,8|0,0:0|1:0,0:0:0:0:
393,273,76165,2,0,L|387:326,1,42.5,0|0,1:0|1:0,0:0:0:0:
334,376,76348,6,0,B|283:370|283:370|262:352|262:352|205:348,1,127.5,8|2,0:0|0:0,0:0:0:0:
154,299,76713,1,10,0:0:0:0:
156,277,76804,1,0,1:0:0:0:
159,256,76895,1,0,1:0:0:0:
161,235,76987,1,0,1:0:0:0:
162,215,77079,6,0,P|117:179|49:190,1,121.124996765614,4|10,0:0|0:0,0:0:0:0:
26,257,77445,2,0,P|34:306|39:341,1,80.7499978437424,0|10,1:0|0:0,0:0:0:0:
128,139,77811,2,0,P|173:103|241:114,1,121.124996765614,0|10,1:0|0:0,0:0:0:0:
264,181,78177,2,0,P|256:230|251:265,1,80.7499978437424,0|10,1:0|0:0,0:0:0:0:
337,363,78543,6,0,B|414:338|414:338|461:352,1,121.124996765614,4|10,0:0|0:0,0:0:0:0:
504,289,78909,2,0,P|519:253|505:213,1,80.7499978437424,0|10,1:0|0:0,0:0:0:0:
344,190,79274,2,0,B|267:165|267:165|220:179,1,121.124996765614,0|10,1:0|0:0,0:0:0:0:
163,136,79640,1,0,1:0:0:0:
257,27,79823,1,10,0:0:0:0:
367,190,80006,6,0,P|379:85|383:44,1,121.124996765614,4|10,0:0|0:0,0:0:0:0:
434,9,80372,2,0,B|474:0|474:0|513:16,1,80.7499978437424,0|10,1:0|0:0,0:0:0:0:
499,179,80738,2,0,P|505:239|512:299,1,121.124996765614,0|10,1:0|0:0,0:0:0:0:
482,374,81104,2,0,B|442:383|442:383|405:367,1,80.7499978437424,0|10,1:0|0:0,0:0:0:0:
297,268,81470,6,0,B|251:272|251:272|230:288|230:288|149:294,1,121.124996765614,4|10,0:0|0:0,0:0:0:0:
101,293,81835,1,0,1:0:0:0:
206,180,82018,1,10,0:0:0:0:
57,94,82201,2,0,L|75:182,1,80.7499978437424,0|0,1:0|0:0,0:0:0:0:
80,198,82476,1,10,0:0:0:0:
80,198,82567,1,0,1:0:0:0:
180,63,82750,1,10,0:0:0:0:
244,212,82933,6,0,P|300:235|372:204,1,121.124996765614,4|10,0:0|0:0,0:0:0:0:
388,143,83299,2,0,P|378:88|370:47,1,80.7499978437424,0|10,1:0|0:0,0:0:0:0:
508,244,83665,2,0,P|472:278|426:279,1,80.7499978437424,0|0,1:0|0:0,0:0:0:0:
422,270,83939,1,10,0:0:0:0:
422,270,84031,1,0,1:0:0:0:
356,143,84213,1,10,0:0:0:0:
246,235,84396,6,0,P|256:303|263:364,1,121.124996765614,4|10,0:0|0:0,0:0:0:0:
185,384,84762,2,0,P|169:341|184:302,1,80.7499978437424,0|10,1:0|0:0,0:0:0:0:
271,158,85128,2,0,P|261:90|254:29,1,121.124996765614,0|10,1:0|0:0,0:0:0:0:
332,9,85494,2,0,P|348:52|333:91,1,80.7499978437424,0|10,1:0|0:0,0:0:0:0:
184,127,85860,6,0,P|136:120|83:115,1,80.7499978437424,4|0,0:0|0:0,0:0:0:0:
80,117,86134,1,10,0:0:0:0:
81,117,86226,1,0,1:0:0:0:
0,227,86409,1,10,0:0:0:0:
112,293,86592,2,0,B|195:274|195:274|216:284|241:288,1,121.124996765614,0|10,1:0|0:0,0:0:0:0:
299,250,86957,2,0,P|314:204|298:167,1,80.7499978437424,0|10,1:0|0:0,0:0:0:0:
200,91,87323,5,4,0:0:0:0:
322,27,87506,1,0,1:0:0:0:
342,29,87597,1,0,1:0:0:0:
362,31,87688,1,8,0:0:0:0:
382,32,87780,1,0,1:0:0:0:
402,34,87871,1,0,1:0:0:0:
422,35,87963,1,0,1:0:0:0:
442,36,88055,5,8,0:0:0:0:
467,66,88146,1,0,1:0:0:0:
474,105,88237,1,8,0:0:0:0:
459,142,88329,1,8,0:0:0:0:
427,166,88421,1,8,0:0:0:0:
401,196,88512,1,8,0:0:0:0:
394,235,88603,1,8,0:0:0:0:
409,272,88695,1,8,0:0:0:0:
449,297,88787,6,0,B|365:282|365:282|337:298|339:316,1,127.5,4|10,0:0|0:0,0:0:0:0:
368,383,89152,2,0,P|432:377|468:371,1,85,0|10,1:0|0:0,0:0:0:0:
275,213,89518,2,0,P|234:269|266:333,1,127.5,0|10,1:0|0:0,0:0:0:0:
201,379,89884,2,0,P|146:370|112:364,1,85,0|10,1:0|0:0,0:0:0:0:
39,209,90250,6,0,B|117:220|117:220|149:190|138:154,1,127.5,4|10,0:0|0:0,0:0:0:0:
101,110,90616,2,0,P|50:122|11:131,1,85,0|10,1:0|0:0,0:0:0:0:
226,13,90982,2,0,P|207:69|260:130,1,127.5,0|10,1:0|0:0,0:0:0:0:
312,158,91348,2,0,P|373:145|409:139,1,85,0|10,1:0|0:0,0:0:0:0:
251,334,91713,6,0,B|230:294|230:294|247:251,1,85,4|0,0:0|0:0,0:0:0:0:
259,232,91988,1,10,0:0:0:0:
259,232,92079,1,0,1:0:0:0:
348,362,92262,1,10,0:0:0:0:
488,219,92445,2,0,B|432:214|432:214|414:223|414:223|363:219,1,127.5,0|10,1:0|0:0,0:0:0:0:
320,153,92811,2,0,P|306:102|331:67,1,85,0|10,1:0|0:0,0:0:0:0:
243,268,93177,6,0,P|168:263|136:259,1,85,4|0,0:0|0:0,0:0:0:0:
128,262,93451,1,10,0:0:0:0:
128,262,93543,1,0,1:0:0:0:
28,138,93726,1,10,0:0:0:0:
170,68,93909,2,0,P|192:111|174:160,1,85,0|0,1:0|0:0,0:0:0:0:
163,160,94183,1,10,0:0:0:0:
163,160,94274,1,0,1:0:0:0:
37,250,94457,1,10,0:0:0:0:
151,362,94640,6,0,B|237:345|237:345|290:373,1,127.5,4|10,0:0|0:0,0:0:0:0:
344,331,95006,2,0,P|365:293|351:245,1,85,0|10,1:0|0:0,0:0:0:0:
248,162,95372,2,0,B|170:160|205:209|98:201,1,127.5,0|10,1:0|0:0,0:0:0:0:
70,152,95738,2,0,B|55:110|55:110|78:61,1,85,0|10,1:0|0:0,0:0:0:0:
247,22,96104,6,0,P|319:32|346:35,1,85,4|0,0:0|0:0,0:0:0:0:
366,43,96378,1,10,0:0:0:0:
366,43,96470,1,0,1:0:0:0:
281,182,96652,1,10,0:0:0:0:
430,228,96835,2,0,P|448:175|433:135,1,85,0|0,1:0|0:0,0:0:0:0:
416,125,97110,1,10,0:0:0:0:
416,125,97201,1,0,1:0:0:0:
264,193,97384,1,10,0:0:0:0:
342,352,97567,6,0,P|439:344|485:341,1,127.5,4|10,0:0|0:0,0:0:0:0:
506,274,97933,2,0,P|464:255|419:271,1,85,0|10,1:0|0:0,0:0:0:0:
257,258,98299,2,0,P|160:250|114:247,1,127.5,0|10,1:0|0:0,0:0:0:0:
93,180,98665,2,0,P|135:161|180:177,1,85,0|10,1:0|0:0,0:0:0:0:
271,331,99031,5,4,0:0:0:0:
363,214,99213,1,0,1:0:0:0:
363,214,99305,1,0,1:0:0:0:
363,214,99396,2,0,L|410:217,1,42.5,8|0,0:0|1:0,0:0:0:0:
261,98,99579,1,0,1:0:0:0:
261,98,99671,1,0,1:0:0:0:
261,98,99762,5,8,0:0:0:0:
232,128,99853,1,0,1:0:0:0:
192,139,99944,1,8,0:0:0:0:
152,127,100036,1,8,0:0:0:0:
123,99,100128,1,8,0:0:0:0:
82,86,100219,1,8,0:0:0:0:
42,97,100310,1,8,0:0:0:0:
14,128,100402,1,8,0:0:0:0:
4,172,100494,6,0,P|14:244|23:304,2,127.5,0|8|0,1:0|0:0|1:0,0:0:0:0:
230,124,101226,2,0,P|171:99|112:76,2,127.5,2|8|0,1:2|0:0|1:0,0:0:0:0:
158,344,101957,2,0,P|209:304|259:265,2,127.5,2|8|0,1:2|0:0|1:0,0:0:0:0:
123,227,102690,5,2,1:2:0:0:
123,227,102781,1,0,1:0:0:0:
123,227,102872,1,0,1:0:0:0:
123,227,102964,1,0,1:0:0:0:
123,227,103055,2,0,P|158:219|119:202,1,95.6250036478044,8|0,0:0|0:0,0:0:0:0:
126,194,103421,6,0,B|204:205|167:159|273:177,1,127.5,6|10,0:0|0:0,0:0:0:0:
306,229,103787,2,0,P|296:288|290:328,1,85,0|10,1:0|0:0,0:0:0:0:
471,195,104152,2,0,P|403:204|360:147,1,127.5,2|10,1:2|0:0,0:0:0:0:
357,86,104518,2,0,P|370:28|375:-3,1,85,0|10,1:0|0:0,0:0:0:0:
250,145,104884,5,4,0:0:0:0:
190,26,105067,1,0,0:0:0:0:
190,26,105159,1,10,0:0:0:0:
190,26,105250,2,0,P|234:4|275:14,1,85,0|10,1:0|0:0,0:0:0:0:
99,153,105616,2,0,P|92:107|82:48,1,85,2|0,1:2|0:0,0:0:0:0:
81,36,105890,1,10,0:0:0:0:
81,36,105982,1,0,1:0:0:0:
215,177,106165,1,10,0:0:0:0:
21,260,106348,6,0,P|80:249|140:325,1,127.5,4|10,0:0|0:0,0:0:0:0:
146,365,106713,2,0,P|204:354|244:347,1,85,0|10,1:0|0:0,0:0:0:0:
323,250,107079,2,0,P|313:165|306:101,1,127.5,2|10,1:2|0:0,0:0:0:0:
360,52,107445,5,2,0:0:0:0:
394,27,107567,2,0,P|431:32|465:64,1,56.6666666666667,2|2,0:0|0:0,0:0:0:0:
477,140,107811,6,0,P|466:245|462:294,1,127.5,4|10,0:0|0:0,0:0:0:0:
502,345,108177,2,0,P|445:354|416:332,1,85,0|8,1:0|0:0,0:0:0:0:
301,230,108543,2,0,P|255:220|209:243,1,85,2|0,1:2|0:0,0:0:0:0:
208,254,108817,1,10,0:0:0:0:
208,254,108909,1,0,1:0:0:0:
319,351,109092,1,10,0:0:0:0:
405,209,109274,6,0,B|381:130|381:130|407:75,1,127.5,4|10,0:0|0:0,0:0:0:0:
369,16,109640,2,0,P|323:7|279:30,1,85,0|10,1:0|0:0,0:0:0:0:
237,172,110006,2,0,P|192:202|108:170,1,127.5,2|10,1:2|0:0,0:0:0:0:
96,114,110372,2,0,P|106:45|109:20,1,85,0|10,1:0|0:0,0:0:0:0:
12,241,110738,6,0,P|27:309|33:343,1,85,4|0,0:0|0:0,0:0:0:0:
36,360,111012,1,10,0:0:0:0:
36,360,111104,1,0,1:0:0:0:
129,193,111287,1,10,0:0:0:0:
222,306,111470,2,0,P|177:338|136:332,1,85,2|0,1:2|0:0,0:0:0:0:
129,326,111744,1,10,0:0:0:0:
129,326,111835,1,2,1:2:0:0:
240,183,112018,1,10,0:0:0:0:
340,343,112201,6,0,P|350:248|356:192,1,127.5,4|10,0:0|0:0,0:0:0:0:
423,174,112567,2,0,B|441:215|441:215|426:258,1,85,0|10,1:0|0:0,0:0:0:0:
230,259,112933,2,0,B|212:197|212:197|257:130,1,127.5,2|10,1:2|0:0,0:0:0:0:
312,98,113299,2,0,P|310:44|307:4,1,85,0|10,1:0|0:0,0:0:0:0:
145,116,113665,5,4,0:0:0:0:
293,212,113848,1,0,1:0:0:0:
308,226,113939,1,0,1:0:0:0:
318,245,114030,1,8,0:0:0:0:
322,266,114122,1,0,1:0:0:0:
319,287,114213,1,0,1:0:0:0:
311,306,114305,1,0,1:0:0:0:
295,322,114396,5,8,0:0:0:0:
258,319,114487,1,0,1:0:0:0:
222,316,114578,1,8,0:0:0:0:
186,313,114670,1,8,0:0:0:0:
149,310,114761,1,8,0:0:0:0:
113,307,114853,1,8,0:0:0:0:
77,304,114944,1,8,0:0:0:0:
40,301,115036,1,8,0:0:0:0:
4,298,115128,5,4,0:0:0:0:
458,22,119889,5,2,0:0:0:0:
393,108,120048,1,0,1:0:0:0:
393,108,120128,1,0,1:0:0:0:
393,108,120207,2,0,P|405:174|415:238,1,127.500004863739,12|0,0:0|0:0,0:0:0:0:
346,344,120842,2,0,P|298:366|231:309,1,127.500004863739,8|0,0:0|0:0,0:0:0:0:
210,225,121318,2,0,P|225:146|236:84,1,127.500004863739,0|0,1:0|1:0,0:0:0:0:
165,10,121794,1,0,1:0:0:0:
30,86,122112,2,0,P|45:183|51:223,1,127.500004863739,8|0,0:0|0:0,0:0:0:0:
86,358,122747,6,0,P|127:373|206:314,1,127.500004863739,0|0,1:0|0:0,0:0:0:0:
225,212,123381,2,0,P|211:116|204:64,1,127.500004863739,8|0,0:0|0:0,0:0:0:0:
283,13,123858,2,0,P|318:0|405:43,1,127.500004863739,0|0,1:0|1:0,0:0:0:0:
434,119,124334,1,0,1:0:0:0:
364,251,124651,2,0,P|371:301|374:341,1,63.7500024318696,8|0,0:0|0:0,0:0:0:0:
280,367,124969,1,2,0:0:0:0:
215,274,125127,5,0,1:0:0:0:
215,274,125207,1,0,1:0:0:0:
215,274,125286,2,0,B|229:217|229:217|220:197|220:197|233:139,1,127.500004863739,12|0,0:0|0:0,0:0:0:0:
213,57,125762,1,0,0:0:0:0:
213,57,125921,2,0,P|162:33|95:62,1,127.500004863739,8|0,0:0|1:2,0:0:0:0:
50,142,126397,6,0,P|60:187|66:221,1,63.7500024318696,0|2,1:0|0:0,0:0:0:0:
88,310,126715,1,0,1:2:0:0:
88,310,126874,2,0,P|54:329|18:327,1,63.7500024318696,0|0,1:0|0:0,0:0:0:0:
151,231,127191,2,0,P|190:211|281:246,1,127.500004863739,10|0,0:0|0:0,0:0:0:0:
304,333,127667,1,0,0:0:0:0:
398,283,127826,6,0,B|387:232|387:232|398:212|398:212|378:138,1,127.500004863739,0|0,1:0|0:0,0:0:0:0:
358,68,128302,1,0,0:0:0:0:
358,68,128461,2,0,P|400:34|476:49,1,127.500004863739,10|0,0:0|0:0,0:0:0:0:
296,141,128937,2,0,P|251:133|215:128,1,63.7500024318696,0|2,1:0|0:0,0:0:0:0:
142,170,129254,1,0,1:0:0:0:
142,170,129413,2,0,P|128:200|136:238,1,63.7500024318696,0|0,1:0|0:0,0:0:0:0:
256,287,129731,6,0,B|253:330|253:330|260:345|260:345|258:387,1,95.6250036478044,8|8,0:0|0:0,0:0:0:0:
258,380,130996,5,4,0:0:0:0:
174,215,131154,1,2,0:0:0:0:
366,263,131313,1,8,0:0:0:0:
174,215,131472,2,0,B|58:215|123:266|-18:264,1,170,2|0,1:2|0:0,0:0:0:0:
100,115,131948,5,2,0:0:0:0:
167,312,132107,1,2,0:0:0:0:
276,137,132265,1,8,0:0:0:0:
167,312,132424,2,0,P|219:351|317:286,1,170,2|0,1:2|0:0,0:0:0:0:
365,149,132900,5,2,1:2:0:0:
437,328,133059,1,2,1:2:0:0:
512,210,133218,2,0,P|442:223|402:232,1,85,8|2,0:0|0:0,0:0:0:0:
270,151,133535,5,4,0:0:0:0:
406,49,133694,2,0,P|447:89|452:130,1,85,2|0,1:2|0:0,0:0:0:0:
341,242,134011,1,2,1:2:0:0:
224,63,134170,2,0,B|159:60|159:60|121:78|121:78|48:74,1,170,10|2,0:0|1:2,0:0:0:0:
123,270,134646,6,0,P|187:236|175:139,1,170,2|2,1:2|1:2,0:0:0:0:
17,228,135122,1,10,0:0:0:0:
130,361,135281,1,0,1:2:0:0:
130,361,135361,1,0,1:2:0:0:
130,361,135440,2,0,B|211:350|211:350|232:358|241:395,2,127.5,0|0|0,1:2|1:2|1:2,0:0:0:0:
218,214,136075,5,4,0:0:0:0:
317,357,136234,1,2,0:0:0:0:
139,269,136392,1,8,0:0:0:0:
296,147,136551,2,0,B|367:157|367:157|392:180|392:180|465:187,1,170,2|0,1:2|0:0,0:0:0:0:
230,227,137027,5,2,0:0:0:0:
335,54,137186,1,2,0:0:0:0:
423,274,137345,1,8,0:0:0:0:
335,54,137503,2,0,P|245:62|148:71,1,170,2|0,1:2|0:0,0:0:0:0:
71,197,137980,5,2,1:2:0:0:
236,257,138138,1,2,1:2:0:0:
71,197,138297,2,0,P|50:249|57:289,1,85,8|2,0:0|0:0,0:0:0:0:
201,369,138615,5,8,0:0:0:0:
282,160,138773,2,0,P|205:168|185:171,1,85,2|2,0:0|0:0,0:0:0:0:
319,322,139091,1,2,1:2:0:0:
364,112,139249,2,0,P|422:80|510:144,1,170,8|8,0:0|0:0,0:0:0:0:
447,286,139726,6,0,B|433:176|433:176|462:230,1,170,2|2,0:0|1:2,0:0:0:0:
370,377,140202,1,8,0:0:0:0:
235,206,140361,5,0,1:2:0:0:
235,206,140440,1,0,1:2:0:0:
235,206,140519,1,8,0:0:0:0:
449,298,140678,1,8,0:0:0:0:
350,86,140837,1,8,0:0:0:0:
256,324,140996,1,8,0:0:0:0:
190,126,141154,6,0,P|130:111|72:151,1,127.5,4|0,1:2|0:0,0:0:0:0:
56,220,141471,1,10,0:0:0:0:
176,319,141630,1,2,0:0:0:0:
176,319,141789,2,0,B|217:301|217:301|259:310,1,85,0|2,1:0|0:0,0:0:0:0:
323,173,142107,2,0,P|311:104|300:37,1,127.5,10|0,0:0|0:0,0:0:0:0:
364,4,142424,6,0,B|408:-8|408:-8|453:12,1,85,2|2,1:2|0:0,0:0:0:0:
339,175,142742,1,8,0:0:0:0:
503,122,142900,1,2,0:0:0:0:
339,175,143059,2,0,P|345:231|348:277,1,85,2|2,1:2|0:0,0:0:0:0:
498,368,143376,2,0,P|501:325|506:283,1,85,10|2,0:0|0:0,0:0:0:0:
339,175,143694,6,0,B|262:157|262:157|214:180,1,127.5,2|0,1:2|0:0,0:0:0:0:
183,245,144011,2,0,P|192:304|197:346,1,85,8|2,0:0|0:0,0:0:0:0:
16,192,144329,2,0,B|58:208|58:208|113:192,1,85,2|0,1:0|0:0,0:0:0:0:
171,81,144646,2,0,P|164:35|157:-8,1,85,8|0,0:0|0:0,0:0:0:0:
278,165,144964,5,2,1:2:0:0:
75,114,145122,1,2,0:0:0:0:
278,165,145281,2,0,P|331:158|361:125,1,85,8|0,0:0|0:0,0:0:0:0:
204,16,145599,5,2,1:2:0:0:
168,229,145757,1,2,0:0:0:0:
204,16,145916,2,0,B|163:6|163:6|114:26,1,85,8|0,0:0|0:0,0:0:0:0:
279,180,146234,6,0,P|290:89|294:38,1,127.5,4|0,1:2|0:0,0:0:0:0:
353,9,146551,1,8,0:0:0:0:
449,148,146710,1,2,0:0:0:0:
449,148,146789,1,0,0:0:0:0:
449,148,146869,2,0,P|402:168|362:151,1,85,2|2,1:2|0:0,0:0:0:0:
267,310,147186,2,0,P|314:290|354:307,1,85,10|0,0:0|0:0,0:0:0:0:
160,187,147503,6,0,P|171:263|176:298,1,85,2|2,1:2|0:0,0:0:0:0:
146,359,147742,1,0,0:0:0:0:
146,359,147821,2,0,B|104:376|104:376|63:362,1,85,8|2,0:0|0:0,0:0:0:0:
42,110,148138,2,0,B|94:115|94:115|123:104|123:104|189:112,1,127.5,2|0,1:2|0:0,0:0:0:0:
242,126,148456,2,0,B|256:87|256:87|236:41,1,85,10|2,0:0|0:0,0:0:0:0:
165,220,148773,6,0,B|147:259|147:259|161:298,1,85,2|0,1:2|0:0,0:0:0:0:
279,362,149091,5,8,0:0:0:0:
279,362,149170,1,0,1:0:0:0:
279,362,149249,2,0,L|334:356,1,46.7500014266968,0|0,1:0|1:0,0:0:0:0:
454,283,149408,1,8,0:0:0:0:
454,283,149487,1,0,1:0:0:0:
454,283,149566,2,0,L|399:277,1,46.7500014266968,0|0,1:0|1:0,0:0:0:0:
277,210,149726,1,8,0:0:0:0:
277,210,149805,1,0,1:0:0:0:
277,210,149884,2,0,L|332:204,1,46.7500014266968,0|0,1:0|1:0,0:0:0:0:
453,83,150043,5,8,0:0:0:0:
421,49,150122,1,0,1:0:0:0:
377,38,150201,1,0,1:0:0:0:
333,54,150281,1,0,1:0:0:0:
302,87,150361,1,8,0:0:0:0:
258,103,150440,1,0,1:0:0:0:
213,91,150519,1,0,1:0:0:0:
182,58,150599,1,0,1:0:0:0:
168,17,150678,5,8,0:0:0:0:
212,6,150757,1,0,1:0:0:0:
257,17,150836,1,0,1:0:0:0:
292,48,150916,1,0,1:0:0:0:
307,92,150995,1,8,0:0:0:0:
301,138,151074,1,0,1:0:0:0:
273,175,151154,1,0,1:0:0:0:
232,195,151233,1,0,1:0:0:0:
181,191,151313,6,0,B|97:182|123:224|39:213,1,140.25000428009,4|0,0:0|0:0,0:0:0:0:
14,289,151630,2,0,B|58:306|58:306|113:283,1,93.5000028533936,8|2,0:0|0:0,0:0:0:0:
137,101,151948,2,0,P|131:48|126:4,1,93.5000028533936,2|2,1:2|0:0,0:0:0:0:
232,195,152265,2,0,P|226:241|221:287,1,93.5000028533936,8|2,0:0|0:0,0:0:0:0:
326,100,152583,6,0,P|393:79|474:157,1,187.000005706787,0|8,1:2|0:0,0:0:0:0:
376,325,153059,1,2,0:0:0:0:
313,208,153218,2,0,P|388:201|422:198,1,93.5000028533936,2|2,1:2|0:0,0:0:0:0:
262,376,153535,2,0,P|197:383|156:351,1,93.5000028533936,8|2,0:0|0:0,0:0:0:0:
154,198,153853,6,0,B|165:126|165:126|150:93|150:93|167:6,1,187.000005706787,0|8,1:2|0:0,0:0:0:0:
47,147,154329,1,2,0:0:0:0:
230,236,154488,2,0,P|293:228|341:220,1,93.5000028533936,2|2,1:2|0:0,0:0:0:0:
47,147,154805,1,8,0:0:0:0:
224,68,154964,6,0,B|338:53|288:129|421:109,1,187.000005706787,2|2,0:0|0:0,0:0:0:0:
503,15,155440,2,0,P|500:93|499:137,1,93.5000028533936,8|2,0:0|0:0,0:0:0:0:
485,271,155757,2,0,B|443:290|443:290|391:269,1,93.5000028533936,2|2,1:2|0:0,0:0:0:0:
309,66,156075,2,0,B|265:48|265:48|223:67,1,93.5000028533936,8|2,0:0|0:0,0:0:0:0:
243,315,156392,6,0,B|286:266|286:266|259:147,2,187.000005706787,4|8|4,1:2|0:0|1:2,0:0:0:0:
55,294,157186,1,0,0:0:0:0:
55,294,157265,1,0,1:2:0:0:
55,294,157345,2,0,P|44:240|81:196,1,93.5000028533936,10|8,0:0|0:0,0:0:0:0:
180,221,157662,5,0,1:2:0:0:
100,80,157821,1,8,0:0:0:0:
180,221,157980,2,0,P|183:280|185:338,1,93.5000028533936,10|0,0:0|0:0,0:0:0:0:
182,348,158218,1,0,1:2:0:0:
182,348,158297,1,8,0:0:0:0:
277,159,158456,1,8,0:0:0:0:
69,246,158615,1,2,1:2:0:0:
283,327,158773,1,8,0:0:0:0:
144,150,158932,5,0,1:2:0:0:
129,118,159011,1,0,1:2:0:0:
129,83,159090,1,0,1:2:0:0:
145,52,159170,1,0,1:2:0:0:
172,31,159249,1,2,1:2:0:0:
280,113,159408,2,0,P|262:240|254:321,1,187.000005706787,8|0,0:0|1:2,0:0:0:0:
459,238,159884,6,0,P|416:202|361:214,1,93.5000028533936,10|0,0:0|1:2,0:0:0:0:
356,230,160122,1,0,1:2:0:0:
356,230,160202,1,0,1:2:0:0:
259,56,160361,2,0,B|353:78|353:78|399:44|382:-8,2,187.000005706787,0|8|0,1:2|0:0|1:2,0:0:0:0:
182,28,161075,1,0,1:2:0:0:
182,28,161154,2,0,L|188:88,1,46.7500014266968,8|0,0:0|1:2,0:0:0:0:
81,225,161313,2,0,L|85:178,1,46.7500014266968,0|0,1:2|1:2,0:0:0:0:
97,17,161472,5,8,0:0:0:0:
215,209,161630,1,0,1:2:0:0:
5,149,161789,1,0,1:2:0:0:
194,86,161948,1,8,0:0:0:0:
23,282,162107,5,0,1:2:0:0:
297,185,162265,1,0,1:2:0:0:
18,125,162424,1,8,0:0:0:0:
203,344,162583,2,0,L|196:286,1,46.7500014266968,0|0,1:2|1:2,0:0:0:0:
170,110,162742,5,8,0:0:0:0:
170,110,162821,1,0,1:2:0:0:
170,110,162900,2,0,L|160:173,1,46.7500014266968,0|0,1:2|1:2,0:0:0:0:
302,277,163059,1,8,0:0:0:0:
302,277,163138,1,0,1:2:0:0:
302,277,163218,2,0,L|292:214,1,46.7500014266968,0|0,1:2|1:2,0:0:0:0:
268,40,163376,5,8,0:0:0:0:
181,297,163535,1,8,0:0:0:0:
181,297,163853,6,0,B|163:175|163:175|134:266,1,187.000005706787,6|0,0:0|1:2,0:0:0:0:
311,93,164329,2,0,P|256:77|214:95,1,93.5000028533936,10|0,0:0|0:0,0:0:0:0:
349,287,164646,1,2,1:2:0:0:
418,61,164805,1,2,1:2:0:0:
267,192,164964,1,8,0:0:0:0:
475,219,165122,6,0,P|464:144|461:117,1,93.5000028533936,2|0,1:2|0:0,0:0:0:0:
250,214,165440,2,0,P|261:289|264:316,1,93.5000028533936,2|10,1:2|0:0,0:0:0:0:
343,124,165757,1,2,1:2:0:0:
157,74,165916,2,0,P|102:115|133:246,1,187.000005706787,2|8,1:2|0:0,0:0:0:0:
264,318,166392,6,0,B|339:311|339:311|372:327|372:327|448:323,1,187.000005706787,6|0,1:2|1:2,0:0:0:0:
373,149,166869,2,0,P|322:141|275:167,1,93.5000028533936,10|0,0:0|0:0,0:0:0:0:
187,362,167186,1,2,1:2:0:0:
127,168,167345,1,0,1:2:0:0:
187,362,167503,2,0,P|192:293|196:240,1,93.5000028533936,8|0,0:0|1:2,0:0:0:0:
176,78,167821,5,2,0:0:0:0:
78,257,167980,2,0,P|27:270|-18:251,1,93.5000028533936,2|10,1:2|0:0,0:0:0:0:
176,78,168297,2,0,B|286:77|235:150|373:134,1,187.000005706787,2|2,0:0|1:2,0:0:0:0:
127,168,168773,1,8,0:0:0:0:
264,0,168932,6,0,B|253:78|253:78|266:110|266:110|256:212,1,187.000005706787,6|0,1:2|1:2,0:0:0:0:
391,243,169408,2,0,B|410:195|410:195|385:148,1,93.5000028533936,10|0,0:0|0:0,0:0:0:0:
122,154,169726,2,0,B|103:202|103:202|128:249,1,93.5000028533936,2|2,1:2|1:2,0:0:0:0:
256,360,170043,1,8,0:0:0:0:
287,117,170202,6,0,B|176:96|176:96|147:52|191:5,1,187.000005706787,2|0,1:2|1:2,0:0:0:0:
377,203,170678,2,0,P|336:243|285:249,1,93.5000028533936,10|0,0:0|0:0,0:0:0:0:
332,34,170995,1,2,1:2:0:0:
498,137,171154,2,0,P|502:208|507:252,1,93.5000028533936,2|8,1:2|0:0,0:0:0:0:
273,324,171472,6,0,B|313:264|313:264|277:137,1,187.000005706787,2|2,1:2|1:2,0:0:0:0:
140,110,171948,1,10,0:0:0:0:
89,227,172107,2,0,P|139:243|185:225,1,93.5000028533936,2|2,0:0|1:2,0:0:0:0:
184,11,172424,2,0,P|134:-5|88:13,1,93.5000028533936,2|8,1:2|0:0,0:0:0:0:
29,170,172742,6,0,P|47:274|57:332,1,140.25000428009,2|0,1:2|0:0,0:0:0:0:
62,384,173059,1,2,1:2:0:0:
212,214,173218,2,0,P|157:192|116:208,1,93.5000028533936,10|2,0:0|1:2,0:0:0:0:
272,345,173535,1,2,1:2:0:0:
333,161,173694,1,2,1:2:0:0:
272,345,173853,1,8,0:0:0:0:
126,201,174011,6,0,B|149:75|149:75|167:144,1,187.000005706787,6|2,1:2|1:2,0:0:0:0:
294,255,174488,2,0,P|343:266|388:242,1,93.5000028533936,10|0,0:0|0:0,0:0:0:0:
253,122,174805,1,2,1:2:0:0:
447,69,174964,1,2,1:2:0:0:
385,232,175122,1,8,0:0:0:0:
253,122,175281,6,0,P|258:57|260:14,1,93.5000028533936,2|0,1:2|0:0,0:0:0:0:
158,244,175599,2,0,P|163:309|165:352,1,93.5000028533936,2|10,1:2|0:0,0:0:0:0:
56,138,175916,1,2,1:2:0:0:
258,211,176075,1,2,1:2:0:0:
59,290,176234,1,0,1:2:0:0:
258,211,176392,1,8,0:0:0:0:
97,43,176551,6,0,B|51:87|51:87|84:208,1,187.000005706787,4|0,1:2|1:2,0:0:0:0:
256,117,177027,2,0,P|206:100|163:120,1,93.5000028533936,10|0,0:0|0:0,0:0:0:0:
292,285,177345,1,2,1:2:0:0:
388,118,177503,1,0,1:2:0:0:
292,285,177662,2,0,P|304:343|312:384,1,93.5000028533936,8|0,0:0|1:2,0:0:0:0:
426,211,177980,5,2,0:0:0:0:
258,120,178138,2,0,P|238:70|250:28,1,93.5000028533936,2|10,1:2|0:0,0:0:0:0:
426,211,178456,2,0,B|402:319|402:319|440:343|450:382,1,187.000005706787,2|2,0:0|1:2,0:0:0:0:
259,288,178932,1,8,0:0:0:0:
355,136,179091,6,0,P|414:108|517:172,1,187.000005706787,6|0,1:2|1:2,0:0:0:0:
276,261,179567,2,0,P|265:203|254:147,1,93.5000028533936,10|0,0:0|0:0,0:0:0:0:
413,0,179884,2,0,P|421:45|430:91,1,93.5000028533936,2|0,1:2|1:2,0:0:0:0:
386,246,180202,1,8,0:0:0:0:
231,63,180361,6,0,B|167:57|167:57|131:78|131:78|83:73|83:73|100:43,1,187.000005706787,2|0,1:2|1:2,0:0:0:0:
223,172,180837,2,0,P|234:219|210:263,1,93.5000028533936,10|0,0:0|0:0,0:0:0:0:
61,318,181154,1,2,1:2:0:0:
21,144,181313,2,0,P|94:157|133:163,1,93.5000028533936,0|8,1:2|0:0,0:0:0:0:
251,349,181630,6,0,P|383:336|446:331,1,187.000005706787,2|2,1:2|1:2,0:0:0:0:
461,332,182027,1,0,1:0:0:0:
461,332,182107,1,8,0:0:0:0:
367,167,182265,2,0,B|345:209|345:209|365:255,1,93.5000028533936,2|2,1:2|0:0,0:0:0:0:
472,215,182583,1,0,1:2:0:0:
472,215,182662,1,0,1:0:0:0:
472,215,182742,1,8,0:0:0:0:
412,64,182900,6,0,B|334:40|334:40|299:69|328:104,1,140.25000428009,6|0,0:0|0:0,0:0:0:0:
368,160,183218,6,0,P|312:176|245:117,1,140.25000428009,6|0,1:2|0:0,0:0:0:0:
224,56,183535,6,0,L|234:8,1,46.7500014266968,2|2,1:2|0:0,0:0:0:0:
155,139,183694,2,0,L|164:184,1,46.7500014266968,2|2,0:0|0:0,0:0:0:0:
66,69,183853,1,4,3:0:0:0:
66,69,184011,1,8,3:0:0:0:
0,258,184170,6,0,B|93:237|93:237|126:270|172:263,1,152.999995330811,6|0,0:0|1:0,0:0:0:0:
275,171,184646,2,0,P|266:238|256:336,1,152.999995330811,0|8,1:0|0:0,0:0:0:0:
441,281,185122,2,0,P|401:258|362:265,1,76.4999976654053,0|0,1:0|0:0,0:0:0:0:
273,154,185440,6,0,P|326:176|404:107,1,152.999995330811,2|0,1:2|1:0,0:0:0:0:
380,12,185916,2,0,P|326:27|287:38,1,76.4999976654053,0|0,1:0|0:0,0:0:0:0:
125,9,186234,1,8,0:0:0:0:
209,94,186392,2,0,P|198:196|195:234,1,114.749996498108,0|0,1:0|0:0,0:0:0:0:
201,287,186710,6,0,B|114:301|114:301|78:283|83:236,1,152.999995330811,4|0,1:2|1:0,0:0:0:0:
278,220,187186,2,0,P|307:271|262:364,1,152.999995330811,0|8,1:0|0:0,0:0:0:0:
184,206,187662,2,0,P|193:147|195:117,1,76.4999976654053,0|0,1:0|0:0,0:0:0:0:
289,36,187980,6,0,B|355:42|355:42|377:61|377:61|448:64,2,152.999995330811,2|2|0,1:2|1:2|1:0,0:0:0:0:
192,139,188773,1,8,0:0:0:0:
299,207,188932,2,0,P|320:163|309:126,1,76.4999976654053,0|0,1:0|0:0,0:0:0:0:
77,85,189249,6,0,P|87:160|99:248,1,152.999995330811,4|0,1:2|1:0,0:0:0:0:
179,349,189726,2,0,B|269:354|231:299|335:306,1,152.999995330811,0|8,1:0|0:0,0:0:0:0:
446,345,190202,2,0,B|461:305|461:305|448:263,1,76.4999976654053,0|0,1:0|0:0,0:0:0:0:
355,172,190519,6,0,B|259:198|259:198|188:174,1,152.999995330811,2|0,1:2|1:0,0:0:0:0:
242,20,190995,2,0,P|266:72|247:113,1,76.4999976654053,0|0,1:0|0:0,0:0:0:0:
114,168,191313,1,8,0:0:0:0:
64,79,191472,2,0,P|117:59|174:87,1,114.749996498108,0|0,1:0|0:0,0:0:0:0:
203,153,191789,6,0,B|190:261|190:261|220:207,1,152.999995330811,4|0,1:2|1:0,0:0:0:0:
311,137,192265,2,0,P|361:124|400:143,1,76.4999976654053,0|0,1:0|0:0,0:0:0:0:
470,264,192583,5,8,0:0:0:0:
470,264,192662,1,0,1:0:0:0:
470,264,192742,1,0,1:0:0:0:
385,89,192900,2,0,L|397:36,2,38.2499988327027,8|0|2,0:0|1:0|1:2,0:0:0:0:
319,298,193218,5,8,0:0:0:0:
319,298,193297,1,0,1:0:0:0:
319,298,193377,1,0,1:0:0:0:
228,88,193535,2,0,L|240:35,2,38.2499988327027,8|0|0,0:0|1:0|1:0,0:0:0:0:
164,335,193853,5,8,0:0:0:0:
164,335,193932,1,0,1:0:0:0:
164,335,194011,1,0,1:0:0:0:
306,177,194170,1,8,0:0:0:0:
105,76,194329,6,0,B|52:134|52:134|98:262,1,203.999993774414,6|2,0:0|1:2,0:0:0:0:
312,186,194805,1,8,0:0:0:0:
156,158,194964,1,0,1:2:0:0:
156,158,195043,1,0,1:2:0:0:
156,158,195122,1,10,0:0:0:0:
273,284,195281,1,2,1:2:0:0:
357,99,195440,1,8,0:0:0:0:
273,284,195599,6,0,P|219:304|169:277,1,101.999996887207,6|0,0:0|0:0,0:0:0:0:
350,90,195916,2,0,P|404:70|454:97,1,101.999996887207,2|8,1:2|0:0,0:0:0:0:
375,307,196234,1,0,1:2:0:0:
375,307,196313,1,0,1:2:0:0:
375,307,196392,2,0,P|367:249|359:199,1,101.999996887207,10|2,0:0|1:2,0:0:0:0:
265,65,196710,1,8,0:0:0:0:
183,258,196869,6,0,B|115:261|115:261|77:239|77:239|23:242|23:242|72:275,1,203.999993774414,6|0,0:0|1:2,0:0:0:0:
270,173,197345,2,0,P|282:117|262:71,1,101.999996887207,10|0,0:0|1:2,0:0:0:0:
236,59,197583,1,0,1:2:0:0:
236,59,197662,1,10,0:0:0:0:
137,215,197821,1,2,1:2:0:0:
331,266,197980,1,8,0:0:0:0:
137,215,198138,6,0,P|71:208|30:201,1,101.999996887207,2|2,1:2|0:0,0:0:0:0:
276,364,198456,2,0,P|342:357|383:350,1,101.999996887207,2|8,1:2|0:0,0:0:0:0:
274,163,198773,1,2,1:2:0:0:
274,163,198853,1,0,1:2:0:0:
274,163,198932,1,8,0:0:0:0:
160,332,199091,1,2,1:2:0:0:
335,251,199249,1,10,0:0:0:0:
182,77,199408,6,0,B|158:205|158:205|226:269,1,203.999993774414,6|0,0:0|1:2,0:0:0:0:
386,145,199884,1,8,0:0:0:0:
338,307,200043,1,0,1:2:0:0:
338,307,200122,1,0,1:2:0:0:
338,307,200202,2,0,P|321:228|313:188,1,101.999996887207,10|2,0:0|1:2,0:0:0:0:
385,33,200519,1,8,0:0:0:0:
483,172,200678,6,0,P|434:228|305:192,1,203.999993774414,6|0,0:0|1:2,0:0:0:0:
227,31,201154,1,8,0:0:0:0:
153,215,201313,1,0,1:2:0:0:
153,215,201392,1,0,1:2:0:0:
153,215,201472,1,10,0:0:0:0:
293,118,201630,1,2,1:2:0:0:
96,46,201789,1,8,0:0:0:0:
293,118,201948,6,0,B|277:200|277:200|299:240|299:240|285:340,1,203.999993774414,4|0,0:0|1:2,0:0:0:0:
179,361,202424,2,0,P|142:380|101:373,1,85,0|0,1:2|0:0,0:0:0:0:
78,233,202742,2,0,P|115:214|156:221,1,85,8|0,0:2|0:0,0:0:0:0:
270,257,203059,1,0,1:0:0:0:
274,277,203138,1,0,1:0:0:0:
278,298,203217,1,0,1:0:0:0:
282,319,203297,1,0,1:0:0:0:
286,340,203376,6,0,P|329:333|387:327,1,85,10|0,0:0|0:0,0:0:0:0:
472,227,203694,1,0,1:2:0:0:
472,227,203773,1,0,1:2:0:0:
472,227,203853,2,0,L|406:218,1,42.5,0|0,1:2|1:2,0:0:0:0:
260,203,204011,1,10,0:0:0:0:
442,115,204170,1,0,1:2:0:0:
370,328,204329,1,10,0:0:0:0:
314,116,204488,6,0,P|232:98|159:164,1,170,6|0,0:0|1:2,0:0:0:0:
251,287,204964,2,0,P|258:211|264:177,1,85,0|0,1:2|0:0,0:0:0:0:
83,109,205281,2,0,B|66:151|66:151|87:192,1,85,10|2,0:0|1:2,0:0:0:0:
259,202,205599,1,2,0:0:0:0:
98,286,205757,1,4,3:0:0:0:
181,143,205916,5,2,0:0:0:0:
229,329,206075,2,0,B|329:308|329:308|353:327|398:333,1,170,2|0,0:0|1:2,0:0:0:0:
374,100,206551,1,8,3:0:0:0:
234,233,206710,1,0,1:2:0:0:
475,227,206869,1,10,0:0:0:0:
248,97,207027,1,10,0:0:0:0:
433,18,207186,5,6,0:0:0:0:
362,204,207345,1,0,1:2:0:0:
232,73,207503,2,0,B|275:37|275:37|246:170,1,170,10|8,0:0|0:0,0:0:0:0:
260,303,207980,2,0,P|305:318|349:305,1,85,2|0,1:2|1:2,0:0:0:0:
160,212,208297,6,0,B|95:215|95:215|61:242|61:242|-8:247,1,170,2|0,0:0|1:2,0:0:0:0:
0,246,208694,1,0,1:2:0:0:
0,246,208773,1,10,0:0:0:0:
164,318,208932,1,0,1:2:0:0:
63,128,209091,1,10,0:0:0:0:
249,174,209249,2,0,P|252:238|221:272,1,85,2|2,1:2|0:0,0:0:0:0:
63,128,209567,1,8,0:0:0:0:
287,57,209726,5,6,0:0:0:0:
147,201,209884,1,0,1:2:0:0:
287,57,210043,2,0,B|386:69|386:69|415:101|391:143,1,170,10|8,0:0|0:0,0:0:0:0:
248,252,210519,2,0,P|243:190|238:153,1,85,2|0,1:2|1:2,0:0:0:0:
444,281,210837,6,0,P|401:344|300:331,1,170,2|0,0:0|1:2,0:0:0:0:
314,342,211234,1,0,1:2:0:0:
314,342,211313,1,10,0:0:0:0:
236,162,211472,1,0,1:2:0:0:
359,265,211630,5,10,0:0:0:0:
140,246,211789,1,2,1:2:0:0:
294,92,211948,1,10,0:0:0:0:
294,92,212027,1,0,1:2:0:0:
294,92,212107,2,0,L|286:156,1,42.5,0|0,1:2|1:2,0:0:0:0:
209,328,212265,5,8,0:0:0:0:
185,349,212344,1,0,1:2:0:0:
155,360,212423,1,0,1:2:0:0:
124,358,212503,1,0,1:2:0:0:
95,344,212583,2,0,B|108:278|108:278|97:246|97:246|114:165,1,170,10|8,0:0|0:0,0:0:0:0:
148,34,213059,2,0,P|102:11|61:17,1,85,2|0,1:2|1:2,0:0:0:0:
199,202,213376,5,2,0:0:0:0:
293,16,213535,1,10,0:0:0:0:
199,202,213694,1,2,1:2:0:0:
374,106,213853,1,10,0:0:0:0:
160,51,214011,1,10,0:0:0:0:
303,248,214170,2,0,P|373:237|409:235,1,85,2|2,1:2|1:2,0:0:0:0:
257,101,214488,1,10,0:0:0:0:
172,283,214646,1,0,1:2:0:0:
391,240,214805,5,10,0:0:0:0:
191,179,214964,1,8,0:0:0:0:
391,240,215122,2,0,B|404:197|404:197|384:154,1,85,2|0,1:2|1:2,0:0:0:0:
262,315,215440,1,10,0:0:0:0:
298,138,215599,1,10,0:0:0:0:
404,342,215757,1,0,1:2:0:0:
137,281,215916,5,10,0:0:0:0:
233,96,216075,2,0,P|310:105|344:108,1,85,0|2,0:0|1:2,0:0:0:0:
137,281,216392,1,8,0:0:0:0:
43,147,216551,1,2,1:2:0:0:
33,120,216630,1,0,1:2:0:0:
33,92,216709,1,8,1:2:0:0:
42,65,216789,1,0,1:2:0:0:
59,42,216868,1,0,1:2:0:0:
82,26,216947,1,0,1:2:0:0:
109,18,217027,2,0,L|156:27,1,42.5,10|0,1:2|0:0,0:0:0:0:
231,181,217186,1,10,1:2:0:0:
