osu file format v14

[General]
AudioFilename: audio.mp3
AudioLeadIn: 0
PreviewTime: 163218
Countdown: 0
SampleSet: Soft
StackLeniency: 0.7
Mode: 0
LetterboxInBreaks: 0
WidescreenStoryboard: 0

[Editor]
Bookmarks: 11083,100922,120317
DistanceSpacing: 0.9
BeatDivisor: 4
GridSize: 32
TimelineZoom: 5.599997

[Metadata]
Title:Swing It!!
TitleUnicode:Swing It!!
Artist:Fear, and Loathing in Las Vegas
ArtistUnicode:Fear, and Loathing in Las Vegas
Creator:MaestroSplinter
Version:Fly High!!
Source:
Tags:falilv J-rock japanese rock Nymphe Kowari HowRengar Phase_2 gaston_2199 Megafan
BeatmapID:2196978
BeatmapSetID:1051249

[Difficulty]
HPDrainRate:5
CircleSize:4
OverallDifficulty:9
ApproachRate:9.3
SliderMultiplier:1.82
SliderTickRate:1

[Events]
//Background and Video events
0,0,"swing11.jpg",0,0
//Break Periods
2,115328,119335
//Storyboard Layer 0 (Background)
//Storyboard Layer 1 (Fail)
//Storyboard Layer 2 (Pass)
//Storyboard Layer 3 (Foreground)
//Storyboard Layer 4 (Overlay)
//Storyboard Sound Samples

[TimingPoints]
497,317.460317460317,4,2,22,70,1,0
497,-111.111111111111,4,2,22,70,0,0
15417,-333.333333333333,4,2,22,70,0,0
15735,-111.111111111111,4,2,22,70,0,0
25576,-333.333333333333,4,2,22,70,0,0
25893,-111.111111111111,4,2,22,70,0,0
38433,-90.9090909090909,4,2,22,80,0,1
58909,-105.263157894737,4,2,22,70,0,0
60655,-400,4,2,22,70,0,0
61131,-105.263157894737,4,2,22,70,0,0
65735,-400,4,2,22,70,0,0
66211,-105.263157894737,4,2,22,70,0,0
74147,317.460317460317,4,2,22,80,1,8
74153,365.853658536585,4,2,22,70,1,0
75616,-86.9565217391304,4,2,22,70,0,0
77079,-105.263157894737,4,2,22,70,0,0
88787,-100,4,2,22,70,0,0
99945,-90.9090909090909,4,2,22,70,0,0
100128,-83.3333333333333,4,2,22,70,0,0
100311,-76.9230769230769,4,2,22,70,0,0
102689,-133.333333333333,4,2,22,70,0,0
103421,-100,4,2,22,70,0,0
115128,317.460317460317,4,2,22,70,1,0
119889,-133.333333333333,4,2,22,60,0,0
129731,-100,4,2,22,60,0,0
129889,-100,4,2,22,5,0,0
129969,-133.333333333333,4,2,22,60,0,0
130366,317.460317460317,4,2,22,80,1,8
130996,317.460317460317,4,2,22,80,1,0
130996,-90.9090909090909,4,2,22,80,0,0
132662,-90.9090909090909,4,2,22,5,0,0
132742,-90.9090909090909,4,2,22,80,0,0
137742,-90.9090909090909,4,2,22,5,0,0
137821,-90.9090909090909,4,2,22,80,0,0
138535,-90.9090909090909,4,2,22,5,0,0
138615,-90.9090909090909,4,2,22,80,0,0
141154,-100,4,2,22,70,0,0
149091,-90.9090909090909,4,2,22,80,0,0
163853,-90.9090909090909,4,2,22,80,0,1
170837,-90.9090909090909,4,2,22,80,0,1
176472,-90.9090909090909,4,2,22,5,0,1
176551,-90.9090909090909,4,2,22,80,0,1
177265,-90.9090909090909,4,2,22,5,0,1
177345,-90.9090909090909,4,2,22,80,0,1
179726,-90.9090909090909,4,2,22,80,0,1
179805,-90.9090909090909,4,2,22,5,0,1
179884,-90.9090909090909,4,2,22,80,0,1
181075,-90.9090909090909,4,2,22,5,0,1
181154,-90.9090909090909,4,2,22,80,0,1
184170,-90.9090909090909,4,2,22,70,0,0
194329,-83.3333333333333,4,2,22,80,0,1
201948,-100,4,2,22,80,0,1
207186,-100,4,2,22,80,0,0

[Colours]
Combo1 : 255,151,151
Combo2 : 255,174,215
Combo3 : 145,251,227
Combo4 : 236,250,182

[HitObjects]
209,52,497,5,10,0:0:0:0:
209,52,576,1,0,1:0:0:0:
209,52,655,1,0,1:0:0:0:
209,52,735,1,0,1:0:0:0:
209,52,814,2,0,P|228:105|235:189,1,122.849996250916,8|0,0:0|0:0,0:0:0:0:
238,209,1131,1,10,0:0:0:0:
430,175,1290,2,0,P|392:159|352:163,1,81.8999975006104,0|2,1:0|0:0,0:0:0:0:
333,308,1608,2,0,P|370:323|410:319,1,81.8999975006104,2|0,1:2|0:0,0:0:0:0:
246,218,1925,5,0,1:0:0:0:
246,218,2004,1,0,1:0:0:0:
246,218,2084,1,10,0:0:0:0:
379,240,2243,1,0,1:0:0:0:
215,353,2401,2,0,P|175:342|128:340,1,81.8999975006104,10|0,0:0|1:0,0:0:0:0:
36,190,2719,2,0,P|76:201|123:203,1,81.8999975006104,0|8,1:0|0:0,0:0:0:0:
212,30,3036,5,10,0:0:0:0:
212,30,3116,1,0,1:0:0:0:
212,30,3195,1,0,1:0:0:0:
212,30,3274,1,0,1:0:0:0:
212,30,3354,2,0,P|259:68|234:148,1,122.849996250916,8|0,0:0|0:0,0:0:0:0:
240,159,3671,1,10,0:0:0:0:
91,44,3830,2,0,P|104:95|107:140,1,81.8999975006104,0|2,1:0|0:0,0:0:0:0:
225,239,4147,2,0,P|229:198|240:158,1,81.8999975006104,2|0,1:2|0:0,0:0:0:0:
73,251,4465,5,0,1:0:0:0:
73,251,4544,1,0,1:0:0:0:
73,251,4623,1,10,0:0:0:0:
260,347,4782,1,2,1:2:0:0:
154,184,4941,1,10,0:0:0:0:
89,361,5100,1,2,1:2:0:0:
265,238,5258,2,0,L|386:258,1,122.849996250916,2|0,1:2|0:0,0:0:0:0:
501,165,5576,5,10,0:0:0:0:
501,165,5655,1,0,1:0:0:0:
501,165,5735,1,0,1:0:0:0:
501,165,5814,1,0,1:0:0:0:
501,165,5893,2,0,P|520:115|485:53,1,122.849996250916,8|0,0:0|0:0,0:0:0:0:
470,31,6211,1,10,0:0:0:0:
363,155,6370,2,0,P|321:147|278:144,1,81.8999975006104,0|2,1:0|0:0,0:0:0:0:
185,24,6687,2,0,P|225:20|266:13,1,81.8999975006104,2|0,1:2|0:0,0:0:0:0:
308,242,7004,5,0,1:0:0:0:
308,242,7084,1,0,1:0:0:0:
308,242,7163,1,10,0:0:0:0:
340,81,7322,1,0,1:0:0:0:
175,169,7481,2,0,P|164:215|177:262,1,81.8999975006104,10|0,0:0|1:0,0:0:0:0:
380,349,7798,2,0,P|391:303|378:256,1,81.8999975006104,0|8,1:0|0:0,0:0:0:0:
270,140,8116,5,10,0:0:0:0:
270,140,8195,1,0,1:0:0:0:
270,140,8274,1,0,1:0:0:0:
270,140,8354,1,0,1:0:0:0:
270,140,8433,2,0,P|277:207|279:290,1,122.849996250916,8|0,0:0|0:0,0:0:0:0:
280,295,8750,1,10,0:0:0:0:
379,155,8909,2,0,P|375:200|379:249,1,81.8999975006104,0|2,1:0|0:0,0:0:0:0:
183,355,9227,2,0,P|184:314|181:273,1,81.8999975006104,2|0,1:2|0:0,0:0:0:0:
183,157,9544,5,0,1:0:0:0:
183,157,9623,1,0,1:0:0:0:
183,157,9703,5,10,0:0:0:0:
381,272,9862,1,2,1:2:0:0:
122,252,10020,5,10,0:0:0:0:
349,179,10179,1,2,1:2:0:0:
162,150,10338,6,0,L|118:140,1,40.9499987503052,8|0,0:0|1:2,0:0:0:0:
393,269,10496,2,0,L|432:259,1,40.9499987503052,0|2,1:0|1:2,0:0:0:0:
275,103,10655,6,0,P|267:140|265:199,1,81.8999975006104,4|2,0:0|0:0,0:0:0:0:
154,332,10973,2,0,P|151:291|143:250,1,81.8999975006104,10|0,0:0|0:0,0:0:0:0:
319,338,11290,2,0,P|363:369|437:352,1,122.849996250916,0|0,1:2|0:0,0:0:0:0:
452,335,11608,1,2,0:0:0:0:
362,151,11766,2,0,P|373:191|378:232,1,81.8999975006104,8|0,0:0|0:0,0:0:0:0:
486,48,12084,2,0,P|475:88|470:129,1,81.8999975006104,2|10,1:2|0:0,0:0:0:0:
279,207,12401,2,0,P|218:198|139:189,1,122.849996250916,2|0,0:0|0:0,0:0:0:0:
126,199,12719,1,0,1:2:0:0:
237,3,12877,2,0,P|273:49|255:122,1,122.849996250916,10|0,0:0|1:0,0:0:0:0:
235,117,13195,6,0,P|195:111|152:107,1,81.8999975006104,2|0,1:2|0:0,0:0:0:0:
296,213,13512,2,0,P|336:207|379:203,1,81.8999975006104,8|0,0:0|0:0,0:0:0:0:
326,78,13830,1,0,1:2:0:0:
185,229,13989,2,0,P|198:289|203:358,1,122.849996250916,2|0,1:2|0:0,0:0:0:0:
240,371,14306,6,0,P|288:381|319:371,1,81.8999975006104,10|0,0:0|0:0,0:0:0:0:
355,190,14623,2,0,P|322:226|315:258,1,81.8999975006104,10|0,0:0|0:0,0:0:0:0:
454,380,14941,2,0,P|438:333|414:311,1,81.8999975006104,10|0,0:0|0:0,0:0:0:0:
318,371,15258,1,10,0:0:0:0:
478,177,15417,2,0,P|479:159|485:136,1,40.9499987503052,10|0,0:0|0:0,0:0:0:0:
449,246,15735,6,0,P|444:189|412:73,1,163.799995001221,2|8,1:2|0:0,0:0:0:0:
415,86,16370,1,0,1:2:0:0:
296,210,16528,2,0,P|299:155|306:114,1,81.8999975006104,2|0,1:2|0:0,0:0:0:0:
169,15,16846,2,0,P|174:55|176:96,1,81.8999975006104,10|0,0:0|0:0,0:0:0:0:
288,29,17163,1,2,1:2:0:0:
197,205,17322,2,0,P|156:211|117:193,1,81.8999975006104,10|2,0:0|1:2,0:0:0:0:
77,117,17560,1,2,1:2:0:0:
77,117,17639,2,0,L|21:127,1,40.9499987503052,2|2,1:2|1:2,0:0:0:0:
139,42,17798,2,0,L|195:52,1,40.9499987503052,2|2,1:2|1:2,0:0:0:0:
57,0,17957,1,10,0:0:0:0:
172,130,18116,1,10,0:0:0:0:
30,233,18274,6,0,B|122:215|95:283|186:266,1,163.799995001221,2|8,1:2|0:0,0:0:0:0:
257,181,18750,1,2,0:0:0:0:
330,368,18909,2,0,P|374:316|347:215,1,163.799995001221,2|2,1:2|0:0,0:0:0:0:
183,266,19385,1,10,0:0:0:0:
337,128,19544,5,2,0:0:0:0:
276,288,19703,1,10,0:0:0:0:
161,163,19862,2,0,P|119:148|68:149,1,81.8999975006104,2|10,0:0|0:0,0:0:0:0:
237,27,20179,1,2,0:0:0:0:
312,212,20338,2,0,P|352:210|390:195,1,81.8999975006104,2|10,1:2|0:0,0:0:0:0:
237,27,20655,6,0,P|245:87|248:158,1,122.849996250916,2|0,0:0|0:0,0:0:0:0:
230,181,20973,1,2,0:0:0:0:
347,87,21131,1,8,0:0:0:0:
347,87,21290,1,2,0:0:0:0:
439,268,21449,2,0,P|436:227|439:187,1,81.8999975006104,0|0,1:2|1:2,0:0:0:0:
314,183,21766,1,2,0:0:0:0:
445,93,21925,1,8,0:0:0:0:
334,278,22084,6,0,P|275:276|249:260,1,81.8999975006104,2|0,0:0|1:2,0:0:0:0:
164,146,22401,1,8,0:0:0:0:
44,319,22560,2,0,P|44:276|33:232,1,81.8999975006104,2|0,0:0|1:2,0:0:0:0:
164,146,22877,2,0,P|155:185|155:226,1,81.8999975006104,2|8,0:0|0:0,0:0:0:0:
35,130,23195,1,2,0:0:0:0:
164,316,23354,6,0,P|221:290|293:306,1,122.849996250916,4|0,0:0|0:0,0:0:0:0:
313,324,23671,2,0,P|359:341|397:337,1,81.8999975006104,8|0,0:0|0:0,0:0:0:0:
284,149,23989,1,2,1:2:0:0:
366,254,24147,2,0,P|370:211|378:165,1,81.8999975006104,2|0,1:2|0:0,0:0:0:0:
188,75,24465,6,0,P|194:115|198:156,1,81.8999975006104,10|0,0:0|0:0,0:0:0:0:
420,89,24782,2,0,P|378:74|340:79,1,81.8999975006104,10|0,0:0|0:0,0:0:0:0:
159,242,25100,2,0,P|197:256|237:253,1,81.8999975006104,10|0,0:0|0:0,0:0:0:0:
268,39,25417,1,2,1:2:0:0:
399,228,25576,2,0,P|395:249|394:273,1,40.9499987503052,10|0,0:0|0:0,0:0:0:0:
345,184,25893,6,0,P|358:227|365:339,1,122.849996250916,2|0,1:2|0:0,0:0:0:0:
368,345,26211,2,0,P|326:362|281:355,1,81.8999975006104,8|0,0:0|0:0,0:0:0:0:
98,253,26528,1,0,1:2:0:0:
197,384,26687,2,0,P|201:342|215:294,1,81.8999975006104,2|0,1:2|0:0,0:0:0:0:
83,172,27004,2,0,P|93:211|97:252,1,81.8999975006104,10|0,0:0|0:0,0:0:0:0:
221,151,27322,1,2,1:2:0:0:
127,337,27481,2,0,P|87:340|50:324,1,81.8999975006104,10|2,0:0|1:2,0:0:0:0:
93,212,27719,1,2,1:2:0:0:
93,212,27798,2,0,P|96:232|97:253,1,40.9499987503052,2|2,1:2|1:2,0:0:0:0:
215,191,27957,2,0,P|216:170|220:150,1,40.9499987503052,2|2,1:2|1:2,0:0:0:0:
117,97,28116,1,10,0:0:0:0:
198,280,28274,1,10,0:0:0:0:
319,95,28433,6,0,B|404:82|389:144|475:128,1,163.799995001221,2|8,1:2|0:0,0:0:0:0:
457,20,28909,1,2,0:0:0:0:
334,184,29068,2,0,P|319:245|344:308,1,122.849996250916,2|0,1:2|0:0,0:0:0:0:
375,316,29385,2,0,P|409:310|462:305,1,81.8999975006104,2|8,0:0|0:0,0:0:0:0:
216,312,29703,5,2,0:0:0:0:
420,213,29862,1,2,1:2:0:0:
244,148,30020,1,8,0:0:0:0:
232,145,30100,1,2,1:2:0:0:
220,142,30179,2,0,P|200:137|177:131,1,40.9499987503052,2|2,1:2|1:2,0:0:0:0:
386,112,30338,5,2,1:2:0:0:
205,230,30496,1,2,1:2:0:0:
375,316,30655,2,0,P|414:308|462:305,1,81.8999975006104,8|0,0:0|1:2,0:0:0:0:
503,226,30893,1,0,1:2:0:0:
503,226,30973,6,0,P|514:186|501:138,1,81.8999975006104,4|2,1:2|0:0,0:0:0:0:
338,45,31290,2,0,P|327:85|340:133,1,81.8999975006104,8|2,0:0|0:0,0:0:0:0:
341,156,31528,1,2,0:0:0:0:
341,156,31608,2,0,P|300:144|258:146,1,81.8999975006104,2|2,1:2|0:0,0:0:0:0:
84,102,31925,1,8,0:0:0:0:
229,44,32084,1,2,0:0:0:0:
34,186,32243,6,0,P|75:198|117:196,1,81.8999975006104,4|2,1:2|0:0,0:0:0:0:
151,29,32560,1,8,0:0:0:0:
265,173,32719,1,2,0:0:0:0:
265,173,32798,1,2,0:0:0:0:
265,173,32877,2,0,P|258:221|258:267,1,81.8999975006104,2|2,1:2|0:0,0:0:0:0:
111,341,33195,2,0,P|109:300|103:259,1,81.8999975006104,8|2,0:0|0:0,0:0:0:0:
273,361,33512,6,0,P|326:376|356:372,1,81.8999975006104,4|2,1:2|0:0,0:0:0:0:
481,251,33830,2,0,P|440:249|402:263,1,81.8999975006104,8|2,0:0|0:0,0:0:0:0:
362,264,34068,1,2,0:0:0:0:
362,264,34147,2,0,P|360:223|354:182,1,81.8999975006104,2|2,1:2|0:0,0:0:0:0:
512,67,34465,2,0,P|505:107|504:148,1,81.8999975006104,8|2,0:0|0:0,0:0:0:0:
375,16,34782,5,4,1:2:0:0:
328,189,34941,2,0,P|280:180|236:176,1,81.8999975006104,2|8,0:0|0:0,0:0:0:0:
91,89,35258,1,2,0:0:0:0:
91,89,35338,1,2,0:0:0:0:
91,89,35417,2,0,P|131:84|171:76,1,81.8999975006104,2|2,1:2|0:0,0:0:0:0:
143,194,35735,1,8,0:0:0:0:
300,96,35893,1,2,0:0:0:0:
195,9,36052,6,0,P|204:62|214:154,1,122.849996250916,4|0,0:0|0:0,0:0:0:0:
240,152,36370,2,0,P|278:174|325:173,1,81.8999975006104,12|0,0:0|0:0,0:0:0:0:
510,145,36687,1,0,1:0:0:0:
510,145,36766,1,0,1:0:0:0:
510,145,36846,1,8,0:0:0:0:
300,96,37004,1,8,0:0:0:0:
480,36,37163,5,0,1:0:0:0:
480,36,37243,1,0,1:0:0:0:
480,36,37322,1,8,0:0:0:0:
315,175,37481,1,8,0:0:0:0:
512,250,37639,1,0,1:2:0:0:
386,63,37798,1,0,1:2:0:0:
259,257,37957,1,8,0:0:0:0:
510,145,38116,1,8,0:0:0:0:
451,295,38433,6,0,B|399:307|367:256|367:256|336:207|277:216,1,200.200006109619,6|0,0:0|1:0,0:0:0:0:
452,104,38909,2,0,P|441:149|432:209,1,100.10000305481,8|0,0:0|0:0,0:0:0:0:
298,307,39227,1,0,1:0:0:0:
259,115,39385,1,0,1:0:0:0:
447,214,39544,2,0,P|454:164|466:115,1,100.10000305481,8|0,0:0|1:0,0:0:0:0:
319,50,39862,6,0,P|243:21|169:105,1,200.200006109619,2|8,0:0|0:0,0:0:0:0:
291,207,40338,1,0,1:0:0:0:
79,137,40496,2,0,P|89:186|93:235,1,100.10000305481,2|0,0:0|0:0,0:0:0:0:
312,130,40814,1,8,0:0:0:0:
266,384,40973,2,0,P|272:327|282:281,1,100.10000305481,4|0,0:0|0:0,0:0:0:0:
190,196,41290,1,0,1:0:0:0:
372,355,41449,6,0,P|414:346|473:341,1,100.10000305481,8|0,0:0|0:0,0:0:0:0:
335,160,41766,1,0,1:0:0:0:
183,324,41925,1,0,1:0:0:0:
422,240,42084,2,0,P|436:186|428:136,1,100.10000305481,10|0,0:0|1:0,0:0:0:0:
193,48,42401,5,2,0:0:0:0:
300,283,42560,1,2,1:2:0:0:
284,9,42719,1,8,0:0:0:0:
205,245,42877,1,2,1:2:0:0:
452,65,43036,2,0,B|396:49|362:92|362:92|332:133|270:118,1,200.200006109619,2|8,0:0|0:0,0:0:0:0:
11,101,43512,6,0,P|56:19|156:79,1,200.200006109619,4|2,0:0|1:2,0:0:0:0:
155,260,43989,2,0,P|150:209|136:157,1,100.10000305481,10|0,0:0|0:0,0:0:0:0:
303,19,44306,2,0,P|290:67|285:117,1,100.10000305481,2|0,1:2|1:0,0:0:0:0:
143,45,44623,1,8,0:0:0:0:
296,227,44782,6,0,P|348:222|390:192,1,100.10000305481,2|2,1:2|0:0,0:0:0:0:
183,331,45100,2,0,P|141:303|92:299,1,100.10000305481,2|8,1:2|0:0,0:0:0:0:
192,126,45417,1,2,1:2:0:0:
297,384,45576,2,0,P|354:333|473:377,1,200.200006109619,2|8,0:0|0:0,0:0:0:0:
434,85,46052,6,0,P|422:163|415:249,1,150.150004582214,6|0,0:0|0:0,0:0:0:0:
420,254,46370,1,0,1:0:0:0:
324,94,46528,1,10,0:0:0:0:
312,89,46608,1,8,0:0:0:0:
300,84,46687,1,8,0:0:0:0:
512,162,46846,1,2,1:2:0:0:
306,273,47004,1,2,1:2:0:0:
434,85,47163,1,8,0:0:0:0:
351,346,47322,6,0,B|305:376|257:344|257:344|213:311|161:331,1,200.200006109619,10|2,2:3|1:2,0:0:0:0:
306,273,47798,1,8,0:0:0:0:
90,374,47957,1,2,1:2:0:0:
80,350,48036,1,0,1:0:0:0:
79,326,48115,1,8,0:0:0:0:
117,126,48274,1,8,0:0:0:0:
236,361,48433,1,8,0:0:0:0:
221,69,48592,6,0,P|198:175|186:279,1,200.200006109619,4|0,0:0|1:0,0:0:0:0:
17,76,49068,2,0,P|30:131|35:179,1,100.10000305481,8|0,0:0|0:0,0:0:0:0:
199,165,49385,1,0,1:0:0:0:
40,285,49544,1,0,1:0:0:0:
171,77,49703,2,0,P|227:75|268:97,1,100.10000305481,8|0,0:0|1:0,0:0:0:0:
433,226,50020,5,2,0:0:0:0:
363,62,50179,1,0,1:0:0:0:
272,285,50338,2,0,P|266:235|254:186,1,100.10000305481,8|0,0:0|1:0,0:0:0:0:
382,43,50655,2,0,P|446:29|504:137,1,200.200006109619,2|8,0:0|0:0,0:0:0:0:
360,338,51131,6,0,P|357:267|326:133,1,200.200006109619,4|0,0:0|1:0,0:0:0:0:
173,305,51608,2,0,P|219:323|268:316,1,100.10000305481,8|0,0:0|0:0,0:0:0:0:
442,279,51925,1,0,1:0:0:0:
233,151,52084,1,0,1:0:0:0:
336,365,52243,2,0,P|343:310|356:257,1,100.10000305481,10|2,0:0|1:2,0:0:0:0:
338,85,52560,5,2,0:0:0:0:
231,236,52719,1,2,1:2:0:0:
158,25,52877,2,0,P|169:73|175:123,1,100.10000305481,8|2,0:0|1:2,0:0:0:0:
38,343,53195,2,0,P|86:265|188:325,1,200.200006109619,2|8,0:0|0:0,0:0:0:0:
324,367,53671,6,0,B|320:257|412:296|405:192,1,200.200006109619,4|0,0:0|1:0,0:0:0:0:
327,48,54147,2,0,P|283:27|223:36,1,100.10000305481,8|0,0:0|0:0,0:0:0:0:
205,201,54465,2,0,P|249:222|309:213,1,100.10000305481,0|0,1:0|1:0,0:0:0:0:
106,86,54782,1,8,0:0:0:0:
278,315,54941,6,0,P|289:251|308:187,1,100.10000305481,2|2,1:2|0:0,0:0:0:0:
94,103,55258,2,0,P|106:151|114:200,1,100.10000305481,2|8,1:2|0:0,0:0:0:0:
292,3,55576,2,0,P|374:29|317:130,1,200.200006109619,2|2,1:2|0:0,0:0:0:0:
186,40,56052,1,10,0:0:0:0:
261,222,56211,6,0,B|332:214|399:200|399:200|421:224|415:267,1,200.200006109619,6|0,0:0|1:0,0:0:0:0:
214,353,56687,2,0,P|164:343|106:340,1,100.10000305481,8|2,0:0|0:0,0:0:0:0:
262,127,57004,1,0,1:0:0:0:
324,368,57163,1,0,1:0:0:0:
447,127,57322,5,8,0:0:0:0:
400,140,57401,1,8,0:0:0:0:
379,183,57480,1,8,0:0:0:0:
399,227,57560,1,8,0:0:0:0:
446,241,57639,6,0,P|475:231|492:215,1,50.0500015274048,4|0,1:2|1:0,0:0:0:0:
440,21,57798,2,0,P|411:31|394:47,1,50.0500015274048,8|8,0:0|0:0,0:0:0:0:
288,204,57957,1,8,0:0:0:0:
248,165,58036,1,0,1:0:0:0:
193,156,58116,1,8,0:0:0:0:
141,173,58195,1,8,0:0:0:0:
107,216,58274,5,4,1:2:0:0:
67,224,58354,1,0,1:0:0:0:
26,206,58433,1,0,1:0:0:0:
2,170,58512,1,8,0:0:0:0:
8,127,58592,6,0,P|4:96|-2:63,1,50.0500015274048,8|8,0:0|0:0,0:0:0:0:
202,0,58750,2,0,P|197:24|194:49,1,50.0500015274048,8|8,0:0|0:0,0:0:0:0:
205,243,58909,5,4,0:0:0:0:
106,92,59068,1,0,1:0:0:0:
106,92,59147,1,0,1:0:0:0:
106,92,59227,1,8,0:0:0:0:
217,253,59385,2,0,B|287:238|287:238|323:248|323:248|386:235,1,172.899995383072,0|0,1:0|1:0,0:0:0:0:
483,116,59782,1,0,1:0:0:0:
483,116,59862,2,0,B|507:69|470:34|470:34|403:37|363:121|425:178,1,259.349993074608,8|2,0:0|0:0,0:0:0:0:
436,326,60496,5,8,0:0:0:0:
326,171,60655,2,0,L|321:188,1,11.375,0|0,1:0|1:0,0:0:0:0:
290,285,60814,5,2,0:0:0:0:
465,203,60973,1,2,0:0:0:0:
338,371,61131,6,0,P|273:360|204:349,1,129.674996537304,10|0,0:0|0:0,0:0:0:0:
109,321,61449,5,4,0:0:0:0:
239,204,61608,1,0,1:0:0:0:
253,201,61687,1,0,1:0:0:0:
267,198,61766,1,8,0:0:0:0:
109,60,61925,2,0,P|15:76|57:131,1,172.899995383072,0|0,1:0|1:0,0:0:0:0:
169,180,62322,1,0,1:0:0:0:
169,180,62401,2,0,P|232:168|303:158,1,129.674996537304,8|0,0:0|1:0,0:0:0:0:
494,68,62719,6,0,P|483:86|476:107,1,43.224998845768,2|0,0:0|0:0,0:0:0:0:
383,158,62877,2,0,P|394:176|402:197,1,43.224998845768,2|0,0:0|0:0,0:0:0:0:
486,249,63036,2,0,P|463:309|452:373,1,129.674996537304,8|0,0:0|1:0,0:0:0:0:
320,372,63354,6,0,P|294:374|271:368,1,43.224998845768,2|0,0:0|0:0,0:0:0:0:
222,264,63512,2,0,P|196:262|173:268,1,43.224998845768,2|0,0:0|0:0,0:0:0:0:
108,375,63671,2,0,P|58:379|3:320,1,129.674996537304,10|0,0:0|0:0,0:0:0:0:
85,298,63989,5,4,0:0:0:0:
161,131,64147,1,0,1:0:0:0:
155,118,64227,1,0,1:0:0:0:
149,105,64306,1,8,0:0:0:0:
18,181,64465,2,0,B|86:194|86:194|110:216|110:216|187:229,1,172.899995383072,0|0,1:0|1:0,0:0:0:0:
293,170,64862,1,0,1:0:0:0:
289,160,64941,5,8,0:0:0:0:
413,203,65100,1,0,1:0:0:0:
285,150,65258,5,2,0:0:0:0:
394,121,65417,1,2,0:0:0:0:
250,243,65576,5,8,0:0:0:0:
414,288,65735,2,0,L|429:286,1,11.375,0|0,1:0|1:0,0:0:0:0:
224,330,65893,5,2,0:0:0:0:
413,203,66052,1,2,0:0:0:0:
236,114,66211,6,0,P|242:176|250:250,1,129.674996537304,10|0,0:0|0:0,0:0:0:0:
325,168,66528,5,4,0:0:0:0:
133,231,66687,1,0,1:0:0:0:
118,228,66766,1,0,1:0:0:0:
103,225,66846,1,8,0:0:0:0:
217,27,67004,2,0,B|320:21|281:89|377:69,1,172.899995383072,0|0,1:0|1:0,0:0:0:0:
481,29,67401,1,0,1:0:0:0:
481,29,67481,2,0,P|474:90|471:161,1,129.674996537304,8|0,0:0|1:0,0:0:0:0:
393,249,67798,6,0,P|391:224|381:190,1,43.224998845768,2|0,0:0|0:0,0:0:0:0:
465,311,67957,2,0,P|472:288|488:263,1,43.224998845768,2|0,0:0|0:0,0:0:0:0:
378,339,68116,2,0,P|325:373|260:356,1,129.674996537304,8|0,0:0|1:0,0:0:0:0:
152,274,68433,6,0,P|125:266|105:263,1,43.224998845768,2|0,0:0|0:0,0:0:0:0:
241,209,68592,2,0,P|262:204|282:198,1,43.224998845768,2|0,0:0|0:0,0:0:0:0:
146,78,68750,5,10,0:0:0:0:
146,78,68830,1,8,0:0:0:0:
146,78,68909,2,0,P|152:106|155:129,1,43.224998845768,8|8,0:0|0:0,0:0:0:0:
331,3,69068,6,0,P|318:62|314:131,1,129.674996537304,4|0,0:0|0:0,0:0:0:0:
362,202,69385,2,0,P|408:190|457:193,1,86.449997691536,8|2,0:0|1:2,0:0:0:0:
226,116,69703,1,0,1:0:0:0:
399,52,69862,1,2,1:2:0:0:
255,227,70020,2,0,P|211:227|170:216,1,86.449997691536,8|2,0:0|1:2,0:0:0:0:
83,203,70258,1,0,0:0:0:0:
83,203,70338,6,0,P|91:246|96:291,1,86.449997691536,2|2,0:0|0:0,0:0:0:0:
209,141,70655,1,8,0:0:0:0:
240,350,70814,1,2,1:2:0:0:
350,165,70973,2,0,P|341:208|337:253,1,86.449997691536,2|2,0:0|0:0,0:0:0:0:
209,141,71290,1,8,0:0:0:0:
365,336,71449,5,2,1:2:0:0:
365,336,71528,1,0,1:0:0:0:
365,336,71608,2,0,P|414:335|466:313,1,86.449997691536,2|0,0:0|0:0,0:0:0:0:
497,135,71925,1,8,0:0:0:0:
497,135,72004,1,0,0:0:0:0:
497,135,72084,2,0,P|448:136|396:158,1,86.449997691536,2|0,0:0|1:0,0:0:0:0:
204,217,72401,1,0,1:0:0:0:
425,246,72560,1,8,0:0:0:0:
288,80,72719,1,0,1:0:0:0:
303,313,72877,5,8,0:0:0:0:
384,73,73036,1,0,1:0:0:0:
303,333,73195,5,4,0:0:0:0:
247,153,73354,1,0,1:0:0:0:
177,362,73512,5,10,0:0:0:0:
167,332,73618,2,0,L|181:265,1,57.6333317943573,8|8,0:0|0:0,0:0:0:0:
23,159,73830,1,8,0:0:0:0:
49,182,73936,2,0,L|59:245,1,57.6333317943573,8|8,0:0|0:0,0:0:0:0:
155,113,74153,5,10,0:0:0:0:
11,40,74335,1,2,0:0:0:0:
11,40,74427,2,0,B|44:53|44:53|140:28,1,91,2|2,0:0|0:0,0:0:0:0:
121,21,74701,1,2,0:0:0:0:
254,92,74884,2,0,P|238:142|236:190,1,91,2|2,0:0|0:0,0:0:0:0:
145,273,75250,2,0,P|141:248|134:227,1,45.5,2|2,0:0|0:0,0:0:0:0:
139,197,75433,1,2,0:0:0:0:
291,361,75616,6,0,P|342:346|403:347,1,104.65000199604,8|0,0:0|1:0,0:0:0:0:
411,253,75890,1,0,1:0:0:0:
411,253,75982,2,0,P|409:223|400:195,1,52.3250009980202,8|0,0:0|1:0,0:0:0:0:
512,109,76165,2,0,P|505:134|503:160,1,52.3250009980202,0|0,1:0|1:0,0:0:0:0:
427,41,76348,2,0,P|380:17|320:98,1,156.975002994061,8|2,0:0|0:0,0:0:0:0:
202,144,76713,1,10,0:0:0:0:
191,121,76804,1,0,1:0:0:0:
190,95,76896,1,0,1:0:0:0:
199,70,76987,1,0,1:0:0:0:
216,51,77079,6,0,P|232:110|240:181,1,129.674996537304,4|10,0:0|0:0,0:0:0:0:
277,205,77445,2,0,P|268:247|267:300,1,86.449997691536,0|10,1:0|0:0,0:0:0:0:
81,355,77811,2,0,P|106:319|192:320,1,129.674996537304,0|10,1:0|0:0,0:0:0:0:
216,348,78177,2,0,P|263:368|298:362,1,86.449997691536,0|10,1:0|0:0,0:0:0:0:
490,228,78543,6,0,B|419:218|434:269|365:255,1,129.674996537304,4|10,0:0|0:0,0:0:0:0:
335,233,78909,2,0,P|332:184|305:139,1,86.449997691536,0|10,1:0|0:0,0:0:0:0:
390,101,79274,1,0,1:0:0:0:
247,207,79457,1,0,0:0:0:0:
247,207,79549,1,10,0:0:0:0:
247,207,79640,2,0,P|199:204|135:199,1,86.449997691536,0|10,1:0|0:0,0:0:0:0:
50,2,80006,6,0,P|63:44|69:101,1,86.449997691536,4|0,0:0|0:0,0:0:0:0:
73,119,80281,2,0,P|103:87|150:53,1,86.449997691536,10|0,0:0|0:0,0:0:0:0:
162,41,80555,2,0,P|135:28|125:20,1,43.224998845768,10|0,0:0|0:0,0:0:0:0:
24,220,80738,6,0,P|78:199|119:209,1,86.449997691536,0|0,1:0|0:0,0:0:0:0:
113,237,81012,2,0,P|151:256|193:254,1,86.449997691536,10|0,0:0|0:0,0:0:0:0:
222,240,81287,2,0,P|244:230|266:229,1,43.224998845768,10|0,0:0|0:0,0:0:0:0:
449,249,81470,6,0,P|436:291|430:348,1,86.449997691536,4|0,0:0|0:0,0:0:0:0:
426,366,81745,2,0,P|396:334|349:300,1,86.449997691536,10|0,0:0|0:0,0:0:0:0:
337,288,82019,2,0,P|364:275|374:267,1,43.224998845768,10|0,0:0|0:0,0:0:0:0:
510,153,82201,6,0,P|465:129|429:133,1,86.449997691536,0|0,1:0|0:0,0:0:0:0:
354,182,82476,1,10,0:0:0:0:
354,182,82567,2,0,P|348:136|337:89,1,86.449997691536,0|10,1:0|0:0,0:0:0:0:
235,10,82933,6,0,P|162:15|137:62,1,129.674996537304,4|10,0:0|0:0,0:0:0:0:
125,108,83299,2,0,P|83:95|36:100,1,86.449997691536,0|10,1:0|0:0,0:0:0:0:
219,276,83665,2,0,P|214:201|205:134,1,129.674996537304,0|10,1:0|0:0,0:0:0:0:
234,123,84031,2,0,P|276:119|317:132,1,86.449997691536,0|10,1:0|0:0,0:0:0:0:
427,294,84396,5,4,0:0:0:0:
475,215,84579,1,0,0:0:0:0:
475,215,84671,1,10,0:0:0:0:
475,215,84762,2,0,P|475:167|481:122,1,86.449997691536,0|10,1:0|0:0,0:0:0:0:
304,28,85128,2,0,P|308:70|308:114,1,86.449997691536,0|0,1:0|0:0,0:0:0:0:
342,134,85402,2,0,P|337:176|337:220,1,86.449997691536,10|0,0:0|0:0,0:0:0:0:
316,244,85677,2,0,P|317:264|319:289,1,43.224998845768,10|0,0:0|0:0,0:0:0:0:
219,366,85860,6,0,P|167:348|133:352,1,86.449997691536,4|0,0:0|0:0,0:0:0:0:
42,277,86134,1,10,0:0:0:0:
42,277,86226,2,0,P|84:278|124:262,1,86.449997691536,0|10,1:0|0:0,0:0:0:0:
55,111,86592,2,0,P|63:149|69:196,1,86.449997691536,0|0,1:0|0:0,0:0:0:0:
175,73,86866,1,10,0:0:0:0:
175,73,86957,2,0,P|166:111|161:158,1,86.449997691536,0|10,1:0|0:0,0:0:0:0:
256,192,87323,5,4,0:0:0:0:
200,266,87506,1,0,1:0:0:0:
234,283,87597,1,0,1:0:0:0:
273,285,87689,1,8,0:0:0:0:
309,271,87780,1,0,1:0:0:0:
335,242,87872,1,0,1:0:0:0:
348,204,87963,1,0,1:0:0:0:
342,154,88054,5,8,0:0:0:0:
309,115,88146,1,0,1:0:0:0:
262,100,88237,1,8,0:0:0:0:
213,114,88329,1,8,0:0:0:0:
180,151,88420,5,8,0:0:0:0:
142,193,88512,1,8,0:0:0:0:
86,204,88604,1,8,0:0:0:0:
35,179,88695,1,8,0:0:0:0:
16,125,88787,6,0,B|52:162|52:162|26:264,1,136.5,4|10,0:0|0:0,0:0:0:0:
36,282,89152,2,0,P|92:286|135:306,1,91,0|10,1:0|0:0,0:0:0:0:
251,374,89518,2,0,P|256:300|270:231,1,136.5,0|10,1:0|0:0,0:0:0:0:
265,201,89884,2,0,P|209:205|166:225,1,91,0|10,1:0|0:0,0:0:0:0:
73,58,90250,6,0,P|135:8|198:24,1,136.5,4|10,0:0|0:0,0:0:0:0:
232,33,90616,2,0,P|231:73|243:132,1,91,0|10,1:0|0:0,0:0:0:0:
131,116,90982,1,0,1:0:0:0:
314,70,91165,1,0,0:0:0:0:
314,70,91256,1,10,0:0:0:0:
314,70,91348,2,0,B|358:86|402:84,1,91,0|10,1:0|0:0,0:0:0:0:
497,294,91713,6,0,B|452:277|408:279,1,91,4|0,0:0|0:0,0:0:0:0:
372,263,91988,2,0,B|409:232|429:193,1,91,10|0,0:0|0:0,0:0:0:0:
460,169,92262,2,0,B|466:211|488:244,1,45.5,10|0,0:0|0:0,0:0:0:0:
285,363,92445,6,0,P|278:306|261:267,1,91,0|0,1:0|0:0,0:0:0:0:
291,252,92720,2,0,P|298:195|315:156,1,91,10|0,0:0|0:0,0:0:0:0:
285,138,92994,2,0,P|279:111|272:89,1,45.5,10|0,0:0|0:0,0:0:0:0:
26,52,93177,6,0,B|70:68|114:66,1,91,4|0,0:0|0:0,0:0:0:0:
151,83,93452,2,0,B|113:113|93:152,1,91,10|0,0:0|0:0,0:0:0:0:
63,177,93726,2,0,B|56:134|34:101,1,45.5,10|0,0:0|0:0,0:0:0:0:
222,11,93909,6,0,P|237:53|241:98,1,91,0|0,1:0|0:0,0:0:0:0:
274,171,94183,1,10,0:0:0:0:
274,171,94274,2,0,P|318:153|372:158,1,91,0|10,1:0|0:0,0:0:0:0:
495,281,94640,6,0,P|424:265|383:313,1,136.5,4|10,0:0|0:0,0:0:0:0:
362,339,95006,2,0,P|318:321|264:326,1,91,0|10,1:0|0:0,0:0:0:0:
42,214,95372,2,0,B|122:198|99:246|175:242,1,136.5,0|10,1:0|0:0,0:0:0:0:
206,229,95738,2,0,P|205:180|190:129,1,91,0|10,1:0|0:0,0:0:0:0:
301,19,96104,6,0,P|286:95|303:167,1,136.5,4|10,0:0|0:0,0:0:0:0:
329,185,96470,2,0,P|372:168|427:172,1,91,0|10,1:0|0:0,0:0:0:0:
466,356,96835,2,0,P|421:351|370:353,1,91,0|0,1:0|0:0,0:0:0:0:
366,312,97110,2,0,P|321:317|270:315,1,91,10|0,0:0|0:0,0:0:0:0:
249,348,97384,2,0,P|224:347|200:349,1,45.5,10|0,0:0|0:0,0:0:0:0:
82,327,97567,6,0,P|61:285|68:235,1,91,4|0,0:0|0:0,0:0:0:0:
148,197,97842,1,10,0:0:0:0:
148,197,97933,2,0,P|193:195|243:204,1,91,0|10,1:0|0:0,0:0:0:0:
367,45,98299,2,0,P|322:52|276:50,1,91,0|0,1:0|0:0,0:0:0:0:
206,0,98573,1,10,0:0:0:0:
206,0,98665,1,0,1:0:0:0:
353,156,98848,1,10,0:0:0:0:
147,197,99031,1,4,0:0:0:0:
251,73,99213,5,0,1:0:0:0:
248,118,99304,1,0,1:0:0:0:
245,163,99395,1,8,0:0:0:0:
242,209,99487,1,0,1:0:0:0:
240,254,99578,1,0,1:0:0:0:
237,300,99670,1,0,1:0:0:0:
234,345,99762,6,0,P|219:328|204:313,1,45.5,8|0,0:0|1:0,0:0:0:0:
320,244,99945,6,0,P|338:223|356:205,1,50.0500015274048,8|8,0:0|0:0,0:0:0:0:
159,166,100128,6,0,P|150:139|137:116,1,54.5999983337403,8|8,0:0|0:0,0:0:0:0:
332,95,100311,6,0,P|333:64|340:36,1,59.149997292328,8|8,0:0|0:0,0:0:0:0:
219,0,100494,5,0,1:0:0:0:
219,0,100768,5,8,0:0:0:0:
332,95,101043,5,0,1:0:0:0:
159,166,101226,1,2,1:2:0:0:
159,166,101500,5,8,0:0:0:0:
320,244,101774,5,0,1:0:0:0:
234,345,101957,1,2,1:2:0:0:
234,345,102232,5,8,0:0:0:0:
159,166,102506,5,0,1:0:0:0:
366,368,102689,2,0,L|432:360,3,34.1250013017655,2|0|0|0,1:2|1:0|1:0|1:0,0:0:0:0:
348,365,103055,1,8,0:0:0:0:
271,177,103238,5,2,0:0:0:0:
271,177,103329,1,0,0:0:0:0:
271,177,103421,2,0,P|285:229|290:291,1,91,6|0,0:0|0:0,0:0:0:0:
370,208,103695,2,0,P|376:163|389:120,1,91,10|0,0:0|0:0,0:0:0:0:
330,39,103970,1,10,0:0:0:0:
174,170,104152,6,0,P|133:192|82:185,1,91,2|0,1:2|0:0,0:0:0:0:
63,68,104427,2,0,P|104:46|155:53,1,91,10|0,0:0|0:0,0:0:0:0:
120,119,104701,1,10,0:0:0:0:
332,39,104884,6,0,P|322:82|320:136,1,91,4|0,0:0|0:0,0:0:0:0:
238,122,105159,1,10,0:0:0:0:
238,122,105250,2,0,P|244:155|247:186,1,45.5,0|0,1:0|0:0,0:0:0:0:
407,74,105433,2,0,P|400:107|398:138,1,45.5,10|0,0:0|0:0,0:0:0:0:
407,324,105616,6,0,P|405:279|395:235,1,91,2|0,1:2|0:0,0:0:0:0:
493,360,105891,1,10,0:0:0:0:
493,360,105982,2,0,P|496:337|500:315,1,45.5,0|0,1:0|0:0,0:0:0:0:
328,314,106165,2,0,P|325:292|320:270,1,45.5,10|0,0:0|0:0,0:0:0:0:
238,122,106348,6,0,P|186:122|152:141,1,91,4|0,0:0|0:0,0:0:0:0:
94,214,106622,2,0,P|42:214|8:195,1,91,10|0,0:0|0:0,0:0:0:0:
45,107,106896,1,10,0:0:0:0:
209,210,107079,2,0,P|219:285|222:366,1,136.5,2|10,1:2|0:0,0:0:0:0:
306,262,107445,5,2,1:2:0:0:
370,244,107567,5,2,0:0:0:0:
429,274,107689,5,2,0:0:0:0:
453,335,107811,6,0,P|463:268|472:237,1,91,4|0,0:0|0:0,0:0:0:0:
415,167,108085,2,0,P|405:100|396:69,1,91,10|0,0:0|0:0,0:0:0:0:
475,13,108360,1,8,0:0:0:0:
311,157,108543,6,0,P|268:139|223:142,1,91,2|0,1:2|0:0,0:0:0:0:
203,273,108817,2,0,P|246:291|291:288,1,91,10|0,0:0|0:0,0:0:0:0:
256,215,109092,1,10,0:0:0:0:
91,351,109274,6,0,P|86:288|65:205,1,136.5,4|10,0:0|0:0,0:0:0:0:
79,190,109640,1,0,1:0:0:0:
203,273,109823,1,10,0:0:0:0:
148,113,110006,2,0,P|117:85|26:100,1,136.5,2|10,1:2|0:0,0:0:0:0:
10,125,110372,1,0,1:0:0:0:
163,194,110555,1,10,0:0:0:0:
264,12,110738,6,0,P|278:60|282:135,1,91,4|0,0:0|0:0,0:0:0:0:
342,167,111012,2,0,P|328:215|324:290,1,91,10|0,0:0|0:0,0:0:0:0:
286,340,111287,1,10,0:0:0:0:
234,168,111470,5,2,1:2:0:0:
406,295,111652,1,2,1:2:0:0:
406,295,111744,1,10,0:0:0:0:
406,295,111835,1,2,1:2:0:0:
154,349,112018,1,10,0:0:0:0:
293,104,112201,6,0,P|320:148|320:191,1,91,4|0,0:0|0:0,0:0:0:0:
177,236,112476,2,0,P|150:192|150:149,1,91,10|0,0:0|0:0,0:0:0:0:
234,168,112750,1,10,0:0:0:0:
320,296,112933,6,0,P|366:286|419:286,1,91,2|0,1:2|0:0,0:0:0:0:
490,244,113207,1,10,0:0:0:0:
490,244,113299,2,0,P|493:217|502:188,1,45.5,0|0,1:0|0:0,0:0:0:0:
412,143,113482,2,0,P|409:121|404:99,1,45.5,10|0,0:0|0:0,0:0:0:0:
471,22,113665,5,4,0:0:0:0:
324,142,113848,5,0,1:0:0:0:
287,168,113939,1,0,1:0:0:0:
241,171,114031,1,8,0:0:0:0:
201,149,114122,1,0,1:0:0:0:
169,116,114213,1,0,1:0:0:0:
123,109,114305,1,0,1:0:0:0:
80,124,114396,6,0,P|87:150|93:179,1,45.5,8|0,0:0|1:0,0:0:0:0:
275,48,114579,2,0,P|267:74|262:103,1,45.5,8|8,0:0|0:0,0:0:0:0:
197,273,114762,5,8,0:0:0:0:
236,265,114854,1,8,0:0:0:0:
218,298,114945,5,8,0:0:0:0:
241,304,115037,1,8,0:0:0:0:
228,328,115128,5,4,0:0:0:0:
358,177,119889,5,2,0:0:0:0:
278,103,120048,1,0,1:0:0:0:
278,103,120128,1,0,1:0:0:0:
278,103,120207,2,0,B|202:96|218:148|149:139,1,136.500005207062,12|0,0:0|0:0,0:0:0:0:
46,68,120842,2,0,P|62:114|71:207,1,136.500005207062,8|0,0:0|0:0,0:0:0:0:
39,302,121318,2,0,P|74:347|150:336,1,136.500005207062,0|0,1:0|1:0,0:0:0:0:
223,245,121794,2,0,P|261:244|289:264,1,68.250002603531,0|0,1:0|0:0,0:0:0:0:
389,360,122112,2,0,P|394:292|414:227,1,136.500005207062,8|0,0:0|0:0,0:0:0:0:
339,126,122747,6,0,P|305:90|341:12,1,136.500005207062,0|0,1:0|0:0,0:0:0:0:
426,163,123381,2,0,P|369:164|274:189,1,136.500005207062,8|0,0:0|0:0,0:0:0:0:
219,111,123858,2,0,P|162:110|67:85,1,136.500005207062,0|0,1:0|1:0,0:0:0:0:
19,154,124334,1,0,1:0:0:0:
148,203,124651,2,0,P|157:238|141:282,1,68.250002603531,8|0,0:0|0:0,0:0:0:0:
40,331,124969,1,2,0:0:0:0:
208,367,125127,5,0,1:0:0:0:
208,367,125207,1,0,1:0:0:0:
208,367,125286,2,0,B|284:374|268:322|337:331,1,136.500005207062,12|0,0:0|0:0,0:0:0:0:
261,179,125762,1,0,0:0:0:0:
261,179,125921,2,0,P|208:192|233:270,1,136.500005207062,8|0,0:0|1:2,0:0:0:0:
351,171,126398,2,0,P|358:98|370:31,1,136.500005207062,0|0,1:0|1:2,0:0:0:0:
437,141,126874,2,0,P|479:158|507:149,1,68.250002603531,0|0,1:0|0:0,0:0:0:0:
285,40,127191,2,0,P|210:39|170:88,1,136.500005207062,10|0,0:0|0:0,0:0:0:0:
27,230,127826,6,0,B|95:194|98:246|158:217,1,136.500005207062,0|0,1:0|0:0,0:0:0:0:
255,120,128302,1,0,0:0:0:0:
255,120,128461,2,0,P|266:187|276:272,1,136.500005207062,10|0,0:0|0:0,0:0:0:0:
371,345,128937,2,0,P|441:356|489:312,1,136.500005207062,0|0,1:0|1:0,0:0:0:0:
421,193,129413,2,0,P|415:220|412:260,1,68.250002603531,0|0,1:0|0:0,0:0:0:0:
299,20,129731,6,0,P|342:21|366:62,1,91,8|0,0:0|0:0,0:0:0:0:
363,77,129969,2,0,P|314:75|287:29,1,102.375003905296,8|0,0:0|0:0,0:0:0:0:
217,272,130996,5,4,0:0:0:0:
416,295,131154,1,2,0:0:0:0:
416,295,131234,1,2,0:0:0:0:
416,295,131313,1,8,0:0:0:0:
252,195,131472,2,0,B|195:178|158:218|158:218|123:262|64:243,1,200.200006109619,2|0,1:2|0:0,0:0:0:0:
154,122,131948,5,2,0:0:0:0:
265,362,132107,1,2,0:0:0:0:
265,362,132186,1,2,0:0:0:0:
265,362,132265,1,8,0:0:0:0:
396,111,132424,2,0,P|373:184|365:289,1,150.150004582214,2|0,1:2|0:0,0:0:0:0:
361,291,132742,1,0,0:0:0:0:
285,100,132900,1,2,1:2:0:0:
506,186,133059,1,2,1:2:0:0:
267,213,133218,1,8,0:0:0:0:
403,86,133376,1,2,0:0:0:0:
479,291,133535,6,0,B|507:287|507:287|489:267,1,50.0500015274048,4|0,0:0|0:0,0:0:0:0:
406,231,133694,2,0,B|340:188|271:244|271:244|304:240|331:259,1,200.200006109619,2|2,1:2|1:2,0:0:0:0:
258,347,134170,2,0,B|206:359|174:308|174:308|143:259|84:268,1,200.200006109619,10|2,0:0|1:2,0:0:0:0:
259,144,134646,2,0,P|267:193|272:245,1,100.10000305481,2|0,1:2|0:0,0:0:0:0:
340,92,134964,1,2,1:2:0:0:
166,233,135122,1,10,0:0:0:0:
364,280,135281,1,0,1:2:0:0:
374,278,135361,1,0,1:2:0:0:
384,276,135440,5,0,1:2:0:0:
203,68,135678,5,0,1:2:0:0:
113,328,135916,5,0,1:2:0:0:
340,92,136075,5,4,0:0:0:0:
263,349,136234,1,2,0:0:0:0:
263,349,136313,1,2,0:0:0:0:
263,349,136392,1,8,0:0:0:0:
72,173,136551,2,0,B|129:156|166:196|166:196|201:240|260:221,1,200.200006109619,2|0,1:2|0:0,0:0:0:0:
419,197,137027,1,2,0:0:0:0:
235,138,137186,1,2,0:0:0:0:
235,138,137265,1,2,0:0:0:0:
235,138,137345,1,8,0:0:0:0:
488,311,137503,6,0,P|491:252|503:156,1,150.150004582214,2|0,1:2|0:0,0:0:0:0:
506,127,137821,1,0,0:0:0:0:
283,215,137980,1,2,1:2:0:0:
488,311,138138,1,2,1:2:0:0:
322,141,138297,2,0,P|246:132|199:195,1,150.150004582214,8|0,0:0|0:0,0:0:0:0:
191,220,138615,5,8,0:0:0:0:
131,0,138773,1,2,0:0:0:0:
240,29,138932,5,2,0:0:0:0:
81,189,139091,1,2,1:2:0:0:
51,80,139249,5,8,0:0:0:0:
270,138,139408,1,2,0:0:0:0:
110,300,139567,5,8,0:0:0:0:
161,110,139726,1,2,0:0:0:0:
307,243,139884,5,2,0:0:0:0:
81,189,140043,1,2,1:2:0:0:
240,29,140202,5,8,0:0:0:0:
207,270,140361,1,0,1:2:0:0:
207,270,140440,1,0,1:2:0:0:
207,270,140519,5,8,0:0:0:0:
132,6,140678,1,8,0:0:0:0:
286,344,140837,5,8,0:0:0:0:
348,51,140996,1,8,0:0:0:0:
193,298,141154,6,0,P|152:315|106:307,1,91,4|0,1:2|0:0,0:0:0:0:
243,161,141472,1,10,0:0:0:0:
314,367,141630,2,0,P|318:264|340:167,1,182,2|2,0:0|0:0,0:0:0:0:
130,69,142107,2,0,P|145:137|148:168,1,91,10|0,0:0|0:0,0:0:0:0:
376,105,142424,5,2,1:2:0:0:
376,105,142583,1,2,0:0:0:0:
229,60,142742,1,8,0:0:0:0:
349,0,142900,1,2,0:0:0:0:
174,165,143059,2,0,P|211:148|274:154,1,91,2|2,1:2|0:0,0:0:0:0:
462,120,143376,2,0,P|416:122|375:104,1,91,10|2,0:0|0:0,0:0:0:0:
248,17,143694,5,2,1:2:0:0:
351,193,143853,2,0,P|344:237|342:292,1,91,0|8,0:0|0:0,0:0:0:0:
168,133,144170,2,0,P|111:112|48:196,1,182,2|0,0:0|0:0,0:0:0:0:
144,354,144646,2,0,P|141:308|134:263,1,91,8|0,0:0|0:0,0:0:0:0:
347,231,144964,5,2,1:2:0:0:
200,194,145122,1,2,0:0:0:0:
324,318,145281,2,0,P|387:313|418:293,1,91,8|0,0:0|0:0,0:0:0:0:
307,124,145599,1,2,1:2:0:0:
218,301,145757,1,2,0:0:0:0:
99,181,145916,2,0,P|80:139|80:94,1,91,8|0,0:0|0:0,0:0:0:0:
266,22,146234,6,0,B|323:24|323:24|346:37|346:37|408:40,1,136.5,4|0,1:2|0:0,0:0:0:0:
434,31,146551,1,8,0:0:0:0:
332,158,146710,2,0,P|349:212|353:247,1,91,2|2,0:0|1:2,0:0:0:0:
449,155,147027,1,2,0:0:0:0:
499,258,147186,2,0,P|484:301|478:346,1,91,10|0,0:0|0:0,0:0:0:0:
218,299,147503,5,2,1:2:0:0:
218,299,147662,1,2,0:0:0:0:
407,245,147821,1,8,0:0:0:0:
263,138,147980,1,2,0:0:0:0:
428,347,148138,2,0,P|384:332|335:324,1,91,2|0,1:2|0:0,0:0:0:0:
160,197,148456,2,0,P|204:189|247:174,1,91,10|2,0:0|0:0,0:0:0:0:
498,39,148773,2,0,P|490:89|486:140,1,91,2|0,1:2|0:0,0:0:0:0:
297,46,149091,5,8,0:0:0:0:
297,46,149170,1,0,1:0:0:0:
297,46,149249,2,0,P|268:64|254:88,1,50.0500015274048,0|0,1:0|1:0,0:0:0:0:
415,138,149408,5,8,0:0:0:0:
415,138,149487,1,0,1:0:0:0:
415,138,149566,2,0,P|413:103|400:79,1,50.0500015274048,0|0,1:0|1:0,0:0:0:0:
276,195,149725,5,8,0:0:0:0:
276,195,149805,1,0,1:0:0:0:
276,195,149884,2,0,P|306:211|333:211,1,50.0500015274048,0|0,1:0|1:0,0:0:0:0:
325,127,150043,5,8,0:0:0:0:
293,106,150122,1,0,1:0:0:0:
256,102,150201,1,0,1:0:0:0:
221,114,150281,1,0,1:0:0:0:
196,141,150360,5,8,0:0:0:0:
165,171,150440,1,0,1:0:0:0:
124,187,150520,1,0,1:0:0:0:
80,181,150599,1,0,1:0:0:0:
43,157,150678,5,8,0:0:0:0:
28,104,150757,1,0,1:0:0:0:
47,52,150837,1,0,1:0:0:0:
93,23,150916,1,0,1:0:0:0:
147,29,150995,6,0,P|154:55|159:82,1,50.0500015274048,8|0,0:0|1:0,0:0:0:0:
246,231,151154,2,0,P|250:206|257:182,1,50.0500015274048,0|0,1:0|1:0,0:0:0:0:
473,26,151313,6,0,P|390:31|374:137,1,200.200006109619,4|8,0:0|0:0,0:0:0:0:
498,154,151789,1,2,0:0:0:0:
339,278,151948,2,0,P|390:264|447:265,1,100.10000305481,2|2,1:2|0:0,0:0:0:0:
437,263,152186,1,0,0:0:0:0:
437,263,152265,1,8,0:0:0:0:
319,191,152424,1,2,0:0:0:0:
218,364,152583,6,0,B|182:270|257:267|214:165,1,200.200006109619,0|8,1:2|0:0,0:0:0:0:
267,65,153059,1,2,0:0:0:0:
121,234,153218,2,0,P|103:188|105:132,1,100.10000305481,2|2,1:2|0:0,0:0:0:0:
103,137,153456,1,0,0:0:0:0:
103,137,153535,1,8,0:0:0:0:
319,191,153694,1,2,0:0:0:0:
126,41,153853,6,0,P|46:59|18:166,1,200.200006109619,0|8,1:2|0:0,0:0:0:0:
205,122,154329,1,2,0:0:0:0:
125,266,154488,2,0,P|74:252|17:253,1,100.10000305481,2|2,1:2|0:0,0:0:0:0:
27,251,154726,1,0,0:0:0:0:
27,251,154805,1,8,0:0:0:0:
112,363,154964,6,0,B|163:375|202:330|202:330|239:281|289:293,1,200.200006109619,2|2,0:0|0:0,0:0:0:0:
414,147,155440,2,0,P|406:235|400:347,1,200.200006109619,8|2,0:0|1:2,0:0:0:0:
317,174,155916,1,2,0:0:0:0:
500,323,156075,1,8,0:0:0:0:
298,384,156234,1,2,0:0:0:0:
444,235,156392,5,4,1:2:0:0:
444,235,156710,5,8,0:0:0:0:
444,235,157027,6,0,B|362:231|378:287|301:280,1,150.150004582214,4|0,1:2|1:2,0:0:0:0:
267,265,157345,2,0,P|247:258|214:254,1,50.0500015274048,10|0,0:0|0:0,0:0:0:0:
124,284,157503,1,8,0:0:0:0:
329,186,157662,5,0,1:2:0:0:
206,375,157821,1,8,0:0:0:0:
108,171,157980,2,0,B|88:108|88:108|93:79|93:79|77:17,1,150.150004582214,10|0,0:0|1:2,0:0:0:0:
108,14,158297,2,0,L|169:25,1,50.0500015274048,8|0,0:0|0:0,0:0:0:0:
4,216,158456,1,8,0:0:0:0:
204,131,158615,1,2,1:2:0:0:
0,25,158773,1,8,0:0:0:0:
216,231,158932,5,0,1:2:0:0:
240,228,159011,1,0,1:2:0:0:
265,225,159090,1,0,1:2:0:0:
290,222,159170,1,0,1:2:0:0:
315,219,159249,1,2,1:2:0:0:
187,32,159408,2,0,P|199:80|204:134,1,100.10000305481,8|0,0:0|0:0,0:0:0:0:
330,86,159726,1,0,1:2:0:0:
407,320,159884,2,0,P|411:270|424:221,1,100.10000305481,10|0,0:0|1:2,0:0:0:0:
424,221,160122,1,0,1:2:0:0:
424,221,160202,1,0,1:2:0:0:
217,368,160361,2,0,P|180:327|88:348,1,150.150004582214,0|0,1:2|0:0,0:0:0:0:
93,341,160678,1,8,0:0:0:0:
268,247,160837,5,0,0:0:0:0:
222,126,160995,1,0,1:2:0:0:
222,126,161075,1,0,1:2:0:0:
222,126,161154,2,0,P|230:157|233:184,1,50.0500015274048,8|0,0:0|1:2,0:0:0:0:
303,32,161313,2,0,P|296:56|292:80,1,50.0500015274048,0|0,1:2|1:2,0:0:0:0:
391,347,161472,5,8,0:0:0:0:
138,243,161630,1,0,1:2:0:0:
385,142,161789,1,0,1:2:0:0:
94,360,161948,5,8,0:0:0:0:
423,244,162107,1,0,1:2:0:0:
116,114,162265,1,0,1:2:0:0:
250,372,162424,5,8,0:0:0:0:
283,78,162583,2,0,P|280:105|280:133,1,50.0500015274048,0|0,1:2|1:2,0:0:0:0:
81,267,162742,5,8,0:0:0:0:
81,267,162821,1,0,1:2:0:0:
81,267,162900,2,0,L|163:252,1,50.0500015274048,0|0,1:2|1:2,0:0:0:0:
390,178,163059,5,8,0:0:0:0:
390,178,163138,1,0,1:2:0:0:
390,178,163218,2,0,L|308:163,1,50.0500015274048,0|0,1:2|1:2,0:0:0:0:
200,43,163376,5,8,0:0:0:0:
254,322,163535,1,8,0:0:0:0:
287,136,163853,6,0,B|228:167|228:167|250:310,1,200.200006109619,6|0,0:0|1:2,0:0:0:0:
424,240,164329,2,0,B|385:236|385:236|372:231|372:231|325:226,1,100.10000305481,10|0,0:0|0:0,0:0:0:0:
149,288,164646,1,2,1:2:0:0:
330,363,164805,1,2,1:2:0:0:
229,175,164964,1,8,0:0:0:0:
79,368,165122,6,0,P|75:316|65:266,1,100.10000305481,2|0,1:2|0:0,0:0:0:0:
174,109,165440,1,2,1:2:0:0:
251,291,165599,1,10,0:0:0:0:
0,198,165757,2,0,B|38:194|38:194|51:189|51:189|98:184,1,100.10000305481,2|2,1:2|1:2,0:0:0:0:
277,164,166075,1,2,1:2:0:0:
79,64,166234,1,8,0:0:0:0:
302,12,166392,6,0,B|432:29|432:29|448:69|421:101,1,200.200006109619,6|0,1:2|1:2,0:0:0:0:
295,260,166869,2,0,P|293:210|272:156,1,100.10000305481,10|0,0:0|0:0,0:0:0:0:
470,213,167186,1,2,1:2:0:0:
336,115,167345,1,0,1:2:0:0:
481,225,167503,2,0,P|464:271|462:321,1,100.10000305481,8|0,0:0|1:2,0:0:0:0:
295,349,167821,5,2,0:0:0:0:
295,349,167980,2,0,P|243:348|186:317,1,100.10000305481,2|10,1:2|0:0,0:0:0:0:
315,132,168297,1,2,0:0:0:0:
400,356,168456,1,2,1:2:0:0:
407,84,168615,1,2,1:2:0:0:
299,309,168773,1,8,0:0:0:0:
217,50,168932,6,0,P|269:94|262:221,1,200.200006109619,6|0,1:2|1:2,0:0:0:0:
85,155,169408,2,0,B|127:148|127:148|139:148|139:148|187:141,1,100.10000305481,10|0,0:0|0:0,0:0:0:0:
351,351,169726,1,2,1:2:0:0:
138,273,169884,1,2,1:2:0:0:
328,115,170043,1,8,0:0:0:0:
245,374,170202,6,0,P|233:265|217:170,1,200.200006109619,2|0,1:2|1:2,0:0:0:0:
350,17,170678,2,0,P|336:59|327:114,1,100.10000305481,10|0,0:0|0:0,0:0:0:0:
229,38,170995,1,2,1:2:0:0:
349,212,171154,1,2,1:2:0:0:
156,233,171313,1,8,0:0:0:0:
327,114,171472,6,0,P|371:94|436:99,1,100.10000305481,2|2,1:2|0:0,0:0:0:0:
156,233,171789,2,0,P|106:233|61:213,1,100.10000305481,2|10,1:2|0:0,0:0:0:0:
217,62,172107,1,2,0:0:0:0:
217,62,172186,1,0,0:0:0:0:
217,62,172265,1,2,1:2:0:0:
273,260,172424,1,2,1:2:0:0:
142,148,172583,1,8,0:0:0:0:
350,17,172742,6,0,P|336:59|327:114,1,100.10000305481,2|2,1:2|0:0,0:0:0:0:
190,350,173059,2,0,P|182:300|167:252,2,100.10000305481,2|10|2,1:2|0:0|1:2,0:0:0:0:
245,157,173535,1,2,1:2:0:0:
377,335,173694,1,2,1:2:0:0:
408,108,173853,1,8,0:0:0:0:
249,352,174011,6,0,B|155:300|154:391|53:333,1,200.200006109619,6|2,1:2|1:2,0:0:0:0:
0,201,174488,2,0,P|42:178|102:184,1,100.10000305481,10|0,0:0|0:0,0:0:0:0:
246,198,174805,1,2,1:2:0:0:
60,259,174964,1,2,1:2:0:0:
126,70,175122,1,8,0:0:0:0:
208,300,175281,6,0,P|213:249|228:195,1,100.10000305481,2|0,1:2|0:0,0:0:0:0:
78,29,175599,2,0,P|90:77|95:127,2,100.10000305481,2|10|2,1:2|0:0|1:2,0:0:0:0:
203,185,176075,2,0,P|266:194|319:131,1,150.150004582214,2|0,1:2|0:0,0:0:0:0:
304,108,176392,2,0,P|300:87|292:60,1,50.0500015274048,8|0,0:0|0:0,0:0:0:0:
455,35,176551,6,0,P|437:112|421:238,1,200.200006109619,4|0,1:2|1:2,0:0:0:0:
339,355,177027,2,0,P|293:293|228:302,1,150.150004582214,10|0,0:0|0:0,0:0:0:0:
199,329,177345,1,2,1:2:0:0:
0,257,177503,1,0,1:2:0:0:
190,181,177662,1,8,0:0:0:0:
190,181,177821,1,0,1:2:0:0:
0,355,177980,5,2,0:0:0:0:
74,137,178138,1,2,1:2:0:0:
199,329,178297,1,10,0:0:0:0:
0,256,178456,1,2,0:0:0:0:
211,136,178615,2,0,P|192:182|190:237,1,100.10000305481,2|2,1:2|1:2,0:0:0:0:
64,51,178932,1,8,0:0:0:0:
277,201,179091,6,0,B|362:150|368:247|467:187,1,200.200006109619,6|0,1:2|1:2,0:0:0:0:
479,27,179567,2,0,P|388:68|393:107,1,150.150004582214,10|0,0:0|0:0,0:0:0:0:
375,112,179884,2,0,P|328:99|276:108,1,100.10000305481,2|0,1:2|1:2,0:0:0:0:
322,0,180202,1,8,0:0:0:0:
203,223,180361,6,0,P|197:123|173:12,1,200.200006109619,2|0,1:2|1:2,0:0:0:0:
343,195,180837,2,0,P|370:242|334:323,1,150.150004582214,10|0,0:0|0:0,0:0:0:0:
305,337,181154,2,0,P|260:318|205:326,1,100.10000305481,2|0,1:2|1:2,0:0:0:0:
69,348,181472,1,8,0:0:0:0:
211,136,181630,6,0,P|192:182|190:237,1,100.10000305481,2|2,1:2|0:0,0:0:0:0:
111,82,181948,1,2,1:2:0:0:
111,82,182027,1,0,1:0:0:0:
111,82,182107,1,8,0:0:0:0:
272,209,182265,2,0,B|312:200|312:200|323:204|323:204|377:193,1,100.10000305481,2|2,1:2|0:0,0:0:0:0:
189,36,182583,1,0,1:2:0:0:
172,12,182662,1,0,1:0:0:0:
140,0,182742,1,8,0:0:0:0:
50,204,182900,6,0,P|43:154|26:107,1,100.10000305481,6|0,0:0|0:0,0:0:0:0:
328,23,183218,2,0,P|311:70|304:119,1,100.10000305481,6|0,1:2|0:0,0:0:0:0:
111,82,183535,1,2,1:2:0:0:
268,263,183694,2,0,B|290:259|290:259|301:263|301:263|330:257,1,50.0500015274048,2|2,0:0|0:0,0:0:0:0:
84,290,183853,5,4,3:0:0:0:
230,162,184011,1,8,3:0:0:0:
174,364,184170,6,0,P|181:269|116:184,1,200.200006109619,6|0,0:0|1:0,0:0:0:0:
188,37,184646,1,0,1:0:0:0:
188,37,184964,1,8,0:0:0:0:
276,187,185122,2,0,B|378:160|366:250|472:202,1,200.200006109619,0|2,1:0|1:2,0:0:0:0:
466,204,185757,5,0,1:0:0:0:
399,121,185916,2,0,P|390:69|394:18,1,100.10000305481,0|0,1:0|0:0,0:0:0:0:
257,257,186234,1,8,0:0:0:0:
289,173,186392,1,0,1:0:0:0:
289,173,186710,6,0,P|306:245|306:376,1,200.200006109619,4|0,1:2|1:0,0:0:0:0:
148,361,187186,1,0,1:0:0:0:
148,361,187503,1,8,0:0:0:0:
14,262,187662,2,0,P|54:190|164:223,1,200.200006109619,0|2,1:0|1:2,0:0:0:0:
157,211,188297,5,2,1:2:0:0:
204,121,188456,2,0,P|197:68|181:22,1,100.10000305481,0|0,1:0|1:0,0:0:0:0:
328,248,188773,1,8,0:0:0:0:
292,170,188932,1,0,1:0:0:0:
292,170,189249,6,0,B|401:142|366:222|490:191,1,200.200006109619,4|0,1:2|1:0,0:0:0:0:
439,11,189726,1,0,1:0:0:0:
439,11,190043,1,8,0:0:0:0:
326,217,190202,2,0,P|321:127|294:18,1,200.200006109619,0|2,1:0|1:2,0:0:0:0:
294,20,190837,5,0,1:0:0:0:
397,111,190995,2,0,P|446:114|497:126,1,100.10000305481,0|0,1:0|0:0,0:0:0:0:
399,11,191313,1,8,0:0:0:0:
305,137,191472,1,0,1:0:0:0:
305,137,191789,6,0,P|259:72|144:111,1,200.200006109619,4|0,1:2|1:0,0:0:0:0:
50,209,192265,2,0,P|45:160|25:100,1,100.10000305481,0|0,1:0|0:0,0:0:0:0:
250,249,192583,1,8,0:0:0:0:
250,249,192662,1,0,1:0:0:0:
250,249,192741,1,0,1:0:0:0:
55,335,192900,2,0,P|34:329|4:328,2,50.0500015274048,8|0|2,0:0|1:0|1:2,0:0:0:0:
172,137,193218,5,8,0:0:0:0:
172,137,193297,1,0,1:0:0:0:
172,137,193376,1,0,1:0:0:0:
259,367,193535,2,0,P|282:359|307:358,1,50.0500015274048,8|0,0:0|1:0,0:0:0:0:
41,250,193694,1,0,1:0:0:0:
291,111,193853,5,8,0:0:0:0:
156,354,194011,1,0,1:0:0:0:
84,81,194170,1,8,0:0:0:0:
269,328,194329,6,0,B|386:311|355:408|469:382,1,218.399993334961,6|2,0:0|1:2,0:0:0:0:
457,148,194805,2,0,P|443:199|437:264,1,109.199996667481,8|0,0:0|1:2,0:0:0:0:
437,253,195043,1,0,1:2:0:0:
437,253,195122,1,10,0:0:0:0:
315,88,195281,1,2,1:2:0:0:
229,278,195440,1,8,0:0:0:0:
395,56,195599,6,0,P|350:9|253:24,1,163.799995001221,6|0,0:0|0:0,0:0:0:0:
231,40,195916,1,2,1:2:0:0:
337,235,196075,1,8,0:0:0:0:
142,93,196234,1,0,1:2:0:0:
130,64,196313,1,0,1:2:0:0:
130,32,196392,1,10,0:0:0:0:
338,137,196551,1,2,1:2:0:0:
155,257,196710,1,8,0:0:0:0:
231,40,196869,6,0,P|239:153|246:268,1,218.399993334961,6|0,0:0|1:2,0:0:0:0:
142,348,197345,2,0,P|95:321|36:321,1,109.199996667481,10|0,0:0|1:2,0:0:0:0:
42,320,197583,1,0,1:2:0:0:
42,320,197662,1,10,0:0:0:0:
160,145,197821,1,2,1:2:0:0:
241,341,197980,1,8,0:0:0:0:
8,216,198138,5,2,1:2:0:0:
304,62,198297,1,2,0:0:0:0:
49,117,198456,5,2,1:2:0:0:
269,157,198615,1,8,0:0:0:0:
168,151,198773,5,2,1:2:0:0:
168,151,198853,1,0,1:2:0:0:
168,151,198932,1,8,0:0:0:0:
259,0,199091,1,2,1:2:0:0:
281,246,199249,1,10,0:0:0:0:
441,69,199408,6,0,B|388:101|388:101|412:260,1,218.399993334961,6|0,0:0|1:2,0:0:0:0:
281,246,199884,1,8,0:0:0:0:
436,347,200043,1,0,1:2:0:0:
436,347,200122,1,0,1:2:0:0:
436,347,200202,1,10,0:0:0:0:
363,161,200361,1,2,1:2:0:0:
238,323,200519,1,8,0:0:0:0:
442,227,200678,6,0,P|473:153|389:60,1,218.399993334961,6|0,0:0|1:2,0:0:0:0:
254,160,201154,2,0,P|307:155|372:163,1,109.199996667481,8|0,0:0|1:2,0:0:0:0:
363,161,201392,1,0,1:2:0:0:
363,161,201472,1,10,0:0:0:0:
146,114,201630,1,2,1:2:0:0:
348,15,201789,1,8,0:0:0:0:
167,236,201948,6,0,P|162:170|148:126,1,91,4|0,0:0|0:0,0:0:0:0:
263,40,202265,1,0,1:2:0:0:
370,170,202424,2,0,P|351:248|346:329,1,136.5,0|0,1:2|0:0,0:0:0:0:
335,342,202742,2,0,P|288:367|225:357,1,91,8|0,0:0|0:0,0:0:0:0:
178,329,203059,2,0,P|141:327|103:342,3,45.5,0|0|0|0,1:2|1:2|1:2|1:2,0:0:0:0:
49,260,203376,6,0,P|11:212|24:132,1,136.5,10|0,0:0|0:0,0:0:0:0:
120,69,203694,2,0,P|109:96|105:122,3,45.5,0|0|0|0,1:2|1:2|1:2|1:2,0:0:0:0:
49,6,204011,5,10,0:0:0:0:
141,201,204170,1,0,1:2:0:0:
269,33,204329,1,10,0:0:0:0:
136,218,204488,6,0,B|233:206|199:284|304:271,1,182,6|0,0:0|1:2,0:0:0:0:
460,138,204964,2,0,P|379:144|356:188,1,136.5,0|0,1:2|0:0,0:0:0:0:
350,214,205281,2,0,P|340:159|349:98,1,91,10|2,0:0|1:2,0:0:0:0:
386,37,205599,1,2,0:0:0:0:
225,225,205757,6,0,P|229:152|211:35,1,182,4|2,3:0|0:0,0:0:0:0:
213,44,206392,1,0,1:2:0:0:
338,196,206551,1,8,3:0:0:0:
122,145,206710,1,0,1:2:0:0:
317,57,206869,5,10,0:0:0:0:
219,269,207027,1,10,0:0:0:0:
100,57,207186,6,0,P|113:104|125:165,1,91,6|0,0:0|1:2,0:0:0:0:
364,307,207503,2,0,B|266:295|300:373|195:360,1,182,10|8,0:0|0:0,0:0:0:0:
189,196,207980,1,2,1:2:0:0:
119,373,208138,1,0,1:2:0:0:
118,141,208297,6,0,P|199:108|265:165,1,182,2|0,0:0|1:2,0:0:0:0:
264,163,208694,1,0,1:2:0:0:
264,163,208773,1,10,0:0:0:0:
109,262,208932,1,0,1:2:0:0:
255,43,209091,1,10,0:0:0:0:
324,292,209249,1,2,1:2:0:0:
121,144,209408,1,2,0:0:0:0:
121,144,209567,1,8,0:0:0:0:
360,24,209726,6,0,P|347:70|344:120,1,91,6|0,0:0|1:2,0:0:0:0:
227,276,210043,2,0,P|225:222|203:95,1,182,10|8,0:0|0:0,0:0:0:0:
312,246,210519,1,2,1:2:0:0:
123,174,210678,1,0,1:2:0:0:
292,55,210837,6,0,B|389:43|355:121|460:108,1,182,2|0,0:0|1:2,0:0:0:0:
458,109,211234,1,0,1:2:0:0:
458,109,211313,1,10,0:0:0:0:
312,246,211472,1,0,1:2:0:0:
361,105,211630,1,10,0:0:0:0:
432,323,211789,1,2,1:2:0:0:
240,345,211948,6,0,P|266:337|296:332,1,45.5,10|0,0:0|1:2,0:0:0:0:
441,218,212107,2,0,P|419:213|397:207,1,45.5,0|0,1:2|1:2,0:0:0:0:
174,154,212265,5,8,0:0:0:0:
167,121,212344,1,0,1:2:0:0:
173,88,212423,1,0,1:2:0:0:
192,60,212503,1,0,1:2:0:0:
224,46,212583,2,0,P|215:115|208:234,1,182,10|8,0:0|0:0,0:0:0:0:
244,364,213059,1,2,1:2:0:0:
50,269,213218,1,0,1:2:0:0:
50,269,213376,1,2,0:0:0:0:
299,235,213535,5,10,0:0:0:0:
115,376,213694,1,2,1:2:0:0:
109,147,213853,1,10,0:0:0:0:
244,364,214011,5,10,0:0:0:0:
263,117,214170,1,2,1:2:0:0:
45,263,214329,1,2,1:2:0:0:
303,240,214488,5,10,0:0:0:0:
303,240,214646,1,0,1:2:0:0:
0,43,214805,5,10,0:0:0:0:
177,245,214964,1,8,0:0:0:0:
225,4,215122,5,2,1:2:0:0:
19,159,215281,1,0,1:2:0:0:
300,236,215440,5,10,0:0:0:0:
115,20,215599,1,10,0:0:0:0:
44,278,215757,1,0,1:2:0:0:
209,75,215916,6,0,P|192:133|180:282,1,182,10|2,0:0|1:2,0:0:0:0:
132,352,216313,1,0,0:0:0:0:
132,352,216392,2,0,P|121:323|112:300,1,45.5,8|0,0:0|0:0,0:0:0:0:
265,240,216551,2,0,P|268:204|274:181,1,45.5,2|0,1:2|1:2,0:0:0:0:
362,348,216710,1,8,1:2:0:0:
401,368,216789,1,0,1:2:0:0:
446,366,216868,1,0,1:2:0:0:
484,341,216948,1,0,1:2:0:0:
504,301,217027,2,0,P|501:265|495:242,1,45.5,10|0,1:2|0:0,0:0:0:0:
412,109,217186,1,10,1:2:0:0:
