osu file format v14

[General]
AudioFilename: audio.mp3
AudioLeadIn: 0
PreviewTime: 163218
Countdown: 0
SampleSet: Normal
StackLeniency: 0.7
Mode: 1
LetterboxInBreaks: 0
WidescreenStoryboard: 1

[Editor]
Bookmarks: 458,10616,20775,30934,38394,48553,58870,69029,77040,88748,103382,115089,130957,141115,151274,163814,173972,184131
DistanceSpacing: 0.9
BeatDivisor: 4
GridSize: 32
TimelineZoom: 2.4

[Metadata]
Title:Swing It!!
TitleUnicode:Swing It!!
Artist:Fear, and Loathing in Las Vegas
ArtistUnicode:Fear, and Loathing in Las Vegas
Creator:MaestroSplinter
Version:2199's Oni!!
Source:
Tags:falilv J-rock japanese rock Nymphe Kowari HowRengar Phase_2 gaston_2199 Megafan
BeatmapID:2533424
BeatmapSetID:1051249

[Difficulty]
HPDrainRate:5
CircleSize:4
OverallDifficulty:6
ApproachRate:10
SliderMultiplier:1.4
SliderTickRate:1

[Events]
//Background and Video events
0,0,"swing11.jpg",0,0
//Break Periods
//Storyboard Layer 0 (Background)
//Storyboard Layer 1 (Fail)
//Storyboard Layer 2 (Pass)
//Storyboard Layer 3 (Foreground)
//Storyboard Layer 4 (Overlay)
//Storyboard Sound Samples

[TimingPoints]
497,317.460317460317,4,1,0,80,1,0
1131,-100,4,1,0,80,0,0
1287,-100.917440451141,4,1,0,80,0,0
1446,-101.851870713309,4,1,0,80,0,0
1605,-102.803767141243,4,1,0,80,0,0
1763,-103.773624065519,4,1,0,80,0,0
1922,-104.76195464855,4,1,0,80,0,0
2001,-105.263157894737,4,1,0,80,0,0
2081,-105.769179918663,4,1,0,80,0,0
2240,-106.79607503065,4,1,0,80,0,0
2319,-107.317094110653,4,1,0,80,0,0
2398,-107.843105536342,4,1,0,80,0,0
2557,-108.9108695226,4,1,0,80,0,0
2716,-109.999989000001,4,1,0,80,0,0
2874,-111.111111111111,4,1,0,80,0,0
3033,-100,4,1,0,80,0,0
3113,-100.333508582528,4,1,0,80,0,0
3192,-100.669249168472,4,1,0,80,0,0
3271,-101.007244239557,4,1,0,80,0,0
3351,-101.347516580454,4,1,0,80,0,0
3668,-102.73195076674,4,1,0,80,0,0
3827,-103.438395711858,4,1,0,80,0,0
3986,-104.154623788291,4,1,0,80,0,0
4144,-104.88083963405,4,1,0,80,0,0
4303,-105.617365184714,4,1,0,80,0,0
4462,-106.364195259135,4,1,0,80,0,0
4541,-106.741585027144,4,1,0,80,0,0
4620,-107.121662356805,4,1,0,80,0,0
4779,-107.88999536073,4,1,0,80,0,0
4938,-108.669429768034,4,1,0,80,0,0
5097,-109.460327746113,4,1,0,80,0,0
5176,-109.860049283218,4,1,0,80,0,0
5255,-110.262700884858,4,1,0,80,0,0
5414,-111.076924102249,4,1,0,80,0,0
5573,-100,4,1,0,80,0,0
5652,-100.334414603875,4,1,0,80,0,0
5731,-100.671174721871,4,1,0,80,0,0
5811,-101.010101010101,4,1,0,80,0,0
5890,-101.351317111042,4,1,0,80,0,0
6207,-102.739761212247,4,1,0,80,0,0
6366,-103.448240190262,4,1,0,80,0,0
6525,-104.166666666667,4,1,0,80,0,0
6684,-104.895141571728,4,1,0,80,0,0
6842,-105.633765621914,4,1,0,80,0,0
7001,-106.382978723404,4,1,0,80,0,0
7080,-106.761527842873,4,1,0,80,0,0
7160,-107.142895408177,4,1,0,80,0,0
7319,-107.913630246896,4,1,0,80,0,0
7398,-108.303288196133,4,1,0,80,0,0
7477,-108.695652173913,4,1,0,80,0,0
7636,-109.489091054413,4,1,0,80,0,0
7716,-109.89010989011,4,1,0,80,0,0
7795,-110.294077097766,4,1,0,80,0,0
7953,-111.111111111111,4,1,0,80,0,0
8113,-100,4,1,0,80,0,0
8192,-100.502512562814,4,1,0,80,0,0
8271,-101.010101010101,4,1,0,80,0,0
8350,-101.522842639594,4,1,0,80,0,0
8430,-102.040816326531,4,1,0,80,0,0
8747,-102.564102564103,4,1,0,80,0,0
8906,-103.092783505155,4,1,0,80,0,0
9065,-103.626943005181,4,1,0,80,0,0
9223,-104.166666666667,4,1,0,80,0,0
9382,-104.712041884817,4,1,0,80,0,0
9541,-105.263157894737,4,1,0,80,0,0
9620,-105.820105820106,4,1,0,80,0,0
9699,-106.382978723404,4,1,0,80,0,0
9858,-106.951871657754,4,1,0,80,0,0
10017,-107.52688172043,4,1,0,80,0,0
10176,-108.108108108108,4,1,0,80,0,0
10255,-108.695652173913,4,1,0,80,0,0
10335,-109.289617486339,4,1,0,80,0,0
10414,-109.89010989011,4,1,0,80,0,0
10493,-111.111111111111,4,1,0,80,0,0
10652,-100,4,1,0,80,0,0
36684,-101.851870713309,4,1,0,80,0,0
36763,-102.325552839381,4,1,0,80,0,0
36843,-102.803767141243,4,1,0,80,0,0
36922,-103.286365580025,4,1,0,80,0,0
37001,-103.773624065519,4,1,0,80,0,0
37160,-104.76195464855,4,1,0,80,0,0
37240,-105.263157894737,4,1,0,80,0,0
37319,-105.769179918663,4,1,0,80,0,0
37478,-106.79607503065,4,1,0,80,0,0
37636,-107.843105536342,4,1,0,80,0,0
37795,-108.9108695226,4,1,0,80,0,0
37954,-109.999989000001,4,1,0,80,0,0
38113,-111.111111111111,4,1,0,80,0,0
38433,-90.9090909090909,4,1,0,90,0,1
38589,-100,4,1,0,90,0,1
48589,-90.9472060563563,4,1,0,90,0,1
48747,-100,4,1,0,90,0,1
57160,-100,4,1,0,90,0,1
57319,-99.0990901712531,4,1,0,90,0,1
57398,-98.6547439120158,4,1,0,90,0,1
57478,-98.2142681760236,4,1,0,90,0,1
57557,-97.7778038518588,4,1,0,90,0,1
57636,-97.3451068995291,4,1,0,90,0,1
57795,-96.4911942136161,4,1,0,90,0,1
57954,-95.6521323251599,4,1,0,90,0,1
58033,-95.2380952380952,4,1,0,90,0,1
58113,-94.8276270808737,4,1,0,90,0,1
58271,-94.0171261597012,4,1,0,90,0,1
58430,-93.2203626831431,4,1,0,90,0,1
58509,-92.8269807189078,4,1,0,90,0,1
58589,-92.4369903255446,4,1,0,90,0,1
58668,-92.0501783932457,4,1,0,90,0,1
58747,-91.6666743055562,4,1,0,90,0,1
58909,-90.9090909090909,4,1,0,80,0,0
59065,-91.8324241923338,4,1,0,80,0,0
59144,-92.301160225584,4,1,0,80,0,0
59224,-92.7747059041823,4,1,0,80,0,0
59382,-93.7365253744774,4,1,0,80,0,0
59700,-95.7212596917775,4,1,0,80,0,0
59779,-96.230553008119,4,1,0,80,0,0
59859,-96.745388389199,4,1,0,80,0,0
60017,-97.7917641732049,4,1,0,80,0,0
60176,-100,4,1,0,80,0,0
67795,-99.290780141844,4,1,0,80,0,0
67874,-98.5915492957747,4,1,0,80,0,0
67954,-97.9020979020979,4,1,0,80,0,0
68033,-97.2222222222222,4,1,0,80,0,0
68113,-96.551724137931,4,1,0,80,0,0
68271,-95.8904109589041,4,1,0,80,0,0
68430,-95.2380952380952,4,1,0,80,0,0
68589,-93.9597315436242,4,1,0,80,0,0
68668,-93.3333333333333,4,1,0,80,0,0
68747,-92.7152317880795,4,1,0,80,0,0
68827,-92.1052631578947,4,1,0,80,0,0
68906,-91.5032679738562,4,1,0,80,0,0
69065,-90.9090909090909,4,1,0,80,0,0
69382,-100,4,1,0,80,0,0
73509,-102.040816326531,4,1,0,80,0,0
73615,-104.166666666667,4,1,0,80,0,0
73721,-106.382978723404,4,1,0,80,0,0
73827,-108.695652173913,4,1,0,80,0,0
73933,-111.111111111111,4,1,0,80,0,0
74038,-113.636363636364,4,1,0,80,0,0
74147,317.460317460317,4,1,0,80,1,8
74153,365.853658536585,4,1,0,80,1,0
75613,-83.3333333333333,4,1,0,80,0,0
76710,-87.3362445414847,4,1,0,80,0,0
76802,-88.1057268722467,4,1,0,80,0,0
76893,-89.2857142857143,4,1,0,80,0,0
76985,-90.0900900900901,4,1,0,80,0,0
77076,-90.9090909090909,4,1,0,80,0,0
100765,-92.7097674375484,4,1,0,80,0,0
101040,-94.583219045277,4,1,0,80,0,0
101223,-95.8747951874688,4,1,0,80,0,0
101497,-97.8797293038206,4,1,0,80,0,0
101771,-99.970308818281,4,1,0,80,0,0
101954,-101.414427013558,4,1,0,80,0,0
102229,-103.660458096296,4,1,0,80,0,0
102503,-106.008228358685,4,1,0,80,0,0
102686,-107.633357730228,4,1,0,80,0,0
102778,-108.464810761445,4,1,0,80,0,0
102869,-109.309090034618,4,1,0,80,0,0
102960,-110.16673735699,4,1,0,80,0,0
103052,-111.03794943998,4,1,0,80,0,0
103418,-90.9090909090909,4,1,0,80,0,0
115128,317.460317460317,4,1,0,80,1,0
115128,-104.712041884817,4,1,0,80,0,0
115759,-111.111111111111,4,1,0,80,0,0
119886,-109.58904109589,4,1,0,80,0,0
120045,-108.108108108108,4,1,0,80,0,0
120125,-106.666666666667,4,1,0,80,0,0
120204,-105.263157894737,4,1,0,80,0,0
124966,-103.896103896104,4,1,0,80,0,0
125124,-102.564102564103,4,1,0,80,0,0
125204,-101.26582278481,4,1,0,80,0,0
125283,-100,4,1,0,80,0,0
129728,-83.3333333333333,4,1,0,80,0,0
130366,317.460317460317,4,1,0,80,1,8
130996,317.460317460317,4,1,0,80,1,0
130996,-111.111111111111,4,1,0,80,0,0
140675,-108.108108108108,4,1,0,80,0,0
140834,-105.263157894737,4,1,0,80,0,0
140993,-102.564102564103,4,1,0,80,0,0
141151,-100,4,1,0,80,0,0
149088,-98.7685536728074,4,1,0,80,0,0
149246,-98.1642307212813,4,1,0,80,0,0
149326,-97.864786096937,4,1,0,80,0,0
149405,-97.5671627956895,4,1,0,80,0,0
149485,-97.271344251069,4,1,0,80,0,0
149564,-96.9773140969133,4,1,0,80,0,0
149723,-96.3945544788284,4,1,0,80,0,0
149881,-95.8188487173689,4,1,0,80,0,0
150040,-95.2498880813815,4,1,0,80,0,0
150119,-94.9679340770589,4,1,0,80,0,0
150199,-94.6876443986577,4,1,0,80,0,0
150278,-94.4090043531992,4,1,0,80,0,0
150358,-94.1319994201469,4,1,0,80,0,0
150516,-93.5829252337935,4,1,0,80,0,0
150675,-93.0401328613097,4,1,0,80,0,0
150754,-92.7710910436933,4,1,0,80,0,0
150834,-92.5036007026573,4,1,0,80,0,0
150913,-92.2376484564952,4,1,0,80,0,0
150992,-91.9732210769512,4,1,0,80,0,0
151072,-91.7103054870276,4,1,0,80,0,0
151151,-91.4489723878973,4,1,0,80,0,0
151310,-90.9305835924855,4,1,0,80,0,0
151627,-100,4,1,0,80,0,0
156707,-105.263157894737,4,1,0,80,0,0
157024,-111.111111111111,4,1,0,80,0,0
160675,-111.111111111111,4,1,0,80,0,0
160992,-106.420452308206,4,1,0,80,0,0
161151,-104.220513932198,4,1,0,80,0,0
161231,-103.154357085312,4,1,0,80,0,0
161310,-102.109688269333,4,1,0,80,0,0
161389,-101.086068722353,4,1,0,80,0,0
161469,-100.082668284003,4,1,0,80,0,0
162739,-101.694949727102,4,1,0,80,0,0
162818,-102.564102564103,4,1,0,80,0,0
162897,-103.448240190262,4,1,0,80,0,0
162977,-104.347862381865,4,1,0,80,0,0
163056,-105.263157894737,4,1,0,80,0,0
163135,-106.194652674459,4,1,0,80,0,0
163215,-107.142895408177,4,1,0,80,0,0
163373,-109.090869421502,4,1,0,80,0,0
163532,-111.111111111111,4,1,0,80,0,0
163853,-90.9090909090909,4,1,0,90,0,1
164008,-100,4,1,0,90,0,1
169405,-90.9090909090909,4,1,0,90,0,1
169564,-100,4,1,0,90,0,1
169723,-90.9090909090909,4,1,0,90,0,1
170040,-100,4,1,0,90,0,1
170675,-90.9090909090909,4,1,0,90,0,1
170834,-100,4,1,0,90,0,1
170993,-90.9090909090909,4,1,0,90,0,1
171310,-100,4,1,0,90,0,1
174008,-90.9090909090909,4,1,0,90,0,1
174167,-100,4,1,0,90,0,1
179564,-90.9090909090909,4,1,0,90,0,1
179723,-100,4,1,0,90,0,1
179882,-90.9090909090909,4,1,0,90,0,1
180199,-100,4,1,0,90,0,1
180834,-90.9090909090909,4,1,0,90,0,1
180993,-100,4,1,0,90,0,1
181152,-90.9090909090909,4,1,0,90,0,1
181469,-100,4,1,0,90,0,1
184170,-100,4,1,0,80,0,0
184326,-111.111111111111,4,1,0,80,0,0
192580,-107.44935643208,4,1,0,80,0,0
192659,-106.571292464664,4,1,0,80,0,0
192739,-105.707574793395,4,1,0,80,0,0
192897,-104.02125362254,4,1,0,80,0,0
192977,-103.198109410636,4,1,0,80,0,0
193056,-102.387995212337,4,1,0,80,0,0
193215,-100.805130577926,4,1,0,80,0,0
193294,-100.031910179347,4,1,0,80,0,0
193373,-99.2705599256662,4,1,0,80,0,0
193532,-97.7819150392497,4,1,0,80,0,0
193612,-97.054304795162,4,1,0,80,0,0
193691,-96.3373502797155,4,1,0,80,0,0
193850,-94.9347560888779,4,1,0,80,0,0
193929,-94.2487526177591,4,1,0,80,0,0
194008,-93.5725046552321,4,1,0,80,0,0
194167,-92.248709901792,4,1,0,80,0,0
194329,-90.9619315220387,4,1,0,90,0,1
201945,-90.9090909090909,4,1,0,90,0,1
202104,-100,4,1,0,90,0,1
206548,-102.040816326531,4,1,0,90,0,1
206707,-104.166666666667,4,1,0,90,0,1
206866,-106.382978723404,4,1,0,90,0,1
207024,-108.695652173913,4,1,0,90,0,1
207186,-111.111111111111,4,1,0,80,0,0
212897,-109.433974652903,4,1,0,80,0,0
213056,-108.614191530265,4,1,0,80,0,0
213215,-107.806715495922,4,1,0,80,0,0
213373,-107.011042469472,4,1,0,80,0,0
213453,-106.61765097859,4,1,0,80,0,0
213532,-106.227141247043,4,1,0,80,0,0
213691,-105.454530115705,4,1,0,80,0,0
213850,-104.693186148673,4,1,0,80,0,0
214008,-103.942648604206,4,1,0,80,0,0
214088,-103.571454464292,4,1,0,80,0,0
214167,-103.202795557326,4,1,0,80,0,0
214326,-102.473505475159,4,1,0,80,0,0
214485,-101.754346691305,4,1,0,80,0,0
214643,-101.045313770961,4,1,0,80,0,0
214802,-100.345992983808,4,1,0,80,0,0
214961,-99.6563847852604,4,1,0,80,0,0
215119,-98.9760923248989,4,1,0,80,0,0
215278,-98.3051214019097,4,1,0,80,0,0
215358,-97.9729398740068,4,1,0,80,0,0
215437,-97.6430910678053,4,1,0,80,0,0
215596,-96.9900119685675,4,1,0,80,0,0
215754,-96.3455181510139,4,1,0,80,0,0
215913,-95.7095330523301,4,1,0,80,0,0
215992,-95.3947242901679,4,1,0,80,0,0
216072,-95.0819796828826,4,1,0,80,0,0
216231,-94.462513024019,4,1,0,80,0,0
216389,-93.8511539468633,4,1,0,80,0,0
216548,-93.2475704345523,4,1,0,80,0,0
216627,-92.9487239069695,4,1,0,80,0,0
216707,-92.6517867897082,4,1,0,80,0,0
216786,-92.3566555438468,4,1,0,80,0,0
216866,-92.0634832955413,4,1,0,80,0,0
216945,-91.7721664196466,4,1,0,80,0,0
217024,-91.4826873588308,4,1,0,80,0,0
217183,-90.9090909090909,4,1,0,80,0,0

[Colours]
Combo1 : 255,151,151
Combo2 : 255,174,215
Combo3 : 145,251,227
Combo4 : 236,250,182

[HitObjects]
256,192,497,5,0,0:0:0:0:
256,192,576,1,0,0:0:0:0:
256,192,655,1,0,0:0:0:0:
292,173,735,1,0,0:0:0:0:
256,192,814,1,8,0:0:0:0:
256,192,1131,1,8,0:0:0:0:
312,153,1290,1,0,0:0:0:0:
256,192,1449,1,8,0:0:0:0:
256,192,1608,1,8,0:0:0:0:
312,153,1766,1,0,0:0:0:0:
256,192,1925,1,8,0:0:0:0:
256,192,2004,1,0,0:0:0:0:
256,192,2084,1,8,0:0:0:0:
256,192,2243,1,0,0:0:0:0:
302,129,2322,1,0,0:0:0:0:
256,192,2401,1,8,0:0:0:0:
302,129,2560,1,0,0:0:0:0:
302,129,2719,1,0,0:0:0:0:
256,192,2877,1,8,0:0:0:0:
256,192,3036,1,0,0:0:0:0:
256,192,3116,1,0,0:0:0:0:
256,192,3195,1,0,0:0:0:0:
302,129,3274,1,0,0:0:0:0:
256,192,3354,1,8,0:0:0:0:
256,192,3671,1,8,0:0:0:0:
256,192,3830,1,0,0:0:0:0:
256,192,3989,1,8,0:0:0:0:
297,138,4147,1,8,0:0:0:0:
297,138,4306,1,0,0:0:0:0:
256,192,4465,1,0,0:0:0:0:
256,192,4544,1,8,0:0:0:0:
256,192,4623,1,0,0:0:0:0:
256,192,4782,1,0,0:0:0:0:
257,109,4941,1,8,0:0:0:0:
257,109,5100,1,0,0:0:0:0:
270,83,5179,1,0,0:0:0:0:
257,109,5258,1,8,0:0:0:0:
257,109,5417,1,8,0:0:0:0:
256,192,5576,5,0,0:0:0:0:
256,192,5655,1,0,0:0:0:0:
256,192,5735,1,0,0:0:0:0:
292,173,5814,1,0,0:0:0:0:
256,192,5893,1,8,0:0:0:0:
256,192,6211,1,8,0:0:0:0:
312,153,6370,1,0,0:0:0:0:
256,192,6528,1,8,0:0:0:0:
256,192,6687,1,8,0:0:0:0:
312,153,6846,1,0,0:0:0:0:
256,192,7004,1,8,0:0:0:0:
256,192,7084,1,0,0:0:0:0:
256,192,7163,1,8,0:0:0:0:
256,192,7322,1,0,0:0:0:0:
302,129,7401,1,0,0:0:0:0:
256,192,7481,1,8,0:0:0:0:
252,116,7639,1,0,0:0:0:0:
302,129,7719,1,8,0:0:0:0:
302,129,7798,1,0,0:0:0:0:
256,192,7957,1,8,0:0:0:0:
256,192,8116,1,0,0:0:0:0:
256,192,8195,1,0,0:0:0:0:
256,192,8274,1,0,0:0:0:0:
302,129,8354,1,0,0:0:0:0:
256,192,8433,1,8,0:0:0:0:
256,192,8750,1,8,0:0:0:0:
256,192,8909,1,0,0:0:0:0:
256,192,9068,1,8,0:0:0:0:
297,138,9227,1,8,0:0:0:0:
297,138,9385,1,0,0:0:0:0:
256,192,9544,1,0,0:0:0:0:
256,192,9623,1,8,0:0:0:0:
256,192,9703,1,0,0:0:0:0:
256,192,9862,1,0,0:0:0:0:
257,109,10020,1,8,0:0:0:0:
257,109,10179,1,0,0:0:0:0:
257,109,10258,1,0,0:0:0:0:
257,109,10338,1,8,0:0:0:0:
231,71,10417,1,8,0:0:0:0:
257,109,10496,1,8,0:0:0:0:
239,72,10655,1,4,0:0:0:0:
256,192,10973,5,8,0:0:0:0:
214,33,11290,1,0,0:0:0:0:
256,192,11449,1,0,0:0:0:0:
260,68,11766,1,8,0:0:0:0:
256,192,12084,1,0,0:0:0:0:
256,192,12243,1,8,0:0:0:0:
214,33,12401,1,0,0:0:0:0:
249,49,12481,1,0,0:0:0:0:
248,49,12560,1,0,0:0:0:0:
256,192,12719,1,0,0:0:0:0:
256,192,12877,1,8,0:0:0:0:
216,56,13036,1,8,0:0:0:0:
256,192,13195,1,0,0:0:0:0:
256,192,13512,1,8,0:0:0:0:
256,192,13830,1,8,0:0:0:0:
256,192,13989,1,0,0:0:0:0:
256,192,14306,1,8,0:0:0:0:
260,79,14465,1,0,0:0:0:0:
260,79,14544,1,0,0:0:0:0:
256,192,14623,1,8,0:0:0:0:
260,79,14782,1,0,0:0:0:0:
260,79,14941,1,8,0:0:0:0:
260,79,15100,1,0,0:0:0:0:
256,192,15258,1,8,0:0:0:0:
256,192,15417,1,8,0:0:0:0:
256,192,15735,1,0,0:0:0:0:
256,192,16052,1,8,0:0:0:0:
256,192,16370,1,0,0:0:0:0:
256,192,16528,1,8,0:0:0:0:
256,192,16846,1,8,0:0:0:0:
256,192,17163,1,0,0:0:0:0:
256,192,17322,1,8,0:0:0:0:
256,192,17481,1,0,0:0:0:0:
256,192,17560,1,0,0:0:0:0:
237,42,17639,1,8,0:0:0:0:
256,192,17798,1,8,0:0:0:0:
256,192,17877,1,0,0:0:0:0:
256,192,17957,1,8,0:0:0:0:
256,192,18116,1,8,0:0:0:0:
256,192,18274,1,0,0:0:0:0:
226,60,18433,1,0,0:0:0:0:
256,192,18592,1,8,0:0:0:0:
226,60,18909,1,0,0:0:0:0:
256,192,19068,1,0,0:0:0:0:
256,192,19385,1,8,0:0:0:0:
256,192,19544,1,0,0:0:0:0:
250,0,19623,1,0,0:0:0:0:
256,192,19703,1,8,0:0:0:0:
256,192,19862,1,0,0:0:0:0:
256,192,20020,1,8,0:0:0:0:
226,60,20179,1,0,0:0:0:0:
226,60,20258,1,0,0:0:0:0:
226,60,20338,1,0,0:0:0:0:
269,24,20417,1,0,0:0:0:0:
256,192,20496,1,8,0:0:0:0:
234,50,20655,1,8,0:0:0:0:
256,96,20814,5,4,0:0:0:0:
236,37,21131,1,8,0:0:0:0:
256,192,21290,1,0,0:0:0:0:
236,37,21370,1,0,0:0:0:0:
256,192,21449,1,8,0:0:0:0:
256,192,21608,1,0,0:0:0:0:
236,37,21766,1,8,0:0:0:0:
256,192,21925,1,8,0:0:0:0:
236,37,22084,1,0,0:0:0:0:
236,37,22322,1,0,0:0:0:0:
236,37,22401,1,8,0:0:0:0:
256,192,22560,1,8,0:0:0:0:
256,192,22719,1,0,0:0:0:0:
256,192,22877,1,8,0:0:0:0:
256,192,23036,1,8,0:0:0:0:
256,192,23354,1,0,0:0:0:0:
256,192,23671,1,8,0:0:0:0:
256,192,23989,1,0,0:0:0:0:
256,192,24147,1,0,0:0:0:0:
256,192,24465,1,8,0:0:0:0:
211,31,24623,1,0,0:0:0:0:
211,31,24703,1,0,0:0:0:0:
256,192,24782,1,8,0:0:0:0:
211,31,24941,1,0,0:0:0:0:
211,31,25100,1,8,0:0:0:0:
211,31,25258,1,0,0:0:0:0:
256,192,25417,1,8,0:0:0:0:
256,192,25576,1,8,0:0:0:0:
256,192,25893,1,0,0:0:0:0:
256,192,26211,1,8,0:0:0:0:
256,192,26528,1,0,0:0:0:0:
256,192,26687,1,8,0:0:0:0:
256,192,27004,1,8,0:0:0:0:
256,192,27322,1,0,0:0:0:0:
256,192,27481,1,8,0:0:0:0:
256,192,27639,1,0,0:0:0:0:
250,119,27719,1,0,0:0:0:0:
256,192,27798,1,8,0:0:0:0:
256,192,27957,1,8,0:0:0:0:
256,192,28036,1,0,0:0:0:0:
256,192,28116,1,8,0:0:0:0:
256,192,28274,1,8,0:0:0:0:
256,192,28433,1,0,0:0:0:0:
250,119,28592,1,0,0:0:0:0:
250,119,28750,1,8,0:0:0:0:
256,192,29068,1,8,0:0:0:0:
256,192,29227,1,0,0:0:0:0:
256,192,29544,1,8,0:0:0:0:
256,192,29862,1,0,0:0:0:0:
256,192,30020,1,8,0:0:0:0:
254,100,30179,1,0,0:0:0:0:
254,100,30258,1,8,0:0:0:0:
256,192,30338,1,0,0:0:0:0:
256,192,30496,1,8,0:0:0:0:
256,192,30655,1,8,0:0:0:0:
256,192,30814,1,8,0:0:0:0:
256,192,30893,1,8,0:0:0:0:
256,192,30973,1,0,0:0:0:0:
256,192,31290,1,8,0:0:0:0:
256,192,31449,1,8,0:0:0:0:
256,192,31528,1,0,0:0:0:0:
256,192,31608,1,8,0:0:0:0:
256,192,31766,1,0,0:0:0:0:
256,192,31925,1,8,0:0:0:0:
283,102,32084,1,8,0:0:0:0:
256,192,32243,1,0,0:0:0:0:
256,192,32401,1,0,0:0:0:0:
256,192,32560,1,8,0:0:0:0:
283,102,32719,1,0,0:0:0:0:
283,102,32798,1,8,0:0:0:0:
283,102,32877,1,0,0:0:0:0:
283,102,33036,1,0,0:0:0:0:
256,192,33195,1,8,0:0:0:0:
283,102,33354,1,8,0:0:0:0:
283,102,33512,1,0,0:0:0:0:
256,192,33830,1,8,0:0:0:0:
256,192,33989,1,0,0:0:0:0:
256,192,34068,1,8,0:0:0:0:
256,192,34147,1,0,0:0:0:0:
268,106,34306,1,0,0:0:0:0:
256,192,34465,1,8,0:0:0:0:
197,39,34623,1,0,0:0:0:0:
256,192,34782,1,8,0:0:0:0:
256,192,34941,1,0,0:0:0:0:
256,192,35100,1,8,0:0:0:0:
225,44,35258,1,8,0:0:0:0:
275,80,35338,1,0,0:0:0:0:
225,44,35417,1,8,0:0:0:0:
225,44,35576,1,0,0:0:0:0:
256,192,35735,1,8,0:0:0:0:
166,58,35893,1,8,0:0:0:0:
256,96,36052,5,4,0:0:0:0:
256,192,36370,1,4,0:0:0:0:
256,192,36687,1,0,0:0:0:0:
256,192,36766,1,0,0:0:0:0:
256,192,36846,1,8,0:0:0:0:
201,39,36925,1,0,0:0:0:0:
256,192,37004,1,8,0:0:0:0:
256,192,37163,1,0,0:0:0:0:
256,192,37243,1,0,0:0:0:0:
256,192,37322,1,8,0:0:0:0:
256,192,37481,1,8,0:0:0:0:
256,192,37639,1,0,0:0:0:0:
256,192,37798,1,0,0:0:0:0:
256,192,37957,1,8,0:0:0:0:
256,192,38116,1,8,0:0:0:0:
256,96,38433,5,12,0:0:0:0:
256,192,38750,1,0,0:0:0:0:
256,192,38909,1,8,0:0:0:0:
256,192,39227,1,0,0:0:0:0:
256,192,39385,1,0,0:0:0:0:
256,192,39544,1,8,0:0:0:0:
268,106,39703,1,0,0:0:0:0:
268,106,39782,1,8,0:0:0:0:
256,192,39862,1,0,0:0:0:0:
256,192,40020,1,0,0:0:0:0:
256,192,40179,1,8,0:0:0:0:
256,192,40338,1,0,0:0:0:0:
268,106,40417,1,0,0:0:0:0:
256,192,40496,1,8,0:0:0:0:
268,106,40655,1,0,0:0:0:0:
256,192,40814,1,8,0:0:0:0:
256,96,40973,5,4,0:0:0:0:
256,192,41290,1,0,0:0:0:0:
256,192,41449,1,8,0:0:0:0:
256,192,41766,1,0,0:0:0:0:
256,192,41925,1,0,0:0:0:0:
256,192,42084,1,8,0:0:0:0:
256,192,42243,1,0,0:0:0:0:
268,106,42322,1,0,0:0:0:0:
268,106,42401,1,8,0:0:0:0:
256,192,42560,1,0,0:0:0:0:
256,192,42719,1,8,0:0:0:0:
268,106,42877,1,8,0:0:0:0:
268,106,42957,1,8,0:0:0:0:
268,106,43036,1,0,0:0:0:0:
256,192,43195,1,0,0:0:0:0:
256,192,43354,1,8,0:0:0:0:
256,96,43512,5,4,0:0:0:0:
256,192,43830,1,0,0:0:0:0:
256,192,43989,1,8,0:0:0:0:
235,72,44147,1,0,0:0:0:0:
235,72,44227,1,0,0:0:0:0:
256,192,44306,1,8,0:0:0:0:
256,192,44465,1,0,0:0:0:0:
256,192,44623,1,8,0:0:0:0:
235,72,44782,1,0,0:0:0:0:
283,187,44862,1,8,0:0:0:0:
235,72,44941,1,0,0:0:0:0:
256,192,45100,1,0,0:0:0:0:
256,192,45258,1,8,0:0:0:0:
235,72,45417,1,8,0:0:0:0:
235,72,45496,1,8,0:0:0:0:
256,192,45576,1,8,0:0:0:0:
235,72,45735,1,0,0:0:0:0:
256,192,45893,1,8,0:0:0:0:
256,96,46052,5,4,0:0:0:0:
245,89,46370,1,0,0:0:0:0:
256,192,46528,1,8,0:0:0:0:
256,192,46687,1,0,0:0:0:0:
256,192,46846,1,0,0:0:0:0:
245,89,46925,1,0,0:0:0:0:
256,192,47004,1,8,0:0:0:0:
256,192,47163,1,0,0:0:0:0:
245,89,47322,1,8,0:0:0:0:
245,89,47401,1,0,0:0:0:0:
256,192,47481,1,0,0:0:0:0:
245,89,47639,1,8,0:0:0:0:
256,192,47798,1,0,0:0:0:0:
256,192,47957,1,0,0:0:0:0:
256,192,48036,1,0,0:0:0:0:
256,192,48116,1,8,0:0:0:0:
190,33,48195,1,0,0:0:0:0:
256,192,48274,1,8,0:0:0:0:
256,192,48433,1,0,0:0:0:0:
256,96,48592,5,12,0:0:0:0:
256,192,48909,1,0,0:0:0:0:
256,192,49068,1,8,0:0:0:0:
256,192,49385,1,0,0:0:0:0:
256,192,49544,1,0,0:0:0:0:
256,192,49703,1,8,0:0:0:0:
203,187,49862,1,0,0:0:0:0:
283,72,49941,1,8,0:0:0:0:
283,72,50020,1,0,0:0:0:0:
256,192,50179,1,0,0:0:0:0:
256,192,50338,1,8,0:0:0:0:
256,192,50496,1,0,0:0:0:0:
203,187,50576,1,0,0:0:0:0:
256,192,50655,1,8,0:0:0:0:
281,177,50735,1,8,0:0:0:0:
281,177,50814,1,0,0:0:0:0:
256,192,50973,1,8,0:0:0:0:
256,96,51131,5,4,0:0:0:0:
256,192,51449,1,0,0:0:0:0:
256,192,51608,1,8,0:0:0:0:
256,192,51925,1,0,0:0:0:0:
256,192,52084,1,0,0:0:0:0:
256,192,52243,1,8,0:0:0:0:
256,192,52401,1,0,0:0:0:0:
283,72,52481,1,0,0:0:0:0:
283,72,52560,1,8,0:0:0:0:
283,72,52639,1,8,0:0:0:0:
283,72,52719,1,0,0:0:0:0:
283,72,52877,1,8,0:0:0:0:
256,192,53036,1,0,0:0:0:0:
283,72,53116,1,8,0:0:0:0:
256,192,53195,1,0,0:0:0:0:
283,72,53354,1,0,0:0:0:0:
256,192,53512,1,8,0:0:0:0:
256,96,53671,5,4,0:0:0:0:
256,192,53989,1,0,0:0:0:0:
256,192,54147,1,8,0:0:0:0:
283,72,54306,1,0,0:0:0:0:
283,72,54385,1,0,0:0:0:0:
256,192,54465,1,8,0:0:0:0:
256,192,54623,1,0,0:0:0:0:
256,192,54782,1,8,0:0:0:0:
283,187,54941,1,8,0:0:0:0:
283,187,55020,1,8,0:0:0:0:
283,187,55100,1,8,0:0:0:0:
283,187,55258,1,0,0:0:0:0:
283,187,55417,1,8,0:0:0:0:
256,192,55576,1,0,0:0:0:0:
283,187,55655,1,0,0:0:0:0:
256,192,55735,1,8,0:0:0:0:
283,187,55893,1,0,0:0:0:0:
256,192,56052,1,8,0:0:0:0:
256,96,56211,5,4,0:0:0:0:
283,187,56528,1,0,0:0:0:0:
256,192,56687,1,8,0:0:0:0:
260,175,56846,1,0,0:0:0:0:
260,175,56925,1,0,0:0:0:0:
260,175,57004,1,8,0:0:0:0:
260,175,57163,1,0,0:0:0:0:
256,192,57322,1,8,0:0:0:0:
256,192,57401,1,8,0:0:0:0:
256,192,57481,1,8,0:0:0:0:
192,18,57560,1,8,0:0:0:0:
283,187,57639,1,0,0:0:0:0:
256,192,57798,1,8,0:0:0:0:
256,192,57957,1,8,0:0:0:0:
260,175,58036,1,8,0:0:0:0:
256,192,58116,1,0,0:0:0:0:
256,192,58274,1,0,0:0:0:0:
272,125,58433,1,0,0:0:0:0:
272,125,58512,1,0,0:0:0:0:
272,125,58592,1,8,0:0:0:0:
272,125,58671,1,8,0:0:0:0:
256,192,58750,1,8,0:0:0:0:
256,96,58909,5,4,0:0:0:0:
256,77,59068,1,0,0:0:0:0:
256,77,59147,1,0,0:0:0:0:
256,77,59227,1,8,0:0:0:0:
256,192,59385,1,0,0:0:0:0:
256,192,59703,1,0,0:0:0:0:
256,192,59782,1,0,0:0:0:0:
256,192,59862,1,8,0:0:0:0:
256,192,60020,1,8,0:0:0:0:
256,192,60338,1,0,0:0:0:0:
256,192,60496,1,8,0:0:0:0:
256,192,60655,1,0,0:0:0:0:
256,192,60735,1,8,0:0:0:0:
256,192,60814,1,0,0:0:0:0:
256,192,60973,1,0,0:0:0:0:
256,192,61131,1,8,0:0:0:0:
153,8,61290,1,8,0:0:0:0:
256,192,61449,1,0,0:0:0:0:
222,23,61528,1,0,0:0:0:0:
256,192,61608,1,0,0:0:0:0:
265,183,61687,1,0,0:0:0:0:
256,192,61766,1,8,0:0:0:0:
256,192,61925,1,0,0:0:0:0:
256,192,62243,1,0,0:0:0:0:
256,192,62322,1,0,0:0:0:0:
256,192,62401,1,8,0:0:0:0:
247,47,62560,1,0,0:0:0:0:
247,47,62719,1,8,0:0:0:0:
256,192,62798,1,0,0:0:0:0:
256,192,62877,1,0,0:0:0:0:
256,192,62957,1,0,0:0:0:0:
256,192,63036,1,8,0:0:0:0:
242,61,63195,1,0,0:0:0:0:
256,192,63354,1,8,0:0:0:0:
256,192,63433,1,8,0:0:0:0:
256,192,63512,1,0,0:0:0:0:
256,192,63592,1,0,0:0:0:0:
256,192,63671,1,8,0:0:0:0:
222,23,63830,1,8,0:0:0:0:
256,192,63989,1,4,0:0:0:0:
222,23,64147,1,0,0:0:0:0:
222,23,64227,1,0,0:0:0:0:
222,23,64306,1,8,0:0:0:0:
256,192,64465,1,0,0:0:0:0:
222,23,64782,1,0,0:0:0:0:
222,23,64862,1,0,0:0:0:0:
256,192,64941,1,8,0:0:0:0:
256,192,65100,1,8,0:0:0:0:
256,192,65417,1,0,0:0:0:0:
256,192,65576,1,8,0:0:0:0:
256,192,65735,1,0,0:0:0:0:
256,192,65814,1,8,0:0:0:0:
256,192,65893,1,0,0:0:0:0:
256,192,66052,1,0,0:0:0:0:
256,192,66211,1,8,0:0:0:0:
222,23,66370,1,8,0:0:0:0:
222,23,66528,1,0,0:0:0:0:
222,23,66608,1,0,0:0:0:0:
222,23,66687,1,0,0:0:0:0:
242,36,66766,1,0,0:0:0:0:
256,192,66846,1,8,0:0:0:0:
256,192,67004,1,0,0:0:0:0:
256,192,67322,1,0,0:0:0:0:
256,192,67401,1,0,0:0:0:0:
256,192,67481,1,8,0:0:0:0:
247,47,67639,1,0,0:0:0:0:
247,47,67798,1,8,0:0:0:0:
256,192,67877,1,0,0:0:0:0:
256,192,67957,1,0,0:0:0:0:
256,192,68036,1,0,0:0:0:0:
247,47,68116,1,8,0:0:0:0:
247,47,68274,1,0,0:0:0:0:
247,47,68433,1,8,0:0:0:0:
256,192,68592,1,0,0:0:0:0:
247,47,68671,1,0,0:0:0:0:
256,192,68750,1,8,0:0:0:0:
256,192,68830,1,8,0:0:0:0:
256,192,68909,1,8,0:0:0:0:
256,96,69068,5,4,0:0:0:0:
256,192,69385,1,8,0:0:0:0:
247,47,69544,1,0,0:0:0:0:
263,54,69623,1,0,0:0:0:0:
247,47,69703,1,0,0:0:0:0:
247,47,69862,1,0,0:0:0:0:
256,192,70020,1,8,0:0:0:0:
247,47,70179,1,0,0:0:0:0:
247,47,70258,1,8,0:0:0:0:
247,47,70338,1,0,0:0:0:0:
247,47,70496,1,0,0:0:0:0:
256,192,70655,1,8,0:0:0:0:
256,192,70814,1,0,0:0:0:0:
247,47,70893,1,0,0:0:0:0:
247,47,70973,1,8,0:0:0:0:
256,192,71131,1,0,0:0:0:0:
256,192,71290,1,8,0:0:0:0:
247,47,71449,1,8,0:0:0:0:
256,192,71608,1,0,0:0:0:0:
256,192,71925,1,8,0:0:0:0:
247,47,72084,1,8,0:0:0:0:
256,192,72243,1,0,0:0:0:0:
256,192,72401,1,0,0:0:0:0:
256,192,72560,1,8,0:0:0:0:
256,192,72719,1,0,0:0:0:0:
156,12,72798,1,0,0:0:0:0:
256,192,72877,1,8,0:0:0:0:
256,192,73036,1,0,0:0:0:0:
256,192,73195,1,8,0:0:0:0:
256,192,73354,1,8,0:0:0:0:
216,48,73512,1,0,0:0:0:0:
256,192,73618,1,8,0:0:0:0:
256,31,73724,1,8,0:0:0:0:
256,192,73830,1,8,0:0:0:0:
243,19,73936,1,8,0:0:0:0:
256,192,74041,1,8,0:0:0:0:
256,192,74153,1,4,0:0:0:0:
256,96,75616,5,4,0:0:0:0:
256,96,75890,5,4,0:0:0:0:
256,96,76165,5,4,0:0:0:0:
256,96,76348,5,12,0:0:0:0:
256,192,76713,1,8,0:0:0:0:
256,192,76805,1,8,0:0:0:0:
256,192,76896,1,8,0:0:0:0:
102,105,76988,1,8,0:0:0:0:
256,192,77079,1,0,0:0:0:0:
256,192,77354,1,8,0:0:0:0:
256,192,77445,1,0,0:0:0:0:
256,192,77628,1,8,0:0:0:0:
256,192,77811,1,0,0:0:0:0:
291,131,78085,1,8,0:0:0:0:
194,22,78177,1,0,0:0:0:0:
256,192,78360,1,8,0:0:0:0:
194,22,78543,1,8,0:0:0:0:
256,192,78817,1,8,0:0:0:0:
194,22,78909,1,0,0:0:0:0:
256,192,79092,1,8,0:0:0:0:
256,192,79274,1,0,0:0:0:0:
194,22,79457,1,8,0:0:0:0:
194,22,79549,1,8,0:0:0:0:
194,22,79640,1,8,0:0:0:0:
194,22,79823,1,8,0:0:0:0:
194,22,80006,1,0,0:0:0:0:
256,192,80372,1,0,0:0:0:0:
256,192,80555,1,8,0:0:0:0:
194,22,80738,1,0,0:0:0:0:
231,85,81012,1,8,0:0:0:0:
194,22,81104,1,0,0:0:0:0:
194,22,81287,1,8,0:0:0:0:
194,22,81470,1,8,0:0:0:0:
261,30,81561,1,8,0:0:0:0:
256,192,81744,1,8,0:0:0:0:
256,192,81835,1,0,0:0:0:0:
256,192,82018,1,8,0:0:0:0:
245,61,82201,1,0,0:0:0:0:
246,16,82384,1,0,0:0:0:0:
256,192,82476,1,8,0:0:0:0:
256,192,82567,1,0,0:0:0:0:
246,16,82750,1,8,0:0:0:0:
246,16,82933,1,0,0:0:0:0:
261,30,83299,1,0,0:0:0:0:
256,192,83482,1,8,0:0:0:0:
256,192,83665,1,0,0:0:0:0:
248,90,83939,1,8,0:0:0:0:
261,30,84031,1,0,0:0:0:0:
256,192,84213,1,8,0:0:0:0:
136,137,84396,1,8,0:0:0:0:
136,137,84579,1,0,0:0:0:0:
256,192,84671,1,8,0:0:0:0:
136,137,84762,1,0,0:0:0:0:
256,192,84945,1,8,0:0:0:0:
256,192,85128,1,0,0:0:0:0:
136,137,85311,1,0,0:0:0:0:
256,192,85402,1,8,0:0:0:0:
136,137,85494,1,8,0:0:0:0:
256,192,85677,1,8,0:0:0:0:
136,137,85860,1,0,0:0:0:0:
256,192,86226,1,0,0:0:0:0:
256,192,86409,1,8,0:0:0:0:
256,192,86592,1,0,0:0:0:0:
197,16,86866,1,8,0:0:0:0:
136,137,86957,1,0,0:0:0:0:
256,192,87140,1,8,0:0:0:0:
136,137,87323,1,8,0:0:0:0:
136,137,87506,1,0,0:0:0:0:
136,137,87598,1,8,0:0:0:0:
136,137,87689,1,0,0:0:0:0:
256,192,87872,1,8,0:0:0:0:
256,192,87963,1,8,0:0:0:0:
256,192,88055,1,0,0:0:0:0:
256,192,88238,1,0,0:0:0:0:
136,137,88421,1,8,0:0:0:0:
136,137,88512,1,8,0:0:0:0:
136,137,88604,1,8,0:0:0:0:
136,137,88695,1,8,0:0:0:0:
165,45,88787,1,0,0:0:0:0:
256,192,89061,1,8,0:0:0:0:
256,192,89152,1,0,0:0:0:0:
256,192,89335,1,8,0:0:0:0:
256,192,89518,1,0,0:0:0:0:
202,5,89793,1,8,0:0:0:0:
194,22,89884,1,0,0:0:0:0:
256,192,90067,1,8,0:0:0:0:
194,22,90250,1,8,0:0:0:0:
256,192,90524,1,8,0:0:0:0:
194,22,90616,1,0,0:0:0:0:
256,192,90799,1,8,0:0:0:0:
256,192,90982,1,0,0:0:0:0:
194,22,91165,1,8,0:0:0:0:
194,22,91256,1,8,0:0:0:0:
194,22,91348,1,8,0:0:0:0:
194,22,91531,1,8,0:0:0:0:
194,22,91713,1,0,0:0:0:0:
256,192,92079,1,0,0:0:0:0:
256,192,92262,1,8,0:0:0:0:
194,22,92445,1,0,0:0:0:0:
172,57,92720,1,8,0:0:0:0:
194,22,92811,1,0,0:0:0:0:
194,22,92994,1,8,0:0:0:0:
194,22,93177,1,8,0:0:0:0:
261,30,93268,1,8,0:0:0:0:
256,192,93451,1,8,0:0:0:0:
256,192,93543,1,0,0:0:0:0:
256,192,93726,1,8,0:0:0:0:
245,61,93909,1,0,0:0:0:0:
246,16,94092,1,0,0:0:0:0:
256,192,94183,1,8,0:0:0:0:
256,192,94274,1,0,0:0:0:0:
246,16,94457,1,8,0:0:0:0:
246,16,94640,1,0,0:0:0:0:
261,30,95006,1,0,0:0:0:0:
256,192,95189,1,8,0:0:0:0:
256,192,95372,1,0,0:0:0:0:
235,34,95646,1,8,0:0:0:0:
261,30,95738,1,0,0:0:0:0:
256,192,95921,1,8,0:0:0:0:
136,137,96104,1,8,0:0:0:0:
136,137,96287,1,0,0:0:0:0:
256,192,96378,1,8,0:0:0:0:
136,137,96470,1,0,0:0:0:0:
256,192,96652,1,8,0:0:0:0:
256,192,96835,1,0,0:0:0:0:
136,137,97018,1,0,0:0:0:0:
256,192,97110,1,8,0:0:0:0:
136,137,97201,1,8,0:0:0:0:
256,192,97384,1,8,0:0:0:0:
136,137,97567,1,0,0:0:0:0:
256,192,97933,1,0,0:0:0:0:
256,192,98116,1,8,0:0:0:0:
256,192,98299,1,0,0:0:0:0:
266,50,98573,1,8,0:0:0:0:
136,137,98665,1,0,0:0:0:0:
256,192,98848,1,8,0:0:0:0:
136,137,99031,1,8,0:0:0:0:
136,137,99213,1,0,0:0:0:0:
136,137,99305,1,8,0:0:0:0:
136,137,99396,1,0,0:0:0:0:
256,192,99579,1,8,0:0:0:0:
256,192,99671,1,8,0:0:0:0:
256,192,99762,1,0,0:0:0:0:
256,192,99945,1,0,0:0:0:0:
136,137,100128,1,8,0:0:0:0:
136,137,100220,1,8,0:0:0:0:
136,137,100311,1,8,0:0:0:0:
136,137,100402,5,8,0:0:0:0:
256,192,100494,1,0,0:0:0:0:
256,192,100768,5,8,0:0:0:0:
256,192,101043,1,0,0:0:0:0:
256,192,101226,1,0,0:0:0:0:
256,192,101500,1,8,0:0:0:0:
256,192,101774,1,0,0:0:0:0:
256,192,101957,1,0,0:0:0:0:
256,192,102232,1,8,0:0:0:0:
256,192,102506,1,0,0:0:0:0:
256,192,102689,1,0,0:0:0:0:
256,192,102781,1,0,0:0:0:0:
256,192,102872,1,0,0:0:0:0:
189,32,102963,1,0,0:0:0:0:
256,96,103055,5,8,0:0:0:0:
213,88,103421,1,4,0:0:0:0:
256,192,103695,1,8,0:0:0:0:
256,192,103787,1,0,0:0:0:0:
256,192,103970,1,8,0:0:0:0:
256,192,104152,1,0,0:0:0:0:
164,80,104427,1,8,0:0:0:0:
194,22,104518,1,0,0:0:0:0:
256,192,104701,1,8,0:0:0:0:
194,22,104884,1,0,0:0:0:0:
274,72,105067,1,0,0:0:0:0:
256,192,105159,1,8,0:0:0:0:
194,22,105250,1,0,0:0:0:0:
256,192,105433,1,8,0:0:0:0:
256,192,105616,1,0,0:0:0:0:
194,22,105799,1,8,0:0:0:0:
194,22,105890,1,0,0:0:0:0:
194,22,105982,1,8,0:0:0:0:
194,22,106165,1,8,0:0:0:0:
194,22,106348,1,0,0:0:0:0:
256,192,106713,1,0,0:0:0:0:
256,192,106896,1,8,0:0:0:0:
194,22,107079,1,0,0:0:0:0:
247,140,107354,1,8,0:0:0:0:
194,22,107445,1,0,0:0:0:0:
247,140,107567,1,8,0:0:0:0:
247,140,107689,1,8,0:0:0:0:
374,109,107811,1,0,0:0:0:0:
256,192,108177,1,0,0:0:0:0:
256,192,108360,1,8,0:0:0:0:
245,61,108543,1,0,0:0:0:0:
256,107,108817,1,8,0:0:0:0:
256,192,108909,1,0,0:0:0:0:
246,16,109092,1,8,0:0:0:0:
346,92,109274,1,8,0:0:0:0:
192,49,109549,1,8,0:0:0:0:
261,30,109640,1,0,0:0:0:0:
256,192,109823,1,8,0:0:0:0:
256,192,110006,1,0,0:0:0:0:
264,65,110281,1,8,0:0:0:0:
261,30,110372,1,0,0:0:0:0:
256,192,110555,1,8,0:0:0:0:
136,137,110738,1,8,0:0:0:0:
136,137,110921,1,0,0:0:0:0:
256,192,111012,1,8,0:0:0:0:
136,137,111104,1,0,0:0:0:0:
256,192,111287,1,8,0:0:0:0:
256,192,111470,1,0,0:0:0:0:
136,137,111652,1,0,0:0:0:0:
256,192,111744,1,0,0:0:0:0:
136,137,111835,1,8,0:0:0:0:
256,192,112018,1,8,0:0:0:0:
136,137,112201,1,0,0:0:0:0:
256,192,112567,1,0,0:0:0:0:
256,192,112750,1,8,0:0:0:0:
256,192,112933,1,0,0:0:0:0:
256,192,113207,1,8,0:0:0:0:
136,137,113299,1,0,0:0:0:0:
256,192,113482,1,8,0:0:0:0:
136,137,113665,1,8,0:0:0:0:
136,137,113848,1,0,0:0:0:0:
136,137,113939,1,8,0:0:0:0:
136,137,114031,1,0,0:0:0:0:
256,192,114213,1,8,0:0:0:0:
256,192,114305,1,8,0:0:0:0:
256,192,114396,1,0,0:0:0:0:
256,192,114579,1,0,0:0:0:0:
136,137,114762,1,8,0:0:0:0:
136,137,114854,1,8,0:0:0:0:
136,137,114945,1,8,0:0:0:0:
230,110,115037,1,8,0:0:0:0:
165,45,115128,1,4,0:0:0:0:
274,110,115762,1,8,0:0:0:0:
274,110,117032,1,8,0:0:0:0:
274,110,118302,1,8,0:0:0:0:
274,110,119572,1,8,0:0:0:0:
274,110,119889,1,8,0:0:0:0:
274,110,120048,5,8,0:0:0:0:
274,110,120128,1,8,0:0:0:0:
256,128,120207,5,0,0:0:0:0:
256,192,120842,1,8,0:0:0:0:
256,192,121318,1,0,0:0:0:0:
256,192,121635,1,0,0:0:0:0:
256,192,121794,1,0,0:0:0:0:
256,192,122112,1,8,0:0:0:0:
256,192,122747,1,0,0:0:0:0:
256,192,123381,1,8,0:0:0:0:
256,192,123858,1,0,0:0:0:0:
256,192,124175,1,0,0:0:0:0:
256,192,124334,1,0,0:0:0:0:
256,192,124651,1,8,0:0:0:0:
256,192,124969,1,8,0:0:0:0:
237,42,125127,1,0,0:0:0:0:
237,42,125207,1,0,0:0:0:0:
256,96,125286,5,8,0:0:0:0:
256,192,125921,1,8,0:0:0:0:
273,96,126239,1,0,0:0:0:0:
256,192,126397,1,0,0:0:0:0:
256,192,126715,1,8,0:0:0:0:
256,192,126874,1,0,0:0:0:0:
256,192,127191,1,8,0:0:0:0:
256,192,127826,1,0,0:0:0:0:
256,192,128461,1,8,0:0:0:0:
273,96,128778,1,0,0:0:0:0:
256,192,128937,1,0,0:0:0:0:
256,192,129254,1,8,0:0:0:0:
256,192,129413,1,0,0:0:0:0:
256,96,129731,5,4,0:0:0:0:
256,96,129969,5,4,0:0:0:0:
256,192,130996,1,4,0:0:0:0:
256,192,131154,1,0,0:0:0:0:
258,103,131234,1,0,0:0:0:0:
256,192,131313,1,8,0:0:0:0:
256,192,131472,1,0,0:0:0:0:
256,192,131630,1,8,0:0:0:0:
258,103,131948,1,0,0:0:0:0:
258,103,132027,1,8,0:0:0:0:
258,103,132107,1,0,0:0:0:0:
258,103,132186,1,0,0:0:0:0:
258,103,132265,1,8,0:0:0:0:
256,192,132424,1,0,0:0:0:0:
256,192,132583,1,8,0:0:0:0:
256,192,132900,1,0,0:0:0:0:
256,192,133059,1,0,0:0:0:0:
256,192,133218,1,8,0:0:0:0:
252,138,133297,1,8,0:0:0:0:
256,192,133376,1,0,0:0:0:0:
256,192,133535,1,8,0:0:0:0:
256,192,133694,1,8,0:0:0:0:
252,138,133853,1,0,0:0:0:0:
256,192,134011,1,8,0:0:0:0:
256,192,134170,1,8,0:0:0:0:
252,138,134329,1,0,0:0:0:0:
256,192,134488,1,8,0:0:0:0:
256,192,134646,1,0,0:0:0:0:
256,192,134964,1,0,0:0:0:0:
256,192,135122,1,8,0:0:0:0:
236,62,135281,1,0,0:0:0:0:
256,96,135440,5,4,0:0:0:0:
256,96,135678,5,4,0:0:0:0:
256,96,135916,5,4,0:0:0:0:
253,13,136075,1,12,0:0:0:0:
274,79,136234,1,0,0:0:0:0:
240,86,136313,1,0,0:0:0:0:
240,86,136392,1,8,0:0:0:0:
256,192,136551,1,0,0:0:0:0:
256,192,136710,1,8,0:0:0:0:
256,192,137027,1,8,0:0:0:0:
256,192,137107,1,8,0:0:0:0:
256,192,137186,1,0,0:0:0:0:
229,65,137265,1,0,0:0:0:0:
256,192,137345,1,8,0:0:0:0:
256,192,137503,1,0,0:0:0:0:
256,192,137662,1,8,0:0:0:0:
256,192,137980,1,8,0:0:0:0:
256,192,138138,1,0,0:0:0:0:
239,88,138218,1,0,0:0:0:0:
256,192,138297,1,8,0:0:0:0:
239,88,138456,1,0,0:0:0:0:
256,192,138615,1,8,0:0:0:0:
256,192,138773,1,8,0:0:0:0:
239,88,138932,1,0,0:0:0:0:
239,88,139091,1,8,0:0:0:0:
239,88,139170,1,0,0:0:0:0:
256,192,139249,1,8,0:0:0:0:
239,88,139408,1,0,0:0:0:0:
239,88,139567,1,8,0:0:0:0:
256,192,139726,1,0,0:0:0:0:
239,88,140043,1,0,0:0:0:0:
239,88,140202,1,8,0:0:0:0:
239,88,140361,1,0,0:0:0:0:
239,88,140440,1,0,0:0:0:0:
256,192,140519,1,8,0:0:0:0:
256,192,140678,1,8,0:0:0:0:
256,192,140837,1,8,0:0:0:0:
256,192,140996,1,8,0:0:0:0:
256,96,141154,5,4,0:0:0:0:
207,363,141313,1,0,0:0:0:0:
256,192,141472,1,8,0:0:0:0:
256,192,141630,1,8,0:0:0:0:
251,112,141789,1,0,0:0:0:0:
256,192,142107,1,8,0:0:0:0:
256,192,142424,1,0,0:0:0:0:
256,192,142583,1,0,0:0:0:0:
266,90,142662,1,0,0:0:0:0:
256,192,142742,1,8,0:0:0:0:
273,133,142900,1,0,0:0:0:0:
273,133,143059,1,8,0:0:0:0:
273,133,143218,1,0,0:0:0:0:
256,192,143376,1,8,0:0:0:0:
266,90,143456,1,0,0:0:0:0:
266,90,143535,1,8,0:0:0:0:
272,84,143694,1,0,0:0:0:0:
256,192,143853,1,0,0:0:0:0:
281,81,144011,1,8,0:0:0:0:
256,192,144170,1,0,0:0:0:0:
256,192,144329,1,8,0:0:0:0:
256,192,144646,1,8,0:0:0:0:
256,192,144964,1,0,0:0:0:0:
276,58,145122,1,0,0:0:0:0:
272,84,145281,1,8,0:0:0:0:
256,192,145599,1,8,0:0:0:0:
256,192,145757,1,0,0:0:0:0:
256,192,145916,1,8,0:0:0:0:
276,58,145995,5,8,0:0:0:0:
279,37,146075,1,0,0:0:0:0:
256,96,146234,5,4,0:0:0:0:
266,90,146392,1,0,0:0:0:0:
256,192,146551,1,8,0:0:0:0:
256,192,146710,1,8,0:0:0:0:
266,90,146869,1,0,0:0:0:0:
256,192,147186,1,8,0:0:0:0:
256,192,147503,1,0,0:0:0:0:
256,192,147662,1,8,0:0:0:0:
256,192,147821,1,8,0:0:0:0:
256,192,147980,1,0,0:0:0:0:
256,192,148138,1,8,0:0:0:0:
170,154,148218,1,8,0:0:0:0:
170,154,148297,1,0,0:0:0:0:
170,154,148456,1,8,0:0:0:0:
170,154,148615,1,0,0:0:0:0:
256,192,148773,1,8,0:0:0:0:
256,192,149091,1,8,0:0:0:0:
170,154,149249,1,0,0:0:0:0:
170,154,149329,1,0,0:0:0:0:
170,154,149408,1,8,0:0:0:0:
256,192,149488,1,8,0:0:0:0:
170,154,149567,1,0,0:0:0:0:
256,192,149726,1,8,0:0:0:0:
170,154,149884,1,0,0:0:0:0:
170,154,150043,1,8,0:0:0:0:
256,192,150122,1,0,0:0:0:0:
256,192,150202,1,0,0:0:0:0:
256,192,150281,1,0,0:0:0:0:
170,154,150361,1,8,0:0:0:0:
170,154,150519,1,0,0:0:0:0:
256,192,150678,1,8,0:0:0:0:
256,192,150757,1,8,0:0:0:0:
170,154,150837,1,0,0:0:0:0:
170,154,150916,1,0,0:0:0:0:
170,154,150995,1,8,0:0:0:0:
170,154,151075,1,8,0:0:0:0:
170,154,151154,1,8,0:0:0:0:
256,96,151313,5,4,0:0:0:0:
256,192,151630,1,8,0:0:0:0:
256,192,151789,1,8,0:0:0:0:
216,56,151948,1,0,0:0:0:0:
256,192,152265,1,8,0:0:0:0:
216,56,152424,1,0,0:0:0:0:
224,39,152503,1,0,0:0:0:0:
216,56,152583,1,8,0:0:0:0:
224,39,152742,1,0,0:0:0:0:
256,192,152900,1,8,0:0:0:0:
224,39,153059,1,0,0:0:0:0:
224,39,153138,1,8,0:0:0:0:
224,39,153218,1,0,0:0:0:0:
224,39,153376,1,0,0:0:0:0:
224,39,153535,1,8,0:0:0:0:
256,192,153853,1,0,0:0:0:0:
256,192,154170,1,8,0:0:0:0:
256,192,154249,1,8,0:0:0:0:
256,192,154329,1,8,0:0:0:0:
256,192,154488,1,0,0:0:0:0:
256,192,154646,1,0,0:0:0:0:
256,192,154805,1,8,0:0:0:0:
256,192,154964,1,8,0:0:0:0:
256,192,155122,1,0,0:0:0:0:
256,192,155440,1,8,0:0:0:0:
256,192,155599,1,0,0:0:0:0:
256,192,155678,1,0,0:0:0:0:
256,192,155757,1,8,0:0:0:0:
256,192,155916,1,0,0:0:0:0:
256,192,156075,1,8,0:0:0:0:
256,192,156234,1,0,0:0:0:0:
256,96,156392,5,12,0:0:0:0:
256,192,156710,1,0,0:0:0:0:
256,192,157027,1,8,0:0:0:0:
256,192,157265,1,8,0:0:0:0:
256,192,157345,1,0,0:0:0:0:
256,192,157503,1,8,0:0:0:0:
256,192,157662,1,0,0:0:0:0:
256,192,157821,1,8,0:0:0:0:
256,192,157980,1,8,0:0:0:0:
256,192,158218,1,8,0:0:0:0:
256,192,158297,1,0,0:0:0:0:
256,192,158456,1,8,0:0:0:0:
256,192,158615,1,0,0:0:0:0:
256,192,158773,1,8,0:0:0:0:
256,192,158932,1,0,0:0:0:0:
256,192,159011,1,0,0:0:0:0:
256,192,159091,1,0,0:0:0:0:
256,192,159170,1,0,0:0:0:0:
256,192,159249,1,0,0:0:0:0:
256,192,159408,1,8,0:0:0:0:
256,192,159726,1,0,0:0:0:0:
256,192,159884,1,8,0:0:0:0:
256,192,160043,1,0,0:0:0:0:
256,192,160122,1,0,0:0:0:0:
256,192,160202,1,0,0:0:0:0:
256,192,160361,1,0,0:0:0:0:
256,192,160519,1,0,0:0:0:0:
256,192,160678,1,8,0:0:0:0:
256,192,160995,1,0,0:0:0:0:
256,192,161154,1,8,0:0:0:0:
256,192,161234,1,0,0:0:0:0:
256,192,161313,1,0,0:0:0:0:
256,192,161392,1,0,0:0:0:0:
256,192,161472,1,8,0:0:0:0:
256,192,161630,1,0,0:0:0:0:
256,192,161789,1,0,0:0:0:0:
256,192,161948,1,8,0:0:0:0:
256,192,162107,1,0,0:0:0:0:
256,192,162265,1,0,0:0:0:0:
256,192,162424,1,8,0:0:0:0:
256,192,162583,1,0,0:0:0:0:
256,192,162742,1,8,0:0:0:0:
256,192,162821,1,8,0:0:0:0:
256,192,162900,1,0,0:0:0:0:
256,192,162980,1,0,0:0:0:0:
256,192,163059,1,8,0:0:0:0:
256,192,163138,1,0,0:0:0:0:
256,192,163218,1,0,0:0:0:0:
256,192,163376,1,8,0:0:0:0:
256,192,163535,1,8,0:0:0:0:
256,96,163853,5,12,0:0:0:0:
256,192,164170,1,0,0:0:0:0:
256,192,164329,1,8,0:0:0:0:
286,123,164488,1,0,0:0:0:0:
286,123,164567,1,0,0:0:0:0:
286,123,164646,1,8,0:0:0:0:
256,192,164805,1,0,0:0:0:0:
256,192,164964,1,8,0:0:0:0:
286,123,165122,1,8,0:0:0:0:
286,123,165202,1,8,0:0:0:0:
286,123,165281,1,8,0:0:0:0:
256,192,165440,1,0,0:0:0:0:
256,192,165599,1,8,0:0:0:0:
286,123,165757,1,0,0:0:0:0:
286,123,165837,1,8,0:0:0:0:
256,192,165916,1,0,0:0:0:0:
256,192,166075,1,0,0:0:0:0:
256,192,166234,1,8,0:0:0:0:
256,96,166392,5,4,0:0:0:0:
256,192,166710,1,0,0:0:0:0:
256,192,166869,1,8,0:0:0:0:
256,192,167186,1,0,0:0:0:0:
256,192,167345,1,0,0:0:0:0:
256,192,167503,1,8,0:0:0:0:
286,123,167583,1,0,0:0:0:0:
256,192,167662,1,0,0:0:0:0:
256,192,167821,1,8,0:0:0:0:
256,192,167980,1,0,0:0:0:0:
256,192,168138,1,8,0:0:0:0:
240,83,168297,1,8,0:0:0:0:
240,83,168376,1,8,0:0:0:0:
240,83,168456,1,0,0:0:0:0:
256,192,168615,1,0,0:0:0:0:
256,192,168773,1,8,0:0:0:0:
256,96,168932,5,4,0:0:0:0:
256,192,169249,1,0,0:0:0:0:
256,192,169408,1,12,0:0:0:0:
261,76,169567,1,0,0:0:0:0:
256,192,169726,1,12,0:0:0:0:
256,192,170043,1,8,0:0:0:0:
256,96,170202,5,4,0:0:0:0:
256,192,170519,1,0,0:0:0:0:
256,192,170678,1,12,0:0:0:0:
256,192,170837,1,0,0:0:0:0:
256,192,170995,1,12,0:0:0:0:
256,192,171313,1,8,0:0:0:0:
256,96,171472,5,4,0:0:0:0:
256,192,171789,1,0,0:0:0:0:
256,192,171948,1,8,0:0:0:0:
256,192,172107,1,0,0:0:0:0:
256,192,172186,1,0,0:0:0:0:
256,192,172265,1,8,0:0:0:0:
256,192,172424,1,0,0:0:0:0:
256,192,172583,1,8,0:0:0:0:
256,192,172742,1,8,0:0:0:0:
256,192,172821,1,8,0:0:0:0:
256,192,172900,1,0,0:0:0:0:
256,192,173059,1,0,0:0:0:0:
256,192,173218,1,8,0:0:0:0:
256,192,173376,1,0,0:0:0:0:
256,192,173456,1,8,0:0:0:0:
256,192,173535,1,0,0:0:0:0:
256,192,173694,1,0,0:0:0:0:
256,192,173853,1,8,0:0:0:0:
256,96,174011,5,12,0:0:0:0:
256,192,174329,1,0,0:0:0:0:
256,192,174488,1,8,0:0:0:0:
256,192,174646,1,0,0:0:0:0:
256,192,174726,1,0,0:0:0:0:
256,192,174805,1,8,0:0:0:0:
256,192,174964,1,0,0:0:0:0:
256,192,175122,1,8,0:0:0:0:
256,192,175281,1,0,0:0:0:0:
256,192,175361,1,8,0:0:0:0:
256,192,175440,1,0,0:0:0:0:
256,192,175599,1,0,0:0:0:0:
256,192,175757,1,8,0:0:0:0:
256,192,175916,1,8,0:0:0:0:
256,192,175995,1,8,0:0:0:0:
256,192,176075,1,0,0:0:0:0:
256,192,176234,1,0,0:0:0:0:
256,192,176392,1,8,0:0:0:0:
256,96,176551,5,4,0:0:0:0:
256,192,176869,1,0,0:0:0:0:
256,192,177027,1,8,0:0:0:0:
256,192,177345,1,0,0:0:0:0:
256,192,177503,1,0,0:0:0:0:
256,192,177662,1,8,0:0:0:0:
256,192,177821,1,0,0:0:0:0:
256,192,177900,1,0,0:0:0:0:
256,192,177980,1,8,0:0:0:0:
256,192,178138,1,0,0:0:0:0:
256,192,178297,1,8,0:0:0:0:
256,192,178456,1,0,0:0:0:0:
256,192,178535,1,8,0:0:0:0:
256,192,178615,1,0,0:0:0:0:
240,83,178773,1,0,0:0:0:0:
256,192,178932,1,8,0:0:0:0:
256,96,179091,5,4,0:0:0:0:
256,192,179408,1,0,0:0:0:0:
256,192,179567,1,12,0:0:0:0:
256,192,179726,1,0,0:0:0:0:
240,83,179884,1,12,0:0:0:0:
256,192,180202,1,8,0:0:0:0:
256,96,180361,5,4,0:0:0:0:
256,192,180678,1,0,0:0:0:0:
256,192,180837,1,12,0:0:0:0:
256,192,180995,1,0,0:0:0:0:
256,192,181154,1,12,0:0:0:0:
256,192,181472,1,8,0:0:0:0:
256,96,181630,5,4,0:0:0:0:
256,192,181948,1,0,0:0:0:0:
256,192,182027,1,0,0:0:0:0:
335,55,182107,1,8,0:0:0:0:
256,192,182265,1,8,0:0:0:0:
256,192,182424,1,0,0:0:0:0:
253,166,182503,1,0,0:0:0:0:
256,192,182583,1,0,0:0:0:0:
256,192,182662,1,0,0:0:0:0:
335,55,182742,1,8,0:0:0:0:
335,55,182900,1,4,0:0:0:0:
287,78,183218,1,12,0:0:0:0:
242,85,183535,1,0,0:0:0:0:
242,85,183694,1,8,0:0:0:0:
242,85,183773,1,8,0:0:0:0:
242,85,183853,1,0,0:0:0:0:
242,85,184011,1,8,0:0:0:0:
256,96,184170,5,4,0:0:0:0:
242,85,184488,1,0,0:0:0:0:
256,192,184646,1,0,0:0:0:0:
256,192,184964,1,8,0:0:0:0:
256,192,185122,1,0,0:0:0:0:
256,192,185440,1,8,0:0:0:0:
256,192,185757,1,0,0:0:0:0:
256,192,185916,1,0,0:0:0:0:
242,85,186075,1,0,0:0:0:0:
256,192,186234,1,8,0:0:0:0:
256,192,186392,1,0,0:0:0:0:
256,96,186710,5,4,0:0:0:0:
256,192,187027,1,0,0:0:0:0:
256,192,187186,1,0,0:0:0:0:
256,192,187503,1,8,0:0:0:0:
256,192,187662,1,0,0:0:0:0:
256,192,187980,1,8,0:0:0:0:
256,192,188297,1,8,0:0:0:0:
242,85,188456,1,0,0:0:0:0:
256,192,188615,1,0,0:0:0:0:
256,192,188773,1,8,0:0:0:0:
256,192,188932,1,0,0:0:0:0:
256,96,189249,5,4,0:0:0:0:
256,192,189567,1,0,0:0:0:0:
256,192,189726,1,0,0:0:0:0:
256,192,190043,1,8,0:0:0:0:
256,192,190202,1,0,0:0:0:0:
256,192,190519,1,8,0:0:0:0:
256,192,190837,1,0,0:0:0:0:
256,192,190995,1,0,0:0:0:0:
242,85,191154,1,0,0:0:0:0:
256,192,191313,1,8,0:0:0:0:
256,192,191472,1,0,0:0:0:0:
256,96,191789,5,4,0:0:0:0:
256,192,192107,1,0,0:0:0:0:
256,192,192265,1,0,0:0:0:0:
256,192,192583,1,8,0:0:0:0:
256,192,192662,1,8,0:0:0:0:
242,85,192742,1,0,0:0:0:0:
242,85,192900,1,8,0:0:0:0:
242,85,192980,1,8,0:0:0:0:
256,192,193059,1,0,0:0:0:0:
256,192,193218,1,8,0:0:0:0:
256,192,193297,1,8,0:0:0:0:
242,85,193376,1,0,0:0:0:0:
242,85,193535,1,8,0:0:0:0:
242,85,193615,1,8,0:0:0:0:
256,192,193694,1,0,0:0:0:0:
256,192,193853,1,8,0:0:0:0:
256,192,193932,1,8,0:0:0:0:
256,192,194011,1,0,0:0:0:0:
256,192,194170,1,8,0:0:0:0:
256,96,194329,5,4,0:0:0:0:
256,192,194646,1,0,0:0:0:0:
256,192,194805,1,8,0:0:0:0:
256,192,194964,1,0,0:0:0:0:
256,192,195043,1,0,0:0:0:0:
239,51,195122,1,8,0:0:0:0:
239,51,195202,1,8,0:0:0:0:
239,51,195281,1,0,0:0:0:0:
256,192,195440,1,8,0:0:0:0:
239,51,195599,1,8,0:0:0:0:
239,51,195678,1,8,0:0:0:0:
239,51,195757,1,0,0:0:0:0:
256,192,195916,1,0,0:0:0:0:
256,192,196075,1,8,0:0:0:0:
239,51,196234,1,0,0:0:0:0:
239,51,196313,1,8,0:0:0:0:
239,51,196392,1,0,0:0:0:0:
239,51,196551,1,0,0:0:0:0:
256,192,196710,1,8,0:0:0:0:
256,192,196869,1,0,0:0:0:0:
256,192,197186,1,0,0:0:0:0:
256,192,197345,1,8,0:0:0:0:
256,192,197503,1,8,0:0:0:0:
239,51,197583,1,8,0:0:0:0:
239,51,197662,1,8,0:0:0:0:
239,51,197742,1,8,0:0:0:0:
239,51,197821,1,0,0:0:0:0:
256,192,197980,1,8,0:0:0:0:
256,192,198138,1,8,0:0:0:0:
239,51,198218,1,8,0:0:0:0:
239,51,198297,1,8,0:0:0:0:
256,192,198456,1,0,0:0:0:0:
256,192,198615,1,8,0:0:0:0:
239,51,198773,1,8,0:0:0:0:
256,192,198853,1,0,0:0:0:0:
239,51,198932,1,8,0:0:0:0:
239,51,199091,1,0,0:0:0:0:
239,51,199249,1,8,0:0:0:0:
239,51,199408,1,4,0:0:0:0:
256,192,199726,1,0,0:0:0:0:
256,192,199884,1,8,0:0:0:0:
256,192,200043,1,0,0:0:0:0:
256,192,200122,1,0,0:0:0:0:
256,192,200202,1,8,0:0:0:0:
256,192,200361,1,0,0:0:0:0:
256,192,200519,1,8,0:0:0:0:
311,140,200678,1,0,0:0:0:0:
256,192,200995,1,0,0:0:0:0:
256,192,201154,1,8,0:0:0:0:
256,192,201313,1,0,0:0:0:0:
256,192,201392,1,0,0:0:0:0:
311,140,201472,1,8,0:0:0:0:
239,51,201630,1,0,0:0:0:0:
239,51,201789,1,8,0:0:0:0:
256,96,201948,5,4,0:0:0:0:
256,192,202265,1,0,0:0:0:0:
256,192,202424,1,0,0:0:0:0:
256,192,202742,1,8,0:0:0:0:
311,140,203059,1,0,0:0:0:0:
256,192,203138,1,0,0:0:0:0:
256,192,203218,1,0,0:0:0:0:
256,192,203297,1,0,0:0:0:0:
311,140,203376,1,8,0:0:0:0:
256,192,203694,1,8,0:0:0:0:
311,140,203773,1,0,0:0:0:0:
256,192,203853,1,0,0:0:0:0:
256,192,203932,1,0,0:0:0:0:
256,192,204011,1,8,0:0:0:0:
256,192,204170,1,0,0:0:0:0:
256,192,204329,1,8,0:0:0:0:
256,96,204488,5,4,0:0:0:0:
256,192,204805,1,0,0:0:0:0:
256,192,204964,1,0,0:0:0:0:
256,192,205281,1,8,0:0:0:0:
256,192,205440,1,0,0:0:0:0:
163,87,205599,1,8,0:0:0:0:
256,192,205757,1,0,0:0:0:0:
256,192,206075,1,8,0:0:0:0:
277,83,206392,1,0,0:0:0:0:
256,192,206551,1,8,0:0:0:0:
256,192,206710,1,0,0:0:0:0:
256,192,206869,1,8,0:0:0:0:
256,192,207027,1,8,0:0:0:0:
256,192,207186,1,4,0:0:0:0:
256,192,207345,1,8,0:0:0:0:
256,192,207503,1,0,0:0:0:0:
256,192,207821,1,8,0:0:0:0:
256,192,207980,1,0,0:0:0:0:
256,192,208138,1,0,0:0:0:0:
256,192,208297,1,8,0:0:0:0:
235,55,208456,1,0,0:0:0:0:
256,192,208615,1,0,0:0:0:0:
256,192,208694,1,0,0:0:0:0:
235,55,208773,1,8,0:0:0:0:
256,192,208932,1,0,0:0:0:0:
256,192,209091,1,8,0:0:0:0:
252,102,209249,1,0,0:0:0:0:
252,102,209408,1,8,0:0:0:0:
235,55,209488,1,0,0:0:0:0:
256,192,209567,1,8,0:0:0:0:
256,192,209726,1,0,0:0:0:0:
256,192,209884,1,8,0:0:0:0:
256,192,210043,1,0,0:0:0:0:
256,192,210361,1,8,0:0:0:0:
252,102,210519,1,0,0:0:0:0:
252,102,210678,1,0,0:0:0:0:
252,102,210837,1,0,0:0:0:0:
256,192,211154,1,0,0:0:0:0:
256,192,211234,1,0,0:0:0:0:
256,192,211313,1,0,0:0:0:0:
252,102,211472,1,0,0:0:0:0:
256,192,211630,1,8,0:0:0:0:
252,102,211789,1,0,0:0:0:0:
252,102,211948,1,8,0:0:0:0:
252,102,212027,1,8,0:0:0:0:
252,102,212107,1,0,0:0:0:0:
252,102,212186,1,0,0:0:0:0:
252,102,212265,1,8,0:0:0:0:
256,192,212345,1,8,0:0:0:0:
256,192,212424,1,8,0:0:0:0:
256,192,212583,1,0,0:0:0:0:
256,79,212900,1,8,0:0:0:0:
256,192,213059,1,8,0:0:0:0:
256,79,213218,1,0,0:0:0:0:
256,79,213376,1,0,0:0:0:0:
256,79,213456,1,0,0:0:0:0:
256,192,213535,1,8,0:0:0:0:
256,192,213694,1,0,0:0:0:0:
256,79,213853,1,8,0:0:0:0:
256,192,214011,1,8,0:0:0:0:
256,79,214091,1,8,0:0:0:0:
256,79,214170,1,0,0:0:0:0:
256,192,214329,1,0,0:0:0:0:
256,192,214488,1,8,0:0:0:0:
256,192,214646,1,8,0:0:0:0:
256,192,214805,1,0,0:0:0:0:
256,192,214964,1,8,0:0:0:0:
256,192,215122,1,0,0:0:0:0:
256,192,215281,1,0,0:0:0:0:
256,79,215361,1,0,0:0:0:0:
256,192,215440,1,8,0:0:0:0:
275,93,215599,1,0,0:0:0:0:
275,93,215757,1,8,0:0:0:0:
256,192,215916,1,8,0:0:0:0:
275,93,215995,1,8,0:0:0:0:
256,192,216075,1,0,0:0:0:0:
256,79,216234,1,0,0:0:0:0:
256,192,216392,1,8,0:0:0:0:
256,192,216551,1,0,0:0:0:0:
256,192,216630,1,0,0:0:0:0:
256,192,216710,1,8,0:0:0:0:
256,192,216789,1,8,0:0:0:0:
256,192,216869,1,0,0:0:0:0:
256,79,216948,1,0,0:0:0:0:
256,192,217027,1,8,0:0:0:0:
256,192,217186,1,4,0:0:0:0:
