osu file format v14

[General]
AudioFilename: audio.mp3
AudioLeadIn: 0
PreviewTime: 45691
Countdown: 0
SampleSet: Normal
StackLeniency: 0.7
Mode: 3
LetterboxInBreaks: 0
SpecialStyle: 0
WidescreenStoryboard: 1

[Editor]
DistanceSpacing: 0.8
BeatDivisor: 8
GridSize: 8
TimelineZoom: 3.039519

[Metadata]
Title:Stray in Chaos
TitleUnicode:Stray in Chaos
Artist:Fear, and Loathing in Las Vegas
ArtistUnicode:Fear, and Loathing in Las Vegas
Creator:puxtu
Version:MX
Source:
Tags:Akanya Akitoshi Alheak Feb fieryrage SnowNiNo_ Net0 Nerova Riuz GX Chromoxx bor borborygmos _83 102335 Meat Inspector Arrival Dance & Scream Japanese Electronicore
BeatmapID:1216040
BeatmapSetID:574129

[Difficulty]
HPDrainRate:8.5
CircleSize:4
OverallDifficulty:8.5
ApproachRate:5
SliderMultiplier:1.4
SliderTickRate:1

[Events]
//Background and Video events
0,0,"15391461_1138312692884170_6752188922619857995_o.jpg",0,0
//Break Periods
//Storyboard Layer 0 (Background)
//Storyboard Layer 1 (Fail)
//Storyboard Layer 2 (Pass)
//Storyboard Layer 3 (Foreground)
//Storyboard Sound Samples

[TimingPoints]
615,304.568527918782,4,1,4,50,1,0
45691,-100,4,1,4,50,0,1
55437,314.13612565445,4,1,4,50,1,0
55437,-97.0873786407767,4,1,4,50,0,0
65489,304.568527918782,4,1,4,50,1,0
75235,-100,4,1,4,50,0,1
84981,-100,4,1,4,50,0,0
94575,-100,4,1,4,50,0,1
114219,-100,4,1,4,50,0,0

[HitObjects]
64,192,615,5,2,0:0:0:0:
64,192,919,1,2,0:0:0:0:
448,192,1224,1,2,0:0:0:0:
448,192,1528,1,2,0:0:0:0:
320,192,1833,1,2,0:0:0:0:
64,192,1833,128,2,4269:0:0:0:0:
192,192,1833,1,0,0:0:0:0:
448,192,2442,1,2,0:0:0:0:
192,192,3051,1,2,0:0:0:0:
320,192,3660,1,2,0:0:0:0:
192,192,4269,1,2,0:0:0:0:
448,192,4269,128,0,5792:0:0:0:0:
320,192,4269,128,4,5792:0:0:0:0:
64,192,4878,1,2,0:0:0:0:
192,192,4878,1,0,0:0:0:0:
192,192,5488,1,2,0:0:0:0:
64,192,5488,1,0,0:0:0:0:
192,192,5792,1,8,0:0:0:0:
64,192,5792,1,0,0:0:0:0:
320,192,5868,1,8,0:0:0:0:
448,192,5868,1,0,0:0:0:0:
192,192,5944,1,8,0:0:0:0:
64,192,5944,1,0,0:0:0:0:
320,192,6021,1,8,0:0:0:0:
448,192,6021,1,0,0:0:0:0:
192,192,6097,1,8,0:0:0:0:
64,192,6097,1,0,0:0:0:0:
64,192,6706,1,2,0:0:0:0:
320,192,6706,1,4,0:0:0:0:
448,192,6706,1,0,0:0:0:0:
192,192,6858,1,8,0:0:0:0:
64,192,6858,1,0,0:0:0:0:
320,192,7010,1,2,0:0:0:0:
448,192,7010,1,0,0:0:0:0:
192,192,7087,1,0,0:0:0:0:
64,192,7163,1,8,0:0:0:0:
448,192,7163,1,0,0:0:0:0:
320,192,7315,1,2,0:0:0:0:
192,192,7315,1,0,0:0:0:0:
64,192,7467,1,0,0:0:0:0:
448,192,7467,1,8,0:0:0:0:
320,192,7620,1,0,0:0:0:0:
192,192,7620,1,2,0:0:0:0:
64,192,7696,1,0,0:0:0:0:
448,192,7772,1,8,0:0:0:0:
320,192,7772,1,0,0:0:0:0:
64,192,7924,1,0,0:0:0:0:
192,192,7924,1,2,0:0:0:0:
448,192,8076,1,0,0:0:0:0:
320,192,8076,1,8,0:0:0:0:
192,192,8229,1,2,0:0:0:0:
64,192,8229,1,0,0:0:0:0:
320,192,8305,1,0,0:0:0:0:
192,192,8381,1,0,0:0:0:0:
448,192,8381,1,8,0:0:0:0:
64,192,8533,1,2,0:0:0:0:
320,192,8533,1,0,0:0:0:0:
192,192,8686,1,8,0:0:0:0:
448,192,8686,1,0,0:0:0:0:
64,192,8838,1,0,0:0:0:0:
320,192,8838,1,2,0:0:0:0:
192,192,8914,1,0,0:0:0:0:
448,192,8990,1,8,0:0:0:0:
64,192,8990,1,0,0:0:0:0:
320,192,9142,1,0,0:0:0:0:
192,192,9142,1,2,0:0:0:0:
448,192,9142,1,4,0:0:0:0:
320,192,9295,1,0,0:0:0:0:
64,192,9295,1,8,0:0:0:0:
192,192,9447,1,2,0:0:0:0:
448,192,9447,1,0,0:0:0:0:
320,192,9523,1,0,0:0:0:0:
192,192,9599,1,0,0:0:0:0:
64,192,9599,1,8,0:0:0:0:
448,192,9752,1,2,0:0:0:0:
320,192,9752,1,0,0:0:0:0:
64,192,9904,1,8,0:0:0:0:
192,192,9904,1,0,0:0:0:0:
448,192,10056,1,2,0:0:0:0:
192,192,10056,1,0,0:0:0:0:
320,192,10132,1,0,0:0:0:0:
448,192,10208,1,8,0:0:0:0:
64,192,10208,1,0,0:0:0:0:
320,192,10361,1,0,0:0:0:0:
192,192,10361,1,2,0:0:0:0:
448,192,10513,1,0,0:0:0:0:
64,192,10513,1,8,0:0:0:0:
192,192,10665,1,2,0:0:0:0:
320,192,10665,1,0,0:0:0:0:
64,192,10741,1,0,0:0:0:0:
192,192,10818,1,0,0:0:0:0:
448,192,10818,1,8,0:0:0:0:
64,192,10970,1,2,0:0:0:0:
320,192,10970,1,0,0:0:0:0:
64,192,11122,1,8,0:0:0:0:
448,192,11122,1,0,0:0:0:0:
320,192,11274,1,0,0:0:0:0:
192,192,11274,1,2,0:0:0:0:
448,192,11351,1,0,0:0:0:0:
320,192,11427,1,8,0:0:0:0:
64,192,11427,1,0,0:0:0:0:
448,192,11579,1,0,0:0:0:0:
192,192,11579,1,2,0:0:0:0:
64,192,11579,1,4,0:0:0:0:
320,192,11731,1,8,0:0:0:0:
448,192,11731,1,0,0:0:0:0:
192,192,11884,1,2,0:0:0:0:
64,192,11884,1,0,0:0:0:0:
320,192,11960,1,0,0:0:0:0:
448,192,12036,1,8,0:0:0:0:
64,192,12036,1,0,0:0:0:0:
192,192,12188,1,2,0:0:0:0:
320,192,12188,1,0,0:0:0:0:
448,192,12340,1,0,0:0:0:0:
64,192,12340,1,8,0:0:0:0:
192,192,12493,1,0,0:0:0:0:
320,192,12493,1,2,0:0:0:0:
448,192,12569,1,0,0:0:0:0:
64,192,12645,1,8,0:0:0:0:
192,192,12645,1,0,0:0:0:0:
448,192,12797,1,0,0:0:0:0:
320,192,12797,1,2,0:0:0:0:
64,192,12950,1,0,0:0:0:0:
192,192,12950,1,8,0:0:0:0:
320,192,13102,1,2,0:0:0:0:
448,192,13102,1,0,0:0:0:0:
192,192,13178,1,0,0:0:0:0:
320,192,13254,1,0,0:0:0:0:
64,192,13254,1,8,0:0:0:0:
448,192,13406,1,2,0:0:0:0:
192,192,13406,1,0,0:0:0:0:
320,192,13559,1,8,0:0:0:0:
64,192,13559,1,0,0:0:0:0:
448,192,13711,1,0,0:0:0:0:
192,192,13711,1,2,0:0:0:0:
320,192,13787,1,0,0:0:0:0:
64,192,13863,1,8,0:0:0:0:
448,192,13863,1,0,0:0:0:0:
192,192,14016,1,0,0:0:0:0:
320,192,14016,1,2,0:0:0:0:
64,192,14016,1,4,0:0:0:0:
192,192,14168,1,0,0:0:0:0:
448,192,14168,1,8,0:0:0:0:
320,192,14320,1,2,0:0:0:0:
64,192,14320,1,0,0:0:0:0:
192,192,14396,1,0,0:0:0:0:
448,192,14472,1,0,0:0:0:0:
320,192,14472,1,8,0:0:0:0:
64,192,14625,1,2,0:0:0:0:
192,192,14625,1,0,0:0:0:0:
448,192,14777,1,8,0:0:0:0:
320,192,14777,1,0,0:0:0:0:
192,192,14929,1,0,0:0:0:0:
64,192,14929,1,2,0:0:0:0:
320,192,15005,1,0,0:0:0:0:
64,192,15082,1,8,0:0:0:0:
448,192,15082,1,0,0:0:0:0:
192,192,15234,1,0,0:0:0:0:
320,192,15234,1,2,0:0:0:0:
64,192,15386,1,0,0:0:0:0:
448,192,15386,1,8,0:0:0:0:
320,192,15538,1,2,0:0:0:0:
192,192,15538,1,0,0:0:0:0:
448,192,15615,1,0,0:0:0:0:
192,192,15691,1,0,0:0:0:0:
64,192,15691,1,8,0:0:0:0:
448,192,15843,1,2,0:0:0:0:
320,192,15843,1,0,0:0:0:0:
64,192,15995,1,8,0:0:0:0:
192,192,15995,1,0,0:0:0:0:
320,192,16071,1,0,0:0:0:0:
448,192,16071,1,8,0:0:0:0:
64,192,16147,1,8,0:0:0:0:
192,192,16147,1,0,0:0:0:0:
448,192,16224,1,8,0:0:0:0:
320,192,16224,1,0,0:0:0:0:
192,192,16300,1,0,0:0:0:0:
64,192,16300,1,8,0:0:0:0:
320,192,16376,1,0,0:0:0:0:
448,192,16376,1,8,0:0:0:0:
192,192,16452,1,0,0:0:0:0:
64,192,16452,1,6,0:0:0:0:
320,192,16604,1,2,0:0:0:0:
448,192,16604,1,0,0:0:0:0:
192,192,16757,1,2,0:0:0:0:
64,192,16757,1,8,0:0:0:0:
448,192,16757,1,0,0:0:0:0:
64,192,16909,1,0,0:0:0:0:
320,192,17061,1,2,0:0:0:0:
448,192,17061,1,0,0:0:0:0:
192,192,17213,1,2,0:0:0:0:
64,192,17213,1,0,0:0:0:0:
448,192,17366,1,0,0:0:0:0:
320,192,17518,1,2,0:0:0:0:
448,192,17518,1,0,0:0:0:0:
64,192,17518,1,8,0:0:0:0:
192,192,17670,1,0,0:0:0:0:
64,192,17823,1,0,0:0:0:0:
320,192,17823,1,2,0:0:0:0:
192,192,17975,1,2,0:0:0:0:
448,192,17975,1,0,0:0:0:0:
64,192,17975,1,8,0:0:0:0:
448,192,18127,1,0,0:0:0:0:
320,192,18127,1,2,0:0:0:0:
320,192,18279,1,2,0:0:0:0:
192,192,18279,1,0,0:0:0:0:
448,192,18432,1,0,0:0:0:0:
192,192,18432,1,2,0:0:0:0:
64,192,18432,128,8,18584:0:0:0:0:
320,192,18584,1,0,0:0:0:0:
192,192,18736,1,2,0:0:0:0:
64,192,18736,1,8,0:0:0:0:
448,192,18736,128,0,19041:0:0:0:0:
320,192,19041,1,0,0:0:0:0:
64,192,19041,1,2,0:0:0:0:
320,192,19193,1,2,0:0:0:0:
64,192,19193,1,0,0:0:0:0:
192,192,19193,1,8,0:0:0:0:
448,192,19345,1,0,0:0:0:0:
320,192,19498,1,0,0:0:0:0:
64,192,19498,1,2,0:0:0:0:
192,192,19650,1,2,0:0:0:0:
448,192,19650,1,0,0:0:0:0:
192,192,19802,1,0,0:0:0:0:
64,192,19955,1,8,0:0:0:0:
448,192,19955,1,0,0:0:0:0:
320,192,19955,1,2,0:0:0:0:
448,192,20107,1,0,0:0:0:0:
192,192,20259,1,2,0:0:0:0:
64,192,20259,1,0,0:0:0:0:
64,192,20411,1,8,0:0:0:0:
448,192,20411,1,0,0:0:0:0:
320,192,20411,1,6,0:0:0:0:
192,192,20564,1,0,0:0:0:0:
320,192,20716,1,8,0:0:0:0:
448,192,20716,1,0,0:0:0:0:
192,192,20792,1,8,0:0:0:0:
64,192,20792,1,0,0:0:0:0:
320,192,20868,1,0,0:0:0:0:
64,192,20944,1,0,0:0:0:0:
192,192,21021,1,0,0:0:0:0:
448,192,21097,1,0,0:0:0:0:
320,192,21173,1,0,0:0:0:0:
64,192,21173,128,2,21477:0:0:0:0:
192,192,21477,1,2,0:0:0:0:
320,192,21477,1,0,0:0:0:0:
64,192,21630,1,8,0:0:0:0:
448,192,21630,1,0,0:0:0:0:
192,192,21630,1,2,0:0:0:0:
320,192,21782,1,0,0:0:0:0:
192,192,21934,1,2,0:0:0:0:
320,192,21934,1,0,0:0:0:0:
448,192,22087,1,0,0:0:0:0:
64,192,22087,1,2,0:0:0:0:
192,192,22239,1,0,0:0:0:0:
192,192,22391,1,2,0:0:0:0:
448,192,22391,1,0,0:0:0:0:
320,192,22391,1,8,0:0:0:0:
448,192,22543,1,0,0:0:0:0:
64,192,22696,1,0,0:0:0:0:
192,192,22696,1,2,0:0:0:0:
192,192,22848,1,2,0:0:0:0:
448,192,22848,1,0,0:0:0:0:
320,192,22848,1,8,0:0:0:0:
448,192,23000,1,0,0:0:0:0:
64,192,23000,1,2,0:0:0:0:
192,192,23153,1,0,0:0:0:0:
64,192,23153,1,8,0:0:0:0:
320,192,23191,1,8,0:0:0:0:
448,192,23191,1,0,0:0:0:0:
192,192,23305,1,0,0:0:0:0:
64,192,23305,1,2,0:0:0:0:
192,192,23609,1,2,0:0:0:0:
448,192,23609,1,0,0:0:0:0:
64,192,23609,128,4,23914:0:0:0:0:
320,192,23914,1,0,0:0:0:0:
448,192,24066,1,0,0:0:0:0:
64,192,24066,1,8,0:0:0:0:
192,192,24066,1,2,0:0:0:0:
320,192,24219,1,0,0:0:0:0:
192,192,24371,1,2,2:0:0:0:
448,192,24371,1,0,0:0:0:0:
64,192,24523,1,0,0:0:0:0:
320,192,24675,1,0,0:0:0:0:
192,192,24828,1,0,0:0:0:0:
320,192,24980,1,2,0:0:0:0:
64,192,24980,1,8,0:0:0:0:
448,192,24980,1,0,0:0:0:0:
192,192,25132,1,0,0:0:0:0:
320,192,25285,1,0,0:0:0:0:
448,192,25285,1,2,0:0:0:0:
64,192,25437,1,8,3:0:0:0:
192,192,25513,1,8,3:0:0:0:
320,192,25589,1,8,3:0:0:0:
448,192,25589,1,0,0:0:0:0:
64,192,25741,1,0,0:0:0:0:
192,192,25741,1,8,3:0:0:0:
320,192,26046,1,4,0:0:0:0:
64,192,26046,1,2,0:0:0:0:
448,192,26046,128,0,26351:0:0:0:0:
192,192,26351,1,2,0:0:0:0:
320,192,26351,1,0,0:0:0:0:
320,192,26503,1,2,0:0:0:0:
448,192,26503,1,8,0:0:0:0:
64,192,26503,1,0,0:0:0:0:
192,192,26655,1,0,0:0:0:0:
320,192,26807,1,2,0:0:0:0:
64,192,26807,1,0,0:0:0:0:
192,192,26960,1,2,0:0:0:0:
448,192,26960,1,0,0:0:0:0:
64,192,27112,1,0,0:0:0:0:
192,192,27264,1,2,0:0:0:0:
64,192,27264,1,0,0:0:0:0:
448,192,27264,1,8,0:0:0:0:
320,192,27417,1,0,0:0:0:0:
448,192,27569,1,0,0:0:0:0:
192,192,27569,1,2,0:0:0:0:
320,192,27721,1,2,0:0:0:0:
64,192,27721,1,0,0:0:0:0:
448,192,27721,1,8,0:0:0:0:
64,192,27873,1,0,0:0:0:0:
192,192,27873,1,2,0:0:0:0:
448,192,28026,1,2,0:0:0:0:
320,192,28026,1,0,0:0:0:0:
448,192,28178,1,8,0:0:0:0:
320,192,28178,1,2,0:0:0:0:
64,192,28178,128,0,28330:0:0:0:0:
192,192,28330,1,0,0:0:0:0:
320,192,28483,1,2,0:0:0:0:
64,192,28483,1,0,0:0:0:0:
448,192,28483,128,8,28787:0:0:0:0:
64,192,28787,1,0,0:0:0:0:
192,192,28787,1,2,0:0:0:0:
448,192,28939,1,2,0:0:0:0:
64,192,28939,1,0,0:0:0:0:
320,192,28939,1,8,0:0:0:0:
192,192,29092,1,0,0:0:0:0:
320,192,29244,1,0,0:0:0:0:
64,192,29244,1,2,0:0:0:0:
192,192,29396,1,2,0:0:0:0:
448,192,29396,1,0,0:0:0:0:
320,192,29549,1,0,0:0:0:0:
448,192,29701,1,8,0:0:0:0:
64,192,29701,1,0,0:0:0:0:
192,192,29701,1,2,0:0:0:0:
320,192,29853,1,0,0:0:0:0:
320,192,30005,1,2,0:0:0:0:
64,192,30005,1,0,0:0:0:0:
448,192,30158,1,8,0:0:0:0:
64,192,30158,1,0,0:0:0:0:
192,192,30158,1,6,0:0:0:0:
320,192,30310,1,0,0:0:0:0:
192,192,30462,1,8,0:0:0:0:
64,192,30462,1,0,0:0:0:0:
320,192,30538,1,8,0:0:0:0:
448,192,30538,1,0,0:0:0:0:
192,192,30615,1,0,0:0:0:0:
320,192,30691,1,0,0:0:0:0:
192,192,30767,1,0,0:0:0:0:
64,192,30843,1,0,0:0:0:0:
320,192,30919,1,0,0:0:0:0:
448,192,30919,128,2,31224:0:0:0:0:
64,192,31224,1,2,0:0:0:0:
192,192,31224,1,0,0:0:0:0:
448,192,31376,1,8,0:0:0:0:
64,192,31376,1,0,0:0:0:0:
320,192,31376,1,2,0:0:0:0:
192,192,31528,1,0,0:0:0:0:
448,192,31680,1,2,0:0:0:0:
64,192,31680,1,0,0:0:0:0:
192,192,31833,1,0,0:0:0:0:
448,192,31833,1,2,0:0:0:0:
320,192,31985,1,0,0:0:0:0:
448,192,32137,1,2,0:0:0:0:
64,192,32137,1,0,0:0:0:0:
192,192,32137,1,8,0:0:0:0:
64,192,32290,1,0,0:0:0:0:
448,192,32442,1,0,0:0:0:0:
320,192,32442,1,2,0:0:0:0:
320,192,32594,1,2,0:0:0:0:
64,192,32594,1,0,0:0:0:0:
192,192,32594,1,8,0:0:0:0:
64,192,32746,1,0,0:0:0:0:
448,192,32746,1,2,0:0:0:0:
320,192,32899,1,0,0:0:0:0:
448,192,32899,1,8,0:0:0:0:
192,192,32937,1,8,0:0:0:0:
64,192,32937,1,0,0:0:0:0:
320,192,33051,1,2,0:0:0:0:
448,192,33051,1,0,0:0:0:0:
192,192,33356,1,2,0:0:0:0:
64,192,33356,1,0,0:0:0:0:
448,192,33356,128,4,33660:0:0:0:0:
192,192,33660,1,0,0:0:0:0:
64,192,33812,1,0,0:0:0:0:
448,192,33812,1,8,0:0:0:0:
320,192,33812,1,2,0:0:0:0:
192,192,33965,1,0,0:0:0:0:
320,192,34117,1,2,2:0:0:0:
64,192,34117,1,0,0:0:0:0:
448,192,34269,1,0,0:0:0:0:
192,192,34422,1,2,0:0:0:0:
64,192,34422,1,0,0:0:0:0:
320,192,34574,1,0,0:0:0:0:
192,192,34726,1,2,0:0:0:0:
448,192,34726,1,8,0:0:0:0:
64,192,34726,1,0,0:0:0:0:
320,192,34878,1,0,0:0:0:0:
448,192,35031,1,0,0:0:0:0:
64,192,35031,1,2,0:0:0:0:
192,192,35183,1,0,0:0:0:0:
64,192,35335,1,8,0:0:0:0:
448,192,35335,1,0,0:0:0:0:
320,192,35335,1,2,0:0:0:0:
320,192,35488,1,2,0:0:0:0:
448,192,35488,1,0,0:0:0:0:
64,192,35488,1,8,0:0:0:0:
448,192,35640,1,8,0:0:0:0:
64,192,35640,1,0,0:0:0:0:
192,192,35640,1,2,0:0:0:0:
192,192,35792,1,2,0:0:0:0:
64,192,35792,1,0,0:0:0:0:
448,192,35792,1,8,0:0:0:0:
192,192,35944,1,4,0:0:0:0:
448,192,35944,1,0,0:0:0:0:
64,192,35944,1,2,0:0:0:0:
320,192,35944,1,0,0:0:0:0:
448,192,36401,1,0,0:0:0:0:
192,192,36401,1,2,0:0:0:0:
320,192,36477,1,0,0:0:0:0:
192,192,36554,1,2,0:0:0:0:
64,192,36554,1,0,0:0:0:0:
448,192,36554,1,8,0:0:0:0:
64,192,37163,1,4,0:0:0:0:
448,192,37163,1,2,0:0:0:0:
192,192,37772,1,2,0:0:0:0:
64,192,37772,1,0,0:0:0:0:
448,192,37873,1,0,0:0:0:0:
320,192,37873,1,2,0:0:0:0:
192,192,37975,1,0,0:0:0:0:
320,192,38076,1,2,0:0:0:0:
64,192,38076,1,0,0:0:0:0:
192,192,38178,1,0,0:0:0:0:
448,192,38178,1,2,0:0:0:0:
320,192,38279,1,0,0:0:0:0:
192,192,38381,1,6,0:0:0:0:
64,192,38381,1,0,0:0:0:0:
448,192,38381,1,2,0:0:0:0:
64,192,38838,1,0,0:0:0:0:
320,192,38838,1,2,0:0:0:0:
192,192,38914,1,0,0:0:0:0:
320,192,38990,1,2,0:0:0:0:
448,192,38990,1,0,0:0:0:0:
64,192,38990,1,8,0:0:0:0:
64,192,39599,1,2,0:0:0:0:
448,192,39599,1,4,0:0:0:0:
320,192,39752,1,2,0:0:0:0:
192,192,39904,1,2,0:0:0:0:
320,192,40056,1,2,0:0:0:0:
448,192,40208,1,2,0:0:0:0:
64,192,40208,1,0,0:0:0:0:
320,192,40310,1,0,0:0:0:0:
192,192,40310,1,2,0:0:0:0:
64,192,40411,1,0,0:0:0:0:
320,192,40513,1,2,0:0:0:0:
448,192,40513,1,0,0:0:0:0:
64,192,40615,1,0,0:0:0:0:
192,192,40615,1,2,0:0:0:0:
320,192,40716,1,0,0:0:0:0:
64,192,40818,1,6,0:0:0:0:
448,192,40818,1,2,0:0:0:0:
192,192,40818,1,0,0:0:0:0:
320,192,41274,1,2,0:0:0:0:
448,192,41274,1,0,0:0:0:0:
192,192,41351,1,0,0:0:0:0:
64,192,41427,1,8,0:0:0:0:
448,192,41427,1,0,0:0:0:0:
320,192,41427,1,2,0:0:0:0:
64,192,42036,1,2,0:0:0:0:
448,192,42036,1,4,0:0:0:0:
448,192,42645,1,0,0:0:0:0:
320,192,42645,1,2,0:0:0:0:
192,192,42746,1,2,0:0:0:0:
64,192,42746,1,0,0:0:0:0:
448,192,42848,1,0,0:0:0:0:
64,192,42950,1,0,0:0:0:0:
320,192,42950,1,2,0:0:0:0:
192,192,43051,1,2,0:0:0:0:
448,192,43051,1,0,0:0:0:0:
64,192,43153,1,0,0:0:0:0:
448,192,43254,128,2,43559:0:0:0:0:
320,192,43254,1,6,0:0:0:0:
192,192,43254,1,0,0:0:0:0:
320,192,43559,1,2,0:0:0:0:
64,192,43559,1,0,0:0:0:0:
192,192,43559,1,8,0:0:0:0:
64,192,43711,1,2,0:0:0:0:
320,192,43711,1,0,0:0:0:0:
192,192,43711,1,8,0:0:0:0:
448,192,43863,1,0,0:0:0:0:
320,192,43863,1,8,0:0:0:0:
64,192,43863,1,2,0:0:0:0:
64,192,44016,1,0,0:0:0:0:
448,192,44016,1,8,0:0:0:0:
320,192,44016,1,2,0:0:0:0:
448,192,44168,1,2,0:0:0:0:
320,192,44168,1,0,0:0:0:0:
192,192,44168,1,8,0:0:0:0:
192,192,44320,1,2,0:0:0:0:
320,192,44320,1,8,0:0:0:0:
448,192,44320,1,0,0:0:0:0:
192,192,44472,1,8,0:0:0:0:
64,192,44472,1,0,0:0:0:0:
320,192,44549,1,8,0:0:0:0:
448,192,44549,1,0,0:0:0:0:
192,192,44625,1,8,0:0:0:0:
64,192,44625,1,0,0:0:0:0:
320,192,44701,1,8,0:0:0:0:
448,192,44777,1,0,0:0:0:0:
64,192,44777,1,8,0:0:0:0:
320,192,44853,1,8,0:0:0:0:
192,192,44853,1,0,0:0:0:0:
448,192,44929,1,8,0:0:0:0:
64,192,44929,1,0,0:0:0:0:
192,192,45005,1,8,0:0:0:0:
448,192,45082,1,0,0:0:0:0:
320,192,45082,1,8,0:0:0:0:
192,192,45158,1,8,0:0:0:0:
64,192,45158,1,0,0:0:0:0:
448,192,45234,1,8,0:0:0:0:
320,192,45234,1,0,0:0:0:0:
192,192,45310,1,8,0:0:0:0:
64,192,45386,1,0,0:0:0:0:
448,192,45386,1,8,0:0:0:0:
320,192,45462,1,8,0:0:0:0:
192,192,45462,1,0,0:0:0:0:
448,192,45538,1,8,0:0:0:0:
64,192,45538,1,0,0:0:0:0:
320,192,45615,1,8,0:0:0:0:
192,192,45691,1,0,0:0:0:0:
64,192,45691,128,6,45843:0:0:0:0:
448,192,45691,1,2,0:0:0:0:
64,192,45995,1,8,0:0:0:0:
320,192,45995,1,2,0:0:0:0:
448,192,45995,128,0,46147:0:0:0:0:
192,192,46147,128,2,46300:0:0:0:0:
448,192,46300,1,0,0:0:0:0:
64,192,46300,128,2,46452:0:0:0:0:
192,192,46452,1,2,0:0:0:0:
320,192,46452,1,0,0:0:0:0:
64,192,46604,1,0,0:0:0:0:
192,192,46604,1,2,0:0:0:0:
448,192,46604,128,8,46757:0:0:0:0:
320,192,46757,128,2,46909:0:0:0:0:
192,192,46909,1,0,0:0:0:0:
64,192,46909,128,2,47061:0:0:0:0:
320,192,47213,1,8,0:0:0:0:
192,192,47213,1,2,0:0:0:0:
448,192,47213,128,0,47366:0:0:0:0:
64,192,47366,128,0,47518:0:0:0:0:
320,192,47518,1,0,0:0:0:0:
192,192,47518,1,2,0:0:0:0:
64,192,47670,1,2,0:0:0:0:
448,192,47670,128,0,47823:0:0:0:0:
64,192,47823,1,0,0:0:0:0:
192,192,47823,1,2,0:0:0:0:
320,192,47823,1,8,0:0:0:0:
448,192,47975,128,0,48127:0:0:0:0:
192,192,48127,1,2,0:0:0:0:
320,192,48127,1,4,0:0:0:0:
64,192,48127,128,0,48279:0:0:0:0:
448,192,48432,1,8,0:0:0:0:
192,192,48432,1,2,0:0:0:0:
320,192,48432,128,0,48584:0:0:0:0:
448,192,48736,1,2,0:0:0:0:
192,192,48736,128,0,48889:0:0:0:0:
320,192,48889,1,0,0:0:0:0:
64,192,48889,1,2,0:0:0:0:
448,192,49041,1,2,0:0:0:0:
192,192,49041,1,0,0:0:0:0:
320,192,49041,128,8,49193:0:0:0:0:
448,192,49345,1,2,0:0:0:0:
192,192,49345,1,4,0:0:0:0:
64,192,49345,128,0,49498:0:0:0:0:
320,192,49498,128,0,49650:0:0:0:0:
64,192,49650,1,0,0:0:0:0:
448,192,49650,1,8,0:0:0:0:
192,192,49650,128,2,49802:0:0:0:0:
448,192,49802,128,0,49955:0:0:0:0:
320,192,49955,1,0,0:0:0:0:
64,192,49955,1,2,0:0:0:0:
192,192,50107,1,2,0:0:0:0:
448,192,50107,128,0,50259:0:0:0:0:
192,192,50259,1,0,0:0:0:0:
320,192,50259,1,2,0:0:0:0:
64,192,50259,128,8,50411:0:0:0:0:
448,192,50411,128,0,50564:0:0:0:0:
64,192,50564,1,0,0:0:0:0:
192,192,50564,128,2,50716:0:0:0:0:
320,192,50564,1,4,0:0:0:0:
448,192,50868,1,8,0:0:0:0:
320,192,50868,1,2,0:0:0:0:
64,192,50868,128,0,51021:0:0:0:0:
192,192,51021,1,2,0:0:0:0:
448,192,51173,1,0,0:0:0:0:
320,192,51173,128,2,51325:0:0:0:0:
64,192,51325,1,2,0:0:0:0:
192,192,51325,1,0,0:0:0:0:
64,192,51477,1,0,0:0:0:0:
320,192,51477,1,2,0:0:0:0:
448,192,51477,128,8,51630:0:0:0:0:
192,192,51630,128,2,51782:0:0:0:0:
320,192,51782,1,0,0:0:0:0:
64,192,51782,128,2,51934:0:0:0:0:
448,192,52087,1,8,0:0:0:0:
320,192,52087,1,2,0:0:0:0:
192,192,52087,128,0,52239:0:0:0:0:
448,192,52239,128,0,52391:0:0:0:0:
320,192,52391,1,0,0:0:0:0:
64,192,52391,1,2,0:0:0:0:
192,192,52543,1,2,0:0:0:0:
64,192,52543,128,0,52696:0:0:0:0:
448,192,52696,1,0,0:0:0:0:
320,192,52696,1,2,0:0:0:0:
192,192,52696,1,8,0:0:0:0:
448,192,52848,128,0,53000:0:0:0:0:
64,192,53000,128,0,53153:0:0:0:0:
320,192,53000,1,2,0:0:0:0:
192,192,53000,1,4,0:0:0:0:
64,192,53305,1,8,0:0:0:0:
320,192,53305,1,2,0:0:0:0:
192,192,53305,128,0,53457:0:0:0:0:
64,192,53609,1,2,0:0:0:0:
320,192,53609,128,0,53762:0:0:0:0:
192,192,53762,1,0,0:0:0:0:
448,192,53762,1,2,0:0:0:0:
64,192,53914,1,2,0:0:0:0:
320,192,53914,1,0,0:0:0:0:
192,192,53914,128,8,54066:0:0:0:0:
64,192,54219,1,0,0:0:0:0:
320,192,54219,1,8,0:0:0:0:
448,192,54219,1,6,0:0:0:0:
192,192,54371,1,8,3:0:0:0:
320,192,54447,1,8,3:0:0:0:
448,192,54523,1,8,3:0:0:0:
192,192,54523,1,0,0:0:0:0:
64,192,54675,1,8,0:0:0:0:
320,192,54675,1,8,3:0:0:0:
192,192,54828,1,8,0:0:0:0:
448,192,54828,1,8,3:0:0:0:
320,192,54980,1,8,3:0:0:0:
64,192,55132,1,8,3:0:0:0:
448,192,55132,1,0,0:0:0:0:
192,192,55285,1,8,3:0:0:0:
448,192,55437,1,0,0:0:0:0:
320,192,55437,1,2,0:0:0:0:
64,192,55437,1,4,0:0:0:0:
192,192,55751,1,2,0:0:0:0:
64,192,55751,1,0,0:0:0:0:
320,192,56065,1,2,0:0:0:0:
448,192,56065,1,8,0:0:0:0:
64,192,56065,1,0,0:0:0:0:
192,192,56379,1,2,0:0:0:0:
320,192,56536,1,2,0:0:0:0:
448,192,56536,1,0,0:0:0:0:
192,192,56693,1,2,0:0:0:0:
320,192,56850,1,2,0:0:0:0:
64,192,56850,1,0,0:0:0:0:
192,192,57007,1,0,0:0:0:0:
448,192,57007,1,2,0:0:0:0:
64,192,57321,1,2,0:0:0:0:
192,192,57321,1,0,0:0:0:0:
320,192,57321,1,8,0:0:0:0:
320,192,57635,1,2,0:0:0:0:
64,192,57950,1,0,0:0:0:0:
448,192,57950,1,2,0:0:0:0:
320,192,58264,1,2,0:0:0:0:
192,192,58264,1,0,0:0:0:0:
448,192,58578,1,8,0:0:0:0:
64,192,58578,1,0,0:0:0:0:
192,192,58578,1,2,0:0:0:0:
320,192,58892,1,2,0:0:0:0:
448,192,59049,1,2,0:0:0:0:
64,192,59049,1,0,0:0:0:0:
192,192,59206,1,2,0:0:0:0:
320,192,59363,1,2,0:0:0:0:
448,192,59363,1,0,0:0:0:0:
192,192,59520,1,0,0:0:0:0:
64,192,59520,1,2,0:0:0:0:
64,192,59834,1,0,0:0:0:0:
320,192,59834,1,8,3:0:0:0:
448,192,59834,1,4,3:0:0:0:
64,192,59991,1,0,0:0:0:0:
320,192,59991,1,8,3:0:0:0:
448,192,59991,1,4,3:0:0:0:
192,192,60306,1,0,0:0:0:0:
320,192,60306,1,2,0:0:0:0:
192,192,60463,1,2,0:0:0:0:
64,192,60463,1,0,0:0:0:0:
448,192,60463,1,4,0:0:0:0:
320,192,60777,1,2,0:0:0:0:
448,192,60777,1,0,0:0:0:0:
192,192,61091,1,2,0:0:0:0:
64,192,61091,1,8,0:0:0:0:
448,192,61091,1,0,0:0:0:0:
320,192,61405,1,2,0:0:0:0:
192,192,61562,1,2,0:0:0:0:
64,192,61562,1,0,0:0:0:0:
320,192,61719,1,2,0:0:0:0:
192,192,61876,1,2,0:0:0:0:
448,192,61876,1,0,0:0:0:0:
320,192,62033,1,0,0:0:0:0:
64,192,62033,1,2,0:0:0:0:
192,192,62347,1,2,0:0:0:0:
448,192,62347,1,0,0:0:0:0:
64,192,62347,1,8,0:0:0:0:
448,192,62662,1,2,0:0:0:0:
192,192,62819,1,0,0:0:0:0:
320,192,62897,1,0,0:0:0:0:
64,192,62976,1,8,0:0:0:0:
448,192,62976,1,0,0:0:0:0:
192,192,62976,1,2,0:0:0:0:
320,192,63133,1,0,0:0:0:0:
448,192,63133,1,2,0:0:0:0:
64,192,63290,1,2,0:0:0:0:
192,192,63604,1,2,0:0:0:0:
448,192,63604,1,0,0:0:0:0:
64,192,63604,1,8,0:0:0:0:
64,192,63761,1,8,0:0:0:0:
448,192,63761,1,0,0:0:0:0:
192,192,63761,1,2,0:0:0:0:
192,192,63918,1,2,0:0:0:0:
448,192,63918,1,0,0:0:0:0:
64,192,63918,1,8,0:0:0:0:
448,192,64075,1,0,0:0:0:0:
320,192,64075,1,2,0:0:0:0:
192,192,64232,1,2,0:0:0:0:
448,192,64389,1,0,0:0:0:0:
64,192,64389,1,2,0:0:0:0:
320,192,64546,1,2,0:0:0:0:
192,192,64704,1,0,0:0:0:0:
64,192,64704,1,2,0:0:0:0:
320,192,64782,1,0,0:0:0:0:
64,192,64861,1,8,0:0:0:0:
448,192,64861,1,0,0:0:0:0:
192,192,64861,1,2,0:0:0:0:
320,192,65018,1,0,0:0:0:0:
448,192,65018,1,2,0:0:0:0:
448,192,65489,1,0,0:0:0:0:
192,192,65489,1,2,0:0:0:0:
64,192,65489,1,4,0:0:0:0:
192,192,65793,1,2,0:0:0:0:
320,192,65793,1,0,0:0:0:0:
64,192,66098,1,0,0:0:0:0:
192,192,66098,1,2,0:0:0:0:
64,192,66250,1,2,0:0:0:0:
320,192,66402,1,2,0:0:0:0:
448,192,66402,1,0,0:0:0:0:
448,192,66707,1,0,0:0:0:0:
64,192,66707,1,2,0:0:0:0:
320,192,66859,1,2,2:0:0:0:
448,192,66935,1,2,2:0:0:0:
192,192,67011,1,2,0:0:0:0:
64,192,67011,1,0,0:0:0:0:
64,192,67164,1,2,2:0:0:0:
448,192,67316,1,0,0:0:0:0:
320,192,67316,1,2,0:0:0:0:
192,192,67468,1,2,0:0:0:0:
320,192,67468,1,0,0:0:0:0:
64,192,67468,1,12,0:0:0:0:
448,192,67620,1,0,0:0:0:0:
64,192,67620,1,2,0:0:0:0:
192,192,67773,1,2,0:0:0:0:
448,192,67773,1,0,0:0:0:0:
320,192,67773,1,12,0:0:0:0:
320,192,67925,1,0,0:0:0:0:
192,192,67925,1,2,0:0:0:0:
64,192,67925,1,4,0:0:0:0:
448,192,68230,1,2,0:0:0:0:
64,192,68230,1,0,0:0:0:0:
448,192,68534,1,0,0:0:0:0:
320,192,68534,1,2,0:0:0:0:
320,192,68686,1,2,0:0:0:0:
192,192,68839,1,2,0:0:0:0:
64,192,68839,1,0,0:0:0:0:
64,192,69143,1,0,0:0:0:0:
448,192,69143,1,2,0:0:0:0:
320,192,69296,1,2,2:0:0:0:
192,192,69372,1,2,2:0:0:0:
320,192,69448,1,2,0:0:0:0:
448,192,69448,1,0,0:0:0:0:
64,192,69600,1,2,2:0:0:0:
320,192,69676,1,2,2:0:0:0:
64,192,69752,1,0,0:0:0:0:
192,192,69752,1,2,0:0:0:0:
320,192,69905,1,2,0:0:0:0:
192,192,69905,1,0,0:0:0:0:
448,192,69905,1,12,0:0:0:0:
64,192,70057,1,0,0:0:0:0:
448,192,70057,1,2,0:0:0:0:
320,192,70209,1,2,0:0:0:0:
64,192,70209,1,0,0:0:0:0:
192,192,70209,1,12,0:0:0:0:
192,192,70362,1,0,0:0:0:0:
320,192,70362,1,2,0:0:0:0:
448,192,70362,1,4,0:0:0:0:
64,192,70666,1,8,3:0:0:0:
448,192,70666,1,0,0:0:0:0:
320,192,70742,1,8,3:0:0:0:
192,192,70818,1,8,3:0:0:0:
448,192,70895,1,8,3:0:0:0:
320,192,70971,1,0,0:0:0:0:
64,192,70971,1,8,3:0:0:0:
192,192,71047,1,8,3:0:0:0:
448,192,71123,1,8,3:0:0:0:
320,192,71199,1,8,3:0:0:0:
64,192,71275,1,8,3:0:0:0:
448,192,71275,1,0,0:0:0:0:
192,192,71351,1,8,3:0:0:0:
320,192,71428,1,8,3:0:0:0:
192,192,71504,1,8,3:0:0:0:
448,192,71580,1,0,0:0:0:0:
64,192,71580,1,8,3:0:0:0:
320,192,71656,1,8,3:0:0:0:
192,192,71732,1,8,3:0:0:0:
448,192,71808,1,8,3:0:0:0:
64,192,71884,1,8,3:0:0:0:
320,192,71884,1,0,0:0:0:0:
192,192,71961,1,8,3:0:0:0:
448,192,72037,1,8,3:0:0:0:
320,192,72113,1,8,3:0:0:0:
192,192,72189,1,0,0:0:0:0:
64,192,72189,1,8,3:0:0:0:
448,192,72265,1,8,3:0:0:0:
320,192,72341,1,8,3:0:0:0:
64,192,72417,1,8,3:0:0:0:
192,192,72494,1,8,3:0:0:0:
448,192,72494,1,0,0:0:0:0:
320,192,72570,1,8,3:0:0:0:
64,192,72646,1,8,3:0:0:0:
192,192,72722,1,8,3:0:0:0:
64,192,72798,1,0,0:0:0:0:
320,192,72798,1,2,0:0:0:0:
448,192,72798,1,4,0:0:0:0:
192,192,73103,1,2,0:0:0:0:
64,192,73103,1,8,0:0:0:0:
448,192,73103,1,0,0:0:0:0:
64,192,73255,1,8,0:0:0:0:
448,192,73255,1,0,0:0:0:0:
192,192,73255,1,2,0:0:0:0:
320,192,73407,1,2,0:0:0:0:
64,192,73407,1,0,0:0:0:0:
448,192,73407,1,8,0:0:0:0:
448,192,73560,1,8,0:0:0:0:
64,192,73560,1,0,0:0:0:0:
320,192,73560,1,2,0:0:0:0:
320,192,73712,1,2,0:0:0:0:
64,192,73712,1,0,0:0:0:0:
448,192,73712,1,8,0:0:0:0:
192,192,73864,1,0,0:0:0:0:
64,192,73940,1,0,0:0:0:0:
448,192,74016,1,8,0:0:0:0:
320,192,74016,1,0,0:0:0:0:
64,192,74093,1,8,0:0:0:0:
192,192,74093,1,0,0:0:0:0:
320,192,74169,1,0,0:0:0:0:
448,192,74169,1,8,0:0:0:0:
192,192,74245,1,0,0:0:0:0:
64,192,74245,1,8,0:0:0:0:
320,192,74321,1,0,0:0:0:0:
448,192,74321,1,8,0:0:0:0:
192,192,74397,1,0,0:0:0:0:
64,192,74397,1,8,0:0:0:0:
320,192,74473,1,8,0:0:0:0:
448,192,74473,1,0,0:0:0:0:
64,192,74549,1,8,0:0:0:0:
192,192,74549,1,0,0:0:0:0:
448,192,74626,1,0,0:0:0:0:
320,192,74626,1,2,0:0:0:0:
192,192,74930,1,0,0:0:0:0:
320,192,74930,1,8,3:0:0:0:
64,192,75235,1,2,0:0:0:0:
192,192,75235,1,4,0:0:0:0:
448,192,75235,128,0,75844:0:0:0:0:
320,192,75539,1,0,0:0:0:0:
192,192,75539,1,8,0:0:0:0:
64,192,75539,1,2,0:0:0:0:
320,192,75844,1,0,0:0:0:0:
64,192,75844,128,2,76453:0:0:0:0:
320,192,76148,1,2,0:0:0:0:
192,192,76148,1,8,0:0:0:0:
448,192,76148,1,0,0:0:0:0:
448,192,76453,1,0,0:0:0:0:
320,192,76453,128,2,77062:0:0:0:0:
64,192,76758,1,0,0:0:0:0:
192,192,76758,1,8,0:0:0:0:
448,192,76758,1,2,0:0:0:0:
448,192,77062,1,2,0:0:0:0:
192,192,77062,128,0,77671:0:0:0:0:
448,192,77367,1,2,0:0:0:0:
320,192,77367,1,8,0:0:0:0:
64,192,77367,1,0,0:0:0:0:
64,192,77671,1,0,0:0:0:0:
320,192,77671,1,4,0:0:0:0:
448,192,77671,128,2,78280:0:0:0:0:
320,192,77976,1,0,0:0:0:0:
192,192,77976,1,8,0:0:0:0:
64,192,77976,1,2,0:0:0:0:
320,192,78280,1,0,0:0:0:0:
64,192,78280,128,2,78890:0:0:0:0:
320,192,78585,1,2,0:0:0:0:
192,192,78585,1,8,0:0:0:0:
448,192,78585,1,0,0:0:0:0:
448,192,78890,1,0,0:0:0:0:
192,192,78890,1,4,0:0:0:0:
320,192,78890,128,2,79499:0:0:0:0:
64,192,79194,1,0,0:0:0:0:
192,192,79194,1,8,0:0:0:0:
448,192,79194,1,2,0:0:0:0:
448,192,79499,1,2,0:0:0:0:
192,192,79499,128,0,80108:0:0:0:0:
448,192,79803,1,2,0:0:0:0:
320,192,79803,1,8,0:0:0:0:
64,192,79803,1,0,0:0:0:0:
64,192,80108,1,0,0:0:0:0:
320,192,80108,1,4,0:0:0:0:
448,192,80108,128,2,80717:0:0:0:0:
64,192,80412,1,2,0:0:0:0:
192,192,80412,1,8,0:0:0:0:
320,192,80412,1,0,0:0:0:0:
320,192,80717,1,0,0:0:0:0:
64,192,80717,128,2,81326:0:0:0:0:
448,192,81021,1,0,0:0:0:0:
192,192,81021,1,8,0:0:0:0:
320,192,81021,1,2,0:0:0:0:
192,192,81326,1,2,0:0:0:0:
320,192,81326,128,0,81935:0:0:0:0:
448,192,81631,1,2,0:0:0:0:
192,192,81631,1,8,0:0:0:0:
64,192,81631,1,0,0:0:0:0:
448,192,81935,1,2,0:0:0:0:
192,192,81935,128,0,82544:0:0:0:0:
64,192,82240,1,0,0:0:0:0:
320,192,82240,1,8,0:0:0:0:
448,192,82240,1,2,0:0:0:0:
448,192,82544,1,2,0:0:0:0:
320,192,82544,1,4,0:0:0:0:
64,192,82544,128,0,82849:0:0:0:0:
320,192,82849,1,2,0:0:0:0:
192,192,82849,1,8,0:0:0:0:
448,192,82849,1,0,0:0:0:0:
64,192,83001,1,0,0:0:0:0:
192,192,83153,1,2,0:0:0:0:
448,192,83153,1,0,0:0:0:0:
320,192,83306,1,0,0:0:0:0:
64,192,83458,1,0,0:0:0:0:
192,192,83458,1,8,0:0:0:0:
448,192,83458,1,2,0:0:0:0:
320,192,83610,1,0,0:0:0:0:
64,192,83763,1,0,0:0:0:0:
448,192,83763,128,2,84067:0:0:0:0:
64,192,84067,1,0,0:0:0:0:
320,192,84067,1,8,0:0:0:0:
192,192,84067,1,2,0:0:0:0:
448,192,84219,1,0,0:0:0:0:
320,192,84372,1,2,0:0:0:0:
64,192,84372,1,0,0:0:0:0:
192,192,84524,1,0,0:0:0:0:
448,192,84676,1,0,0:0:0:0:
320,192,84676,1,8,0:0:0:0:
64,192,84676,1,2,0:0:0:0:
192,192,84829,1,0,0:0:0:0:
448,192,84981,1,2,0:0:0:0:
320,192,84981,1,4,0:0:0:0:
64,192,84981,1,0,0:0:0:0:
192,192,85133,1,2,0:0:0:0:
64,192,85285,1,0,0:0:0:0:
192,192,85285,1,8,0:0:0:0:
448,192,85285,1,2,0:0:0:0:
320,192,85438,1,2,0:0:0:0:
64,192,85590,1,0,0:0:0:0:
448,192,85590,1,2,0:0:0:0:
192,192,85742,1,2,0:0:0:0:
192,192,85895,1,2,0:0:0:0:
320,192,85895,1,8,0:0:0:0:
64,192,85895,1,0,0:0:0:0:
448,192,86047,1,2,0:0:0:0:
64,192,86199,1,0,0:0:0:0:
320,192,86199,1,2,0:0:0:0:
192,192,86351,1,2,0:0:0:0:
448,192,86504,1,0,0:0:0:0:
320,192,86504,1,8,0:0:0:0:
64,192,86504,1,2,0:0:0:0:
192,192,86656,1,2,0:0:0:0:
64,192,86808,1,2,0:0:0:0:
320,192,86808,1,0,0:0:0:0:
448,192,86961,1,2,0:0:0:0:
64,192,87113,1,2,0:0:0:0:
192,192,87113,1,8,0:0:0:0:
448,192,87113,1,0,0:0:0:0:
320,192,87265,1,2,0:0:0:0:
448,192,87417,1,0,0:0:0:0:
192,192,87417,1,4,0:0:0:0:
64,192,87417,1,2,0:0:0:0:
64,192,87570,1,2,0:0:0:0:
192,192,87722,1,0,0:0:0:0:
320,192,87722,1,8,0:0:0:0:
448,192,87722,1,2,0:0:0:0:
320,192,87874,1,2,0:0:0:0:
192,192,88027,1,0,0:0:0:0:
448,192,88027,1,2,0:0:0:0:
64,192,88179,1,2,0:0:0:0:
192,192,88331,1,2,0:0:0:0:
320,192,88331,1,8,0:0:0:0:
64,192,88331,1,0,0:0:0:0:
448,192,88483,1,2,0:0:0:0:
64,192,88636,1,0,0:0:0:0:
320,192,88636,1,4,0:0:0:0:
192,192,88636,1,2,0:0:0:0:
192,192,88788,1,2,0:0:0:0:
448,192,88940,1,0,0:0:0:0:
320,192,88940,1,8,0:0:0:0:
64,192,88940,1,2,0:0:0:0:
448,192,89093,1,2,0:0:0:0:
64,192,89245,1,2,0:0:0:0:
320,192,89245,1,0,0:0:0:0:
192,192,89397,1,2,0:0:0:0:
64,192,89549,1,2,0:0:0:0:
320,192,89549,1,8,0:0:0:0:
448,192,89549,1,0,0:0:0:0:
64,192,89702,1,2,0:0:0:0:
448,192,89854,1,0,0:0:0:0:
320,192,89854,1,4,0:0:0:0:
192,192,89854,1,2,0:0:0:0:
448,192,90006,1,2,0:0:0:0:
192,192,90159,1,2,0:0:0:0:
320,192,90159,1,8,0:0:0:0:
64,192,90159,1,0,0:0:0:0:
64,192,90311,1,2,0:0:0:0:
192,192,90463,1,0,0:0:0:0:
448,192,90463,1,2,0:0:0:0:
448,192,90615,1,2,0:0:0:0:
64,192,90768,1,0,0:0:0:0:
320,192,90768,1,8,0:0:0:0:
192,192,90768,1,2,0:0:0:0:
320,192,90920,1,2,0:0:0:0:
64,192,91072,1,2,0:0:0:0:
192,192,91072,1,0,0:0:0:0:
448,192,91225,1,2,0:0:0:0:
64,192,91377,1,2,0:0:0:0:
320,192,91377,1,8,0:0:0:0:
448,192,91377,1,0,0:0:0:0:
192,192,91529,1,2,0:0:0:0:
64,192,91681,1,2,0:0:0:0:
320,192,91681,1,0,0:0:0:0:
320,192,91834,1,2,0:0:0:0:
448,192,91986,1,0,0:0:0:0:
192,192,91986,1,8,0:0:0:0:
64,192,91986,1,2,0:0:0:0:
320,192,92138,1,2,0:0:0:0:
64,192,92291,1,2,0:0:0:0:
192,192,92291,1,4,0:0:0:0:
448,192,92291,1,0,0:0:0:0:
320,192,92367,1,0,0:0:0:0:
192,192,92443,1,0,0:0:0:0:
320,192,92519,1,0,0:0:0:0:
192,192,92595,1,8,0:0:0:0:
64,192,92595,1,2,0:0:0:0:
448,192,92595,1,0,0:0:0:0:
320,192,92747,1,0,0:0:0:0:
192,192,92824,1,0,0:0:0:0:
320,192,92900,1,8,0:0:0:0:
448,192,92900,1,2,0:0:0:0:
64,192,92900,1,0,0:0:0:0:
192,192,93052,1,0,0:0:0:0:
320,192,93128,1,0,0:0:0:0:
448,192,93204,1,0,0:0:0:0:
64,192,93204,1,2,0:0:0:0:
192,192,93204,1,8,0:0:0:0:
192,192,93357,1,8,0:0:0:0:
64,192,93357,1,2,0:0:0:0:
448,192,93357,1,0,0:0:0:0:
320,192,93509,1,0,0:0:0:0:
192,192,93585,1,0,0:0:0:0:
64,192,93661,1,0,0:0:0:0:
448,192,93661,1,2,0:0:0:0:
320,192,93661,1,8,0:0:0:0:
320,192,93813,1,8,0:0:0:0:
448,192,93813,1,2,0:0:0:0:
64,192,93813,1,0,0:0:0:0:
192,192,93966,1,0,0:0:0:0:
320,192,94042,1,0,0:0:0:0:
448,192,94118,1,0,0:0:0:0:
64,192,94118,1,8,3:0:0:0:
192,192,94194,1,0,0:0:0:0:
320,192,94270,1,0,0:0:0:0:
64,192,94346,1,0,0:0:0:0:
448,192,94423,1,0,0:0:0:0:
320,192,94423,1,2,0:0:0:0:
192,192,94423,1,8,0:0:0:0:
192,192,94575,1,4,0:0:0:0:
448,192,94575,1,2,0:0:0:0:
64,192,94575,1,0,0:0:0:0:
320,192,94879,1,0,0:0:0:0:
64,192,94879,1,2,0:0:0:0:
192,192,94956,1,0,0:0:0:0:
64,192,95032,1,0,0:0:0:0:
448,192,95032,1,2,0:0:0:0:
320,192,95032,1,8,0:0:0:0:
192,192,95336,1,2,0:0:0:0:
448,192,95336,1,0,0:0:0:0:
320,192,95489,1,0,0:0:0:0:
64,192,95489,1,2,0:0:0:0:
192,192,95641,1,8,0:0:0:0:
320,192,95641,1,2,0:0:0:0:
448,192,95641,1,0,0:0:0:0:
64,192,95793,1,0,0:0:0:0:
448,192,95793,1,2,0:0:0:0:
320,192,95945,5,2,0:0:0:0:
192,192,96098,1,0,0:0:0:0:
64,192,96098,1,2,0:0:0:0:
448,192,96250,1,0,0:0:0:0:
320,192,96250,1,2,0:0:0:0:
64,192,96250,1,8,0:0:0:0:
320,192,96554,1,2,0:0:0:0:
448,192,96554,1,0,0:0:0:0:
192,192,96707,1,0,0:0:0:0:
64,192,96707,1,2,0:0:0:0:
64,192,96859,1,8,0:0:0:0:
320,192,96859,1,2,0:0:0:0:
448,192,96859,1,0,0:0:0:0:
192,192,97011,1,2,0:0:0:0:
320,192,97011,1,4,0:0:0:0:
448,192,97011,1,0,0:0:0:0:
64,192,97316,1,0,0:0:0:0:
448,192,97316,1,2,0:0:0:0:
320,192,97392,1,0,0:0:0:0:
448,192,97468,1,0,0:0:0:0:
64,192,97468,1,2,0:0:0:0:
192,192,97468,1,8,0:0:0:0:
64,192,97773,1,2,0:0:0:0:
320,192,97773,1,0,0:0:0:0:
448,192,97849,1,0,0:0:0:0:
192,192,97925,1,0,0:0:0:0:
64,192,98001,1,0,0:0:0:0:
192,192,98077,1,8,0:0:0:0:
320,192,98077,1,2,0:0:0:0:
448,192,98077,1,0,0:0:0:0:
64,192,98230,1,0,0:0:0:0:
448,192,98230,1,2,0:0:0:0:
192,192,98306,1,0,0:0:0:0:
448,192,98382,1,0,0:0:0:0:
320,192,98382,1,2,0:0:0:0:
64,192,98382,1,8,0:0:0:0:
192,192,98534,1,0,0:0:0:0:
64,192,98610,1,0,0:0:0:0:
320,192,98686,1,8,0:0:0:0:
448,192,98686,1,0,0:0:0:0:
192,192,98763,1,8,0:0:0:0:
64,192,98763,1,0,0:0:0:0:
320,192,98839,1,8,0:0:0:0:
448,192,98839,1,0,0:0:0:0:
192,192,98915,1,8,0:0:0:0:
64,192,98915,1,0,0:0:0:0:
448,192,98991,1,0,0:0:0:0:
320,192,99067,1,0,0:0:0:0:
64,192,99143,1,0,0:0:0:0:
192,192,99219,1,0,0:0:0:0:
448,192,99296,1,0,0:0:0:0:
320,192,99372,1,0,0:0:0:0:
192,192,99448,1,4,0:0:0:0:
64,192,99448,1,2,0:0:0:0:
448,192,99448,1,0,0:0:0:0:
192,192,99752,1,0,0:0:0:0:
64,192,99752,1,2,0:0:0:0:
320,192,99829,1,0,0:0:0:0:
192,192,99905,1,8,0:0:0:0:
64,192,99905,1,2,0:0:0:0:
448,192,99905,1,0,0:0:0:0:
320,192,100209,1,2,0:0:0:0:
64,192,100209,1,0,0:0:0:0:
192,192,100362,1,0,0:0:0:0:
448,192,100362,1,2,0:0:0:0:
320,192,100514,1,8,0:0:0:0:
192,192,100514,1,2,0:0:0:0:
64,192,100514,1,0,0:0:0:0:
448,192,100666,1,0,0:0:0:0:
64,192,100666,1,2,0:0:0:0:
320,192,100818,1,2,0:0:0:0:
192,192,100971,1,0,0:0:0:0:
64,192,100971,1,2,0:0:0:0:
192,192,101123,1,0,0:0:0:0:
448,192,101123,1,2,0:0:0:0:
320,192,101123,1,8,0:0:0:0:
64,192,101428,1,2,0:0:0:0:
448,192,101428,1,0,0:0:0:0:
192,192,101580,1,0,0:0:0:0:
320,192,101580,1,2,0:0:0:0:
448,192,101732,1,8,0:0:0:0:
192,192,101732,1,2,0:0:0:0:
64,192,101732,1,0,0:0:0:0:
448,192,101884,1,2,0:0:0:0:
320,192,101884,1,4,0:0:0:0:
64,192,101884,1,0,0:0:0:0:
192,192,102189,1,0,0:0:0:0:
64,192,102189,1,2,0:0:0:0:
320,192,102265,1,0,0:0:0:0:
192,192,102341,1,8,0:0:0:0:
64,192,102341,1,2,0:0:0:0:
448,192,102341,1,0,0:0:0:0:
320,192,102494,1,8,3:0:0:0:
448,192,102494,1,0,0:0:0:0:
192,192,102570,1,8,3:0:0:0:
64,192,102570,1,0,0:0:0:0:
320,192,102646,1,0,0:0:0:0:
192,192,102722,1,0,0:0:0:0:
448,192,102798,1,0,0:0:0:0:
320,192,102798,1,8,3:0:0:0:
192,192,102874,1,8,3:0:0:0:
64,192,102874,1,0,0:0:0:0:
448,192,102950,1,0,0:0:0:0:
320,192,103027,1,0,0:0:0:0:
64,192,103103,1,0,0:0:0:0:
192,192,103179,1,0,0:0:0:0:
448,192,103255,1,0,0:0:0:0:
320,192,103255,1,8,3:0:0:0:
192,192,103331,1,8,3:0:0:0:
64,192,103331,1,0,0:0:0:0:
448,192,103407,1,0,0:0:0:0:
320,192,103483,1,0,0:0:0:0:
192,192,103560,1,8,3:0:0:0:
64,192,103560,1,0,0:0:0:0:
320,192,103636,1,8,3:0:0:0:
448,192,103636,1,0,0:0:0:0:
192,192,103712,1,0,0:0:0:0:
64,192,103788,1,0,0:0:0:0:
448,192,103864,1,0,0:0:0:0:
320,192,103864,1,8,3:0:0:0:
64,192,103940,1,0,0:0:0:0:
192,192,103940,1,8,3:0:0:0:
448,192,104016,1,0,0:0:0:0:
64,192,104093,1,0,0:0:0:0:
320,192,104169,1,8,0:0:0:0:
192,192,104169,1,2,0:0:0:0:
448,192,104169,1,0,0:0:0:0:
64,192,104321,1,2,0:0:0:0:
192,192,104321,1,4,0:0:0:0:
320,192,104321,1,0,0:0:0:0:
320,192,104626,1,0,0:0:0:0:
448,192,104626,1,2,0:0:0:0:
192,192,104702,1,0,0:0:0:0:
64,192,104778,1,0,0:0:0:0:
448,192,104778,1,2,0:0:0:0:
320,192,104778,1,8,0:0:0:0:
320,192,105082,1,2,0:0:0:0:
64,192,105082,1,0,0:0:0:0:
192,192,105235,1,0,0:0:0:0:
448,192,105235,1,2,0:0:0:0:
320,192,105387,1,8,0:0:0:0:
192,192,105387,1,2,0:0:0:0:
64,192,105387,1,0,0:0:0:0:
448,192,105539,1,0,0:0:0:0:
64,192,105539,1,2,0:0:0:0:
192,192,105692,1,2,0:0:0:0:
320,192,105844,1,0,0:0:0:0:
448,192,105844,1,2,0:0:0:0:
64,192,105996,1,0,0:0:0:0:
192,192,105996,1,2,0:0:0:0:
448,192,105996,1,8,0:0:0:0:
192,192,106301,1,2,0:0:0:0:
64,192,106301,1,0,0:0:0:0:
320,192,106453,1,0,0:0:0:0:
448,192,106453,1,2,0:0:0:0:
320,192,106605,1,8,0:0:0:0:
192,192,106605,1,2,0:0:0:0:
64,192,106605,1,0,0:0:0:0:
448,192,106758,1,2,0:0:0:0:
192,192,106758,1,4,0:0:0:0:
64,192,106758,1,0,0:0:0:0:
320,192,107062,1,0,0:0:0:0:
64,192,107062,1,2,0:0:0:0:
192,192,107138,1,0,0:0:0:0:
64,192,107214,1,0,0:0:0:0:
448,192,107214,1,2,0:0:0:0:
320,192,107214,1,8,0:0:0:0:
192,192,107519,1,0,0:0:0:0:
448,192,107519,1,2,0:0:0:0:
64,192,107595,1,0,0:0:0:0:
320,192,107671,1,0,0:0:0:0:
448,192,107747,1,0,0:0:0:0:
320,192,107824,1,8,0:0:0:0:
192,192,107824,1,2,0:0:0:0:
64,192,107824,1,0,0:0:0:0:
64,192,107976,1,0,0:0:0:0:
448,192,107976,1,2,0:0:0:0:
320,192,108052,1,0,0:0:0:0:
64,192,108128,1,0,0:0:0:0:
192,192,108128,1,2,0:0:0:0:
448,192,108128,1,8,0:0:0:0:
320,192,108280,1,0,0:0:0:0:
448,192,108357,1,0,0:0:0:0:
192,192,108433,1,8,0:0:0:0:
64,192,108433,1,0,0:0:0:0:
320,192,108509,1,8,0:0:0:0:
448,192,108509,1,0,0:0:0:0:
192,192,108585,1,8,0:0:0:0:
64,192,108585,1,0,0:0:0:0:
320,192,108661,1,8,0:0:0:0:
448,192,108661,1,0,0:0:0:0:
64,192,108737,1,0,0:0:0:0:
192,192,108813,1,0,0:0:0:0:
448,192,108890,1,0,0:0:0:0:
320,192,108966,1,0,0:0:0:0:
64,192,109042,1,0,0:0:0:0:
192,192,109118,1,0,0:0:0:0:
320,192,109194,1,4,0:0:0:0:
448,192,109194,1,2,0:0:0:0:
64,192,109194,1,0,0:0:0:0:
320,192,109499,1,0,0:0:0:0:
448,192,109499,1,2,0:0:0:0:
192,192,109575,1,0,0:0:0:0:
320,192,109651,1,8,0:0:0:0:
448,192,109651,1,2,0:0:0:0:
64,192,109651,1,0,0:0:0:0:
192,192,109956,1,2,0:0:0:0:
448,192,109956,1,0,0:0:0:0:
320,192,110108,1,0,0:0:0:0:
64,192,110108,1,2,0:0:0:0:
192,192,110260,1,8,0:0:0:0:
320,192,110260,1,2,0:0:0:0:
448,192,110260,1,0,0:0:0:0:
64,192,110412,1,0,0:0:0:0:
448,192,110412,1,2,0:0:0:0:
192,192,110565,1,2,0:0:0:0:
320,192,110717,1,0,0:0:0:0:
448,192,110717,1,2,0:0:0:0:
320,192,110869,1,0,0:0:0:0:
64,192,110869,1,2,0:0:0:0:
192,192,110869,1,8,0:0:0:0:
320,192,111174,1,2,0:0:0:0:
192,192,111174,1,0,0:0:0:0:
448,192,111326,1,0,0:0:0:0:
64,192,111326,1,2,0:0:0:0:
192,192,111478,1,8,0:0:0:0:
320,192,111478,1,2,0:0:0:0:
448,192,111478,1,0,0:0:0:0:
64,192,111631,1,2,0:0:0:0:
192,192,111631,1,4,0:0:0:0:
320,192,111631,1,0,0:0:0:0:
320,192,111935,1,0,0:0:0:0:
448,192,111935,1,2,0:0:0:0:
192,192,112011,1,0,0:0:0:0:
320,192,112087,1,8,0:0:0:0:
448,192,112087,1,2,0:0:0:0:
64,192,112087,1,0,0:0:0:0:
192,192,112240,1,0,0:0:0:0:
64,192,112240,1,2,0:0:0:0:
320,192,112316,1,0,0:0:0:0:
64,192,112392,1,8,0:0:0:0:
448,192,112392,1,0,0:0:0:0:
192,192,112392,1,2,0:0:0:0:
320,192,112468,1,0,0:0:0:0:
448,192,112544,1,0,0:0:0:0:
192,192,112620,1,0,0:0:0:0:
320,192,112697,1,0,0:0:0:0:
64,192,112773,1,0,0:0:0:0:
192,192,112849,1,0,0:0:0:0:
320,192,112925,1,0,0:0:0:0:
192,192,113001,1,0,0:0:0:0:
64,192,113001,1,8,0:0:0:0:
448,192,113001,1,2,0:0:0:0:
320,192,113077,1,0,0:0:0:0:
64,192,113153,1,0,0:0:0:0:
448,192,113230,1,0,0:0:0:0:
192,192,113306,1,0,0:0:0:0:
448,192,113382,1,0,0:0:0:0:
192,192,113458,1,0,0:0:0:0:
320,192,113534,1,0,0:0:0:0:
448,192,113610,1,2,0:0:0:0:
64,192,113610,1,0,0:0:0:0:
192,192,113610,1,8,0:0:0:0:
192,192,113763,1,8,0:0:0:0:
64,192,113763,1,0,0:0:0:0:
448,192,113763,1,2,0:0:0:0:
192,192,113915,1,8,0:0:0:0:
448,192,113915,1,2,0:0:0:0:
64,192,113915,1,0,0:0:0:0:
448,192,114067,1,2,0:0:0:0:
64,192,114067,1,0,0:0:0:0:
192,192,114067,1,8,0:0:0:0:
448,192,114219,1,2,0:0:0:0:
320,192,114219,1,4,0:0:0:0:
64,192,114219,1,0,0:0:0:0:
64,192,114372,1,8,0:0:0:0:
192,192,114372,1,0,0:0:0:0:
320,192,114524,1,2,0:0:0:0:
448,192,114524,1,0,0:0:0:0:
192,192,114600,1,0,0:0:0:0:
64,192,114676,1,8,0:0:0:0:
448,192,114676,1,0,0:0:0:0:
320,192,114829,1,2,0:0:0:0:
192,192,114829,1,0,0:0:0:0:
64,192,114981,1,0,0:0:0:0:
448,192,114981,1,8,0:0:0:0:
320,192,115133,1,0,0:0:0:0:
192,192,115133,1,2,0:0:0:0:
64,192,115209,1,0,0:0:0:0:
448,192,115285,1,8,0:0:0:0:
320,192,115285,1,0,0:0:0:0:
64,192,115438,1,0,0:0:0:0:
192,192,115438,1,2,0:0:0:0:
448,192,115590,1,0,0:0:0:0:
320,192,115590,1,8,0:0:0:0:
192,192,115742,1,2,0:0:0:0:
64,192,115742,1,0,0:0:0:0:
320,192,115818,1,0,0:0:0:0:
192,192,115895,1,0,0:0:0:0:
448,192,115895,1,8,0:0:0:0:
64,192,116047,1,2,0:0:0:0:
320,192,116047,1,0,0:0:0:0:
192,192,116199,1,8,0:0:0:0:
448,192,116199,1,0,0:0:0:0:
64,192,116351,1,0,0:0:0:0:
320,192,116351,1,2,0:0:0:0:
192,192,116428,1,0,0:0:0:0:
448,192,116504,1,8,0:0:0:0:
64,192,116504,1,0,0:0:0:0:
320,192,116656,1,0,0:0:0:0:
192,192,116656,1,2,0:0:0:0:
448,192,116656,1,4,0:0:0:0:
320,192,116808,1,0,0:0:0:0:
64,192,116808,1,8,0:0:0:0:
192,192,116961,1,2,0:0:0:0:
448,192,116961,1,0,0:0:0:0:
320,192,117037,1,0,0:0:0:0:
64,192,117113,1,0,0:0:0:0:
192,192,117113,1,8,0:0:0:0:
448,192,117265,1,2,0:0:0:0:
320,192,117265,1,0,0:0:0:0:
64,192,117417,1,8,0:0:0:0:
192,192,117417,1,0,0:0:0:0:
320,192,117570,1,0,0:0:0:0:
448,192,117570,1,2,0:0:0:0:
192,192,117646,1,0,0:0:0:0:
448,192,117722,1,8,0:0:0:0:
64,192,117722,1,0,0:0:0:0:
320,192,117874,1,0,0:0:0:0:
192,192,117874,1,2,0:0:0:0:
448,192,118027,1,0,0:0:0:0:
64,192,118027,1,8,0:0:0:0:
192,192,118179,1,2,0:0:0:0:
320,192,118179,1,0,0:0:0:0:
64,192,118255,1,0,0:0:0:0:
192,192,118331,1,0,0:0:0:0:
448,192,118331,1,8,0:0:0:0:
64,192,118483,1,2,0:0:0:0:
320,192,118483,1,0,0:0:0:0:
64,192,118636,1,8,0:0:0:0:
448,192,118636,1,2,0:0:0:0:
192,192,118636,1,0,0:0:0:0:
448,192,118788,1,8,0:0:0:0:
64,192,118788,1,0,0:0:0:0:
192,192,118788,1,2,0:0:0:0:
320,192,119093,1,0,0:0:0:0:
192,192,119093,1,2,0:0:0:0:
64,192,119093,1,4,0:0:0:0:
320,192,119245,1,2,0:0:0:0:
448,192,119245,1,0,0:0:0:0:
192,192,119397,1,2,0:0:0:0:
64,192,119397,1,8,0:0:0:0:
448,192,119397,1,0,0:0:0:0:
320,192,119549,1,0,0:0:0:0:
192,192,119549,1,2,0:0:0:0:
64,192,119702,1,2,0:0:0:0:
448,192,119702,1,0,0:0:0:0:
64,192,119854,1,2,0:0:0:0:
192,192,119854,1,0,0:0:0:0:
320,192,120006,1,8,0:0:0:0:
448,192,120006,1,0,0:0:0:0:
192,192,120006,1,2,0:0:0:0:
448,192,120159,1,2,0:0:0:0:
320,192,120159,1,0,0:0:0:0:
64,192,120311,1,2,0:0:0:0:
192,192,120311,1,0,0:0:0:0:
64,192,120463,1,2,0:0:0:0:
448,192,120463,1,0,0:0:0:0:
448,192,120615,1,0,0:0:0:0:
320,192,120615,1,8,0:0:0:0:
192,192,120615,1,2,0:0:0:0:
320,192,120768,1,0,0:0:0:0:
64,192,120768,1,2,0:0:0:0:
448,192,120920,1,0,0:0:0:0:
192,192,120920,1,2,0:0:0:0:
320,192,121072,1,0,0:0:0:0:
64,192,121072,1,2,0:0:0:0:
192,192,121225,1,2,0:0:0:0:
320,192,121225,1,8,0:0:0:0:
448,192,121225,1,0,0:0:0:0:
192,192,121377,1,2,0:0:0:0:
64,192,121377,1,0,0:0:0:0:
320,192,121529,1,2,0:0:0:0:
448,192,121529,1,0,0:0:0:0:
64,192,121681,1,2,0:0:0:0:
448,192,121681,1,0,0:0:0:0:
64,192,121834,1,0,0:0:0:0:
320,192,121834,1,8,0:0:0:0:
192,192,121834,1,2,0:0:0:0:
320,192,121986,1,0,0:0:0:0:
448,192,121986,1,2,0:0:0:0:
448,192,122138,1,0,0:0:0:0:
64,192,122138,1,2,0:0:0:0:
320,192,122291,1,0,0:0:0:0:
192,192,122291,1,2,0:0:0:0:
64,192,122443,1,2,0:0:0:0:
192,192,122443,1,8,0:0:0:0:
448,192,122443,1,0,0:0:0:0:
448,192,122595,1,2,0:0:0:0:
320,192,122595,1,0,0:0:0:0:
64,192,122747,1,2,0:0:0:0:
192,192,122747,1,0,0:0:0:0:
192,192,122900,1,2,0:0:0:0:
448,192,122900,1,0,0:0:0:0:
448,192,123052,1,0,0:0:0:0:
320,192,123052,1,8,0:0:0:0:
64,192,123052,1,2,0:0:0:0:
320,192,123204,1,0,0:0:0:0:
192,192,123204,1,2,0:0:0:0:
192,192,123357,1,10,0:0:0:0:
64,192,123357,1,0,0:0:0:0:
320,192,123395,1,8,0:0:0:0:
448,192,123395,1,0,0:0:0:0:
192,192,123509,1,0,0:0:0:0:
64,192,123509,1,2,0:0:0:0:
320,192,123661,1,0,0:0:0:0:
448,192,123661,1,8,3:0:0:0:
64,192,123813,1,2,0:0:0:0:
192,192,123813,1,0,0:0:0:0:
320,192,123966,1,8,0:0:0:0:
64,192,123966,1,2,0:0:0:0:
448,192,123966,128,0,124461:0:0:0:0:
64,192,124270,1,2,0:0:0:0:
320,192,124461,1,0,0:0:0:0:
192,192,124518,1,0,0:0:0:0:
64,192,124575,1,0,0:0:0:0:
320,192,124575,1,8,0:0:0:0:
448,192,124613,1,0,0:0:0:0:
64,192,124727,1,2,0:0:0:0:
192,192,124727,1,0,0:0:0:0:
64,192,125184,1,2,0:0:0:0:
320,192,125184,1,4,2:0:0:0:
448,192,125184,1,4,0:0:0:0:
192,192,125184,1,0,0:0:0:0:
