osu file format v14

[General]
AudioFilename: SHAYC.mp3
AudioLeadIn: 0
PreviewTime: 144784
Countdown: 0
SampleSet: Soft
StackLeniency: 0.7
Mode: 3
LetterboxInBreaks: 0
SpecialStyle: 1
WidescreenStoryboard: 1

[Editor]
DistanceSpacing: 1
BeatDivisor: 2
GridSize: 4
TimelineZoom: 1.2856

[Metadata]
Title:Scream Hard as You Can
TitleUnicode:Scream Hard as You Can
Artist:Fear, and Loathing in Las Vegas
ArtistUnicode:Fear, and Loathing in Las Vegas
Creator:dosyeru
Version:Normal
Source:
Tags:julie kawaee j-pop All That We Have Now
BeatmapID:682250
BeatmapSetID:304539

[Difficulty]
HPDrainRate:7
CircleSize:8
OverallDifficulty:8
ApproachRate:5
SliderMultiplier:1.4
SliderTickRate:1

[Events]
//Background and Video events
0,0,"bg.jpg",0,0
//Break Periods
//Storyboard Layer 0 (Background)
//Storyboard Layer 1 (Fail)
//Storyboard Layer 2 (Pass)
//Storyboard Layer 3 (Foreground)
//Storyboard Sound Samples

[TimingPoints]
-231,303.030303030303,4,2,0,5,1,0
127043,250,4,2,0,5,1,0
127043,-121.212121212121,4,2,0,5,0,0
129049,250,4,2,0,5,1,0
129049,-121.212121212121,4,2,0,5,0,0

[HitObjects]
224,192,526,5,0,0:0:0:0:
352,192,678,1,0,0:0:0:0:
96,192,829,1,0,0:0:0:0:
96,192,1132,1,0,0:0:0:0:
352,192,1284,1,0,0:0:0:0:
160,192,1435,1,0,0:0:0:0:
288,192,1587,1,0,0:0:0:0:
416,192,1738,1,0,0:0:0:0:
96,192,2041,1,0,0:0:0:0:
96,192,2344,1,0,0:0:0:0:
352,192,2496,1,0,0:0:0:0:
160,192,2647,1,0,0:0:0:0:
288,192,2799,1,0,0:0:0:0:
416,192,2950,1,0,0:0:0:0:
96,192,3253,1,0,0:0:0:0:
96,192,3556,1,0,0:0:0:0:
352,192,3708,1,0,0:0:0:0:
160,192,3859,1,0,0:0:0:0:
288,192,4011,1,0,0:0:0:0:
416,192,4162,1,0,0:0:0:0:
32,192,4465,1,0,0:0:0:0:
480,192,4465,1,0,0:0:0:0:
32,192,4769,1,0,0:0:0:0:
352,192,4769,1,0,0:0:0:0:
32,192,5072,1,0,0:0:0:0:
224,192,5072,1,0,0:0:0:0:
96,192,5375,1,0,0:0:0:0:
32,192,5678,1,0,0:0:0:0:
416,192,5678,1,0,0:0:0:0:
416,192,5981,1,0,0:0:0:0:
160,192,6132,1,0,0:0:0:0:
416,192,6435,1,0,0:0:0:0:
160,192,6738,1,0,0:0:0:0:
416,192,7041,1,0,0:0:0:0:
160,192,7344,1,0,0:0:0:0:
416,192,7647,1,0,0:0:0:0:
160,192,7950,1,0,0:0:0:0:
416,192,8253,1,0,0:0:0:0:
160,192,8556,1,0,0:0:0:0:
416,192,8859,1,0,0:0:0:0:
160,192,9162,1,0,0:0:0:0:
480,192,9314,1,0,0:0:0:0:
352,192,9465,1,0,0:0:0:0:
224,192,9617,1,0,0:0:0:0:
96,192,9769,1,0,0:0:0:0:
32,192,9920,1,0,0:0:0:0:
288,192,9920,1,0,0:0:0:0:
32,192,10223,1,0,0:0:0:0:
288,192,10223,1,0,0:0:0:0:
32,192,10526,1,0,0:0:0:0:
224,192,10526,1,0,0:0:0:0:
352,192,10526,1,0,0:0:0:0:
96,192,10829,1,0,0:0:0:0:
352,192,10981,1,0,0:0:0:0:
96,192,11132,1,0,0:0:0:0:
352,192,11284,1,0,0:0:0:0:
96,192,11435,1,0,0:0:0:0:
352,192,11587,1,0,0:0:0:0:
96,192,11738,1,0,0:0:0:0:
352,192,11890,1,0,0:0:0:0:
96,192,12041,1,0,0:0:0:0:
352,192,12193,1,0,0:0:0:0:
96,192,12344,1,0,0:0:0:0:
352,192,12496,1,0,0:0:0:0:
96,192,12647,1,0,0:0:0:0:
352,192,12799,1,0,0:0:0:0:
32,192,12950,1,0,0:0:0:0:
224,192,12950,1,0,0:0:0:0:
224,192,13253,1,0,0:0:0:0:
480,192,13405,1,0,0:0:0:0:
224,192,13556,1,0,0:0:0:0:
480,192,13708,1,0,0:0:0:0:
224,192,13859,1,0,0:0:0:0:
480,192,14011,1,0,0:0:0:0:
224,192,14162,1,0,0:0:0:0:
416,192,14314,1,0,0:0:0:0:
160,192,14465,1,0,0:0:0:0:
416,192,14617,1,0,0:0:0:0:
96,192,14768,1,0,0:0:0:0:
224,192,14920,1,0,0:0:0:0:
352,192,15072,1,0,0:0:0:0:
480,192,15223,1,0,0:0:0:0:
288,192,15375,1,0,0:0:0:0:
32,192,15375,1,0,0:0:0:0:
288,192,15678,1,0,0:0:0:0:
416,192,15829,1,0,0:0:0:0:
224,192,15981,1,0,0:0:0:0:
352,192,16132,1,0,0:0:0:0:
480,192,16284,1,0,0:0:0:0:
32,192,16587,1,0,0:0:0:0:
416,192,16587,1,0,0:0:0:0:
160,192,16890,1,0,0:0:0:0:
288,192,17041,1,0,0:0:0:0:
416,192,17193,1,0,0:0:0:0:
352,192,17344,1,0,0:0:0:0:
224,192,17496,1,0,0:0:0:0:
96,192,17647,1,0,0:0:0:0:
32,192,17799,1,0,0:0:0:0:
288,192,17799,1,0,0:0:0:0:
224,192,18102,1,0,0:0:0:0:
480,192,18253,1,0,0:0:0:0:
352,192,18405,1,0,0:0:0:0:
224,192,18556,1,0,0:0:0:0:
160,192,18859,1,0,0:0:0:0:
416,192,19011,1,0,0:0:0:0:
160,192,19314,1,0,0:0:0:0:
416,192,19465,1,0,0:0:0:0:
224,192,19769,1,0,0:0:0:0:
352,192,19920,1,0,0:0:0:0:
224,192,20072,1,0,0:0:0:0:
352,192,20223,1,0,0:0:0:0:
32,192,20375,1,0,0:0:0:0:
96,192,20375,1,0,0:0:0:0:
288,192,20526,1,0,0:0:0:0:
96,192,20678,1,0,0:0:0:0:
288,192,20829,1,0,0:0:0:0:
160,192,20981,1,0,0:0:0:0:
352,192,21132,1,0,0:0:0:0:
160,192,21284,1,0,0:0:0:0:
352,192,21435,1,0,0:0:0:0:
224,192,21587,1,0,0:0:0:0:
416,192,21738,1,0,0:0:0:0:
224,192,21890,1,0,0:0:0:0:
416,192,22041,1,0,0:0:0:0:
288,192,22193,1,0,0:0:0:0:
480,192,22344,1,0,0:0:0:0:
288,192,22496,1,0,0:0:0:0:
480,192,22647,1,0,0:0:0:0:
288,192,22799,1,0,0:0:0:0:
416,192,22799,1,0,0:0:0:0:
160,192,22950,1,0,0:0:0:0:
288,192,23102,1,0,0:0:0:0:
352,192,23253,1,0,0:0:0:0:
224,192,23253,1,0,0:0:0:0:
96,192,23405,1,0,0:0:0:0:
288,192,23556,1,0,0:0:0:0:
160,192,23556,1,0,0:0:0:0:
96,192,23708,1,0,0:0:0:0:
224,192,23859,1,0,0:0:0:0:
352,192,24011,1,0,0:0:0:0:
32,192,24011,1,0,0:0:0:0:
160,192,24162,1,0,0:0:0:0:
288,192,24314,1,0,0:0:0:0:
416,192,24465,1,0,0:0:0:0:
480,192,24617,1,0,0:0:0:0:
288,192,24768,1,0,0:0:0:0:
32,192,25072,1,0,0:0:0:0:
224,192,25072,1,0,0:0:0:0:
352,192,25072,1,0,0:0:0:0:
96,192,25375,1,0,0:0:0:0:
352,192,25526,1,0,0:0:0:0:
96,192,25678,1,0,0:0:0:0:
160,192,25829,1,0,0:0:0:0:
288,192,25981,1,0,0:0:0:0:
416,192,26132,1,0,0:0:0:0:
352,192,26435,1,0,0:0:0:0:
160,192,26587,1,0,0:0:0:0:
288,192,26738,1,0,0:0:0:0:
224,192,26890,1,0,0:0:0:0:
96,192,27041,1,0,0:0:0:0:
352,192,27193,1,0,0:0:0:0:
96,192,27344,1,0,0:0:0:0:
224,192,27496,1,0,0:0:0:0:
224,192,27799,1,0,0:0:0:0:
96,192,27950,1,0,0:0:0:0:
352,192,28102,1,0,0:0:0:0:
96,192,28253,1,0,0:0:0:0:
416,192,28405,1,0,0:0:0:0:
288,192,28556,1,0,0:0:0:0:
160,192,28708,1,0,0:0:0:0:
480,192,28859,1,0,0:0:0:0:
224,192,29011,1,0,0:0:0:0:
224,192,29162,1,0,0:0:0:0:
416,192,29314,1,0,0:0:0:0:
160,192,29465,1,0,0:0:0:0:
352,192,29617,1,0,0:0:0:0:
96,192,29768,1,0,0:0:0:0:
288,192,29920,1,0,0:0:0:0:
288,192,30223,1,0,0:0:0:0:
224,192,30375,1,0,0:0:0:0:
352,192,30526,1,0,0:0:0:0:
224,192,30678,1,0,0:0:0:0:
480,192,30829,1,0,0:0:0:0:
224,192,30981,1,0,0:0:0:0:
416,192,31132,1,0,0:0:0:0:
416,192,31284,1,0,0:0:0:0:
352,192,31435,1,0,0:0:0:0:
288,192,31587,1,0,0:0:0:0:
224,192,31738,1,0,0:0:0:0:
160,192,31890,1,0,0:0:0:0:
288,192,32041,1,0,0:0:0:0:
160,192,32193,1,0,0:0:0:0:
288,192,32344,1,0,0:0:0:0:
224,192,32647,1,0,0:0:0:0:
480,192,32799,1,0,0:0:0:0:
224,192,32950,1,0,0:0:0:0:
416,192,33102,1,0,0:0:0:0:
160,192,33253,1,0,0:0:0:0:
416,192,33405,1,0,0:0:0:0:
224,192,33708,1,0,0:0:0:0:
224,192,33859,1,0,0:0:0:0:
352,192,34011,1,0,0:0:0:0:
224,192,34162,1,0,0:0:0:0:
288,192,34314,1,0,0:0:0:0:
288,192,34617,1,0,0:0:0:0:
32,192,34769,1,0,0:0:0:0:
224,192,34769,1,0,0:0:0:0:
352,192,34769,1,0,0:0:0:0:
224,192,35072,1,0,0:0:0:0:
352,192,35072,1,0,0:0:0:0:
288,192,35223,1,0,0:0:0:0:
96,192,35526,1,0,0:0:0:0:
224,192,35678,1,0,0:0:0:0:
352,192,35829,1,0,0:0:0:0:
224,192,35981,1,0,0:0:0:0:
160,192,36132,1,0,0:0:0:0:
288,192,36284,1,0,0:0:0:0:
160,192,36435,1,0,0:0:0:0:
288,192,36587,1,0,0:0:0:0:
416,192,36738,1,0,0:0:0:0:
288,192,36890,1,0,0:0:0:0:
416,192,37041,1,0,0:0:0:0:
288,192,37193,1,0,0:0:0:0:
480,192,37344,1,0,0:0:0:0:
480,192,37496,1,0,0:0:0:0:
352,192,37647,1,0,0:0:0:0:
480,192,37950,1,0,0:0:0:0:
352,192,38102,1,0,0:0:0:0:
224,192,38253,1,0,0:0:0:0:
352,192,38405,1,0,0:0:0:0:
160,192,38556,1,0,0:0:0:0:
288,192,38708,1,0,0:0:0:0:
160,192,38859,1,0,0:0:0:0:
288,192,39011,1,0,0:0:0:0:
224,192,39162,1,0,0:0:0:0:
352,192,39314,1,0,0:0:0:0:
224,192,39465,1,0,0:0:0:0:
352,192,39617,1,0,0:0:0:0:
480,192,39769,1,0,0:0:0:0:
224,192,39920,1,0,0:0:0:0:
416,192,40072,1,0,0:0:0:0:
288,192,40223,1,0,0:0:0:0:
160,192,40375,1,0,0:0:0:0:
224,192,40526,1,0,0:0:0:0:
416,192,40678,1,0,0:0:0:0:
288,192,40829,1,0,0:0:0:0:
160,192,40981,1,0,0:0:0:0:
224,192,41132,1,0,0:0:0:0:
96,192,41284,1,0,0:0:0:0:
352,192,41435,1,0,0:0:0:0:
288,192,41738,1,0,0:0:0:0:
160,192,41890,1,0,0:0:0:0:
416,192,42041,1,0,0:0:0:0:
32,192,42193,1,0,0:0:0:0:
224,192,42193,1,0,0:0:0:0:
288,192,42344,1,0,0:0:0:0:
352,192,42496,1,0,0:0:0:0:
416,192,42647,1,0,0:0:0:0:
96,192,42799,1,0,0:0:0:0:
224,192,42950,1,0,0:0:0:0:
352,192,43102,1,0,0:0:0:0:
480,192,43253,1,0,0:0:0:0:
96,192,43405,1,0,0:0:0:0:
288,192,43556,1,0,0:0:0:0:
160,192,43708,1,0,0:0:0:0:
352,192,43859,1,0,0:0:0:0:
224,192,44011,1,0,0:0:0:0:
416,192,44162,1,0,0:0:0:0:
288,192,44314,1,0,0:0:0:0:
480,192,44465,1,0,0:0:0:0:
32,192,44617,1,0,0:0:0:0:
352,192,44617,1,0,0:0:0:0:
224,192,44768,1,0,0:0:0:0:
352,192,44920,1,0,0:0:0:0:
352,192,45223,1,0,0:0:0:0:
224,192,45375,1,0,0:0:0:0:
352,192,45526,1,0,0:0:0:0:
352,192,45829,1,0,0:0:0:0:
224,192,45981,1,0,0:0:0:0:
352,192,46132,1,0,0:0:0:0:
352,192,46435,1,0,0:0:0:0:
224,192,46587,1,0,0:0:0:0:
288,192,46738,1,0,0:0:0:0:
224,192,47041,1,0,0:0:0:0:
352,192,47193,1,0,0:0:0:0:
224,192,47344,1,0,0:0:0:0:
224,192,47647,1,0,0:0:0:0:
352,192,47799,1,0,0:0:0:0:
224,192,47950,1,0,0:0:0:0:
160,192,48253,1,0,0:0:0:0:
416,192,48405,1,0,0:0:0:0:
160,192,48556,1,0,0:0:0:0:
160,192,48859,1,0,0:0:0:0:
288,192,49011,1,0,0:0:0:0:
416,192,49162,1,0,0:0:0:0:
480,192,49465,1,0,0:0:0:0:
96,192,49465,1,0,0:0:0:0:
480,192,49768,1,0,0:0:0:0:
224,192,49920,1,0,0:0:0:0:
480,192,50072,1,0,0:0:0:0:
224,192,50223,1,0,0:0:0:0:
480,192,50375,1,0,0:0:0:0:
224,192,50526,1,0,0:0:0:0:
352,192,50678,1,0,0:0:0:0:
160,192,50829,1,0,0:0:0:0:
352,192,50981,1,0,0:0:0:0:
160,192,51132,1,0,0:0:0:0:
352,192,51284,1,0,0:0:0:0:
160,192,51435,1,0,0:0:0:0:
352,192,51587,1,0,0:0:0:0:
160,192,51738,1,0,0:0:0:0:
416,192,51890,1,0,0:0:0:0:
224,192,52041,1,0,0:0:0:0:
416,192,52193,1,0,0:0:0:0:
224,192,52344,1,0,0:0:0:0:
416,192,52496,1,0,0:0:0:0:
96,192,52647,1,0,0:0:0:0:
224,192,52799,1,0,0:0:0:0:
480,192,52950,1,0,0:0:0:0:
32,192,53102,1,0,0:0:0:0:
288,192,54011,1,0,0:0:0:0:
32,192,54314,1,0,0:0:0:0:
416,192,54314,1,0,0:0:0:0:
160,192,54617,1,0,0:0:0:0:
416,192,54920,1,0,0:0:0:0:
288,192,55072,1,0,0:0:0:0:
160,192,55223,1,0,0:0:0:0:
352,192,55375,1,0,0:0:0:0:
96,192,55678,1,0,0:0:0:0:
480,192,55829,1,0,0:0:0:0:
96,192,56132,1,0,0:0:0:0:
288,192,56435,1,0,0:0:0:0:
416,192,56587,1,0,0:0:0:0:
96,192,56738,1,0,0:0:0:0:
352,192,57041,1,0,0:0:0:0:
224,192,57193,1,0,0:0:0:0:
96,192,57344,1,0,0:0:0:0:
416,192,57496,1,0,0:0:0:0:
288,192,57647,1,0,0:0:0:0:
160,192,57799,1,0,0:0:0:0:
160,192,58102,1,0,0:0:0:0:
96,192,58253,1,0,0:0:0:0:
352,192,58405,1,0,0:0:0:0:
224,192,58556,1,0,0:0:0:0:
96,192,58708,1,0,0:0:0:0:
352,192,58859,1,0,0:0:0:0:
96,192,59011,1,0,0:0:0:0:
32,192,59162,1,0,0:0:0:0:
416,192,59162,1,0,0:0:0:0:
160,192,59465,1,0,0:0:0:0:
352,192,59768,1,0,0:0:0:0:
224,192,60072,1,0,0:0:0:0:
480,192,60223,1,0,0:0:0:0:
288,192,60526,1,0,0:0:0:0:
416,192,60678,1,0,0:0:0:0:
96,192,60981,1,0,0:0:0:0:
224,192,61132,1,0,0:0:0:0:
352,192,61284,1,0,0:0:0:0:
480,192,61435,1,0,0:0:0:0:
96,192,61587,1,0,0:0:0:0:
416,192,61738,1,0,0:0:0:0:
160,192,61890,1,0,0:0:0:0:
288,192,62041,1,0,0:0:0:0:
416,192,62193,1,0,0:0:0:0:
160,192,62344,1,0,0:0:0:0:
288,192,62496,1,0,0:0:0:0:
352,192,62647,1,0,0:0:0:0:
224,192,62799,1,0,0:0:0:0:
96,192,62950,1,0,0:0:0:0:
352,192,63102,1,0,0:0:0:0:
224,192,63253,1,0,0:0:0:0:
96,192,63405,1,0,0:0:0:0:
160,192,63556,1,0,0:0:0:0:
288,192,63708,1,0,0:0:0:0:
416,192,63859,1,0,0:0:0:0:
480,192,64011,1,0,0:0:0:0:
96,192,64011,1,0,0:0:0:0:
224,192,64314,1,0,0:0:0:0:
480,192,64617,1,0,0:0:0:0:
352,192,64768,1,0,0:0:0:0:
224,192,64920,1,0,0:0:0:0:
416,192,65072,1,0,0:0:0:0:
160,192,65375,1,0,0:0:0:0:
480,192,65678,1,0,0:0:0:0:
288,192,65981,1,0,0:0:0:0:
96,192,66284,1,0,0:0:0:0:
352,192,66435,1,0,0:0:0:0:
224,192,66738,1,0,0:0:0:0:
288,192,67041,1,0,0:0:0:0:
416,192,67193,1,0,0:0:0:0:
160,192,67344,1,0,0:0:0:0:
480,192,67496,1,0,0:0:0:0:
352,192,67647,1,0,0:0:0:0:
224,192,67799,1,0,0:0:0:0:
96,192,67950,1,0,0:0:0:0:
224,192,68102,1,0,0:0:0:0:
288,192,68253,1,0,0:0:0:0:
416,192,68405,1,0,0:0:0:0:
288,192,68556,1,0,0:0:0:0:
160,192,68708,1,0,0:0:0:0:
32,192,68859,5,0,0:0:0:0:
480,192,68859,1,0,0:0:0:0:
352,192,68859,1,0,0:0:0:0:
416,192,69465,1,0,0:0:0:0:
160,192,69465,1,0,0:0:0:0:
352,192,70072,1,0,0:0:0:0:
224,192,70072,1,0,0:0:0:0:
160,192,70678,1,0,0:0:0:0:
288,192,70678,1,0,0:0:0:0:
352,192,70981,1,0,0:0:0:0:
32,192,71284,1,0,0:0:0:0:
224,192,71284,1,0,0:0:0:0:
352,192,71435,1,0,0:0:0:0:
224,192,71587,1,0,0:0:0:0:
416,192,71890,1,0,0:0:0:0:
288,192,72041,1,0,0:0:0:0:
480,192,72344,1,0,0:0:0:0:
352,192,72496,1,0,0:0:0:0:
288,192,72647,1,0,0:0:0:0:
480,192,72799,1,0,0:0:0:0:
352,192,72950,1,0,0:0:0:0:
224,192,73102,1,0,0:0:0:0:
160,192,73253,1,0,0:0:0:0:
96,192,73405,1,0,0:0:0:0:
224,192,73556,1,0,0:0:0:0:
160,192,73708,1,0,0:0:0:0:
352,192,73859,1,0,0:0:0:0:
224,192,74011,1,0,0:0:0:0:
416,192,74314,1,0,0:0:0:0:
288,192,74465,1,0,0:0:0:0:
480,192,74769,1,0,0:0:0:0:
352,192,74920,1,0,0:0:0:0:
224,192,75072,1,0,0:0:0:0:
416,192,75223,1,0,0:0:0:0:
352,192,75375,1,0,0:0:0:0:
288,192,75526,1,0,0:0:0:0:
224,192,75678,1,0,0:0:0:0:
160,192,75829,1,0,0:0:0:0:
288,192,75981,1,0,0:0:0:0:
32,192,76132,1,0,0:0:0:0:
224,192,76132,1,0,0:0:0:0:
352,192,76284,1,0,0:0:0:0:
224,192,76435,1,0,0:0:0:0:
416,192,76738,1,0,0:0:0:0:
288,192,76890,1,0,0:0:0:0:
480,192,77193,1,0,0:0:0:0:
352,192,77344,1,0,0:0:0:0:
288,192,77496,1,0,0:0:0:0:
416,192,77647,1,0,0:0:0:0:
352,192,77799,1,0,0:0:0:0:
224,192,77950,1,0,0:0:0:0:
160,192,78102,1,0,0:0:0:0:
288,192,78253,1,0,0:0:0:0:
416,192,78405,1,0,0:0:0:0:
352,192,78708,1,0,0:0:0:0:
96,192,78859,1,0,0:0:0:0:
416,192,79162,1,0,0:0:0:0:
160,192,79314,1,0,0:0:0:0:
480,192,79617,1,0,0:0:0:0:
224,192,79769,1,0,0:0:0:0:
96,192,80072,1,0,0:0:0:0:
352,192,80223,1,0,0:0:0:0:
160,192,80375,1,0,0:0:0:0:
416,192,80526,1,0,0:0:0:0:
224,192,80678,1,0,0:0:0:0:
480,192,80829,1,0,0:0:0:0:
96,192,80981,1,0,0:0:0:0:
32,192,80981,1,0,0:0:0:0:
224,192,81132,1,0,0:0:0:0:
480,192,81284,1,0,0:0:0:0:
224,192,81435,1,0,0:0:0:0:
96,192,81587,1,0,0:0:0:0:
352,192,81738,1,0,0:0:0:0:
96,192,81890,1,0,0:0:0:0:
352,192,82041,1,0,0:0:0:0:
160,192,82193,1,0,0:0:0:0:
416,192,82344,1,0,0:0:0:0:
288,192,82496,1,0,0:0:0:0:
160,192,82647,1,0,0:0:0:0:
352,192,82799,1,0,0:0:0:0:
224,192,82950,1,0,0:0:0:0:
288,192,83102,1,0,0:0:0:0:
96,192,83405,1,0,0:0:0:0:
352,192,83556,1,0,0:0:0:0:
96,192,83708,1,0,0:0:0:0:
96,192,83859,1,0,0:0:0:0:
352,192,84011,1,0,0:0:0:0:
96,192,84162,1,0,0:0:0:0:
96,192,84314,1,0,0:0:0:0:
416,192,84465,1,0,0:0:0:0:
160,192,84617,1,0,0:0:0:0:
416,192,84768,1,0,0:0:0:0:
160,192,84920,1,0,0:0:0:0:
416,192,85072,1,0,0:0:0:0:
224,192,85223,1,0,0:0:0:0:
352,192,85375,1,0,0:0:0:0:
224,192,85526,1,0,0:0:0:0:
352,192,85678,1,0,0:0:0:0:
32,192,85829,1,0,0:0:0:0:
480,192,85829,1,0,0:0:0:0:
224,192,85981,1,0,0:0:0:0:
480,192,86132,1,0,0:0:0:0:
224,192,86284,1,0,0:0:0:0:
96,192,86435,1,0,0:0:0:0:
352,192,86587,1,0,0:0:0:0:
96,192,86738,1,0,0:0:0:0:
352,192,86890,1,0,0:0:0:0:
160,192,87041,1,0,0:0:0:0:
416,192,87193,1,0,0:0:0:0:
288,192,87344,1,0,0:0:0:0:
160,192,87496,1,0,0:0:0:0:
352,192,87647,1,0,0:0:0:0:
224,192,87799,1,0,0:0:0:0:
288,192,87950,1,0,0:0:0:0:
96,192,88253,1,0,0:0:0:0:
352,192,88405,1,0,0:0:0:0:
96,192,88556,1,0,0:0:0:0:
96,192,88708,1,0,0:0:0:0:
352,192,88859,1,0,0:0:0:0:
96,192,89011,1,0,0:0:0:0:
96,192,89162,1,0,0:0:0:0:
416,192,89314,1,0,0:0:0:0:
160,192,89465,1,0,0:0:0:0:
416,192,89617,1,0,0:0:0:0:
160,192,89768,1,0,0:0:0:0:
416,192,89920,1,0,0:0:0:0:
224,192,90072,1,0,0:0:0:0:
352,192,90223,1,0,0:0:0:0:
224,192,90375,1,0,0:0:0:0:
32,192,90526,1,0,0:0:0:0:
416,192,90526,1,0,0:0:0:0:
288,192,90829,1,0,0:0:0:0:
160,192,90981,1,0,0:0:0:0:
288,192,91132,1,0,0:0:0:0:
416,192,91284,1,0,0:0:0:0:
288,192,91435,1,0,0:0:0:0:
160,192,91587,1,0,0:0:0:0:
288,192,91738,1,0,0:0:0:0:
480,192,91890,1,0,0:0:0:0:
352,192,92041,1,0,0:0:0:0:
160,192,92193,1,0,0:0:0:0:
288,192,92344,1,0,0:0:0:0:
416,192,92496,1,0,0:0:0:0:
224,192,92647,1,0,0:0:0:0:
96,192,92799,1,0,0:0:0:0:
352,192,92950,1,0,0:0:0:0:
224,192,93253,1,0,0:0:0:0:
96,192,93405,1,0,0:0:0:0:
224,192,93556,1,0,0:0:0:0:
352,192,93708,1,0,0:0:0:0:
224,192,93859,1,0,0:0:0:0:
96,192,94011,1,0,0:0:0:0:
224,192,94162,1,0,0:0:0:0:
416,192,94314,1,0,0:0:0:0:
288,192,94465,1,0,0:0:0:0:
160,192,94617,1,0,0:0:0:0:
288,192,94768,1,0,0:0:0:0:
352,192,94920,1,0,0:0:0:0:
224,192,95072,1,0,0:0:0:0:
288,192,95223,1,0,0:0:0:0:
160,192,95375,1,0,0:0:0:0:
96,192,95526,1,0,0:0:0:0:
224,192,95678,1,0,0:0:0:0:
288,192,95829,1,0,0:0:0:0:
416,192,95981,1,0,0:0:0:0:
224,192,96284,1,0,0:0:0:0:
352,192,96435,1,0,0:0:0:0:
480,192,96587,1,0,0:0:0:0:
416,192,96890,1,0,0:0:0:0:
288,192,97041,1,0,0:0:0:0:
160,192,97193,1,0,0:0:0:0:
224,192,97496,1,0,0:0:0:0:
352,192,97647,1,0,0:0:0:0:
288,192,97950,1,0,0:0:0:0:
416,192,97950,1,0,0:0:0:0:
352,192,98556,1,0,0:0:0:0:
224,192,98556,1,0,0:0:0:0:
288,192,98784,1,0,0:0:0:0:
224,192,99011,1,0,0:0:0:0:
160,192,99162,1,0,0:0:0:0:
352,192,99162,1,0,0:0:0:0:
480,192,99390,1,0,0:0:0:0:
288,192,99390,1,0,0:0:0:0:
96,192,99617,1,0,0:0:0:0:
224,192,99617,1,0,0:0:0:0:
352,192,99768,1,0,0:0:0:0:
480,192,99768,1,0,0:0:0:0:
288,192,100072,1,0,0:0:0:0:
96,192,100223,1,0,0:0:0:0:
480,192,100223,1,0,0:0:0:0:
32,192,100223,1,0,0:0:0:0:
416,192,100678,1,0,0:0:0:0:
160,192,100981,1,0,0:0:0:0:
160,192,101284,1,0,0:0:0:0:
32,192,101587,1,0,0:0:0:0:
352,192,101890,1,0,0:0:0:0:
96,192,102193,1,0,0:0:0:0:
352,192,102496,1,0,0:0:0:0:
224,192,102647,1,0,0:0:0:0:
416,192,102799,1,0,0:0:0:0:
288,192,102950,1,0,0:0:0:0:
160,192,103102,1,0,0:0:0:0:
416,192,103102,1,0,0:0:0:0:
160,192,103253,1,0,0:0:0:0:
160,192,103556,1,0,0:0:0:0:
160,192,103708,1,0,0:0:0:0:
416,192,103708,1,0,0:0:0:0:
160,192,104011,1,0,0:0:0:0:
288,192,104162,1,0,0:0:0:0:
160,192,104314,1,0,0:0:0:0:
416,192,104314,1,0,0:0:0:0:
96,192,104617,1,0,0:0:0:0:
224,192,104768,1,0,0:0:0:0:
96,192,104920,1,0,0:0:0:0:
352,192,104920,1,0,0:0:0:0:
160,192,105223,1,0,0:0:0:0:
288,192,105375,1,0,0:0:0:0:
160,192,105526,1,0,0:0:0:0:
416,192,105526,1,0,0:0:0:0:
224,192,105829,1,0,0:0:0:0:
352,192,105981,1,0,0:0:0:0:
224,192,106132,1,0,0:0:0:0:
480,192,106132,1,0,0:0:0:0:
160,192,106435,1,0,0:0:0:0:
288,192,106587,1,0,0:0:0:0:
160,192,106738,1,0,0:0:0:0:
416,192,106738,1,0,0:0:0:0:
96,192,107041,1,0,0:0:0:0:
224,192,107193,1,0,0:0:0:0:
96,192,107344,1,0,0:0:0:0:
352,192,107344,1,0,0:0:0:0:
416,192,107647,1,0,0:0:0:0:
288,192,107799,1,0,0:0:0:0:
160,192,107950,1,0,0:0:0:0:
416,192,107950,1,0,0:0:0:0:
416,192,108102,1,0,0:0:0:0:
416,192,108405,1,0,0:0:0:0:
160,192,108556,1,0,0:0:0:0:
416,192,108556,1,0,0:0:0:0:
416,192,108859,1,0,0:0:0:0:
288,192,109011,1,0,0:0:0:0:
160,192,109162,1,0,0:0:0:0:
416,192,109162,1,0,0:0:0:0:
480,192,109465,1,0,0:0:0:0:
352,192,109617,1,0,0:0:0:0:
224,192,109768,1,0,0:0:0:0:
480,192,109768,1,0,0:0:0:0:
416,192,110072,1,0,0:0:0:0:
288,192,110223,1,0,0:0:0:0:
160,192,110375,1,0,0:0:0:0:
416,192,110375,1,0,0:0:0:0:
480,192,110678,1,0,0:0:0:0:
352,192,110829,1,0,0:0:0:0:
224,192,110981,1,0,0:0:0:0:
480,192,110981,1,0,0:0:0:0:
416,192,111284,1,0,0:0:0:0:
288,192,111435,1,0,0:0:0:0:
160,192,111587,1,0,0:0:0:0:
416,192,111587,1,0,0:0:0:0:
352,192,111890,1,0,0:0:0:0:
224,192,112041,1,0,0:0:0:0:
96,192,112193,1,0,0:0:0:0:
352,192,112193,1,0,0:0:0:0:
288,192,112496,128,0,113708:0:0:0:0:
160,192,113708,1,0,0:0:0:0:
416,192,113859,1,0,0:0:0:0:
160,192,114011,1,0,0:0:0:0:
416,192,114162,1,0,0:0:0:0:
160,192,114314,1,0,0:0:0:0:
32,192,114920,1,0,0:0:0:0:
96,192,114920,1,0,0:0:0:0:
352,192,114920,1,0,0:0:0:0:
352,192,115072,1,0,0:0:0:0:
96,192,115072,1,0,0:0:0:0:
96,192,115526,1,0,0:0:0:0:
352,192,115526,1,0,0:0:0:0:
96,192,115678,1,0,0:0:0:0:
352,192,115678,1,0,0:0:0:0:
96,192,116132,1,0,0:0:0:0:
352,192,116132,1,0,0:0:0:0:
96,192,116284,1,0,0:0:0:0:
352,192,116284,1,0,0:0:0:0:
96,192,116738,1,0,0:0:0:0:
352,192,116738,1,0,0:0:0:0:
96,192,116890,1,0,0:0:0:0:
352,192,116890,1,0,0:0:0:0:
480,192,117344,1,0,0:0:0:0:
224,192,117344,1,0,0:0:0:0:
224,192,117496,1,0,0:0:0:0:
480,192,117496,1,0,0:0:0:0:
224,192,117950,1,0,0:0:0:0:
480,192,117950,1,0,0:0:0:0:
224,192,118102,1,0,0:0:0:0:
480,192,118102,1,0,0:0:0:0:
96,192,118556,1,0,0:0:0:0:
224,192,118556,1,0,0:0:0:0:
480,192,118708,1,0,0:0:0:0:
352,192,118708,1,0,0:0:0:0:
96,192,118859,1,0,0:0:0:0:
224,192,118859,1,0,0:0:0:0:
352,192,119162,1,0,0:0:0:0:
480,192,119162,1,0,0:0:0:0:
224,192,119314,1,0,0:0:0:0:
96,192,119314,1,0,0:0:0:0:
352,192,119465,1,0,0:0:0:0:
480,192,119465,1,0,0:0:0:0:
160,192,119768,1,0,0:0:0:0:
416,192,119768,1,0,0:0:0:0:
160,192,119920,1,0,0:0:0:0:
416,192,119920,1,0,0:0:0:0:
160,192,120375,1,0,0:0:0:0:
416,192,120375,1,0,0:0:0:0:
160,192,120526,1,0,0:0:0:0:
416,192,120526,1,0,0:0:0:0:
160,192,120981,1,0,0:0:0:0:
416,192,120981,1,0,0:0:0:0:
160,192,121132,1,0,0:0:0:0:
416,192,121132,1,0,0:0:0:0:
160,192,121587,1,0,0:0:0:0:
416,192,121587,1,0,0:0:0:0:
160,192,121738,1,0,0:0:0:0:
416,192,121738,1,0,0:0:0:0:
416,192,122193,1,0,0:0:0:0:
160,192,122193,1,0,0:0:0:0:
160,192,122344,1,0,0:0:0:0:
416,192,122344,1,0,0:0:0:0:
160,192,122799,1,0,0:0:0:0:
416,192,122799,1,0,0:0:0:0:
416,192,122950,1,0,0:0:0:0:
160,192,122950,1,0,0:0:0:0:
224,192,123405,1,0,0:0:0:0:
352,192,123405,1,0,0:0:0:0:
480,192,123556,1,0,0:0:0:0:
96,192,123556,1,0,0:0:0:0:
224,192,123708,1,0,0:0:0:0:
352,192,123708,1,0,0:0:0:0:
96,192,124011,1,0,0:0:0:0:
480,192,124011,1,0,0:0:0:0:
224,192,124162,1,0,0:0:0:0:
352,192,124162,1,0,0:0:0:0:
96,192,124314,1,0,0:0:0:0:
480,192,124314,1,0,0:0:0:0:
224,192,124617,1,0,0:0:0:0:
352,192,124617,1,0,0:0:0:0:
96,192,124768,1,0,0:0:0:0:
480,192,124768,1,0,0:0:0:0:
416,192,125072,1,0,0:0:0:0:
160,192,125072,1,0,0:0:0:0:
160,192,125375,1,0,0:0:0:0:
416,192,125375,1,0,0:0:0:0:
96,192,125526,1,0,0:0:0:0:
480,192,125526,1,0,0:0:0:0:
416,192,125829,1,0,0:0:0:0:
288,192,126132,1,0,0:0:0:0:
160,192,126435,1,0,0:0:0:0:
352,192,126738,1,0,0:0:0:0:
32,192,127043,1,0,0:0:0:0:
224,192,127043,1,0,0:0:0:0:
480,192,127043,1,0,0:0:0:0:
416,192,127293,1,0,0:0:0:0:
352,192,127418,1,0,0:0:0:0:
416,192,127543,1,0,0:0:0:0:
160,192,127668,1,0,0:0:0:0:
160,192,127918,1,0,0:0:0:0:
224,192,128168,1,0,0:0:0:0:
352,192,128293,1,0,0:0:0:0:
224,192,128418,1,0,0:0:0:0:
352,192,128543,1,0,0:0:0:0:
224,192,128668,1,0,0:0:0:0:
352,192,128793,1,0,0:0:0:0:
224,192,128918,1,0,0:0:0:0:
352,192,129043,1,0,0:0:0:0:
32,192,129049,1,0,0:0:0:0:
416,192,129174,1,0,0:0:0:0:
352,192,129424,1,0,0:0:0:0:
416,192,129549,1,0,0:0:0:0:
352,192,129799,1,0,0:0:0:0:
416,192,129924,1,0,0:0:0:0:
352,192,130174,1,0,0:0:0:0:
416,192,130299,1,0,0:0:0:0:
352,192,130549,1,0,0:0:0:0:
416,192,130674,1,0,0:0:0:0:
352,192,130924,1,0,0:0:0:0:
224,192,131049,1,0,0:0:0:0:
160,192,131174,1,0,0:0:0:0:
224,192,131424,1,0,0:0:0:0:
160,192,131549,1,0,0:0:0:0:
224,192,131799,1,0,0:0:0:0:
160,192,131924,1,0,0:0:0:0:
224,192,132174,1,0,0:0:0:0:
160,192,132299,1,0,0:0:0:0:
224,192,132549,1,0,0:0:0:0:
160,192,132674,1,0,0:0:0:0:
224,192,132924,1,0,0:0:0:0:
160,192,133049,1,0,0:0:0:0:
416,192,133174,1,0,0:0:0:0:
160,192,133424,1,0,0:0:0:0:
416,192,133549,1,0,0:0:0:0:
160,192,133799,1,0,0:0:0:0:
416,192,133924,1,0,0:0:0:0:
160,192,134174,1,0,0:0:0:0:
416,192,134299,1,0,0:0:0:0:
160,192,134549,1,0,0:0:0:0:
416,192,134674,1,0,0:0:0:0:
416,192,134924,1,0,0:0:0:0:
352,192,135049,1,0,0:0:0:0:
224,192,135174,1,0,0:0:0:0:
352,192,135424,1,0,0:0:0:0:
224,192,135549,1,0,0:0:0:0:
352,192,135799,1,0,0:0:0:0:
96,192,135924,1,0,0:0:0:0:
352,192,136174,1,0,0:0:0:0:
96,192,136299,1,0,0:0:0:0:
352,192,136549,1,0,0:0:0:0:
96,192,136674,1,0,0:0:0:0:
352,192,136799,1,0,0:0:0:0:
96,192,136924,1,0,0:0:0:0:
160,192,137049,1,0,0:0:0:0:
416,192,137174,1,0,0:0:0:0:
160,192,137424,1,0,0:0:0:0:
416,192,137549,1,0,0:0:0:0:
160,192,137799,1,0,0:0:0:0:
416,192,137924,1,0,0:0:0:0:
160,192,138174,1,0,0:0:0:0:
416,192,138299,1,0,0:0:0:0:
160,192,138549,1,0,0:0:0:0:
416,192,138674,1,0,0:0:0:0:
416,192,138924,1,0,0:0:0:0:
480,192,139049,1,0,0:0:0:0:
352,192,139174,1,0,0:0:0:0:
480,192,139424,1,0,0:0:0:0:
352,192,139549,1,0,0:0:0:0:
480,192,139799,1,0,0:0:0:0:
352,192,139924,1,0,0:0:0:0:
480,192,140174,1,0,0:0:0:0:
352,192,140299,1,0,0:0:0:0:
480,192,140549,1,0,0:0:0:0:
352,192,140674,1,0,0:0:0:0:
480,192,140924,1,0,0:0:0:0:
96,192,141049,1,0,0:0:0:0:
224,192,141174,1,0,0:0:0:0:
96,192,141424,1,0,0:0:0:0:
224,192,141549,1,0,0:0:0:0:
96,192,141799,1,0,0:0:0:0:
224,192,141924,1,0,0:0:0:0:
96,192,142174,1,0,0:0:0:0:
224,192,142299,1,0,0:0:0:0:
96,192,142549,1,0,0:0:0:0:
224,192,142674,1,0,0:0:0:0:
96,192,142924,1,0,0:0:0:0:
32,192,143049,1,0,0:0:0:0:
416,192,143049,1,0,0:0:0:0:
288,192,143174,1,0,0:0:0:0:
416,192,143424,1,0,0:0:0:0:
288,192,143549,1,0,0:0:0:0:
416,192,143799,1,0,0:0:0:0:
288,192,143924,1,0,0:0:0:0:
416,192,144049,1,0,0:0:0:0:
288,192,144174,1,0,0:0:0:0:
160,192,144299,1,0,0:0:0:0:
32,192,144549,5,0,0:0:0:0:
32,192,145049,1,0,0:0:0:0:
96,192,145049,1,0,0:0:0:0:
96,192,145549,1,0,0:0:0:0:
352,192,145549,1,0,0:0:0:0:
96,192,146049,1,0,0:0:0:0:
352,192,146174,1,0,0:0:0:0:
96,192,146549,1,0,0:0:0:0:
352,192,146549,1,0,0:0:0:0:
160,192,147049,1,0,0:0:0:0:
160,192,147549,1,0,0:0:0:0:
416,192,147549,1,0,0:0:0:0:
160,192,148049,1,0,0:0:0:0:
416,192,148174,1,0,0:0:0:0:
288,192,148299,1,0,0:0:0:0:
160,192,148549,1,0,0:0:0:0:
416,192,148549,1,0,0:0:0:0:
32,192,149049,1,0,0:0:0:0:
32,192,149299,1,0,0:0:0:0:
32,192,149549,1,0,0:0:0:0:
352,192,149549,1,0,0:0:0:0:
96,192,150049,1,0,0:0:0:0:
352,192,150174,1,0,0:0:0:0:
96,192,150549,1,0,0:0:0:0:
352,192,150549,1,0,0:0:0:0:
32,192,151049,1,0,0:0:0:0:
32,192,151299,1,0,0:0:0:0:
32,192,151549,1,0,0:0:0:0:
416,192,151549,1,0,0:0:0:0:
160,192,152049,1,0,0:0:0:0:
416,192,152174,1,0,0:0:0:0:
288,192,152424,1,0,0:0:0:0:
224,192,152549,1,0,0:0:0:0:
480,192,152674,1,0,0:0:0:0:
160,192,152799,1,0,0:0:0:0:
416,192,152924,1,0,0:0:0:0:
96,192,153049,1,0,0:0:0:0:
32,192,153049,1,0,0:0:0:0:
96,192,153549,1,0,0:0:0:0:
480,192,153549,1,0,0:0:0:0:
96,192,154049,1,0,0:0:0:0:
480,192,154174,1,0,0:0:0:0:
96,192,154549,1,0,0:0:0:0:
480,192,154549,1,0,0:0:0:0:
224,192,155049,1,0,0:0:0:0:
352,192,155549,1,0,0:0:0:0:
224,192,155549,1,0,0:0:0:0:
224,192,156049,1,0,0:0:0:0:
352,192,156174,1,0,0:0:0:0:
224,192,156549,1,0,0:0:0:0:
352,192,156549,1,0,0:0:0:0:
32,192,157049,1,0,0:0:0:0:
32,192,157299,1,0,0:0:0:0:
32,192,157549,1,0,0:0:0:0:
480,192,157549,1,0,0:0:0:0:
96,192,158049,1,0,0:0:0:0:
480,192,158174,1,0,0:0:0:0:
96,192,158549,1,0,0:0:0:0:
480,192,158549,1,0,0:0:0:0:
32,192,159049,1,0,0:0:0:0:
32,192,159299,1,0,0:0:0:0:
32,192,159549,1,0,0:0:0:0:
352,192,159549,1,0,0:0:0:0:
96,192,160049,5,0,0:0:0:0:
288,192,160174,1,0,0:0:0:0:
160,192,160299,1,0,0:0:0:0:
352,192,160424,1,0,0:0:0:0:
224,192,160549,1,0,0:0:0:0:
416,192,160674,1,0,0:0:0:0:
288,192,160799,1,0,0:0:0:0:
480,192,160924,1,0,0:0:0:0:
32,192,161049,1,0,0:0:0:0:
352,192,161049,1,0,0:0:0:0:
352,192,161299,1,0,0:0:0:0:
352,192,161549,1,0,0:0:0:0:
352,192,161799,1,0,0:0:0:0:
224,192,161924,1,0,0:0:0:0:
352,192,162049,1,0,0:0:0:0:
416,192,162174,1,0,0:0:0:0:
288,192,162299,1,0,0:0:0:0:
160,192,162424,1,0,0:0:0:0:
224,192,162549,1,0,0:0:0:0:
352,192,162674,1,0,0:0:0:0:
224,192,162799,1,0,0:0:0:0:
160,192,163049,1,0,0:0:0:0:
288,192,163299,1,0,0:0:0:0:
416,192,163549,1,0,0:0:0:0:
352,192,163799,1,0,0:0:0:0:
224,192,163924,1,0,0:0:0:0:
224,192,164174,1,0,0:0:0:0:
352,192,164299,1,0,0:0:0:0:
160,192,164549,1,0,0:0:0:0:
416,192,164674,1,0,0:0:0:0:
224,192,164924,1,0,0:0:0:0:
352,192,165049,1,0,0:0:0:0:
32,192,165049,1,0,0:0:0:0:
224,192,165299,1,0,0:0:0:0:
224,192,165549,1,0,0:0:0:0:
352,192,165674,1,0,0:0:0:0:
224,192,165799,1,0,0:0:0:0:
96,192,165924,1,0,0:0:0:0:
96,192,166174,1,0,0:0:0:0:
416,192,166549,1,0,0:0:0:0:
288,192,166799,1,0,0:0:0:0:
416,192,166924,1,0,0:0:0:0:
480,192,167049,1,0,0:0:0:0:
352,192,167299,1,0,0:0:0:0:
224,192,167549,1,0,0:0:0:0:
160,192,167799,1,0,0:0:0:0:
416,192,168049,1,0,0:0:0:0:
224,192,168174,1,0,0:0:0:0:
480,192,168549,1,0,0:0:0:0:
32,192,169049,1,0,0:0:0:0:
352,192,169049,1,0,0:0:0:0:
352,192,169299,1,0,0:0:0:0:
352,192,169549,1,0,0:0:0:0:
352,192,169799,1,0,0:0:0:0:
224,192,169924,1,0,0:0:0:0:
352,192,170049,1,0,0:0:0:0:
480,192,170174,1,0,0:0:0:0:
352,192,170424,1,0,0:0:0:0:
224,192,170549,1,0,0:0:0:0:
352,192,170674,1,0,0:0:0:0:
288,192,170799,1,0,0:0:0:0:
160,192,171049,1,0,0:0:0:0:
288,192,171299,1,0,0:0:0:0:
416,192,171549,1,0,0:0:0:0:
352,192,171799,1,0,0:0:0:0:
224,192,171924,1,0,0:0:0:0:
224,192,172174,1,0,0:0:0:0:
352,192,172299,1,0,0:0:0:0:
288,192,172549,1,0,0:0:0:0:
160,192,172799,1,0,0:0:0:0:
416,192,172924,1,0,0:0:0:0:
32,192,173049,1,0,0:0:0:0:
416,192,173049,1,0,0:0:0:0:
288,192,173299,1,0,0:0:0:0:
416,192,173549,1,0,0:0:0:0:
224,192,173799,1,0,0:0:0:0:
96,192,173924,1,0,0:0:0:0:
96,192,174174,1,0,0:0:0:0:
480,192,174549,1,0,0:0:0:0:
352,192,174799,1,0,0:0:0:0:
480,192,174924,1,0,0:0:0:0:
224,192,175049,1,0,0:0:0:0:
96,192,175174,1,0,0:0:0:0:
288,192,175299,1,0,0:0:0:0:
416,192,175424,1,0,0:0:0:0:
224,192,175549,1,0,0:0:0:0:
352,192,175674,1,0,0:0:0:0:
160,192,175799,1,0,0:0:0:0:
288,192,175924,1,0,0:0:0:0:
96,192,176049,1,0,0:0:0:0:
224,192,176299,1,0,0:0:0:0:
352,192,176549,1,0,0:0:0:0:
480,192,176799,1,0,0:0:0:0:
32,192,177049,1,0,0:0:0:0:
288,192,177049,1,0,0:0:0:0:
160,192,177424,1,0,0:0:0:0:
416,192,177799,1,0,0:0:0:0:
224,192,178049,1,0,0:0:0:0:
352,192,178174,1,0,0:0:0:0:
352,192,178549,1,0,0:0:0:0:
96,192,178799,1,0,0:0:0:0:
32,192,179049,1,0,0:0:0:0:
224,192,179049,1,0,0:0:0:0:
96,192,179299,1,0,0:0:0:0:
480,192,179299,1,0,0:0:0:0:
352,192,179549,1,0,0:0:0:0:
96,192,179799,1,0,0:0:0:0:
480,192,179799,1,0,0:0:0:0:
224,192,180049,1,0,0:0:0:0:
96,192,180299,1,0,0:0:0:0:
480,192,180299,1,0,0:0:0:0:
352,192,180549,1,0,0:0:0:0:
96,192,180799,1,0,0:0:0:0:
480,192,180799,1,0,0:0:0:0:
224,192,181049,1,0,0:0:0:0:
480,192,181299,1,0,0:0:0:0:
96,192,181299,1,0,0:0:0:0:
352,192,181549,1,0,0:0:0:0:
480,192,181799,1,0,0:0:0:0:
96,192,181799,1,0,0:0:0:0:
224,192,182049,1,0,0:0:0:0:
480,192,182299,1,0,0:0:0:0:
96,192,182299,1,0,0:0:0:0:
352,192,182549,1,0,0:0:0:0:
96,192,182799,1,0,0:0:0:0:
480,192,182799,1,0,0:0:0:0:
224,192,183049,1,0,0:0:0:0:
32,192,183049,1,0,0:0:0:0:
224,192,183174,1,0,0:0:0:0:
352,192,183424,1,0,0:0:0:0:
480,192,183674,1,0,0:0:0:0:
288,192,183924,1,0,0:0:0:0:
288,192,184174,1,0,0:0:0:0:
416,192,184299,1,0,0:0:0:0:
352,192,184424,1,0,0:0:0:0:
288,192,184549,1,0,0:0:0:0:
224,192,184674,1,0,0:0:0:0:
160,192,184799,1,0,0:0:0:0:
288,192,184924,1,0,0:0:0:0:
224,192,185049,1,0,0:0:0:0:
224,192,185174,1,0,0:0:0:0:
352,192,185424,1,0,0:0:0:0:
480,192,185674,1,0,0:0:0:0:
288,192,185924,1,0,0:0:0:0:
288,192,186174,1,0,0:0:0:0:
224,192,186299,1,0,0:0:0:0:
416,192,186549,1,0,0:0:0:0:
160,192,186799,1,0,0:0:0:0:
32,192,187049,1,0,0:0:0:0:
352,192,187049,1,0,0:0:0:0:
224,192,187174,1,0,0:0:0:0:
96,192,187424,1,0,0:0:0:0:
160,192,187799,1,0,0:0:0:0:
224,192,188049,1,0,0:0:0:0:
352,192,188299,1,0,0:0:0:0:
480,192,188549,1,0,0:0:0:0:
352,192,188799,1,0,0:0:0:0:
416,192,189049,1,0,0:0:0:0:
224,192,189299,1,0,0:0:0:0:
352,192,189549,1,0,0:0:0:0:
160,192,189799,1,0,0:0:0:0:
352,192,190049,1,0,0:0:0:0:
224,192,190174,1,0,0:0:0:0:
352,192,190424,1,0,0:0:0:0:
224,192,191049,1,0,0:0:0:0:
32,192,191049,1,0,0:0:0:0:
352,192,191299,1,0,0:0:0:0:
288,192,191549,1,0,0:0:0:0:
416,192,191799,1,0,0:0:0:0:
352,192,191924,1,0,0:0:0:0:
224,192,192174,1,0,0:0:0:0:
160,192,192299,1,0,0:0:0:0:
288,192,192549,1,0,0:0:0:0:
416,192,192799,1,0,0:0:0:0:
480,192,193049,1,0,0:0:0:0:
224,192,193299,1,0,0:0:0:0:
416,192,193549,1,0,0:0:0:0:
288,192,193674,1,0,0:0:0:0:
352,192,193924,5,0,0:0:0:0:
96,192,194174,1,0,0:0:0:0:
160,192,194549,1,0,0:0:0:0:
416,192,194799,1,0,0:0:0:0:
96,192,195049,5,0,0:0:0:0:
352,192,195049,1,0,0:0:0:0:
96,192,195299,1,0,0:0:0:0:
352,192,195299,1,0,0:0:0:0:
96,192,195549,1,0,0:0:0:0:
352,192,195549,1,0,0:0:0:0:
96,192,195799,1,0,0:0:0:0:
352,192,195799,1,0,0:0:0:0:
224,192,196049,1,0,0:0:0:0:
480,192,196049,1,0,0:0:0:0:
224,192,196299,1,0,0:0:0:0:
480,192,196299,1,0,0:0:0:0:
224,192,196549,1,0,0:0:0:0:
480,192,196549,1,0,0:0:0:0:
224,192,196799,1,0,0:0:0:0:
480,192,196799,1,0,0:0:0:0:
160,192,197049,1,0,0:0:0:0:
288,192,197049,1,0,0:0:0:0:
160,192,197299,1,0,0:0:0:0:
288,192,197424,1,0,0:0:0:0:
160,192,197674,1,0,0:0:0:0:
288,192,197799,1,0,0:0:0:0:
160,192,197924,5,0,0:0:0:0:
288,192,198049,1,0,0:0:0:0:
416,192,198049,1,0,0:0:0:0:
352,192,198174,1,0,0:0:0:0:
160,192,198424,1,0,0:0:0:0:
416,192,198549,1,0,0:0:0:0:
288,192,198674,1,0,0:0:0:0:
32,192,199049,5,0,0:0:0:0:
352,192,199049,1,0,0:0:0:0:
224,192,199174,1,0,0:0:0:0:
160,192,199424,1,0,0:0:0:0:
416,192,199674,1,0,0:0:0:0:
352,192,199924,1,0,0:0:0:0:
224,192,200049,1,0,0:0:0:0:
288,192,200299,1,0,0:0:0:0:
288,192,200549,1,0,0:0:0:0:
480,192,200799,1,0,0:0:0:0:
96,192,200924,1,0,0:0:0:0:
352,192,201049,1,0,0:0:0:0:
224,192,201174,1,0,0:0:0:0:
160,192,201424,1,0,0:0:0:0:
416,192,201674,1,0,0:0:0:0:
352,192,201924,1,0,0:0:0:0:
224,192,202049,1,0,0:0:0:0:
416,192,202299,1,0,0:0:0:0:
288,192,202549,1,0,0:0:0:0:
160,192,202799,1,0,0:0:0:0:
32,192,203049,1,0,0:0:0:0:
32,192,203299,1,0,0:0:0:0:
32,192,203549,1,0,0:0:0:0:
288,192,203549,1,0,0:0:0:0:
32,192,203799,1,0,0:0:0:0:
288,192,204174,1,0,0:0:0:0:
32,192,204299,1,0,0:0:0:0:
288,192,204549,1,0,0:0:0:0:
32,192,204799,1,0,0:0:0:0:
352,192,205049,1,0,0:0:0:0:
32,192,205299,1,0,0:0:0:0:
32,192,205549,1,0,0:0:0:0:
224,192,205549,1,0,0:0:0:0:
352,192,205799,1,0,0:0:0:0:
224,192,206049,1,0,0:0:0:0:
32,192,206299,1,0,0:0:0:0:
352,192,206299,1,0,0:0:0:0:
224,192,206549,1,0,0:0:0:0:
32,192,206799,1,0,0:0:0:0:
352,192,206799,1,0,0:0:0:0:
416,192,207049,1,0,0:0:0:0:
160,192,207174,1,0,0:0:0:0:
224,192,207424,1,0,0:0:0:0:
352,192,207674,1,0,0:0:0:0:
416,192,207924,1,0,0:0:0:0:
160,192,208049,1,0,0:0:0:0:
288,192,208299,1,0,0:0:0:0:
288,192,208549,1,0,0:0:0:0:
480,192,208799,1,0,0:0:0:0:
96,192,208924,1,0,0:0:0:0:
416,192,209049,1,0,0:0:0:0:
160,192,209174,1,0,0:0:0:0:
224,192,209424,1,0,0:0:0:0:
352,192,209674,1,0,0:0:0:0:
416,192,209924,1,0,0:0:0:0:
160,192,210049,1,0,0:0:0:0:
352,192,210299,1,0,0:0:0:0:
288,192,210549,1,0,0:0:0:0:
224,192,210799,1,0,0:0:0:0:
32,192,211049,1,0,0:0:0:0:
32,192,211299,1,0,0:0:0:0:
32,192,211549,1,0,0:0:0:0:
288,192,211549,1,0,0:0:0:0:
32,192,211799,1,0,0:0:0:0:
32,192,212299,1,0,0:0:0:0:
288,192,212549,1,0,0:0:0:0:
32,192,212799,1,0,0:0:0:0:
32,192,213299,1,0,0:0:0:0:
32,192,213549,1,0,0:0:0:0:
288,192,213549,1,0,0:0:0:0:
288,192,214174,1,0,0:0:0:0:
32,192,214299,1,0,0:0:0:0:
288,192,214549,1,0,0:0:0:0:
32,192,214799,1,0,0:0:0:0:
288,192,214799,1,0,0:0:0:0:
352,192,215049,1,0,0:0:0:0:
224,192,215174,1,0,0:0:0:0:
96,192,215299,1,0,0:0:0:0:
352,192,215424,1,0,0:0:0:0:
224,192,215549,1,0,0:0:0:0:
96,192,215674,1,0,0:0:0:0:
352,192,215799,1,0,0:0:0:0:
224,192,215924,1,0,0:0:0:0:
96,192,216049,1,0,0:0:0:0:
352,192,216174,1,0,0:0:0:0:
224,192,216299,1,0,0:0:0:0:
96,192,216424,1,0,0:0:0:0:
416,192,216549,1,0,0:0:0:0:
160,192,216674,1,0,0:0:0:0:
416,192,216799,1,0,0:0:0:0:
160,192,216924,1,0,0:0:0:0:
480,192,217049,1,0,0:0:0:0:
224,192,217174,1,0,0:0:0:0:
480,192,217299,1,0,0:0:0:0:
224,192,217424,1,0,0:0:0:0:
480,192,217549,1,0,0:0:0:0:
224,192,217674,1,0,0:0:0:0:
480,192,217799,1,0,0:0:0:0:
224,192,217924,1,0,0:0:0:0:
416,192,218049,1,0,0:0:0:0:
160,192,218174,1,0,0:0:0:0:
416,192,218299,1,0,0:0:0:0:
160,192,218424,1,0,0:0:0:0:
352,192,218549,1,0,0:0:0:0:
224,192,218549,1,0,0:0:0:0:
224,192,218674,1,0,0:0:0:0:
352,192,218674,1,0,0:0:0:0:
32,192,219049,1,0,0:0:0:0:
96,192,219049,1,0,0:0:0:0:
480,192,219049,1,0,0:0:0:0:
288,192,219299,1,0,0:0:0:0:
416,192,219424,1,0,0:0:0:0:
160,192,219549,1,0,0:0:0:0:
224,192,219799,1,0,0:0:0:0:
352,192,219924,1,0,0:0:0:0:
480,192,220049,1,0,0:0:0:0:
416,192,220299,1,0,0:0:0:0:
352,192,220549,1,0,0:0:0:0:
288,192,220799,1,0,0:0:0:0:
32,192,221049,1,0,0:0:0:0:
224,192,221049,1,0,0:0:0:0:
352,192,221174,1,0,0:0:0:0:
480,192,221424,1,0,0:0:0:0:
416,192,221674,1,0,0:0:0:0:
352,192,221924,1,0,0:0:0:0:
224,192,222299,1,0,0:0:0:0:
288,192,222549,1,0,0:0:0:0:
352,192,222799,1,0,0:0:0:0:
480,192,223049,1,0,0:0:0:0:
96,192,223299,1,0,0:0:0:0:
480,192,223549,1,0,0:0:0:0:
96,192,223799,1,0,0:0:0:0:
352,192,223924,1,0,0:0:0:0:
352,192,224174,1,0,0:0:0:0:
160,192,224549,1,0,0:0:0:0:
288,192,224799,1,0,0:0:0:0:
416,192,225049,1,0,0:0:0:0:
160,192,225299,1,0,0:0:0:0:
416,192,225549,1,0,0:0:0:0:
160,192,225799,1,0,0:0:0:0:
352,192,226049,1,0,0:0:0:0:
224,192,226299,1,0,0:0:0:0:
160,192,226549,1,0,0:0:0:0:
224,192,226674,1,0,0:0:0:0:
288,192,226799,1,0,0:0:0:0:
352,192,226924,1,0,0:0:0:0:
416,192,227049,1,0,0:0:0:0:
160,192,227424,1,0,0:0:0:0:
416,192,227549,1,0,0:0:0:0:
160,192,227924,1,0,0:0:0:0:
416,192,228049,1,0,0:0:0:0:
480,192,228299,1,0,0:0:0:0:
352,192,228424,1,0,0:0:0:0:
160,192,228674,1,0,0:0:0:0:
288,192,229049,1,0,0:0:0:0:
480,192,229549,1,0,0:0:0:0:
352,192,230049,1,0,0:0:0:0:
96,192,230174,1,0,0:0:0:0:
224,192,230424,1,0,0:0:0:0:
288,192,231049,1,0,0:0:0:0:
224,192,231174,1,0,0:0:0:0:
480,192,231299,1,0,0:0:0:0:
416,192,231424,1,0,0:0:0:0:
352,192,231674,1,0,0:0:0:0:
224,192,231924,1,0,0:0:0:0:
352,192,232049,1,0,0:0:0:0:
96,192,232174,1,0,0:0:0:0:
480,192,232549,1,0,0:0:0:0:
224,192,233049,1,0,0:0:0:0:
352,192,233174,1,0,0:0:0:0:
480,192,233299,1,0,0:0:0:0:
352,192,233424,1,0,0:0:0:0:
224,192,233674,1,0,0:0:0:0:
480,192,233799,1,0,0:0:0:0:
160,192,234049,1,0,0:0:0:0:
416,192,234174,1,0,0:0:0:0:
288,192,234299,1,0,0:0:0:0:
160,192,234424,1,0,0:0:0:0:
416,192,234549,1,0,0:0:0:0:
224,192,234799,1,0,0:0:0:0:
352,192,234924,1,0,0:0:0:0:
32,192,235049,1,0,0:0:0:0:
96,192,235049,1,0,0:0:0:0:
480,192,235049,1,0,0:0:0:0:
