osu file format v14

[General]
AudioFilename: audio.mp3
AudioLeadIn: 0
PreviewTime: -1
Countdown: 1
SampleSet: None
StackLeniency: 0.7
Mode: 0
LetterboxInBreaks: 0
WidescreenStoryboard: 0

[Editor]
DistanceSpacing: 1.4
BeatDivisor: 4
GridSize: 8
TimelineZoom: 1

[Metadata]
Title:Let Me Hear
TitleUnicode:Let Me Hear
Artist:Fear, and Loathing in Las Vegas
ArtistUnicode:Fear, and Loathing in Las Vegas
Creator:Bacwux
Version:Unheard
Source:
Tags:
BeatmapID:1240407
BeatmapSetID:585585

[Difficulty]
HPDrainRate:7
CircleSize:4.5
OverallDifficulty:9
ApproachRate:9.3
SliderMultiplier:1.4
SliderTickRate:1

[Events]
//Background and Video events
//Break Periods
//Storyboard Layer 0 (Background)
//Storyboard Layer 1 (Fail)
//Storyboard Layer 2 (Pass)
//Storyboard Layer 3 (Foreground)
//Storyboard Sound Samples

[TimingPoints]
1186,326.086956521739,4,1,0,100,1,0

[Colours]
Combo1 : 0,0,255
Combo2 : 255,0,0
Combo3 : 255,255,255
Combo4 : 255,128,0

[HitObjects]
160,104,533,53,0,0:0:0:0:
112,184,696,1,0,0:0:0:0:
248,144,859,1,0,0:0:0:0:
72,120,1022,1,0,0:0:0:0:
224,208,1186,38,0,P|272:208|304:184,1,70
224,80,1512,1,0,0:0:0:0:
152,168,1675,38,0,L|160:256,1,70
290,197,2001,2,0,L|282:285,1,70
136,152,2327,38,0,L|144:240,1,70
274,181,2653,2,0,L|266:269,1,70
120,136,2979,6,0,L|128:224,1,70
258,165,3305,1,0,0:0:0:0:
184,112,3468,1,0,0:0:0:0:
200,272,3631,1,0,0:0:0:0:
344,248,3794,6,0,L|264:240,2,70
440,160,4283,38,0,P|392:160|368:176,1,70
224,128,4609,2,0,P|272:128|296:144,1,70
424,176,4935,38,0,P|376:176|352:192,1,70
208,144,5261,2,0,P|256:144|280:160,1,70
408,192,5588,6,0,P|360:192|336:208,1,70
192,160,5914,2,0,L|240:168,1,35
192,240,6077,2,0,L|220:279,1,35
135,296,6240,2,0,L|127:344,1,35
72,248,6403,5,0,0:0:0:0:
200,336,6566,1,0,0:0:0:0:
40,344,6729,1,0,0:0:0:0:
136,200,6892,38,0,P|152:232|144:272,1,70
200,120,7218,2,0,P|230:135|265:131,1,70
152,216,7544,38,0,P|168:248|160:288,1,70
216,136,7870,2,0,P|246:151|281:147,1,70
168,232,8196,6,0,P|184:264|176:304,1,70
232,152,8522,1,0,0:0:0:0:
352,176,8685,1,0,0:0:0:0:
192,72,8849,1,0,0:0:0:0:
288,232,9012,5,0,0:0:0:0:
408,224,9175,1,0,0:0:0:0:
256,304,9338,1,0,0:0:0:0:
208,160,9501,38,0,L|280:152,1,70
288,232,9827,2,0,L|360:240,1,70
198,183,10153,38,0,L|260:145,1,70
301,214,10479,2,0,L|370:191,1,70
200,208,10805,6,0,L|240:147,1,70
307,193,11131,2,0,L|352:200,1,35
448,128,11294,2,0,L|403:134,1,35
307,62,11457,2,0,L|351:68,1,35
424,208,11620,5,0,0:0:0:0:
352,320,11783,1,0,0:0:0:0:
296,72,11946,2,0,L|367:82,1,70
416,288,12272,5,0,0:0:0:0:
264,240,12435,1,0,0:0:0:0:
512,96,12599,2,0,P|520:136|504:176,1,70
344,240,12925,37,0,0:0:0:0:
256,352,13088,1,0,0:0:0:0:
184,96,13251,2,0,P|240:96|264:112,1,70
160,272,13577,5,0,0:0:0:0:
128,144,13740,1,0,0:0:0:0:
352,232,13903,2,0,L|264:248,1,70
