osu file format v14

[General]
AudioFilename: audio.mp3
AudioLeadIn: 0
PreviewTime: 43730
Countdown: 0
SampleSet: Soft
StackLeniency: 0.7
Mode: 0
LetterboxInBreaks: 0
WidescreenStoryboard: 0

[Editor]
DistanceSpacing: 0.8
BeatDivisor: 4
GridSize: 4
TimelineZoom: 2.4

[Metadata]
Title:Keep the Heat and Fire Yourself Up
TitleUnicode:Keep the Heat and Fire Yourself Up
Artist:Fear, and Loathing in Las Vegas
ArtistUnicode:Fear, and Loathing in Las Vegas
Creator:kunka
Version:Normal
Source:覇穹 封神演義
Tags:opening tv size hakyuu hoshin houshin engi SOUL HUNTER Akitoshi Corinn -Laura- Asuka_- Yasaija 714 kunkakunkakunkakunka
BeatmapID:1614023
BeatmapSetID:766172

[Difficulty]
HPDrainRate:4
CircleSize:3.5
OverallDifficulty:4
ApproachRate:5
SliderMultiplier:1.2
SliderTickRate:1

[Events]
//Background and Video events
Video,0,"Keep the Heat and Fire Yourself Up.avi"
0,0,"BG.jpg",0,0
//Break Periods
//Storyboard Layer 0 (Background)
//Storyboard Layer 1 (Fail)
//Storyboard Layer 2 (Pass)
//Storyboard Layer 3 (Foreground)
//Storyboard Sound Samples

[TimingPoints]
3860,387.096774193548,4,2,1,60,1,0
6859,-100,4,2,1,5,0,0
6956,-100,4,2,1,60,0,0
9279,-100,4,2,2,60,0,0
9472,-100,4,2,1,60,0,0
28634,-111.111111111111,4,2,1,50,0,0
34827,-100,4,2,1,60,0,0
43730,-95.2380952380952,4,2,1,65,0,0
44118,-90.9090909090909,4,2,1,70,0,1
68892,-100,4,2,1,65,0,0
73730,-100,4,2,1,5,0,0
73827,-100,4,2,1,65,0,0
74021,-100,4,2,1,5,0,0
74118,-100,4,2,1,65,0,0
75085,-90.9090909090909,4,2,1,70,0,1
87472,-90.9090909090909,4,2,1,20,0,0

[Colours]
Combo1 : 255,128,255
Combo2 : 128,255,128
Combo3 : 128,255,255
Combo4 : 255,128,128
Combo5 : 255,255,128

[HitObjects]
286,312,3860,6,0,P|230:331|172:316,2,120,6|0|0,0:0|0:0|0:0,0:0:0:0:
225,236,5021,1,0,0:0:0:0:
172,155,5408,2,0,P|228:140|290:163,2,120
120,235,6569,1,0,0:0:0:0:
46,174,6956,6,0,P|53:84|126:35,1,180,6|0,0:0|0:0,0:0:0:0:
169,43,7730,2,0,B|286:76|286:76|342:57,1,180,4|0,0:0|0:0,0:0:0:0:
388,66,8505,2,0,P|415:121|406:179,1,120,8|0,0:0|0:0,0:0:0:0:
326,230,9279,2,0,P|298:217|269:212,1,60,2|2,0:0|0:0,0:0:0:0:
253,176,9666,2,0,B|252:116,1,60,8|8,0:0|0:0,0:0:0:0:
230,72,10053,6,0,P|175:45|117:54,1,120,6|10,0:0|0:0,0:0:0:0:
79,81,10634,1,0,0:0:0:0:
59,124,10827,2,0,B|59:243,1,120,2|10,0:0|0:0,0:0:0:0:
101,330,11601,2,0,P|129:335|158:348,1,60,2|0,0:0|0:0,0:0:0:0:
205,356,11989,2,0,P|232:343|261:338,1,60,10|0,0:0|0:0,0:0:0:0:
309,329,12376,2,0,P|358:361|417:360,1,120,6|10,0:0|0:0,0:0:0:0:
444,269,13150,6,0,P|394:236|335:237,1,120,6|10,0:0|0:0,0:0:0:0:
289,250,13730,1,0,0:0:0:0:
243,267,13924,2,0,P|237:237|224:210,1,60,2|0,0:0|0:0,0:0:0:0:
204,166,14311,2,0,P|209:136|222:109,1,60,10|0,0:0|0:0,0:0:0:0:
249,70,14698,1,6,0:0:0:0:
96,26,16247,6,0,L|218:11,1,120,6|10,0:0|0:0,0:0:0:0:
243,49,16827,1,0,0:0:0:0:
222,92,17021,2,0,L|102:106,1,120,2|10,0:0|0:0,0:0:0:0:
48,185,17795,2,0,P|47:213|54:244,1,60,2|0,0:0|0:0,0:0:0:0:
92,273,18182,2,0,P|121:266|151:266,1,60,10|0,0:0|0:0,0:0:0:0:
196,283,18570,2,0,P|249:309|307:302,1,120,2|10,0:0|0:0,0:0:0:0:
391,254,19343,6,0,P|452:254|511:268,2,120,2|10|2,0:0|0:0|0:0,0:0:0:0:
306,208,20505,1,10,0:0:0:0:
364,132,20892,2,0,P|364:71|350:12,2,120,2|10|2,0:0|0:0|0:0,0:0:0:0:
306,208,22053,1,10,0:0:0:0:
210,199,22440,6,0,L|90:184,1,120,6|10,0:0|0:0,0:0:0:0:
67,143,23020,1,0,0:0:0:0:
97,105,23214,2,0,L|217:119,1,120,2|10,0:0|0:0,0:0:0:0:
312,124,23989,2,0,P|339:111|368:106,1,60,2|0,0:0|0:0,0:0:0:0:
416,111,24377,2,0,P|429:138|434:167,1,60,10|0,0:0|0:0,0:0:0:0:
428,214,24763,2,0,P|369:224|315:249,1,120,2|10,0:0|0:0,0:0:0:0:
234,302,25537,6,0,P|179:277|120:266,1,120,6|10,0:0|0:0,0:0:0:0:
74,279,26118,1,0,0:0:0:0:
30,259,26311,2,0,L|5:136,1,120,2|10,0:0|0:0,0:0:0:0:
72,72,27085,2,0,L|130:60,1,60,10|8,0:0|0:0,0:0:0:0:
172,83,27472,1,10,0:0:0:0:
215,168,27859,2,0,L|203:226,1,60,10|8,0:0|0:0,0:0:0:0:
237,260,28247,2,0,L|248:318,1,60,8|2,2:3|0:0,0:0:0:0:
277,351,28634,6,0,P|330:357|379:333,1,107.999996704102,6|0,0:0|3:0,0:0:0:0:
438,271,29408,2,0,P|445:217|481:176,1,107.999996704102,0|0,3:0|3:0,0:0:0:0:
484,91,30182,2,0,P|452:46|401:27,1,107.999996704102,0|0,3:0|3:0,0:0:0:0:
320,29,30956,2,0,P|288:32|264:42,1,53.9999983520508,0|0,3:0|0:0,0:0:0:0:
224,42,31343,2,0,P|198:32|171:31,1,53.9999983520508,0|0,3:0|3:0,0:0:0:0:
129,23,31730,6,0,P|79:42|48:86,1,107.999996704102,0|0,3:0|3:0,0:0:0:0:
69,170,32505,2,0,P|113:201|132:252,1,107.999996704102,0|0,3:0|3:0,0:0:0:0:
177,323,33279,2,0,P|230:329|279:305,1,107.999996704102,0|0,3:0|3:0,0:0:0:0:
311,279,33859,1,0,3:0:0:0:
326,238,34053,2,0,L|316:184,1,53.9999983520508,0|0,3:0|3:0,0:0:0:0:
284,155,34440,1,0,3:0:0:0:
316,62,34827,6,0,P|374:54|427:80,1,120,6|2,0:0|0:0,0:0:0:0:
444,125,35408,1,0,3:0:0:0:
457,170,35601,2,0,L|431:292,1,120,2|2,0:0|0:0,0:0:0:0:
345,306,36376,2,0,P|284:292|228:306,1,120,2|2,0:0|0:0,0:0:0:0:
187,328,36956,1,0,3:0:0:0:
143,347,37150,2,0,P|113:355|83:353,2,60,2|0|2,0:0|3:0|0:0,0:0:0:0:
103,259,37924,6,0,L|114:200,1,60,2|2,0:0|0:0,0:0:0:0:
148,165,38311,1,2,0:0:0:0:
236,201,38698,2,0,L|295:190,1,60,2|2,0:0|0:0,0:0:0:0:
340,206,39085,1,2,0:0:0:0:
398,129,39472,2,0,L|387:70,1,60,2|2,0:0|0:0,0:0:0:0:
348,41,39859,1,2,0:0:0:0:
270,97,40247,2,0,L|259:156,1,60,2|2,0:0|0:0,0:0:0:0:
294,190,40634,2,0,L|305:249,1,60,2|2,0:0|0:0,0:0:0:0:
270,283,41021,5,6,0:0:0:0:
256,192,41214,12,8,42569,0:0:0:0:
241,349,43730,6,0,P|269:364|301:367,1,62.9999980773926,4|0,0:0|0:0,0:0:0:0:
352,360,44118,6,0,L|481:332,1,132.00000402832,6|10,0:0|0:0,0:0:0:0:
498,282,44698,1,0,0:0:0:0:
467,238,44892,2,0,L|338:266,1,132.00000402832,2|10,0:0|0:0,0:0:0:0:
253,328,45666,2,0,P|217:330|189:322,1,66.0000020141602,2|0,0:0|0:0,0:0:0:0:
141,296,46053,2,0,P|108:293|76:302,1,66.0000020141602,10|0,0:0|0:0,0:0:0:0:
35,334,46440,2,0,L|51:202,1,132.00000402832,2|10,0:0|0:0,0:0:0:0:
12,103,47214,6,0,P|76:98|131:132,1,132.00000402832,2|10,0:0|0:0,0:0:0:0:
162,175,47795,1,0,0:0:0:0:
193,217,47989,2,0,L|325:201,1,132.00000402832,2|10,0:0|0:0,0:0:0:0:
347,248,48569,1,0,0:0:0:0:
329,298,48763,2,0,L|197:314,2,132.00000402832,2|10|2,0:0|0:0|0:0,0:0:0:0:
392,382,49924,2,0,P|416:355|428:329,1,66.0000020141602,10|8,0:0|0:0,0:0:0:0:
448,279,50311,6,0,L|432:147,1,132.00000402832,6|10,0:0|0:0,0:0:0:0:
448,97,50892,1,0,0:0:0:0:
441,44,51085,2,0,P|385:9|321:15,1,132.00000402832,2|10,0:0|0:0,0:0:0:0:
234,76,51859,2,0,P|198:78|170:70,1,66.0000020141602,2|0,0:0|0:0,0:0:0:0:
122,44,52246,2,0,P|89:41|57:50,1,66.0000020141602,10|0,0:0|0:0,0:0:0:0:
18,86,52634,2,0,L|34:218,1,132.00000402832,2|10,0:0|0:0,0:0:0:0:
80,311,53408,6,0,P|116:309|144:317,1,66.0000020141602,6|0,0:0|0:0,0:0:0:0:
197,317,53795,2,0,P|228:308|261:310,1,66.0000020141602,10|0,0:0|0:0,0:0:0:0:
312,323,54182,2,0,P|346:267|340:203,1,132.00000402832,2|10,0:0|0:0,0:0:0:0:
261,132,54956,2,0,P|316:97|380:103,1,132.00000402832,2|10,0:0|0:0,0:0:0:0:
428,126,55537,1,0,0:0:0:0:
459,168,55730,2,0,L|467:236,1,66.0000020141602,10|8,0:0|0:0,0:0:0:0:
426,268,56118,2,0,L|417:336,1,66.0000020141602,10|8,0:0|0:0,0:0:0:0:
380,371,56505,6,0,P|313:358|248:355,1,132.00000402832,6|10,0:0|0:0,0:0:0:0:
196,359,57085,1,0,0:0:0:0:
145,374,57279,2,0,P|81:359|40:309,1,132.00000402832,2|10,0:0|0:0,0:0:0:0:
77,210,58053,2,0,P|79:174|71:146,1,66.0000020141602,2|0,0:0|0:0,0:0:0:0:
41,101,58440,2,0,P|39:65|47:37,1,66.0000020141602,10|0,0:0|0:0,0:0:0:0:
93,11,58827,2,0,P|158:14|223:27,1,132.00000402832,2|10,0:0|0:0,0:0:0:0:
265,123,59601,6,0,P|252:187|248:253,1,132.00000402832,2|10,0:0|0:0,0:0:0:0:
254,306,60182,1,0,0:0:0:0:
288,346,60376,2,0,P|348:370|410:353,1,132.00000402832,2|10,0:0|0:0,0:0:0:0:
501,298,61150,1,2,0:0:0:0:
447,206,61537,1,10,0:0:0:0:
481,106,61924,1,2,0:0:0:0:
387,56,62311,2,0,P|350:57|323:67,1,66.0000020141602,10|8,0:0|0:0,0:0:0:0:
277,93,62698,6,0,P|214:70|148:69,1,132.00000402832,6|10,0:0|0:0,0:0:0:0:
98,81,63279,1,0,0:0:0:0:
62,120,63472,2,0,L|78:252,1,132.00000402832,2|10,0:0|0:0,0:0:0:0:
132,341,64247,2,0,P|168:339|196:347,1,66.0000020141602,2|0,0:0|0:0,0:0:0:0:
246,364,64634,2,0,P|278:366|310:357,1,66.0000020141602,10|0,0:0|0:0,0:0:0:0:
356,331,65021,2,0,P|380:270|363:208,1,132.00000402832,2|10,0:0|0:0,0:0:0:0:
260,184,65795,6,0,P|224:182|196:190,1,66.0000020141602,2|0,0:0|0:0,0:0:0:0:
146,207,66182,2,0,P|113:209|81:200,1,66.0000020141602,10|0,0:0|0:0,0:0:0:0:
36,174,66569,2,0,P|11:113|28:51,1,132.00000402832,2|10,0:0|0:0,0:0:0:0:
125,9,67343,2,0,P|190:12|255:25,1,132.00000402832,10|2,0:0|0:0,0:0:0:0:
302,49,67924,1,8,0:0:0:0:
324,96,68118,2,0,L|316:164,1,66.0000020141602,10|8,0:0|0:0,0:0:0:0:
357,194,68505,2,0,L|365:262,1,66.0000020141602,10|8,0:0|0:0,0:0:0:0:
345,303,68892,6,0,P|311:328|253:327,2,90,6|8|8,0:0|0:0|0:0,0:0:0:0:
393,300,69666,2,0,P|418:334|417:392,2,90,2|8|8,0:0|0:0|0:0,0:0:0:0:
412,256,70440,2,0,P|446:231|504:232,2,90,2|8|8,0:0|0:0|0:0,0:0:0:0:
364,259,71214,1,10,0:0:0:0:
274,224,71601,1,10,0:0:0:0:
190,271,71989,6,0,P|165:305|166:363,2,90,6|8|8,0:0|0:0|0:0,0:0:0:0:
193,223,72763,2,0,P|159:198|101:199,2,90,2|8|8,0:0|0:0|0:0,0:0:0:0:
237,204,73537,2,0,L|328:184,2,90,6|2|2,0:0|0:0|0:0,0:0:0:0:
230,251,74311,1,2,0:0:0:0:
49,141,75085,6,0,P|44:77|78:22,1,132.00000402832,6|10,0:0|0:0,0:0:0:0:
128,6,75665,1,0,0:0:0:0:
179,18,75859,2,0,P|246:31|311:34,1,132.00000402832,2|10,0:0|0:0,0:0:0:0:
414,49,76634,2,0,P|416:85|408:113,1,66.0000020141602,2|0,0:0|0:0,0:0:0:0:
384,161,77021,2,0,P|382:197|390:225,1,66.0000020141602,10|0,0:0|0:0,0:0:0:0:
417,271,77408,2,0,P|375:320|312:335,1,132.00000402832,2|10,0:0|0:0,0:0:0:0:
232,264,78182,6,0,P|177:228|115:245,1,132.00000402832,2|10,0:0|0:0,0:0:0:0:
95,295,78764,1,0,0:0:0:0:
99,347,78956,2,0,P|152:381|214:364,1,132.00000402832,2|10,0:0|0:0,0:0:0:0:
232,264,79730,2,0,P|229:231|238:199,1,66.0000020141602,2|0,0:0|0:0,0:0:0:0:
267,155,80118,2,0,P|269:122|260:90,1,66.0000020141602,10|0,0:0|0:0,0:0:0:0:
233,45,80505,2,0,P|167:48|102:61,1,132.00000402832,2|10,0:0|0:0,0:0:0:0:
41,149,81279,6,0,P|36:213|70:268,1,132.00000402832,6|10,0:0|0:0,0:0:0:0:
120,285,81859,1,0,0:0:0:0:
171,272,82053,2,0,P|238:259|303:256,1,132.00000402832,2|10,0:0|0:0,0:0:0:0:
404,280,82827,2,0,P|406:247|397:215,1,66.0000020141602,2|0,0:0|0:0,0:0:0:0:
378,166,83214,2,0,P|375:133|384:101,1,66.0000020141602,10|0,0:0|0:0,0:0:0:0:
404,52,83601,2,0,P|349:17|284:22,1,132.00000402832,2|10,0:0|0:0,0:0:0:0:
202,88,84376,6,0,P|204:156|160:199,1,132.00000402832,2|10,0:0|0:0,0:0:0:0:
108,194,84957,1,0,0:0:0:0:
65,163,85150,2,0,P|62:94|106:51,1,132.00000402832,2|10,0:0|0:0,0:0:0:0:
156,59,85730,1,0,0:0:0:0:
202,88,85924,2,0,L|332:65,1,132.00000402832,10|2,0:0|0:0,0:0:0:0:
396,148,86698,2,0,P|406:179|404:212,1,66.0000020141602,10|8,0:0|0:0,0:0:0:0:
366,248,87085,2,0,L|236:271,1,132.00000402832,10|0,0:0|0:0,0:0:0:0:
