osu file format v14

[General]
AudioFilename: audio.mp3
AudioLeadIn: 0
PreviewTime: 43730
Countdown: 0
SampleSet: Soft
StackLeniency: 0.7
Mode: 0
LetterboxInBreaks: 0
WidescreenStoryboard: 0

[Editor]
DistanceSpacing: 1.6
BeatDivisor: 4
GridSize: 4
TimelineZoom: 2.4

[Metadata]
Title:Keep the Heat and Fire Yourself Up
TitleUnicode:Keep the Heat and Fire Yourself Up
Artist:Fear, and Loathing in Las Vegas
ArtistUnicode:Fear, and Loathing in Las Vegas
Creator:kunka
Version:Insane
Source:覇穹 封神演義
Tags:opening tv size hakyuu hoshin houshin engi SOUL HUNTER Akitoshi Corinn -Laura- Asuka_- Yasaija 714 kunkakunkakunkakunka
BeatmapID:1610773
BeatmapSetID:766172

[Difficulty]
HPDrainRate:6
CircleSize:4
OverallDifficulty:7
ApproachRate:9
SliderMultiplier:2
SliderTickRate:1

[Events]
//Background and Video events
Video,0,"Keep the Heat and Fire Yourself Up.avi"
0,0,"BG.jpg",0,0
//Break Periods
//Storyboard Layer 0 (Background)
//Storyboard Layer 1 (Fail)
//Storyboard Layer 2 (Pass)
//Storyboard Layer 3 (Foreground)
//Storyboard Sound Samples

[TimingPoints]
3860,387.096774193548,4,2,1,60,1,0
6859,-100,4,2,1,5,0,0
6956,-100,4,2,1,60,0,0
9279,-100,4,2,2,60,0,0
9472,-100,4,2,1,60,0,0
15569,-100,4,2,1,5,0,0
15666,-100,4,2,1,60,0,0
28634,-111.111111111111,4,2,1,50,0,0
34827,-100,4,2,1,60,0,0
43730,-95.2380952380952,4,2,1,65,0,0
44118,-90.9090909090909,4,2,1,70,0,1
68892,-100,4,2,1,65,0,0
73730,-100,4,2,1,5,0,0
73827,-100,4,2,1,65,0,0
74021,-100,4,2,1,5,0,0
74118,-100,4,2,1,65,0,0
75085,-90.9090909090909,4,2,1,70,0,1
87472,-90.9090909090909,4,2,1,20,0,0

[Colours]
Combo1 : 255,128,255
Combo2 : 128,255,128
Combo3 : 128,255,255
Combo4 : 255,128,128
Combo5 : 255,255,128

[HitObjects]
54,190,3860,5,6,0:0:0:0:
54,190,3956,1,0,0:0:0:0:
54,190,4053,2,0,P|101:169|148:177,1,100,0|0,0:0|0:0,0:0:0:0:
277,272,4441,1,0,0:0:0:0:
277,272,4537,1,0,0:0:0:0:
277,272,4634,2,0,P|325:279|370:258,1,100,0|0,0:0|0:0,0:0:0:0:
483,145,5021,1,0,0:0:0:0:
328,103,5214,1,0,0:0:0:0:
370,258,5408,5,0,0:0:0:0:
213,290,5601,2,0,P|188:285|157:283,2,50
285,325,5892,1,0,0:0:0:0:
316,341,5989,2,0,P|340:336|365:334,1,50
436,297,6182,1,0,0:0:0:0:
483,145,6376,1,0,0:0:0:0:
392,13,6569,2,0,P|319:34|245:24,1,150
168,39,6956,6,0,L|177:138,1,100,6|0,0:0|0:0,0:0:0:0:
36,214,7343,1,0,0:0:0:0:
17,260,7439,1,0,0:0:0:0:
21,309,7536,1,0,0:0:0:0:
49,350,7633,1,0,0:0:0:0:
93,375,7730,2,0,P|140:360|190:366,1,100,4|0,0:0|0:0,0:0:0:0:
323,276,8118,1,0,0:0:0:0:
189,366,8311,1,0,0:0:0:0:
184,203,8505,5,8,0:0:0:0:
160,159,8601,1,8,0:0:0:0:
159,110,8698,1,8,0:0:0:0:
182,66,8795,1,8,0:0:0:0:
223,38,8892,2,0,P|248:33|279:31,1,50
293,123,9086,2,0,P|268:125|243:129,1,50
282,216,9279,5,2,0:0:0:0:
496,154,9472,1,2,0:0:0:0:
421,295,9666,2,0,P|416:320|414:351,1,50,8|0,0:0|0:0,0:0:0:0:
493,352,9859,2,0,P|498:327|500:296,1,50,8|0,0:0|0:0,0:0:0:0:
470,205,10053,5,6,0:0:0:0:
470,205,10150,1,0,0:0:0:0:
470,205,10247,2,0,P|417:191|375:208,1,100,0|10,0:0|0:0,0:0:0:0:
253,310,10634,1,0,0:0:0:0:
253,310,10731,1,0,0:0:0:0:
253,310,10828,2,0,P|200:324|158:307,1,100,2|0,0:0|0:0,0:0:0:0:
32,210,11214,1,10,0:0:0:0:
84,361,11408,1,0,0:0:0:0:
125,206,11601,6,0,P|88:136|23:117,1,150,2|0,0:0|0:0,0:0:0:0:
32,210,11989,2,0,P|34:234|38:259,1,50,10|0,0:0|0:0,0:0:0:0:
108,334,12182,2,0,P|111:310|115:285,1,50
163,219,12376,1,6,0:0:0:0:
312,276,12569,1,0,0:0:0:0:
470,253,12763,2,0,L|484:152,1,100,10|0,0:0|0:0,0:0:0:0:
288,170,13150,6,0,P|229:223|161:218,1,150,6|0,0:0|0:0,0:0:0:0:
123,146,13537,2,0,P|119:121|115:96,1,50,10|0,0:0|0:0,0:0:0:0:
194,82,13730,2,0,P|198:107|202:132,1,50
162,218,13924,2,0,P|138:260|144:309,1,100,2|0,0:0|0:0,0:0:0:0:
299,342,14311,1,10,0:0:0:0:
446,279,14505,1,0,0:0:0:0:
240,244,14698,5,6,0:0:0:0:
354,131,14892,1,0,0:0:0:0:
336,32,15085,1,0,0:0:0:0:
384,33,15181,1,0,0:0:0:0:
427,58,15278,1,0,0:0:0:0:
451,101,15376,2,0,P|455:148|433:194,1,100
376,251,15666,5,0,0:0:0:0:
264,137,15859,1,0,0:0:0:0:
148,248,16053,2,0,P|124:238|94:231,1,50
152,334,16247,6,0,P|202:317|229:278,1,100,6|0,0:0|0:0,0:0:0:0:
221,119,16634,1,10,0:0:0:0:
338,10,16827,1,0,0:0:0:0:
387,3,16923,1,0,0:0:0:0:
431,24,17020,1,2,0:0:0:0:
363,169,17214,2,0,P|354:219|365:267,1,100,0|10,0:0|0:0,0:0:0:0:
501,214,17601,1,0,0:0:0:0:
431,24,17795,5,2,0:0:0:0:
270,32,17989,1,0,0:0:0:0:
221,39,18085,1,0,0:0:0:0:
177,18,18182,1,10,0:0:0:0:
33,88,18376,1,0,0:0:0:0:
150,196,18569,1,2,0:0:0:0:
174,221,18666,2,0,L|181:320,1,100,8|0,0:0|0:0,0:0:0:0:
130,383,18956,1,10,0:0:0:0:
32,255,19150,1,0,0:0:0:0:
210,344,19343,5,2,0:0:0:0:
360,289,19537,2,0,P|384:294|407:303,1,50
426,226,19730,2,0,P|403:216|378:209,1,50,10|0,0:0|0:0,0:0:0:0:
302,232,19924,1,0,0:0:0:0:
171,138,20118,1,2,0:0:0:0:
180,88,20214,1,0,0:0:0:0:
189,39,20311,1,0,0:0:0:0:
31,62,20505,1,10,0:0:0:0:
4,219,20698,1,0,0:0:0:0:
193,283,20892,6,0,P|216:273|246:266,1,50,2|0,0:0|0:0,0:0:0:0:
263,343,21085,2,0,P|238:349|215:359,1,50
137,340,21279,1,10,0:0:0:0:
27,223,21472,1,0,0:0:0:0:
106,83,21666,1,2,0:0:0:0:
138,95,21763,2,0,L|154:195,1,100,8|0,0:0|0:0,0:0:0:0:
90,242,22053,1,10,0:0:0:0:
55,232,22151,2,0,L|48:182,1,50,8|2,0:0|0:0,0:0:0:0:
251,291,22440,5,6,0:0:0:0:
405,251,22634,1,0,0:0:0:0:
396,201,22730,1,0,0:0:0:0:
388,152,22827,1,10,0:0:0:0:
467,12,23021,1,0,0:0:0:0:
307,17,23214,2,0,P|282:23|259:33,1,50,2|0,0:0|0:0,0:0:0:0:
283,109,23408,2,0,P|305:99|330:93,1,50
385,34,23601,1,10,0:0:0:0:
470,169,23795,1,0,0:0:0:0:
343,324,23989,5,2,0:0:0:0:
185,296,24182,1,0,0:0:0:0:
136,303,24278,1,0,0:0:0:0:
92,282,24375,1,10,0:0:0:0:
161,137,24569,1,0,0:0:0:0:
297,52,24763,1,2,0:0:0:0:
325,72,24860,2,0,L|424:77,1,100,8|0,0:0|0:0,0:0:0:0:
485,129,25150,1,10,0:0:0:0:
406,270,25343,2,0,P|396:292|389:317,1,50
480,246,25537,6,0,P|446:203|403:193,1,100,6|0,0:0|0:0,0:0:0:0:
246,225,25924,1,10,0:0:0:0:
126,118,26118,1,0,0:0:0:0:
93,274,26311,1,2,0:0:0:0:
117,299,26408,2,0,P|159:318|211:308,1,100,8|0,0:0|0:0,0:0:0:0:
287,287,26698,1,10,0:0:0:0:
440,334,26892,1,0,0:0:0:0:
425,135,27085,5,10,0:0:0:0:
444,91,27181,1,8,0:0:0:0:
432,43,27278,1,8,0:0:0:0:
392,15,27375,1,8,0:0:0:0:
343,18,27472,1,10,0:0:0:0:
295,34,27568,1,8,0:0:0:0:
246,42,27665,1,8,0:0:0:0:
196,43,27762,1,8,0:0:0:0:
147,36,27859,6,0,P|124:26|99:19,1,50,10|8,0:0|0:0,0:0:0:0:
79,98,28053,2,0,P|103:104|126:114,1,50,8|0,0:0|0:0,0:0:0:0:
194,157,28247,1,8,2:3:0:0:
295,34,28440,1,2,0:0:0:0:
420,196,28634,6,0,P|420:242|414:285,1,89.9999972534181,6|0,0:0|0:0,0:0:0:0:
378,348,28924,1,0,3:0:0:0:
378,348,29021,1,0,3:0:0:0:
242,299,29214,1,0,3:0:0:0:
284,147,29408,2,0,P|284:100|278:58,1,89.9999972534181,0|0,3:0|0:0,0:0:0:0:
227,6,29698,1,0,3:0:0:0:
227,6,29795,1,0,3:0:0:0:
109,88,29988,1,0,3:0:0:0:
165,220,30182,6,0,P|165:266|159:309,1,89.9999972534181,0|0,3:0|0:0,0:0:0:0:
107,359,30472,1,0,3:0:0:0:
107,359,30569,1,0,3:0:0:0:
14,249,30762,1,0,3:0:0:0:
104,136,30956,1,0,3:0:0:0:
242,176,31150,1,0,0:0:0:0:
242,176,31247,1,0,3:0:0:0:
242,176,31344,1,0,3:0:0:0:
376,126,31537,1,0,3:0:0:0:
465,298,31730,6,0,P|471:253|471:208,1,89.9999972534181,0|0,3:0|0:0,0:0:0:0:
465,135,32021,1,0,3:0:0:0:
465,135,32118,1,0,3:0:0:0:
368,28,32311,1,0,3:0:0:0:
233,80,32505,2,0,P|188:73|143:73,1,89.9999972534181,0|0,3:0|0:0,0:0:0:0:
71,80,32795,1,0,0:0:0:0:
71,80,32892,1,0,3:0:0:0:
122,214,33085,1,0,3:0:0:0:
35,372,33279,6,0,L|16:283,1,89.9999972534181,0|0,3:0|0:0,0:0:0:0:
26,212,33569,1,0,3:0:0:0:
26,212,33666,1,0,3:0:0:0:
144,131,33859,1,0,3:0:0:0:
262,213,34053,1,0,3:0:0:0:
275,69,34247,1,0,3:0:0:0:
144,131,34440,1,0,3:0:0:0:
262,213,34634,1,0,3:0:0:0:
454,161,34827,5,6,0:0:0:0:
381,316,35021,1,0,3:0:0:0:
381,316,35118,1,0,3:0:0:0:
381,316,35214,2,0,P|356:315|331:319,1,50,2|0,0:0|0:0,0:0:0:0:
241,364,35408,1,0,3:0:0:0:
241,364,35505,1,0,3:0:0:0:
241,364,35601,6,0,P|216:360|191:360,1,50,2|0,0:0|0:0,0:0:0:0:
191,270,35795,1,0,3:0:0:0:
191,270,35892,1,0,3:0:0:0:
191,270,35988,2,0,P|216:269|241:273,1,50,2|0,0:0|0:0,0:0:0:0:
331,318,36182,1,0,3:0:0:0:
331,318,36279,1,0,3:0:0:0:
331,318,36375,6,0,P|356:314|381:314,1,50,2|0,0:0|0:0,0:0:0:0:
380,224,36569,1,0,3:0:0:0:
380,224,36666,1,0,3:0:0:0:
380,224,36762,2,0,P|355:223|330:227,1,50,2|0,0:0|0:0,0:0:0:0:
240,272,36956,2,0,P|215:268|190:269,1,50,0|0,3:0|3:0,0:0:0:0:
116,236,37150,5,2,0:0:0:0:
129,66,37343,1,0,3:0:0:0:
129,66,37440,1,0,3:0:0:0:
129,66,37537,2,0,P|130:42|126:17,1,50,2|0,0:0|0:0,0:0:0:0:
44,24,37730,2,0,P|43:48|47:73,1,50,0|0,3:0|3:0,0:0:0:0:
97,161,37924,5,2,0:0:0:0:
188,293,38118,1,2,0:0:0:0:
29,306,38311,1,2,0:0:0:0:
97,161,38505,1,2,0:0:0:0:
293,20,38698,5,2,0:0:0:0:
361,164,38892,1,2,0:0:0:0:
202,152,39085,1,2,0:0:0:0:
293,20,39279,1,2,0:0:0:0:
212,293,39472,5,2,0:0:0:0:
121,161,39666,1,2,0:0:0:0:
280,148,39859,1,2,0:0:0:0:
212,293,40053,1,2,0:0:0:0:
193,74,40247,5,2,0:0:0:0:
224,35,40343,1,2,0:0:0:0:
269,15,40440,1,2,0:0:0:0:
318,18,40537,1,2,0:0:0:0:
361,42,40634,1,2,0:0:0:0:
358,92,40730,1,2,0:0:0:0:
392,129,40827,1,2,0:0:0:0:
389,179,40923,1,2,0:0:0:0:
422,215,41021,5,6,0:0:0:0:
125,256,41311,5,2,0:0:0:0:
413,304,41601,5,6,0:0:0:0:
134,167,41892,5,2,0:0:0:0:
351,372,42182,5,6,0:0:0:0:
422,215,42376,1,2,0:0:0:0:
258,251,42569,5,8,0:0:0:0:
213,272,42665,1,8,0:0:0:0:
163,272,42762,1,8,0:0:0:0:
118,252,42859,1,8,0:0:0:0:
82,95,43053,1,8,0:0:0:0:
238,55,43247,1,8,0:0:0:0:
271,65,43343,2,0,P|295:55|325:48,3,50,2|2|2|2,0:0|0:0|0:0|0:0,0:0:0:0:
401,33,43730,6,0,P|448:55|471:103,1,104.999996795654,4|0,0:0|0:0,0:0:0:0:
375,299,44118,6,0,L|208:271,1,165.000005035401,6|0,0:0|0:0,0:0:0:0:
127,295,44505,1,10,0:0:0:0:
230,153,44698,1,0,0:0:0:0:
395,212,44892,2,0,P|412:156|395:102,1,110.000003356934,2|0,0:0|0:0,0:0:0:0:
354,31,45182,1,0,0:0:0:0:
354,31,45279,1,10,0:0:0:0:
182,67,45472,1,0,0:0:0:0:
115,277,45666,5,2,0:0:0:0:
17,130,45859,1,0,0:0:0:0:
182,67,46053,1,10,0:0:0:0:
280,214,46247,1,0,0:0:0:0:
280,214,46343,1,0,0:0:0:0:
280,214,46440,2,0,P|330:235|387:226,1,110.000003356934,2|0,0:0|0:0,0:0:0:0:
509,103,46827,1,10,0:0:0:0:
500,279,47021,1,0,0:0:0:0:
344,124,47214,5,2,0:0:0:0:
168,143,47408,2,0,P|138:132|111:129,1,55.0000016784668
139,44,47601,2,0,P|166:48|191:57,1,55.0000016784668,10|0,0:0|0:0,0:0:0:0:
253,122,47795,1,0,0:0:0:0:
425,84,47989,1,2,0:0:0:0:
414,259,48182,1,0,0:0:0:0:
424,312,48278,1,0,0:0:0:0:
403,362,48376,1,10,0:0:0:0:
240,295,48569,1,0,0:0:0:0:
152,92,48763,6,0,L|145:206,1,110.000003356934,2|0,0:0|0:0,0:0:0:0:
60,227,49053,1,0,0:0:0:0:
33,199,49150,2,0,L|39:89,1,110.000003356934,10|0,0:0|0:0,0:0:0:0:
201,21,49537,1,2,0:0:0:0:
329,140,49730,1,0,0:0:0:0:
505,138,49924,1,10,0:0:0:0:
377,19,50118,1,8,0:0:0:0:
370,238,50311,6,0,P|285:238|231:181,1,165.000005035401,6|0,0:0|0:0,0:0:0:0:
218,96,50698,1,10,0:0:0:0:
377,19,50892,1,0,0:0:0:0:
455,175,51085,2,0,L|439:283,1,110.000003356934,2|0,0:0|0:0,0:0:0:0:
375,346,51376,1,0,0:0:0:0:
375,346,51472,1,10,0:0:0:0:
199,323,51666,1,0,0:0:0:0:
322,141,51859,5,2,0:0:0:0:
291,314,52053,1,0,0:0:0:0:
157,198,52247,1,10,0:0:0:0:
330,225,52440,1,0,0:0:0:0:
330,225,52537,1,0,0:0:0:0:
330,225,52634,2,0,L|446:203,1,110.000003356934,2|0,0:0|0:0,0:0:0:0:
412,378,53021,1,10,0:0:0:0:
330,225,53214,1,0,0:0:0:0:
113,265,53408,5,6,0:0:0:0:
144,91,53601,2,0,P|139:63|130:38,1,55.0000016784668
215,15,53795,2,0,P|224:40|228:67,1,55.0000016784668,10|0,0:0|0:0,0:0:0:0:
207,153,53988,1,0,0:0:0:0:
271,317,54182,1,2,0:0:0:0:
307,330,54279,2,0,P|357:309|411:301,1,110.000003356934
487,255,54569,1,10,0:0:0:0:
390,107,54763,1,0,0:0:0:0:
201,219,54956,5,2,0:0:0:0:
69,99,55150,1,0,0:0:0:0:
245,117,55343,1,10,0:0:0:0:
93,206,55537,1,0,0:0:0:0:
164,47,55730,5,10,0:0:0:0:
209,19,55826,1,8,0:0:0:0:
263,19,55923,1,8,0:0:0:0:
313,35,56020,1,8,0:0:0:0:
344,79,56117,1,10,0:0:0:0:
350,133,56213,1,8,0:0:0:0:
328,183,56310,1,8,0:0:0:0:
285,216,56407,1,8,0:0:0:0:
231,223,56504,5,6,0:0:0:0:
58,188,56698,1,0,0:0:0:0:
164,47,56892,1,10,0:0:0:0:
231,223,57085,1,0,0:0:0:0:
340,82,57279,1,2,0:0:0:0:
308,59,57376,2,0,P|258:38|204:43,1,110.000003356934,8|0,0:0|0:0,0:0:0:0:
125,83,57666,1,10,0:0:0:0:
231,223,57859,1,0,0:0:0:0:
384,64,58053,5,2,0:0:0:0:
486,207,58247,1,0,0:0:0:0:
482,262,58343,1,0,0:0:0:0:
478,317,58440,1,10,0:0:0:0:
339,207,58634,1,0,0:0:0:0:
219,334,58827,1,2,0:0:0:0:
184,351,58924,2,0,P|127:359|81:339,1,110.000003356934,8|0,0:0|0:0,0:0:0:0:
14,279,59214,1,10,0:0:0:0:
187,143,59408,1,0,0:0:0:0:
208,93,59505,1,0,0:0:0:0:
198,40,59601,5,2,0:0:0:0:
24,73,59795,1,0,0:0:0:0:
100,231,59989,1,10,0:0:0:0:
208,93,60182,1,0,0:0:0:0:
284,251,60376,1,2,0:0:0:0:
317,269,60472,2,0,P|374:277|420:257,1,110.000003356934,8|0,0:0|0:0,0:0:0:0:
489,200,60763,1,10,0:0:0:0:
392,2,60956,1,0,0:0:0:0:
342,23,61053,1,0,0:0:0:0:
289,13,61149,5,2,0:0:0:0:
364,172,61343,1,0,0:0:0:0:
188,156,61537,1,10,0:0:0:0:
289,13,61730,1,0,0:0:0:0:
364,172,61924,1,2,0:0:0:0:
377,208,62021,2,0,L|348:317,1,110.000003356934,8|0,0:0|0:0,0:0:0:0:
225,318,62311,2,0,P|197:323|172:332,1,55.0000016784668,10|0,0:0|0:0,0:0:0:0:
149,247,62505,2,0,P|174:238|201:234,1,55.0000016784668,8|0,0:0|0:0,0:0:0:0:
307,267,62698,6,0,P|352:294|411:293,1,110.000003356934,6|0,0:0|0:0,0:0:0:0:
499,140,63085,1,10,0:0:0:0:
374,14,63279,2,0,P|346:19|321:28,1,55.0000016784668
243,70,63472,1,2,0:0:0:0:
209,89,63569,2,0,P|156:70|102:60,1,110.000003356934,8|0,0:0|0:0,0:0:0:0:
20,91,63859,1,10,0:0:0:0:
79,257,64053,2,0,P|88:282|92:309,1,55.0000016784668
4,222,64247,6,0,P|43:181|95:177,1,110.000003356934,2|0,0:0|0:0,0:0:0:0:
180,194,64537,1,0,0:0:0:0:
180,194,64634,1,10,0:0:0:0:
345,134,64827,1,0,0:0:0:0:
183,63,65021,1,2,0:0:0:0:
153,87,65118,2,0,L|181:199,1,110.000003356934,8|0,0:0|0:0,0:0:0:0:
202,278,65408,1,10,0:0:0:0:
55,181,65601,1,0,0:0:0:0:
271,134,65795,6,0,P|318:164|375:160,1,110.000003356934,2|0,0:0|0:0,0:0:0:0:
423,78,66085,1,0,0:0:0:0:
402,45,66182,2,0,P|355:15|298:19,1,110.000003356934,10|0,0:0|0:0,0:0:0:0:
133,75,66569,1,2,0:0:0:0:
111,107,66666,2,0,L|139:219,1,110.000003356934,8|0,0:0|0:0,0:0:0:0:
149,301,66956,1,10,0:0:0:0:
0,209,67149,1,0,0:0:0:0:
212,162,67343,5,10,0:0:0:0:
258,191,67440,1,8,0:0:0:0:
311,189,67536,1,8,2:3:0:0:
465,103,67730,1,2,0:0:0:0:
298,47,67924,1,8,0:0:0:0:
271,46,68020,1,8,0:0:0:0:
249,60,68118,5,10,0:0:0:0:
239,112,68214,1,8,0:0:0:0:
195,143,68311,1,8,0:0:0:0:
142,133,68408,1,8,0:0:0:0:
112,89,68505,1,10,0:0:0:0:
122,36,68601,1,8,0:0:0:0:
167,6,68698,1,8,0:0:0:0:
219,17,68795,1,8,0:0:0:0:
249,60,68892,6,0,B|277:153|277:153|264:207,1,150,6|8,0:0|0:0,0:0:0:0:
236,279,69279,1,2,0:0:0:0:
91,211,69472,1,8,0:0:0:0:
62,369,69666,2,0,B|155:341|155:341|209:354,1,150,2|8,0:0|0:0,0:0:0:0:
276,315,70053,1,2,0:0:0:0:
430,358,70247,1,8,0:0:0:0:
407,198,70440,6,0,P|383:129|423:69,1,150,2|8,0:0|0:0,0:0:0:0:
493,31,70827,1,2,0:0:0:0:
334,4,71021,1,8,0:0:0:0:
459,140,71214,1,10,0:0:0:0:
300,113,71408,1,8,0:0:0:0:
252,98,71504,1,8,0:0:0:0:
202,96,71601,1,10,0:0:0:0:
153,104,71698,1,8,0:0:0:0:
107,124,71795,1,8,0:0:0:0:
67,153,71891,1,8,0:0:0:0:
34,191,71989,6,0,B|64:283|64:283|52:338,1,150,6|8,0:0|0:0,0:0:0:0:
118,381,72376,1,2,0:0:0:0:
273,344,72569,1,8,0:0:0:0:
162,227,72763,2,0,B|131:134|131:134|143:79,1,150,2|8,0:0|0:0,0:0:0:0:
166,6,73150,1,2,0:0:0:0:
321,41,73343,1,8,0:0:0:0:
391,185,73537,6,0,P|356:226|355:272,1,100,6|0,0:0|0:0,0:0:0:0:
455,319,73827,2,0,P|490:278|491:232,1,100,2|0,0:0|0:0,0:0:0:0:
476,133,74118,1,2,0:0:0:0:
368,368,74311,1,2,0:0:0:0:
61,49,75085,5,6,0:0:0:0:
29,222,75279,1,0,0:0:0:0:
82,232,75375,1,0,0:0:0:0:
132,211,75472,1,10,0:0:0:0:
278,112,75666,2,0,P|303:102|330:98,1,55.0000016784668
391,26,75859,1,2,0:0:0:0:
415,56,75956,2,0,P|424:94|398:163,1,110.000003356934,8|0,0:0|0:0,0:0:0:0:
361,239,76247,2,0,P|351:264|347:291,1,55.0000016784668,10|0,0:0|0:0,0:0:0:0:
434,314,76440,2,0,P|443:288|447:261,1,55.0000016784668
402,160,76634,5,2,0:0:0:0:
301,183,76827,1,0,0:0:0:0:
469,236,77021,1,10,0:0:0:0:
433,64,77214,1,0,0:0:0:0:
301,183,77408,1,2,0:0:0:0:
272,208,77505,2,0,L|163:193,1,110.000003356934,8|0,0:0|0:0,0:0:0:0:
81,223,77794,1,10,0:0:0:0:
226,122,77989,1,0,0:0:0:0:
194,343,78182,6,0,P|242:366|296:360,1,110.000003356934,2|0,0:0|0:0,0:0:0:0:
380,333,78472,1,0,0:0:0:0:
380,333,78569,1,10,0:0:0:0:
510,214,78763,1,0,0:0:0:0:
343,157,78956,1,2,0:0:0:0:
314,182,79053,2,0,P|266:209|213:208,1,110.000003356934,8|0,0:0|0:0,0:0:0:0:
124,201,79343,1,10,0:0:0:0:
79,29,79537,1,0,0:0:0:0:
65,266,79731,6,0,P|55:291|51:318,1,55.0000016784668,2|0,0:0|0:0,0:0:0:0:
136,340,79924,2,0,P|140:312|149:287,1,55.0000016784668
124,201,80118,1,10,0:0:0:0:
79,29,80311,1,0,0:0:0:0:
250,71,80505,1,2,0:0:0:0:
285,84,80601,2,0,L|395:68,1,110.000003356934,8|0,0:0|0:0,0:0:0:0:
477,99,80892,1,10,0:0:0:0:
437,272,81085,1,8,0:0:0:0:
226,205,81279,5,6,0:0:0:0:
65,275,81472,1,0,0:0:0:0:
134,114,81666,2,0,P|144:89|148:62,1,55.0000016784668,10|0,0:0|0:0,0:0:0:0:
63,40,81859,2,0,P|59:68|50:93,1,55.0000016784668
74,179,82053,1,2,0:0:0:0:
109,194,82150,2,0,P|148:234|154:289,1,110.000003356934,8|0,0:0|0:0,0:0:0:0:
65,275,82440,1,10,0:0:0:0:
266,184,82634,1,0,0:0:0:0:
311,211,82731,1,0,0:0:0:0:
366,208,82827,5,2,0:0:0:0:
350,32,83021,1,0,0:0:0:0:
201,124,83214,2,0,P|176:114|149:110,1,55.0000016784668,10|0,0:0|0:0,0:0:0:0:
127,195,83408,2,0,P|154:198|179:209,1,55.0000016784668
266,184,83601,1,2,0:0:0:0:
302,195,83698,2,0,P|355:187|393:149,1,110.000003356934,8|0,0:0|0:0,0:0:0:0:
314,108,83989,1,10,0:0:0:0:
385,268,84182,1,0,0:0:0:0:
177,336,84376,5,2,0:0:0:0:
124,326,84472,1,0,0:0:0:0:
74,347,84569,1,0,0:0:0:0:
1,185,84763,1,10,0:0:0:0:
103,43,84956,2,0,P|131:47|156:56,1,55.0000016784668
238,89,85150,1,2,0:0:0:0:
273,75,85247,2,0,P|324:56|379:48,1,110.000003356934,8|0,0:0|0:0,0:0:0:0:
466,42,85537,1,10,0:0:0:0:
396,203,85730,1,0,0:0:0:0:
222,182,85924,5,10,0:0:0:0:
172,203,86021,1,8,0:0:0:0:
119,193,86117,1,8,0:0:0:0:
153,20,86311,1,2,0:0:0:0:
317,84,86505,1,8,0:0:0:0:
317,84,86601,1,8,0:0:0:0:
317,84,86698,2,0,P|342:74|370:70,1,55.0000016784668,10|8,0:0|0:0,0:0:0:0:
391,157,86892,2,0,P|363:160|337:170,1,55.0000016784668,8|8,0:0|0:0,0:0:0:0:
253,145,87085,1,10,0:0:0:0:
298,315,87279,2,0,P|325:318|351:328,1,55.0000016784668,2|0,0:0|0:0,0:0:0:0:
434,299,87472,5,0,0:0:0:0:
