osu file format v14

[General]
AudioFilename: audio.mp3
AudioLeadIn: 0
PreviewTime: 44599
Countdown: 0
SampleSet: Soft
StackLeniency: 0.7
Mode: 0
LetterboxInBreaks: 0
WidescreenStoryboard: 0

[Editor]
DistanceSpacing: 1.3
BeatDivisor: 4
GridSize: 4
TimelineZoom: 1

[Metadata]
Title:Just Awake (TV Size)
TitleUnicode:Just Awake (TV Size)
Artist:Fear, and Loathing in Las Vegas
ArtistUnicode:Fear, and Loathing in Las Vegas
Creator:Nyukai
Version:Insane
Source:HUNTER×HUNTER
Tags:ハンター×ハンター 2011 hxh ending nippon animation 日本アニメーション anime japanese
BeatmapID:2139855
BeatmapSetID:1022905

[Difficulty]
HPDrainRate:6
CircleSize:4.5
OverallDifficulty:8
ApproachRate:9
SliderMultiplier:1.6
SliderTickRate:1

[Events]
//Background and Video events
0,0,"Konachan.com - 123446 hunter_x_hunter infinote japanese_clothes tagme.jpg",0,0
Video,306,"bruh.avi"
//Break Periods
//Storyboard Layer 0 (Background)
//Storyboard Layer 1 (Fail)
//Storyboard Layer 2 (Pass)
//Storyboard Layer 3 (Foreground)
//Storyboard Layer 4 (Overlay)
//Storyboard Sound Samples

[TimingPoints]
306,314.13612565445,4,2,1,50,1,0
306,-133.333333333333,4,2,1,50,0,0
5332,-100,4,2,1,60,0,0
5646,-100,4,1,1,60,0,0
9887,-100,4,2,1,60,0,0
10358,-100,4,2,1,80,0,0
20410,-100,4,1,1,70,0,0
25279,-100,4,2,1,70,0,0
29520,-100,4,1,1,70,0,0
30463,-100,4,2,1,70,0,0
39258,-100,4,1,1,70,0,0
45384,-100,4,2,1,80,0,1
50332,-100,4,1,1,80,0,1
50567,-100,4,2,1,80,0,0
60384,-100,4,1,1,80,0,0
60620,-100,4,2,1,80,0,0

[Colours]
Combo1 : 152,159,177
Combo2 : 157,81,208
Combo3 : 222,98,56

[HitObjects]
184,80,306,5,4,0:0:0:0:
256,136,463,1,0,0:0:0:0:
328,80,620,2,0,B|376:44|376:44|424:80,1,120.000004577637,2|0,0:0|0:0,0:0:0:0:
376,156,1091,1,0,0:0:0:0:
328,80,1248,2,0,L|284:28,1,60.0000022888184,2|0,0:0|0:0,0:0:0:0:
376,156,1562,2,0,L|420:208,1,60.0000022888184
460,280,1876,2,0,B|416:280|416:280|392:296|392:296|332:296,1,120.000004577637,2|0,0:0|0:0,0:0:0:0:
256,280,2347,1,0,0:0:0:0:
256,280,2504,1,2,0:0:0:0:
256,100,2819,5,0,0:0:0:0:
188,44,2976,1,0,0:0:0:0:
120,100,3133,2,0,B|84:148|84:148|120:196,1,120.000004577637,2|0,0:0|0:0,0:0:0:0:
192,252,3604,1,0,0:0:0:0:
192,252,3761,2,0,L|160:303,1,60.0000022888184,2|0,0:0|0:0,0:0:0:0:
256,188,4075,2,0,L|256:116,1,60.0000022888184
320,252,4389,2,0,L|351:303,1,60.0000022888184,2|0,0:0|0:0,0:0:0:0:
392,196,4703,1,2,0:0:0:0:
392,196,4860,2,0,B|428:148|428:148|392:100,1,120.000004577637
256,20,5332,6,0,B|286:95|222:95|254:175,1,160,4|0,0:0|0:0,0:0:0:0:
280,200,5724,1,0,0:0:0:0:
312,216,5803,1,0,0:0:0:0:
344,232,5881,1,0,0:0:0:0:
376,244,5960,2,0,L|411:261,3,40,2|0|0|0,0:0|0:0|0:0|0:0,0:0:0:0:
308,320,6274,2,0,L|328:356,3,40
204,320,6588,2,0,L|184:356,3,40,2|0|0|0,0:0|0:0|0:0|0:0,0:0:0:0:
136,244,6902,2,0,L|100:261,2,40
204,164,7216,5,2,0:0:0:0:
256,20,7374,1,0,0:0:0:0:
308,164,7531,1,0,0:0:0:0:
171,74,7688,1,0,0:0:0:0:
341,74,7845,1,2,0:0:0:0:
256,192,7923,12,2,9415,0:0:0:0:
384,260,9887,5,2,0:0:0:0:
464,192,10044,2,0,P|480:156|464:120,1,80
359,44,10358,2,0,P|344:80|360:116,1,80,4|0,0:0|0:0,0:0:0:0:
464,264,10672,2,0,P|479:228|464:192,1,80,8|0,0:0|0:0,0:0:0:0:
359,115,10986,1,0,0:0:0:0:
256,176,11143,1,0,0:0:0:0:
153,115,11300,1,8,0:0:0:0:
332,192,11457,6,0,B|376:192|376:192|404:228,1,80
180,192,11771,2,0,B|136:192|136:192|108:228,1,80,0|8,0:0|0:0,0:0:0:0:
184,300,12086,1,0,0:0:0:0:
328,300,12243,1,0,0:0:0:0:
256,176,12400,2,0,B|288:96|224:96|254:21,1,160
357,72,12871,5,0,0:0:0:0:
156,144,13028,1,0,0:0:0:0:
156,144,13185,2,0,P|140:108|155:72,1,80,8|0,0:0|0:0,0:0:0:0:
357,72,13499,2,0,P|372:108|357:144,1,80
204,236,13813,1,8,0:0:0:0:
308,236,13970,6,0,B|368:236|368:236|404:256|404:256|462:256,1,160
436,156,14442,1,8,0:0:0:0:
436,156,14599,2,0,B|444:116|444:116|436:76,1,80
307,157,14913,1,0,0:0:0:0:
307,157,15070,2,0,B|300:196|300:196|308:236,1,80,8|0,0:0|0:0,0:0:0:0:
340,336,15384,6,0,B|265:306|265:370|185:338,1,160,4|8,0:0|0:0,0:0:0:0:
36,269,15855,1,0,0:0:0:0:
36,269,16012,2,0,P|71:253|108:268,1,80
180,192,16326,1,8,0:0:0:0:
108,115,16484,2,0,P|71:130|36:114,1,80
180,192,16798,5,0,0:0:0:0:
180,192,16955,2,0,L|268:192,1,80,8|0,0:0|0:0,0:0:0:0:
336,124,17269,2,0,P|371:191|335:259,1,160,0|8,0:0|0:0,0:0:0:0:
176,259,17740,6,0,P|140:191|176:124,1,160
256,56,18211,1,8,0:0:0:0:
336,124,18368,1,0,0:0:0:0:
176,123,18525,2,0,L|132:39,1,80
256,192,18840,1,8,0:0:0:0:
256,192,18997,6,0,L|332:348,1,160
468,192,19468,2,0,L|397:48,1,160,8|0,0:0|0:0,0:0:0:0:
397,48,19939,1,8,0:0:0:0:
256,120,20096,1,8,0:0:0:0:
115,48,20253,1,0,0:0:0:0:
332,84,20410,5,0,0:0:0:0:
332,84,20489,1,0,0:0:0:0:
332,84,20567,2,0,L|360:132,2,40
180,84,20881,1,2,0:0:0:0:
256,276,21196,2,0,L|256:232,2,40,2|0|0,0:0|0:0|0:0,0:0:0:0:
68,192,21667,5,2,0:0:0:0:
116,36,21824,1,0,0:0:0:0:
160,192,21981,1,0,0:0:0:0:
32,96,22138,1,0,0:0:0:0:
200,96,22295,2,0,P|248:96|272:136,1,80,2|0,0:0|0:0,0:0:0:0:
200,288,22609,2,0,P|248:288|272:248,1,80
340,192,22923,5,2,0:0:0:0:
340,192,23002,1,0,0:0:0:0:
340,192,23080,2,0,L|388:192,2,40
172,192,23395,1,2,0:0:0:0:
340,72,23709,1,2,0:0:0:0:
340,72,23787,1,0,0:0:0:0:
340,72,23866,2,0,L|428:72,1,80
500,192,24180,6,0,L|420:192,1,80,2|0,0:0|0:0,0:0:0:0:
340,312,24494,2,0,L|420:312,1,80,2|0,0:0|0:0,0:0:0:0:
256,248,24808,1,2,0:0:0:0:
156,128,24965,1,0,0:0:0:0:
276,32,25122,1,2,0:0:0:0:
376,152,25279,6,0,B|376:196|412:220|412:220|376:244|376:288,1,160,4|0,0:0|0:0,0:0:0:0:
280,328,25751,2,0,B|280:284|244:260|244:260|280:236|280:192,1,160,8|0,0:0|0:0,0:0:0:0:
276,32,26222,2,0,B|240:12|240:12|204:32,1,80,0|8,0:0|0:0,0:0:0:0:
68,136,26536,6,0,B|112:136|136:100|136:100|160:136|204:136,1,160
444,136,27007,2,0,B|400:136|376:100|376:100|352:136|308:136,1,160,8|0,0:0|0:0,0:0:0:0:
204,240,27478,1,0,0:0:0:0:
308,240,27635,1,8,0:0:0:0:
256,328,27792,6,0,B|192:328|192:328|164:344|164:344|96:344,1,160,4|0,0:0|0:0,0:0:0:0:
308,240,28264,2,0,B|372:240|372:240|400:224|400:224|468:224,1,160,8|0,0:0|0:0,0:0:0:0:
460,120,28735,1,0,0:0:0:0:
460,120,28892,2,0,P|416:120|388:92,1,80,8|0,0:0|0:0,0:0:0:0:
242,5,29206,6,0,P|281:3|312:28,1,80,8|0,0:0|0:0,0:0:0:0:
256,116,29520,1,2,0:0:0:0:
236,148,29599,1,0,0:0:0:0:
216,176,29677,1,0,0:0:0:0:
192,204,29756,1,0,0:0:0:0:
172,232,29834,2,0,L|144:272,3,40,0|0|2|0,0:0|0:0|0:0|0:0,0:0:0:0:
256,292,30148,2,0,L|228:332,3,40
356,264,30463,6,0,B|400:264|400:264|428:296,1,80,4|0,0:0|0:0,0:0:0:0:
423,92,30777,2,0,B|400:120|400:120|356:120,1,80,8|0,0:0|0:0,0:0:0:0:
204,28,31091,1,0,0:0:0:0:
308,28,31248,1,0,0:0:0:0:
156,120,31405,2,0,B|112:120|112:120|88:92,1,80,8|0,0:0|0:0,0:0:0:0:
256,144,31719,6,0,L|256:312,1,160,0|8,0:0|0:0,0:0:0:0:
160,268,32190,1,8,3:0:0:0:
352,268,32347,1,0,0:0:0:0:
352,268,32504,2,0,P|396:268|432:224,1,80,8|8,3:0|0:0,0:0:0:0:
392,40,32819,1,0,0:0:0:0:
392,40,32976,6,0,B|360:12|328:12|328:12|216:12,1,160,4|8,0:0|0:0,0:0:0:0:
176,92,33447,1,0,0:0:0:0:
176,92,33604,2,0,P|160:128|175:164,1,80
336,164,33918,2,0,P|351:128|336:91,1,80,8|0,0:0|0:0,0:0:0:0:
256,228,34232,6,0,B|300:256|340:248|340:248|397:289,1,160,0|8,0:0|0:0,0:0:0:0:
256,332,34703,1,0,0:0:0:0:
114,289,34860,2,0,B|172:248|172:248|212:256|256:228,1,160,0|8,0:0|0:0,0:0:0:0:
324,148,35332,6,0,P|255:113|188:150,1,160,4|0,0:0|0:0,0:0:0:0:
184,304,35803,1,8,0:0:0:0:
256,228,35960,1,0,0:0:0:0:
112,228,36117,1,0,0:0:0:0:
188,150,36274,2,0,P|204:114|189:78,1,80,0|8,0:0|0:0,0:0:0:0:
322,78,36588,6,0,P|308:114|324:150,1,80
420,192,36902,1,0,0:0:0:0:
420,192,37059,2,0,P|457:259|422:327,1,160,8|0,0:0|0:0,0:0:0:0:
260,264,37531,2,0,L|340:264,1,80,0|8,0:0|0:0,0:0:0:0:
340,120,37845,6,0,L|176:120,1,160,4|0,0:0|0:0,0:0:0:0:
120,36,38316,1,8,0:0:0:0:
180,120,38473,2,0,L|132:184,1,80
256,272,38787,1,0,0:0:0:0:
256,272,38944,2,0,L|256:192,1,80,8|0,0:0|0:0,0:0:0:0:
332,120,39258,5,2,0:0:0:0:
332,120,39337,1,0,0:0:0:0:
332,120,39415,2,0,L|379:184,1,80
444,268,39730,1,0,0:0:0:0:
368,340,39887,1,2,0:0:0:0:
368,340,39965,1,0,0:0:0:0:
368,340,40044,1,0,0:0:0:0:
280,268,40201,1,0,0:0:0:0:
352,192,40358,1,0,0:0:0:0:
256,72,40515,5,4,2:0:0:0:
160,192,40672,2,0,B|160:248|160:248|184:280|184:280|184:352,1,160,2|0,0:0|0:0,0:0:0:0:
328,344,41143,1,0,0:0:0:0:
328,344,41300,2,0,B|328:280|328:280|352:248|352:248|352:192,1,160,2|0,0:0|0:0,0:0:0:0:
316,96,41771,6,0,P|351:80|387:94,1,80,2|0,0:0|0:0,0:0:0:0:
512,192,42086,1,0,0:0:0:0:
387,289,42243,2,0,P|351:303|316:288,1,80,2|0,0:0|0:0,0:0:0:0:
196,192,42557,1,0,0:0:0:0:
196,192,42635,1,0,0:0:0:0:
196,192,42714,2,0,L|276:192,1,80,2|0,0:0|0:0,0:0:0:0:
512,192,43028,5,4,2:0:0:0:
340,76,43342,1,2,0:0:0:0:
204,176,43499,1,0,0:0:0:0:
256,16,43656,1,0,0:0:0:0:
308,176,43813,1,0,0:0:0:0:
172,76,43970,2,0,P|132:76|104:36,1,80
340,76,44285,2,0,P|380:76|408:36,1,80,2|0,0:0|0:0,0:0:0:0:
308,176,44599,5,2,0:0:0:0:
336,196,44677,1,0,0:0:0:0:
368,216,44756,1,0,0:0:0:0:
396,236,44834,1,0,0:0:0:0:
428,256,44913,1,2,0:0:0:0:
368,344,45070,1,0,0:0:0:0:
256,236,45227,1,0,0:0:0:0:
256,236,45305,1,0,0:0:0:0:
256,236,45384,6,0,P|172:236|116:168,1,160,4|0,0:0|0:0,0:0:0:0:
256,36,45855,2,0,P|340:36|396:104,1,160,8|0,0:0|0:0,0:0:0:0:
390,87,46326,1,0,0:0:0:0:
252,193,46484,2,0,L|292:124,1,80,8|0,0:0|0:0,0:0:0:0:
256,296,46798,2,0,B|192:296|192:296|156:276|156:276|76:276,1,160,0|8,0:0|0:0,0:0:0:0:
101,108,47269,1,0,0:0:0:0:
101,108,47426,2,0,B|156:108|156:108|192:88|192:88|256:88,1,160,0|8,0:0|0:0,0:0:0:0:
423,190,47897,6,0,B|343:158|343:222|268:192,1,160,4|0,0:0|0:0,0:0:0:0:
101,298,48368,2,0,B|176:328|176:264|256:296,1,160,8|0,0:0|0:0,0:0:0:0:
376,276,48840,1,0,0:0:0:0:
376,108,48997,1,8,0:0:0:0:
268,192,49154,1,0,0:0:0:0:
268,192,49311,6,0,P|176:192|116:128,1,160,0|8,0:0|0:0,0:0:0:0:
300,36,49782,1,0,0:0:0:0:
300,36,49939,2,0,P|392:36|452:100,1,160,0|8,0:0|0:0,0:0:0:0:
444,112,50332,1,0,0:0:0:0:
444,144,50410,1,0,0:0:0:0:
444,176,50489,1,0,0:0:0:0:
444,208,50567,6,0,B|444:248|444:248|472:292,1,80,4|0,0:0|0:0,0:0:0:0:
385,365,50881,2,0,B|385:325|385:325|364:292,1,80,8|0,0:0|0:0,0:0:0:0:
222,217,51196,1,0,0:0:0:0:
222,217,51353,2,0,B|256:236|256:236|292:216,1,80,0|8,0:0|0:0,0:0:0:0:
148,292,51667,2,0,B|126:325|126:325|126:365,1,80
46,281,51981,5,0,0:0:0:0:
46,281,52138,2,0,B|68:248|68:248|68:208,1,80,8|0,0:0|0:0,0:0:0:0:
48,104,52452,2,0,B|100:104|124:72|124:72|208:72,1,160,0|8,0:0|0:0,0:0:0:0:
368,192,53080,6,0,B|353:220|353:220|348:222|348:222|355:226|355:226|350:227|350:227|336:256,1,80
256,320,53395,1,8,0:0:0:0:
256,320,53552,1,0,0:0:0:0:
174,253,53709,2,0,B|161:227|161:227|156:226|156:226|163:222|163:222|158:220|158:220|144:192,1,80
116,92,54023,1,8,0:0:0:0:
256,28,54180,5,4,0:0:0:0:
396,92,54337,1,8,0:0:0:0:
396,92,54494,2,0,P|440:92|472:132,1,80,0|8,0:0|0:0,0:0:0:0:
280,232,54808,1,0,0:0:0:0:
280,232,54965,2,0,P|236:232|204:192,1,80,8|0,0:0|0:0,0:0:0:0:
120,160,55279,1,8,0:0:0:0:
188,20,55436,6,0,B|232:20|256:56|256:56|280:20|324:20,1,160,4|0,0:0|0:0,0:0:0:0:
460,124,55908,2,0,B|416:124|392:88|392:88|368:124|324:124,1,160,8|0,0:0|0:0,0:0:0:0:
256,200,56379,1,0,0:0:0:0:
256,48,56536,1,8,0:0:0:0:
188,124,56693,1,0,0:0:0:0:
188,124,56850,6,0,B|144:124|120:88|120:88|96:124|52:124,1,160,0|8,0:0|0:0,0:0:0:0:
124,200,57321,1,0,0:0:0:0:
124,200,57478,2,0,B|156:120|92:120|122:45,1,160,0|8,0:0|0:0,0:0:0:0:
256,200,57949,6,0,B|286:275|222:275|254:355,1,160,4|0,0:0|0:0,0:0:0:0:
323,119,58421,2,0,P|256:84|188:120,1,160,8|0,0:0|0:0,0:0:0:0:
187,121,58892,1,0,0:0:0:0:
256,280,59049,2,0,L|256:200,1,80,8|0,0:0|0:0,0:0:0:0:
336,28,59363,6,0,B|380:56|420:48|420:48|477:89,1,160,0|8,0:0|0:0,0:0:0:0:
500,192,59834,1,0,0:0:0:0:
477,294,59991,2,0,B|420:336|420:336|380:328|336:356,1,160,0|8,0:0|0:0,0:0:0:0:
308,336,60384,1,0,0:0:0:0:
280,316,60463,1,0,0:0:0:0:
252,292,60541,1,0,0:0:0:0:
224,268,60620,6,0,P|180:268|156:240,1,80,4|0,0:0|0:0,0:0:0:0:
64,192,60934,1,8,0:0:0:0:
64,192,61091,1,0,0:0:0:0:
157,140,61248,2,0,P|185:113|224:116,1,80
360,192,61562,1,8,0:0:0:0:
360,192,61719,6,0,B|360:272|360:272|312:348,1,160
194,339,62190,2,0,B|152:272|152:272|152:192,1,160,8|0,0:0|0:0,0:0:0:0:
256,52,62662,1,0,0:0:0:0:
256,52,62819,2,0,B|256:81|256:81|252:85|252:85|260:85|260:85|256:89|256:89|256:121,1,80,8|0,0:0|0:0,0:0:0:0:
460,52,63133,5,4,0:0:0:0:
256,288,63604,1,4,0:0:0:0:
52,52,64075,1,4,0:0:0:0:
256,96,64389,5,0,0:0:0:0:
296,192,64546,1,8,0:0:0:0:
256,288,64703,1,8,0:0:0:0:
72,192,65018,1,8,0:0:0:0:
72,192,65332,1,8,0:0:0:0:
440,192,65646,6,0,B|440:160|440:160|444:156|444:156|436:156|436:156|440:152|440:152|440:123,1,80,4|0,0:0|0:0,0:0:0:0:
336,55,65960,1,0,0:0:0:0:
336,55,66117,2,0,B|336:84|336:84|332:88|332:88|340:88|340:88|336:92|336:92|336:124,1,80,8|0,0:0|0:0,0:0:0:0:
336,228,66431,1,0,0:0:0:0:
336,228,66588,1,8,0:0:0:0:
172,192,68159,6,0,B|172:144|204:116|204:116|204:28,1,160,4|8,0:0|0:0,0:0:0:0:
308,41,68630,1,0,0:0:0:0:
308,41,68787,2,0,B|308:116|308:116|340:144|340:192,1,160,0|8,0:0|0:0,0:0:0:0:
324,296,69258,6,0,B|280:296|256:260|256:260|232:296|188:296,1,160
176,192,69730,2,0,B|156:156|156:156|176:120,1,80,8|0,0:0|0:0,0:0:0:0:
308,24,70044,1,0,0:0:0:0:
204,24,70201,1,0,0:0:0:0:
337,122,70358,2,0,B|356:156|356:156|336:192,1,80,8|0,0:0|0:0,0:0:0:0:
256,256,70672,5,0,0:0:0:0:
256,256,70829,2,0,L|256:336,1,80,8|0,0:0|0:0,0:0:0:0:
336,191,71143,2,0,L|336:111,1,80,8|0,0:0|0:0,0:0:0:0:
176,111,71457,2,0,L|176:191,1,80,8|0,0:0|0:0,0:0:0:0:
256,256,71771,1,0,0:0:0:0:
256,256,71929,6,0,B|312:256|312:256|352:280|352:280|428:280,1,160,8|8,0:0|0:0,0:0:0:0:
460,192,72400,1,0,0:0:0:0:
409,104,72557,2,0,P|364:104|336:72,1,80
256,24,72871,1,8,0:0:0:0:
171,81,73028,1,0,0:0:0:0:
171,81,73107,1,0,0:0:0:0:
171,81,73185,6,0,P|141:106|102:104,1,80,4|0,0:0|0:0,0:0:0:0:
48,192,73499,1,8,0:0:0:0:
102,280,73656,1,0,0:0:0:0:
102,280,73813,2,0,B|160:280|160:280|200:256|200:256|256:256,1,160,0|8,0:0|0:0,0:0:0:0:
409,176,74285,6,0,B|352:176|352:176|312:152|312:152|256:152,1,160
168,92,74756,2,0,B|148:56|148:56|168:20,1,80,8|0,0:0|0:0,0:0:0:0:
345,22,75070,2,0,B|364:56|364:56|344:92,1,80
256,228,75384,2,0,L|256:148,1,80,8|0,0:0|0:0,0:0:0:0:
344,92,75698,5,0,0:0:0:0:
344,92,75855,2,0,L|344:172,1,80,8|0,0:0|0:0,0:0:0:0:
316,272,76169,2,0,P|316:332|296:352,1,80,8|0,0:0|0:0,0:0:0:0:
206,345,76484,1,0,0:0:0:0:
206,345,76641,2,0,P|188:310|196:272,1,80,8|0,0:0|0:0,0:0:0:0:
256,184,76955,6,0,P|293:116|258:48,1,160,0|8,0:0|0:0,0:0:0:0:
100,116,77426,2,0,L|180:116,1,80,0|8,0:0|0:0,0:0:0:0:
180,268,77740,2,0,L|100:268,1,80,0|8,0:0|0:0,0:0:0:0:
28,192,78054,1,0,0:0:0:0:
100,116,78211,1,2,0:0:0:0:
