osu file format v14

[General]
AudioFilename: audio.mp3
AudioLeadIn: 0
PreviewTime: 45168
Countdown: 0
SampleSet: Soft
StackLeniency: 0.7
Mode: 3
LetterboxInBreaks: 0
SpecialStyle: 0
WidescreenStoryboard: 0

[Editor]
DistanceSpacing: 1.8
BeatDivisor: 4
GridSize: 4
TimelineZoom: 2.5

[Metadata]
Title:Just Awake (TV Size)
TitleUnicode:Just Awake(TVサイズ)
Artist:Fear, and Loathing in Las Vegas
ArtistUnicode:Fear, and Loathing in Las Vegas
Creator:Noxus
Version:Achromatic
Source:HUNTER×HUNTER
Tags:ハンター×ハンター hxh ending Nippon Animation 日本アニメーション asherz007 thetoaphster
BeatmapID:1433598
BeatmapSetID:677924

[Difficulty]
HPDrainRate:8
CircleSize:4
OverallDifficulty:8
ApproachRate:5
SliderMultiplier:1.4
SliderTickRate:1

[Events]
//Background and Video events
0,0,"aruka.jpg",0,0
//Break Periods
//Storyboard Layer 0 (Background)
//Storyboard Layer 1 (Fail)
//Storyboard Layer 2 (Pass)
//Storyboard Layer 3 (Foreground)
//Storyboard Sound Samples

[TimingPoints]
954,314.13612565445,4,2,1,25,1,0
46032,-100,4,2,1,25,0,1
61189,-100,4,2,1,25,0,0
61268,-100,4,2,1,25,0,0

[HitObjects]
64,192,954,128,2,2210:0:0:0:66:
192,192,954,1,4,0:0:0:66:
448,192,954,1,0,0:0:0:0:
320,192,1268,1,2,0:0:0:66:
448,192,1268,1,0,0:0:0:0:
192,192,1582,1,2,0:0:0:66:
448,192,1582,1,0,0:0:0:0:
192,192,1896,1,2,0:0:0:66:
320,192,1896,1,0,0:0:0:0:
320,192,2210,1,2,0:0:0:66:
448,192,2210,128,0,3467:0:0:0:0:
64,192,2524,1,2,0:0:0:66:
192,192,2524,1,0,0:0:0:0:
192,192,2838,1,2,0:0:0:66:
320,192,2838,1,0,0:0:0:0:
64,192,3152,1,2,0:0:0:66:
320,192,3152,1,0,0:0:0:0:
192,192,3467,1,2,0:0:0:66:
320,192,3467,128,0,4723:0:0:0:0:
64,192,3781,1,2,0:0:0:66:
448,192,3781,1,0,0:0:0:0:
192,192,4095,1,2,0:0:0:66:
448,192,4095,1,0,0:0:0:0:
64,192,4409,1,2,0:0:0:66:
192,192,4409,1,0,0:0:0:0:
192,192,4723,128,2,5980:0:0:0:66:
448,192,4723,1,0,0:0:0:0:
64,192,5037,1,2,0:0:0:66:
448,192,5037,1,0,0:0:0:0:
64,192,5351,1,2,0:0:0:66:
320,192,5351,1,0,0:0:0:0:
64,192,5666,1,2,0:0:0:66:
448,192,5666,1,0,0:0:0:0:
64,192,5980,128,4,6294:0:0:0:66:
320,192,5980,128,2,6294:0:0:0:66:
448,192,5980,1,0,0:0:0:0:
192,192,6294,1,8,0:0:0:66:
448,192,6294,1,2,0:0:0:66:
320,192,6372,1,8,0:0:0:33:
192,192,6451,1,8,0:0:0:33:
64,192,6529,1,8,0:0:0:33:
320,192,6608,1,8,0:0:0:66:
448,192,6608,1,2,0:0:0:66:
192,192,6686,1,8,0:0:0:33:
320,192,6765,1,8,0:0:0:33:
448,192,6844,1,8,0:0:0:33:
64,192,6922,1,8,0:0:0:66:
192,192,6922,1,2,0:0:0:66:
320,192,7001,1,8,0:0:0:33:
448,192,7079,1,8,0:0:0:33:
192,192,7158,1,8,0:0:0:33:
64,192,7236,1,8,0:0:0:66:
448,192,7236,1,2,0:0:0:66:
320,192,7315,1,8,0:0:0:33:
192,192,7393,1,8,0:0:0:33:
64,192,7472,1,8,0:0:0:33:
320,192,7550,1,8,0:0:0:66:
448,192,7550,1,2,0:0:0:66:
192,192,7629,1,8,0:0:0:33:
64,192,7707,1,8,0:0:0:33:
448,192,7786,1,8,0:0:0:33:
64,192,7864,1,8,0:0:0:66:
320,192,7864,1,2,0:0:0:66:
192,192,7943,1,8,0:0:0:33:
320,192,8022,1,8,0:0:0:33:
448,192,8100,1,8,0:0:0:33:
64,192,8179,1,8,0:0:0:66:
192,192,8179,1,2,0:0:0:66:
448,192,8257,1,8,0:0:0:33:
320,192,8336,1,8,0:0:0:33:
192,192,8414,1,8,0:0:0:33:
320,192,8493,1,2,0:0:0:66:
448,192,8493,1,0,0:0:0:0:
64,192,8571,1,0,0:0:0:0:
192,192,8571,1,2,0:0:0:66:
320,192,8650,1,2,0:0:0:66:
448,192,8650,1,0,0:0:0:0:
64,192,8728,1,0,0:0:0:0:
192,192,8728,1,2,0:0:0:66:
320,192,8807,1,8,0:0:0:66:
448,192,8807,1,0,0:0:0:0:
192,192,8964,1,2,0:0:0:66:
64,192,8964,1,0,0:0:0:0:
448,192,9043,1,0,0:0:0:0:
320,192,9043,1,2,0:0:0:66:
64,192,9121,1,2,0:0:0:66:
320,192,9200,1,2,0:0:0:66:
192,192,9278,1,2,0:0:0:66:
448,192,9357,1,2,0:0:0:66:
192,192,9435,1,2,0:0:0:66:
64,192,9435,1,0,0:0:0:0:
448,192,9514,1,2,0:0:0:66:
320,192,9514,1,0,0:0:0:0:
192,192,9592,1,2,0:0:0:66:
64,192,9671,1,2,0:0:0:66:
448,192,9749,1,2,0:0:0:66:
192,192,9828,1,2,0:0:0:66:
320,192,9906,1,2,0:0:0:66:
448,192,9906,1,0,0:0:0:0:
192,192,9985,1,2,0:0:0:66:
64,192,10063,1,8,0:0:0:66:
320,192,10063,1,0,0:0:0:0:
448,192,10063,128,0,10378:0:0:0:0:
320,192,10535,128,0,10613:0:0:0:0:
320,192,10692,128,0,10849:0:0:0:0:
64,192,10849,128,0,11006:0:0:0:0:
192,192,11006,128,4,11163:0:0:0:66:
320,192,11006,1,2,0:0:0:66:
448,192,11006,1,0,0:0:0:0:
320,192,11163,1,0,0:0:0:0:
64,192,11320,1,8,0:0:0:66:
192,192,11320,1,0,0:0:0:0:
448,192,11320,128,0,11477:0:0:0:0:
320,192,11477,1,0,0:0:0:0:
320,192,11634,1,2,0:0:0:66:
192,192,11634,128,0,11791:0:0:0:0:
448,192,11791,1,0,0:0:0:0:
64,192,11948,128,8,12105:0:0:0:66:
320,192,11948,1,0,0:0:0:0:
448,192,11948,1,0,0:0:0:0:
192,192,12105,128,0,12419:0:0:0:0:
320,192,12105,1,0,0:0:0:0:
448,192,12184,1,0,0:0:0:0:
64,192,12262,1,2,0:0:0:66:
320,192,12419,1,0,0:0:0:0:
448,192,12419,128,0,12577:0:0:0:0:
64,192,12577,128,8,12734:0:0:0:66:
320,192,12577,1,0,0:0:0:0:
192,192,12577,1,0,0:0:0:0:
448,192,12734,128,0,12891:0:0:0:0:
192,192,12734,1,0,0:0:0:0:
192,192,12891,128,2,13048:0:0:0:66:
320,192,12891,1,0,0:0:0:0:
64,192,13048,128,0,13205:0:0:0:0:
448,192,13048,1,0,0:0:0:0:
192,192,13205,128,8,13362:0:0:0:66:
320,192,13205,1,0,0:0:0:0:
448,192,13205,1,0,0:0:0:0:
448,192,13362,128,0,13519:0:0:0:0:
64,192,13362,1,0,0:0:0:0:
320,192,13519,128,2,13676:0:0:0:66:
192,192,13676,1,0,0:0:0:0:
64,192,13833,128,8,13990:0:0:0:66:
320,192,13833,1,0,0:0:0:0:
448,192,13833,1,0,0:0:0:0:
448,192,13990,1,0,0:0:0:0:
192,192,14147,1,2,0:0:0:66:
320,192,14147,128,0,14304:0:0:0:0:
64,192,14304,1,0,0:0:0:0:
192,192,14461,1,8,0:0:0:66:
64,192,14461,1,0,0:0:0:0:
448,192,14461,128,0,14618:0:0:0:0:
320,192,14618,1,0,0:0:0:0:
192,192,14618,128,0,14933:0:0:0:0:
448,192,14775,1,2,0:0:0:66:
64,192,14933,1,0,0:0:0:0:
448,192,14933,128,0,15090:0:0:0:0:
64,192,15090,128,8,15247:0:0:0:66:
192,192,15090,1,0,0:0:0:0:
320,192,15090,1,0,0:0:0:0:
320,192,15247,128,0,15404:0:0:0:0:
448,192,15247,1,0,0:0:0:0:
64,192,15404,128,2,15718:0:0:0:66:
192,192,15404,128,0,15718:0:0:0:0:
448,192,15561,1,0,0:0:0:0:
320,192,15718,128,8,16032:0:0:0:66:
448,192,15718,128,0,16032:0:0:0:0:
64,192,15875,1,0,0:0:0:0:
64,192,16032,1,2,0:0:0:66:
192,192,16032,128,4,16189:0:0:0:66:
448,192,16189,1,0,0:0:0:0:
448,192,16346,128,8,16503:0:0:0:66:
320,192,16346,1,0,0:0:0:0:
64,192,16346,1,0,0:0:0:0:
192,192,16503,1,0,0:0:0:0:
64,192,16660,128,2,16817:0:0:0:66:
320,192,16660,1,0,0:0:0:0:
448,192,16817,1,0,0:0:0:0:
192,192,16974,128,8,17132:0:0:0:66:
320,192,16974,1,0,0:0:0:0:
448,192,16974,1,0,0:0:0:0:
64,192,17132,1,0,0:0:0:0:
320,192,17132,128,0,17446:0:0:0:0:
192,192,17210,1,0,0:0:0:0:
448,192,17289,1,2,0:0:0:66:
64,192,17446,1,0,0:0:0:0:
448,192,17446,128,0,17603:0:0:0:0:
192,192,17603,1,8,0:0:0:66:
320,192,17603,1,0,0:0:0:0:
64,192,17603,128,0,17760:0:0:0:0:
320,192,17760,128,0,17917:0:0:0:0:
448,192,17760,1,0,0:0:0:0:
64,192,17917,128,2,18074:0:0:0:66:
192,192,17917,1,0,0:0:0:0:
320,192,18074,1,0,0:0:0:0:
448,192,18074,128,0,18388:0:0:0:0:
64,192,18231,1,8,0:0:0:66:
192,192,18231,1,0,0:0:0:0:
192,192,18388,128,0,18702:0:0:0:0:
320,192,18388,1,0,0:0:0:0:
64,192,18545,1,2,0:0:0:66:
320,192,18702,128,0,18859:0:0:0:0:
448,192,18702,1,0,0:0:0:0:
192,192,18859,1,8,0:0:0:66:
448,192,18859,128,0,19016:0:0:0:0:
64,192,18859,1,0,0:0:0:0:
64,192,19016,1,0,0:0:0:0:
192,192,19016,128,0,19173:0:0:0:0:
320,192,19173,128,2,19330:0:0:0:66:
448,192,19173,1,0,0:0:0:0:
64,192,19330,1,0,0:0:0:0:
448,192,19330,128,0,19488:0:0:0:0:
320,192,19488,1,8,0:0:0:66:
192,192,19488,1,0,0:0:0:0:
64,192,19645,1,0,0:0:0:0:
192,192,19645,128,0,19959:0:0:0:0:
448,192,19802,1,2,0:0:0:66:
64,192,19959,128,0,20116:0:0:0:0:
320,192,19959,1,0,0:0:0:0:
192,192,20116,1,8,0:0:0:66:
320,192,20116,128,0,20273:0:0:0:0:
448,192,20116,1,0,0:0:0:0:
192,192,20273,128,0,20430:0:0:0:0:
448,192,20273,1,0,0:0:0:0:
64,192,20430,128,2,20587:0:0:0:66:
320,192,20430,1,0,0:0:0:0:
192,192,20587,1,8,0:0:0:66:
320,192,20587,1,0,0:0:0:0:
448,192,20587,128,0,20744:0:0:0:0:
64,192,20744,1,8,0:0:0:66:
192,192,20744,1,0,0:0:0:0:
320,192,20744,128,0,20901:0:0:0:0:
64,192,20901,128,0,21058:0:0:0:0:
320,192,21058,1,2,0:0:0:66:
448,192,21058,1,0,0:0:0:0:
192,192,21137,1,2,0:0:0:66:
64,192,21215,128,2,21529:0:0:0:66:
448,192,21215,128,0,21529:0:0:0:0:
320,192,21529,128,2,21844:0:0:0:66:
64,192,21844,1,2,0:0:0:66:
192,192,21844,1,0,0:0:0:0:
320,192,21922,1,2,0:0:0:66:
64,192,22001,128,2,22315:0:0:0:66:
448,192,22001,128,0,22315:0:0:0:0:
192,192,22315,128,2,22472:0:0:0:66:
320,192,22315,1,8,0:0:0:66:
448,192,22393,1,2,0:0:0:0:
320,192,22472,128,2,22629:0:0:0:66:
64,192,22472,1,0,0:0:0:0:
192,192,22550,1,2,0:0:0:0:
64,192,22629,128,2,22786:0:0:0:66:
448,192,22629,1,0,0:0:0:0:
192,192,22786,128,8,22943:0:0:0:66:
320,192,22786,1,2,0:0:0:66:
448,192,22786,1,0,0:0:0:0:
320,192,22943,128,2,23100:0:0:0:66:
64,192,23100,128,2,23257:0:0:0:66:
192,192,23100,1,0,0:0:0:0:
448,192,23179,1,2,0:0:0:0:
192,192,23257,128,8,23414:0:0:0:66:
320,192,23257,1,2,0:0:0:66:
448,192,23414,128,2,23571:0:0:0:66:
64,192,23571,1,2,0:0:0:66:
320,192,23571,1,0,0:0:0:0:
192,192,23650,1,2,0:0:0:66:
320,192,23728,1,2,0:0:0:66:
448,192,23807,1,2,0:0:0:66:
64,192,23885,1,8,0:0:0:66:
192,192,23885,1,0,0:0:0:0:
320,192,23964,1,8,0:0:0:66:
448,192,23964,1,0,0:0:0:0:
192,192,24043,1,2,0:0:0:66:
64,192,24121,1,2,0:0:0:66:
320,192,24200,1,2,0:0:0:66:
448,192,24200,1,0,0:0:0:0:
64,192,24278,1,2,0:0:0:66:
192,192,24278,1,0,0:0:0:0:
320,192,24357,1,2,0:0:0:66:
448,192,24435,1,2,0:0:0:66:
64,192,24514,1,2,0:0:0:66:
192,192,24514,1,0,0:0:0:0:
320,192,24592,1,2,0:0:0:66:
448,192,24592,1,0,0:0:0:0:
64,192,24671,1,2,0:0:0:66:
192,192,24749,1,2,0:0:0:66:
64,192,24828,128,8,24985:0:0:0:66:
320,192,24828,1,0,0:0:0:0:
448,192,24828,1,0,0:0:0:0:
192,192,24985,1,8,0:0:0:66:
320,192,24985,128,0,25142:0:0:0:0:
448,192,24985,1,0,0:0:0:0:
192,192,25142,128,2,25299:0:0:0:66:
64,192,25142,1,0,0:0:0:0:
320,192,25299,1,2,0:0:0:66:
448,192,25299,128,0,25456:0:0:0:0:
64,192,25456,1,8,0:0:0:66:
192,192,25456,1,0,0:0:0:0:
320,192,25456,128,0,25613:0:0:0:0:
192,192,25613,128,0,25770:0:0:0:0:
64,192,25770,128,0,25927:0:0:0:0:
192,192,25927,128,4,26713:0:0:0:66:
320,192,25927,128,2,26241:0:0:0:66:
448,192,25927,128,0,26241:0:0:0:0:
64,192,26241,1,2,0:0:0:66:
448,192,26320,1,2,0:0:0:66:
64,192,26399,1,8,0:0:0:66:
320,192,26399,1,0,0:0:0:0:
320,192,26713,128,2,26948:0:0:0:66:
448,192,26713,1,0,0:0:0:0:
64,192,26870,1,0,0:0:0:0:
64,192,27027,128,8,27184:0:0:0:66:
192,192,27027,1,0,0:0:0:0:
448,192,27027,1,0,0:0:0:0:
320,192,27184,1,2,0:0:0:66:
448,192,27184,128,0,27419:0:0:0:0:
192,192,27498,1,2,0:0:0:66:
320,192,27498,128,0,27734:0:0:0:0:
64,192,27655,1,8,0:0:0:66:
448,192,27655,1,0,0:0:0:0:
192,192,27812,128,0,28048:0:0:0:0:
448,192,27969,1,0,0:0:0:0:
64,192,28126,128,2,28362:0:0:0:66:
320,192,28126,1,0,0:0:0:0:
192,192,28283,1,8,0:0:0:66:
448,192,28283,1,0,0:0:0:0:
192,192,28440,1,4,0:0:0:66:
320,192,28440,1,2,0:0:0:66:
448,192,28440,128,0,28755:0:0:0:0:
64,192,28755,128,2,28912:0:0:0:66:
320,192,28755,1,0,0:0:0:0:
192,192,28833,1,2,0:0:0:66:
320,192,28912,1,8,0:0:0:66:
448,192,28912,128,0,29226:0:0:0:0:
320,192,29226,1,2,0:0:0:66:
192,192,29304,1,2,0:0:0:66:
448,192,29383,1,2,0:0:0:66:
64,192,29461,1,2,0:0:0:66:
192,192,29540,1,8,0:0:0:66:
320,192,29540,128,0,29854:0:0:0:0:
448,192,29540,1,0,0:0:0:0:
64,192,29697,1,2,0:0:0:66:
192,192,29775,1,2,0:0:0:66:
64,192,29854,128,8,30168:0:0:0:66:
448,192,29854,1,0,0:0:0:0:
192,192,29933,1,2,0:0:0:66:
320,192,30011,1,2,0:0:0:66:
448,192,30090,1,2,0:0:0:66:
192,192,30168,1,2,0:0:0:66:
448,192,30247,1,2,0:0:0:66:
320,192,30325,1,2,0:0:0:66:
192,192,30404,1,2,0:0:0:66:
320,192,30482,1,8,0:0:0:66:
448,192,30482,1,0,0:0:0:0:
64,192,30561,1,0,0:0:0:0:
192,192,30561,1,8,0:0:0:40:
320,192,30639,1,8,0:0:0:40:
448,192,30639,1,0,0:0:0:0:
64,192,30718,1,0,0:0:0:0:
192,192,30718,1,8,0:0:0:40:
320,192,30796,1,2,0:0:0:66:
448,192,30796,1,0,0:0:0:0:
64,192,30875,1,0,0:0:0:0:
192,192,30875,1,8,0:0:0:40:
320,192,30953,1,8,0:0:0:40:
448,192,30953,1,0,0:0:0:0:
64,192,31032,1,0,0:0:0:0:
192,192,31032,1,8,0:0:0:40:
320,192,31111,1,2,0:0:0:66:
448,192,31111,1,4,0:0:0:66:
64,192,31268,1,8,0:0:0:66:
192,192,31268,1,0,0:0:0:0:
448,192,31268,1,0,0:0:0:0:
64,192,31425,1,2,0:0:0:66:
320,192,31425,1,0,0:0:0:0:
192,192,31503,1,2,0:0:0:66:
64,192,31582,1,8,0:0:0:66:
320,192,31582,1,0,0:0:0:0:
448,192,31582,1,0,0:0:0:0:
192,192,31739,1,2,0:0:0:66:
320,192,31739,1,0,0:0:0:0:
64,192,31896,1,8,0:0:0:66:
192,192,31896,1,0,0:0:0:0:
448,192,31896,1,0,0:0:0:0:
320,192,32053,1,2,0:0:0:66:
448,192,32053,1,0,0:0:0:0:
192,192,32132,1,2,0:0:0:66:
64,192,32210,1,8,0:0:0:66:
320,192,32210,1,0,0:0:0:0:
448,192,32210,1,0,0:0:0:0:
192,192,32367,1,2,0:0:0:66:
320,192,32367,1,0,0:0:0:0:
64,192,32524,1,8,0:0:0:66:
192,192,32524,1,0,0:0:0:0:
448,192,32524,1,0,0:0:0:0:
64,192,32681,1,2,0:0:0:66:
448,192,32681,1,0,0:0:0:0:
192,192,32760,1,2,0:0:0:66:
64,192,32838,1,8,0:0:0:66:
320,192,32838,1,0,0:0:0:0:
448,192,32838,1,0,0:0:0:0:
192,192,32995,1,2,0:0:0:66:
320,192,32995,1,0,0:0:0:0:
448,192,33074,1,2,0:0:0:66:
64,192,33152,1,8,0:0:0:66:
192,192,33152,1,0,0:0:0:0:
320,192,33152,1,0,0:0:0:0:
64,192,33310,1,2,0:0:0:66:
448,192,33310,1,0,0:0:0:0:
192,192,33388,1,2,0:0:0:66:
64,192,33467,1,8,0:0:0:66:
320,192,33467,1,0,0:0:0:0:
448,192,33467,1,0,0:0:0:0:
192,192,33624,1,4,0:0:0:66:
320,192,33624,1,2,0:0:0:66:
448,192,33624,1,0,0:0:0:0:
192,192,33781,1,8,0:0:0:66:
320,192,33781,1,0,0:0:0:0:
64,192,33781,1,0,0:0:0:0:
64,192,33938,1,2,0:0:0:66:
448,192,33938,1,0,0:0:0:0:
320,192,34016,1,2,0:0:0:66:
64,192,34095,1,8,0:0:0:66:
192,192,34095,1,0,0:0:0:0:
448,192,34095,1,0,0:0:0:0:
192,192,34252,1,2,0:0:0:66:
320,192,34252,1,0,0:0:0:0:
64,192,34330,1,2,0:0:0:66:
192,192,34409,1,8,0:0:0:66:
320,192,34409,1,0,0:0:0:0:
448,192,34409,1,0,0:0:0:0:
64,192,34566,1,2,0:0:0:66:
448,192,34566,1,0,0:0:0:0:
320,192,34645,1,2,0:0:0:66:
64,192,34723,1,8,0:0:0:66:
192,192,34723,1,0,0:0:0:0:
448,192,34723,1,0,0:0:0:0:
64,192,34880,128,2,35037:0:0:0:66:
320,192,34880,1,0,0:0:0:0:
320,192,35037,128,8,35194:0:0:0:66:
192,192,35037,1,0,0:0:0:0:
192,192,35194,128,8,35351:0:0:0:66:
448,192,35194,1,0,0:0:0:0:
64,192,35351,128,8,35508:0:0:0:66:
320,192,35351,1,0,0:0:0:0:
320,192,35508,128,2,35666:0:0:0:66:
448,192,35508,1,0,0:0:0:0:
64,192,35666,1,2,0:0:0:66:
192,192,35666,128,0,35823:0:0:0:0:
64,192,35823,128,2,35980:0:0:0:66:
448,192,35823,1,0,0:0:0:0:
192,192,35980,1,2,0:0:0:66:
320,192,35980,1,4,0:0:0:66:
448,192,35980,128,0,36294:0:0:0:0:
64,192,36294,1,2,0:0:0:66:
192,192,36294,1,0,0:0:0:0:
320,192,36372,1,2,0:0:0:66:
64,192,36451,1,8,0:0:0:66:
192,192,36451,1,0,0:0:0:0:
448,192,36451,1,0,0:0:0:0:
320,192,36608,1,2,0:0:0:66:
448,192,36608,1,0,0:0:0:0:
64,192,36686,1,0,0:0:0:0:
192,192,36686,1,2,0:0:0:66:
320,192,36765,1,2,0:0:0:66:
448,192,36765,1,0,0:0:0:0:
64,192,36922,1,2,0:0:0:66:
192,192,36922,1,0,0:0:0:0:
320,192,37001,1,2,0:0:0:66:
64,192,37079,1,8,0:0:0:66:
192,192,37079,1,0,0:0:0:0:
448,192,37079,1,0,0:0:0:0:
192,192,37236,1,2,0:0:0:66:
320,192,37236,1,0,0:0:0:0:
64,192,37315,1,0,0:0:0:0:
448,192,37315,1,2,0:0:0:66:
192,192,37393,1,2,0:0:0:66:
320,192,37393,1,0,0:0:0:0:
320,192,37550,1,2,0:0:0:66:
448,192,37550,1,0,0:0:0:0:
192,192,37629,1,2,0:0:0:66:
64,192,37707,1,8,0:0:0:66:
320,192,37707,1,0,0:0:0:0:
448,192,37707,1,0,0:0:0:0:
64,192,37864,1,2,0:0:0:66:
192,192,37864,1,0,0:0:0:0:
320,192,37943,1,2,0:0:0:66:
448,192,37943,1,0,0:0:0:0:
64,192,38022,1,0,0:0:0:0:
192,192,38022,1,2,0:0:0:66:
320,192,38179,1,2,0:0:0:66:
448,192,38179,1,0,0:0:0:0:
192,192,38257,1,2,0:0:0:66:
64,192,38336,1,8,0:0:0:66:
320,192,38336,1,2,0:0:0:66:
448,192,38336,1,0,0:0:0:0:
64,192,38493,1,4,0:0:0:66:
192,192,38493,1,2,0:0:0:66:
448,192,38493,1,0,0:0:0:0:
64,192,38807,1,2,0:0:0:66:
192,192,38807,1,0,0:0:0:0:
320,192,38885,1,2,0:0:0:66:
64,192,38964,1,8,0:0:0:66:
192,192,38964,1,0,0:0:0:0:
448,192,38964,1,0,0:0:0:0:
320,192,39121,1,2,0:0:0:66:
448,192,39121,1,0,0:0:0:0:
64,192,39200,1,0,0:0:0:0:
192,192,39200,1,2,0:0:0:66:
320,192,39278,1,2,0:0:0:66:
448,192,39278,1,0,0:0:0:0:
64,192,39435,1,2,0:0:0:66:
192,192,39435,1,0,0:0:0:0:
448,192,39514,1,2,0:0:0:66:
64,192,39592,1,8,0:0:0:66:
192,192,39592,1,0,0:0:0:0:
320,192,39592,1,0,0:0:0:0:
448,192,39749,1,2,0:0:0:66:
64,192,39828,1,2,0:0:0:66:
320,192,39906,1,8,0:0:0:66:
448,192,39906,1,0,0:0:0:0:
64,192,39985,1,8,0:0:0:66:
192,192,39985,1,0,0:0:0:0:
448,192,40063,1,2,0:0:0:66:
320,192,40142,1,2,0:0:0:66:
64,192,40221,1,8,0:0:0:66:
192,192,40221,1,0,0:0:0:0:
320,192,40299,1,8,0:0:0:66:
448,192,40299,1,0,0:0:0:0:
64,192,40378,1,2,0:0:0:66:
192,192,40456,1,2,0:0:0:66:
320,192,40535,1,2,0:0:0:66:
448,192,40535,1,0,0:0:0:0:
64,192,40613,1,2,0:0:0:66:
192,192,40613,1,0,0:0:0:0:
320,192,40692,1,2,0:0:0:66:
448,192,40692,1,0,0:0:0:0:
64,192,40770,1,0,0:0:0:0:
192,192,40770,1,2,0:0:0:66:
448,192,40849,1,2,0:0:0:66:
320,192,40927,1,2,0:0:0:66:
192,192,41006,1,2,0:0:0:66:
64,192,41084,1,2,0:0:0:66:
192,192,41163,1,2,0:0:0:66:
320,192,41163,1,4,0:0:0:66:
448,192,41163,1,0,0:0:0:0:
64,192,41320,1,8,0:0:0:66:
192,192,41320,1,0,0:0:0:0:
320,192,41320,1,0,0:0:0:0:
64,192,41477,1,2,0:0:0:66:
448,192,41477,1,0,0:0:0:0:
192,192,41556,1,2,0:0:0:66:
64,192,41634,1,8,0:0:0:66:
320,192,41634,1,0,0:0:0:0:
448,192,41634,1,0,0:0:0:0:
192,192,41791,1,2,0:0:0:66:
320,192,41791,1,0,0:0:0:0:
64,192,41948,1,8,0:0:0:66:
192,192,41948,1,0,0:0:0:0:
448,192,41948,1,0,0:0:0:0:
64,192,42105,1,2,0:0:0:66:
448,192,42105,1,0,0:0:0:0:
320,192,42184,1,2,0:0:0:66:
64,192,42262,1,8,0:0:0:66:
192,192,42262,1,0,0:0:0:0:
448,192,42262,1,0,0:0:0:0:
192,192,42419,1,2,0:0:0:66:
320,192,42419,1,0,0:0:0:0:
64,192,42577,1,8,0:0:0:66:
192,192,42577,1,0,0:0:0:0:
448,192,42577,1,0,0:0:0:0:
320,192,42734,1,2,0:0:0:66:
448,192,42734,1,0,0:0:0:0:
192,192,42812,1,2,0:0:0:66:
64,192,42891,1,8,0:0:0:66:
320,192,42891,1,0,0:0:0:0:
448,192,42891,1,0,0:0:0:0:
64,192,43048,1,2,0:0:0:66:
192,192,43048,1,0,0:0:0:0:
192,192,43205,1,8,0:0:0:66:
320,192,43205,1,0,0:0:0:0:
448,192,43205,1,0,0:0:0:0:
64,192,43362,1,2,0:0:0:66:
448,192,43362,1,0,0:0:0:0:
192,192,43440,1,2,0:0:0:66:
64,192,43519,1,8,0:0:0:66:
320,192,43519,1,0,0:0:0:0:
448,192,43519,1,0,0:0:0:0:
64,192,43676,1,4,0:0:0:66:
192,192,43676,1,2,0:0:0:66:
448,192,43676,1,0,0:0:0:0:
64,192,43990,1,8,0:0:0:66:
320,192,43990,1,2,0:0:0:66:
448,192,43990,1,0,0:0:0:0:
64,192,44147,1,8,0:0:0:66:
192,192,44147,1,2,0:0:0:66:
320,192,44147,1,0,0:0:0:0:
192,192,44304,1,8,0:0:0:66:
320,192,44304,1,2,0:0:0:66:
448,192,44304,1,0,0:0:0:0:
64,192,44461,1,8,0:0:0:66:
192,192,44461,1,2,0:0:0:66:
448,192,44461,1,0,0:0:0:0:
64,192,44618,1,8,0:0:0:66:
192,192,44618,1,2,0:0:0:66:
320,192,44618,1,0,0:0:0:0:
64,192,44775,1,8,0:0:0:66:
320,192,44775,1,2,0:0:0:66:
448,192,44775,1,0,0:0:0:0:
192,192,44933,1,8,0:0:0:66:
320,192,44933,1,2,0:0:0:66:
448,192,44933,1,0,0:0:0:0:
64,192,45090,1,2,0:0:0:66:
192,192,45168,1,2,0:0:0:66:
320,192,45247,1,2,0:0:0:66:
448,192,45247,1,0,0:0:0:0:
64,192,45325,1,2,0:0:0:66:
192,192,45325,1,0,0:0:0:0:
448,192,45404,1,2,0:0:0:66:
320,192,45482,1,2,0:0:0:66:
64,192,45561,1,8,0:0:0:66:
192,192,45561,1,0,0:0:0:0:
320,192,45639,1,8,0:0:0:66:
448,192,45639,1,0,0:0:0:0:
64,192,45718,1,2,0:0:0:66:
192,192,45796,1,2,0:0:0:66:
64,192,45875,1,8,0:0:0:66:
320,192,45875,1,0,0:0:0:0:
448,192,45875,1,0,0:0:0:0:
64,192,46032,128,2,47132:0:0:0:66:
192,192,46032,128,4,46817:0:0:0:66:
320,192,46032,1,0,0:0:0:0:
448,192,46032,1,0,0:0:0:0:
448,192,46346,1,2,0:0:0:66:
320,192,46503,1,8,0:0:0:66:
448,192,46503,1,0,0:0:0:0:
320,192,46817,128,2,47132:0:0:0:66:
448,192,46817,1,0,0:0:0:0:
192,192,46974,1,2,0:0:0:66:
192,192,47132,128,8,47289:0:0:0:66:
448,192,47132,128,0,47446:0:0:0:0:
64,192,47289,1,0,0:0:0:0:
320,192,47289,128,2,47446:0:0:0:66:
64,192,47446,128,0,47603:0:0:0:0:
192,192,47446,128,0,48074:0:0:0:0:
448,192,47603,1,2,0:0:0:66:
320,192,47603,128,0,47760:0:0:0:0:
448,192,47760,128,8,47917:0:0:0:66:
64,192,47760,1,0,0:0:0:0:
320,192,47917,128,0,48074:0:0:0:0:
64,192,48074,128,2,48545:0:0:0:66:
448,192,48074,1,0,0:0:0:0:
192,192,48231,1,2,0:0:0:66:
320,192,48388,1,8,0:0:0:66:
448,192,48388,1,0,0:0:0:0:
192,192,48545,1,4,0:0:0:66:
320,192,48545,128,2,49330:0:0:0:66:
448,192,48545,128,0,49645:0:0:0:0:
64,192,48859,1,2,0:0:0:66:
64,192,49016,1,8,0:0:0:66:
192,192,49016,1,0,0:0:0:0:
64,192,49330,1,2,0:0:0:66:
192,192,49330,128,0,49488:0:0:0:0:
64,192,49488,128,2,49645:0:0:0:66:
320,192,49488,1,0,0:0:0:0:
192,192,49645,128,8,49802:0:0:0:66:
320,192,49645,128,0,49959:0:0:0:0:
448,192,49802,128,0,49959:0:0:0:0:
192,192,49959,128,2,50587:0:0:0:66:
64,192,49959,128,0,50273:0:0:0:0:
320,192,50273,128,8,50587:0:0:0:66:
448,192,50273,1,0,0:0:0:0:
448,192,50587,128,0,51058:0:0:0:0:
64,192,50587,1,2,0:0:0:66:
64,192,50744,1,8,0:0:0:66:
192,192,50823,1,8,0:0:0:66:
320,192,50901,1,2,0:0:0:66:
64,192,50980,1,2,0:0:0:66:
320,192,51058,1,2,0:0:0:66:
192,192,51137,1,2,0:0:0:66:
64,192,51215,1,4,0:0:0:66:
320,192,51215,1,2,0:0:0:66:
448,192,51215,1,0,0:0:0:0:
192,192,51372,128,0,51529:0:0:0:0:
320,192,51372,128,0,51529:0:0:0:0:
64,192,51529,1,8,0:0:0:66:
448,192,51529,1,0,0:0:0:0:
64,192,51686,128,0,51844:0:0:0:0:
192,192,51686,128,0,51844:0:0:0:0:
320,192,51844,1,2,0:0:0:66:
320,192,52001,128,0,52158:0:0:0:0:
448,192,52001,128,0,52158:0:0:0:0:
64,192,52158,1,8,0:0:0:66:
192,192,52158,1,0,0:0:0:0:
192,192,52315,128,0,52472:0:0:0:0:
448,192,52315,128,0,52472:0:0:0:0:
320,192,52472,1,2,0:0:0:66:
64,192,52629,128,0,52786:0:0:0:0:
320,192,52629,128,0,52786:0:0:0:0:
192,192,52786,1,8,0:0:0:66:
448,192,52786,1,0,0:0:0:0:
192,192,52943,128,0,53100:0:0:0:0:
320,192,52943,128,0,53100:0:0:0:0:
448,192,53100,1,2,0:0:0:66:
64,192,53257,128,0,53414:0:0:0:0:
448,192,53257,128,0,53414:0:0:0:0:
192,192,53414,1,8,0:0:0:66:
320,192,53414,1,0,0:0:0:0:
192,192,53571,128,0,53728:0:0:0:0:
448,192,53571,128,0,53728:0:0:0:0:
64,192,53728,1,2,0:0:0:66:
64,192,53885,128,0,54043:0:0:0:0:
320,192,53885,128,0,54043:0:0:0:0:
192,192,54043,1,8,0:0:0:66:
448,192,54043,1,0,0:0:0:0:
320,192,54200,128,0,54357:0:0:0:0:
448,192,54200,128,0,54357:0:0:0:0:
64,192,54357,1,2,0:0:0:66:
64,192,54514,128,0,54671:0:0:0:0:
192,192,54514,128,0,54671:0:0:0:0:
320,192,54671,1,8,0:0:0:66:
448,192,54671,1,0,0:0:0:0:
192,192,54828,128,0,54985:0:0:0:0:
320,192,54828,128,0,54985:0:0:0:0:
448,192,54985,1,2,0:0:0:66:
64,192,55142,1,2,0:0:0:66:
192,192,55142,1,0,0:0:0:0:
192,192,55299,1,8,0:0:0:66:
320,192,55299,1,0,0:0:0:0:
448,192,55299,1,0,0:0:0:0:
64,192,55456,1,2,0:0:0:66:
448,192,55456,1,0,0:0:0:0:
64,192,55613,1,8,0:0:0:66:
192,192,55613,1,0,0:0:0:0:
320,192,55613,1,0,0:0:0:0:
320,192,55770,1,2,0:0:0:66:
448,192,55770,1,0,0:0:0:0:
64,192,55927,1,2,0:0:0:66:
192,192,55927,1,0,0:0:0:0:
64,192,56084,128,4,57184:0:0:0:66:
192,192,56084,128,2,56870:0:0:0:66:
320,192,56084,1,0,0:0:0:0:
448,192,56084,1,0,0:0:0:0:
320,192,56399,1,2,0:0:0:66:
320,192,56556,1,8,0:0:0:66:
448,192,56556,1,0,0:0:0:0:
320,192,56870,1,2,0:0:0:66:
448,192,56870,128,0,57184:0:0:0:0:
192,192,57027,1,2,0:0:0:66:
192,192,57184,128,8,57341:0:0:0:66:
320,192,57184,128,0,57498:0:0:0:0:
64,192,57341,1,2,0:0:0:66:
448,192,57341,128,0,57498:0:0:0:0:
64,192,57498,128,0,58126:0:0:0:0:
192,192,57498,128,0,57655:0:0:0:0:
320,192,57655,1,2,0:0:0:66:
448,192,57655,128,0,57812:0:0:0:0:
320,192,57812,1,8,0:0:0:66:
192,192,57812,128,0,57969:0:0:0:0:
448,192,57969,128,0,58126:0:0:0:0:
320,192,58126,128,0,58597:0:0:0:0:
192,192,58126,1,2,0:0:0:0:
448,192,58283,1,2,0:0:0:66:
64,192,58440,1,8,0:0:0:66:
192,192,58440,1,0,0:0:0:0:
64,192,58597,128,2,59383:0:0:0:66:
448,192,58597,128,4,59697:0:0:0:66:
192,192,58597,1,0,0:0:0:0:
320,192,58912,1,2,0:0:0:66:
192,192,59069,1,8,0:0:0:66:
320,192,59069,1,0,0:0:0:0:
320,192,59383,1,0,0:0:0:0:
192,192,59383,128,2,59540:0:0:0:66:
320,192,59540,128,0,59697:0:0:0:0:
64,192,59540,1,2,0:0:0:66:
192,192,59697,128,0,59854:0:0:0:0:
64,192,59697,128,8,60011:0:0:0:66:
448,192,59854,1,0,0:0:0:0:
320,192,59854,128,0,60011:0:0:0:0:
192,192,60011,128,2,60639:0:0:0:66:
448,192,60011,128,0,60325:0:0:0:0:
320,192,60325,128,8,60639:0:0:0:66:
64,192,60325,1,0,0:0:0:0:
64,192,60639,128,0,61111:0:0:0:66:
448,192,60639,1,2,0:0:0:66:
320,192,60796,1,8,0:0:0:66:
448,192,60875,1,8,0:0:0:66:
192,192,60953,1,2,0:0:0:66:
320,192,61032,1,2,0:0:0:66:
448,192,61111,1,2,0:0:0:66:
320,192,61189,1,2,0:0:0:66:
64,192,61268,1,4,0:0:0:66:
192,192,61268,1,2,0:0:0:66:
448,192,61268,1,0,0:0:0:0:
64,192,61425,128,0,61582:0:0:0:0:
192,192,61425,128,0,61582:0:0:0:0:
320,192,61582,1,8,0:0:0:66:
448,192,61582,1,0,0:0:0:0:
192,192,61739,128,0,61896:0:0:0:0:
320,192,61739,128,0,61896:0:0:0:0:
448,192,61896,1,2,0:0:0:66:
64,192,62053,128,0,62210:0:0:0:0:
320,192,62053,128,0,62210:0:0:0:0:
192,192,62210,1,8,0:0:0:66:
448,192,62210,1,0,0:0:0:0:
192,192,62367,128,0,62524:0:0:0:0:
448,192,62367,128,0,62524:0:0:0:0:
320,192,62524,1,2,0:0:0:66:
192,192,62681,128,0,62838:0:0:0:0:
320,192,62681,128,0,62838:0:0:0:0:
64,192,62838,1,8,0:0:0:66:
448,192,62838,1,0,0:0:0:0:
64,192,62995,128,0,63152:0:0:0:0:
192,192,62995,128,0,63152:0:0:0:0:
448,192,63152,1,2,0:0:0:66:
320,192,63310,128,0,63467:0:0:0:0:
448,192,63310,128,0,63467:0:0:0:0:
64,192,63467,1,8,0:0:0:66:
192,192,63467,1,0,0:0:0:0:
192,192,63624,128,0,63781:0:0:0:0:
320,192,63624,128,0,63781:0:0:0:0:
64,192,63781,128,4,64252:0:0:0:66:
448,192,63781,1,2,0:0:0:66:
192,192,64252,1,4,0:0:0:66:
320,192,64252,1,2,0:0:0:66:
448,192,64252,128,0,64723:0:0:0:0:
64,192,64723,1,4,0:0:0:66:
192,192,64723,1,2,0:0:0:66:
320,192,64723,128,0,65194:0:0:0:0:
64,192,65037,1,2,0:0:0:66:
64,192,65194,1,8,0:0:0:66:
192,192,65194,128,0,65666:0:0:0:0:
448,192,65194,1,0,0:0:0:0:
320,192,65351,1,8,0:0:0:66:
448,192,65351,1,0,0:0:0:0:
64,192,65508,1,2,0:0:0:66:
64,192,65666,128,8,65980:0:0:0:66:
320,192,65666,1,0,0:0:0:0:
448,192,65666,1,0,0:0:0:0:
448,192,65823,1,2,0:0:0:66:
192,192,65980,1,2,0:0:0:66:
448,192,65980,128,0,67236:0:0:0:0:
320,192,65980,1,0,0:0:0:0:
320,192,66294,1,4,0:0:0:66:
64,192,66294,1,2,0:0:0:66:
192,192,66451,1,2,0:0:0:66:
64,192,66529,1,2,0:0:0:66:
320,192,66608,1,2,0:0:0:66:
64,192,66765,1,8,0:0:0:66:
192,192,66765,1,4,0:0:0:66:
320,192,66765,1,0,0:0:0:0:
64,192,67079,1,2,0:0:0:66:
192,192,67236,128,2,67472:0:0:0:66:
320,192,67236,128,4,67472:0:0:0:66:
64,192,67236,128,0,67472:0:0:0:0:
192,192,67707,128,0,67864:0:0:0:0:
448,192,67864,1,0,0:0:0:0:
448,192,68022,128,0,68179:0:0:0:0:
192,192,68179,128,0,68336:0:0:0:0:
64,192,68336,1,0,0:0:0:0:
64,192,68493,128,0,68807:0:0:0:0:
192,192,68807,1,4,0:0:0:66:
320,192,68807,1,2,0:0:0:66:
448,192,68807,128,0,69121:0:0:0:0:
64,192,69121,128,8,69278:0:0:0:66:
192,192,69121,1,0,0:0:0:0:
320,192,69121,1,0,0:0:0:0:
192,192,69278,128,0,69435:0:0:0:0:
320,192,69435,1,2,0:0:0:66:
448,192,69435,128,0,69592:0:0:0:0:
64,192,69749,128,8,69906:0:0:0:66:
448,192,69749,1,0,0:0:0:0:
320,192,69749,1,0,0:0:0:0:
320,192,70063,1,2,0:0:0:66:
192,192,70063,1,0,0:0:0:0:
448,192,70221,128,0,70378:0:0:0:0:
64,192,70378,1,8,0:0:0:66:
192,192,70378,1,0,0:0:0:0:
320,192,70535,128,0,70692:0:0:0:0:
448,192,70692,1,2,0:0:0:66:
64,192,70849,128,0,71006:0:0:0:0:
192,192,71006,1,8,0:0:0:66:
320,192,71006,1,0,0:0:0:0:
448,192,71006,128,0,71320:0:0:0:0:
192,192,71320,1,2,0:0:0:66:
320,192,71320,1,0,0:0:0:0:
64,192,71477,1,8,0:0:0:66:
320,192,71477,1,0,0:0:0:0:
448,192,71477,1,0,0:0:0:0:
192,192,71634,1,2,0:0:0:66:
320,192,71634,1,0,0:0:0:0:
64,192,71791,1,8,0:0:0:66:
192,192,71791,1,0,0:0:0:0:
448,192,71791,1,0,0:0:0:0:
320,192,71948,1,2,0:0:0:66:
448,192,71948,1,0,0:0:0:0:
64,192,72105,1,8,0:0:0:66:
192,192,72105,1,0,0:0:0:0:
320,192,72105,1,0,0:0:0:0:
64,192,72262,1,8,0:0:0:66:
192,192,72262,1,0,0:0:0:0:
320,192,72262,1,0,0:0:0:0:
192,192,72577,128,2,72891:0:0:0:66:
320,192,72577,1,0,0:0:0:0:
448,192,72577,1,0,0:0:0:0:
64,192,72891,1,8,0:0:0:66:
320,192,72891,128,0,73048:0:0:0:0:
448,192,72891,1,0,0:0:0:0:
64,192,73048,128,0,73362:0:0:0:0:
192,192,73126,1,8,0:0:0:66:
320,192,73205,1,2,0:0:0:66:
448,192,73205,1,0,0:0:0:0:
192,192,73362,1,8,0:0:0:66:
448,192,73362,128,0,73833:0:0:0:0:
64,192,73519,1,2,0:0:0:66:
320,192,73519,1,0,0:0:0:0:
192,192,73676,1,8,0:0:0:66:
64,192,73755,1,8,0:0:0:66:
320,192,73833,1,2,0:0:0:66:
192,192,73833,128,4,74147:0:0:0:66:
64,192,74147,1,8,0:0:0:66:
320,192,74147,128,0,74304:0:0:0:0:
448,192,74147,1,0,0:0:0:0:
448,192,74304,128,0,74461:0:0:0:0:
64,192,74461,128,2,74618:0:0:0:66:
192,192,74461,1,0,0:0:0:0:
192,192,74775,128,8,74933:0:0:0:66:
320,192,74775,1,0,0:0:0:0:
448,192,74775,1,0,0:0:0:0:
448,192,75090,1,2,0:0:0:66:
320,192,75090,1,0,0:0:0:0:
64,192,75247,128,0,75404:0:0:0:0:
192,192,75404,1,8,0:0:0:66:
320,192,75404,1,0,0:0:0:0:
448,192,75561,128,0,75718:0:0:0:0:
64,192,75718,1,2,0:0:0:66:
320,192,75718,1,0,0:0:0:0:
192,192,75875,128,0,76032:0:0:0:0:
64,192,76032,128,8,76346:0:0:0:66:
320,192,76032,1,0,0:0:0:0:
448,192,76032,1,0,0:0:0:0:
192,192,76346,1,2,0:0:0:66:
320,192,76346,1,0,0:0:0:0:
64,192,76503,1,8,0:0:0:66:
192,192,76503,1,0,0:0:0:0:
448,192,76503,1,0,0:0:0:0:
192,192,76660,1,0,0:0:0:0:
320,192,76660,1,2,0:0:0:66:
64,192,76817,1,8,0:0:0:66:
320,192,76817,1,0,0:0:0:0:
448,192,76817,1,0,0:0:0:0:
64,192,76974,1,0,0:0:0:0:
192,192,76974,1,2,0:0:0:66:
192,192,77132,1,8,0:0:0:66:
320,192,77132,1,0,0:0:0:0:
448,192,77132,1,0,0:0:0:0:
192,192,77289,1,8,0:0:0:66:
320,192,77289,1,0,0:0:0:0:
448,192,77289,1,0,0:0:0:0:
64,192,77603,1,2,0:0:0:66:
448,192,77603,128,0,77917:0:0:0:0:
64,192,77917,1,8,0:0:0:66:
192,192,77917,1,0,0:0:0:0:
320,192,77917,128,0,78074:0:0:0:0:
64,192,78074,128,0,78388:0:0:0:0:
192,192,78152,1,8,0:0:0:66:
448,192,78231,1,2,0:0:0:66:
192,192,78388,1,0,0:0:0:0:
320,192,78388,1,0,0:0:0:0:
448,192,78388,128,8,78545:0:0:0:66:
64,192,78545,128,2,78702:0:0:0:66:
320,192,78545,1,0,0:0:0:0:
192,192,78702,1,2,0:0:0:66:
448,192,78702,128,0,78859:0:0:0:0:
320,192,78781,1,2,0:0:0:66:
64,192,78859,128,2,79016:0:0:0:66:
192,192,78859,128,4,79016:0:0:0:66:
