osu file format v14

[General]
AudioFilename: audio.mp3
AudioLeadIn: 0
PreviewTime: 44375
Countdown: 0
SampleSet: Soft
StackLeniency: 0.7
Mode: 0
LetterboxInBreaks: 0
WidescreenStoryboard: 1

[Editor]
DistanceSpacing: 1
BeatDivisor: 2
GridSize: 8
TimelineZoom: 3.599999

[Metadata]
Title:Just Awake (TV Size)
TitleUnicode:Just Awake (TV Size)
Artist:Fear, and Loathing in Las Vegas
ArtistUnicode:Fear, and Loathing in Las Vegas
Creator:Nevo
Version:Yumerios' Normal
Source:HUNTERĂ—HUNTER
Tags:Rosiie maiev failureatosu fao deetz yumerios hxh 2011 ed ending 1 anime japanese scremo rock realazy mordred amb1d3x lasse concept mapping Hishiro Chizuru
BeatmapID:2505489
BeatmapSetID:1185411

[Difficulty]
HPDrainRate:3.5
CircleSize:3.2
OverallDifficulty:4
ApproachRate:5.5
SliderMultiplier:1.02
SliderTickRate:1

[Events]
//Background and Video events
0,0,"just awake.jpg",0,0
//Break Periods
//Storyboard Layer 0 (Background)
//Storyboard Layer 1 (Fail)
//Storyboard Layer 2 (Pass)
//Storyboard Layer 3 (Foreground)
//Storyboard Layer 4 (Overlay)
//Storyboard Sound Samples

[TimingPoints]
274,314.13612565445,4,2,1,35,1,0
274,-100,4,2,1,35,0,0
5300,-100,4,2,1,45,0,0
5614,-100,4,2,1,45,0,0
7813,-100,4,2,1,55,0,0
9855,-100,4,2,1,40,0,0
10326,-100,4,2,1,70,0,0
20378,-100,4,2,1,55,0,0
25247,-100,4,2,1,65,0,0
29802,-100,4,2,1,60,0,0
30431,-100,4,2,1,65,0,0
35300,-100,4,2,1,65,0,0
39855,-100,4,2,1,60,0,0
40483,-100,4,2,1,65,0,0
45352,-100,4,2,1,80,0,1
63101,-100,4,2,1,80,0,1
63572,-100,4,2,1,80,0,1
64043,-100,4,2,1,80,0,1
66556,-100,4,2,1,80,0,0
68127,-100,4,2,1,70,0,0

[Colours]
Combo1 : 192,192,192
Combo2 : 128,128,255
Combo3 : 0,128,192

[HitObjects]
313,288,274,6,0,L|322:362,2,51,6|2|2,1:2|0:0|1:2,0:0:0:0:
368,202,902,1,2,1:2:0:0:
368,202,1059,2,0,P|424:189|477:219,2,102,2|2|2,0:0|0:0|0:0,0:0:0:0:
294,131,2001,2,0,P|270:124|228:129,1,51,2|2,0:0|1:2,0:0:0:0:
212,164,2315,2,0,P|151:183|101:166,1,102,2|0,0:0|0:0,0:0:0:0:
84,133,2787,6,0,L|83:66,2,51,2|2|2,1:2|0:0|1:2,0:0:0:0:
15,208,3415,1,2,1:2:0:0:
15,208,3572,2,0,L|21:331,2,102,2|2|2,0:0|0:0|0:0,0:0:0:0:
84,133,4514,2,0,P|129:121|159:124,1,51,2|2,0:0|1:2,0:0:0:0:
168,157,4828,2,0,P|230:170|288:149,1,102,2|2,0:0|0:0,0:0:0:0:
305,128,5300,5,4,1:2:0:0:
256,192,5614,12,8,7184,0:0:0:0:
292,148,7813,6,0,L|280:214,1,51,2|0,1:2|1:2,0:0:0:0:
293,248,8127,1,8,1:2:0:0:
217,317,8441,2,0,P|152:329|112:296,1,102,8|8,2:3|2:3,0:0:0:0:
119,265,8912,1,8,2:3:0:0:
119,265,9069,2,0,L|125:194,1,51,8|8,2:3|2:3,0:0:0:0:
133,164,9383,1,8,0:0:0:0:
224,40,9855,2,0,P|265:29|291:27,2,51
176,58,10326,6,0,P|116:39|69:34,1,102,6|10,1:2|0:0,0:0:0:0:
4,105,10954,2,0,P|-1:151|14:209,1,102,2|10,1:2|0:0,0:0:0:0:
46,241,11425,2,0,P|87:236|160:229,1,102,0|2,0:0|0:0,0:0:0:0:
208,148,12054,2,0,P|258:142|309:137,1,102,2|2,0:0|0:0,0:0:0:0:
359,145,12525,1,10,0:0:0:0:
419,233,12839,6,0,P|432:278|406:343,1,102,2|10,1:2|0:0,0:0:0:0:
327,378,13467,2,0,P|283:365|213:354,1,102,2|10,1:2|0:0,0:0:0:0:
176,352,13938,2,0,P|167:295|163:239,1,102,2|2,0:0|0:0,0:0:0:0:
257,205,14567,1,2,0:0:0:0:
257,205,14724,2,0,P|266:148|270:92,1,102,2|10,1:2|0:0,0:0:0:0:
219,13,15352,6,0,P|164:10|107:6,1,102,6|10,1:2|0:0,0:0:0:0:
34,65,15980,2,0,P|23:105|37:176,1,102,2|10,1:2|0:0,0:0:0:0:
77,186,16452,2,0,P|88:226|74:297,1,102,0|2,0:0|0:0,0:0:0:0:
19,367,17080,2,0,P|95:357|152:355,1,102,2|2,0:0|0:0,0:0:0:0:
220,373,17708,5,2,0:0:0:0:
297,306,18022,2,0,P|354:293|371:294,1,51,2|10,0:0|0:0,0:0:0:0:
389,320,18336,2,0,P|446:333|463:332,1,51,2|2,0:0|1:2,0:0:0:0:
487,321,18650,2,0,P|498:247|505:188,1,102,2|2,0:0|0:2,0:0:0:0:
423,153,19279,2,0,P|368:143|362:142,1,51,2|10,0:0|0:0,0:0:0:0:
323,154,19593,1,2,0:0:0:0:
250,225,19907,2,0,L|258:280,2,51,10|10|2,0:0|1:2|0:0,0:0:0:0:
199,223,20378,6,0,P|168:190|167:81,1,153,4|0,1:2|1:2,0:0:0:0:
226,6,21164,2,0,P|280:3|295:3,1,51,0|0,1:2|1:2,0:0:0:0:
361,54,21635,6,0,P|373:109|373:124,1,51,2|2,1:2|1:2,0:0:0:0:
356,151,21949,1,2,1:2:0:0:
261,188,22263,2,0,P|197:176|186:174,1,51,2|2,0:0|1:2,0:0:0:0:
173,212,22577,2,0,P|109:224|98:226,1,51,2|2,1:2|0:0,0:0:0:0:
74,205,22891,6,0,P|53:270|57:332,1,102,6|8,1:2|0:0,0:0:0:0:
74,349,23363,1,2,1:2:0:0:
172,376,23677,2,0,P|229:366|293:357,1,102,10|10,2:3|2:3,0:0:0:0:
309,323,24148,2,0,P|366:333|430:342,1,102,10|2,0:0|1:2,0:0:0:0:
510,327,24776,1,8,0:0:0:0:
493,232,25090,1,2,0:0:0:0:
493,232,25247,6,0,P|494:163|495:102,1,102,6|0,1:2|1:2,0:0:0:0:
470,84,25719,1,8,0:0:0:0:
383,138,26033,2,0,P|325:127|271:119,1,102,2|10,1:2|0:0,0:0:0:0:
236,142,26504,1,2,1:2:0:0:
157,76,26818,1,2,1:2:0:0:
58,100,27132,1,2,0:0:0:0:
20,194,27446,1,2,1:2:0:0:
86,271,27760,6,0,P|151:262|198:253,1,102,6|2,1:2|1:2,0:0:0:0:
231,280,28232,1,10,0:0:0:0:
306,212,28546,2,0,P|314:153|315:141,1,51,0|0,1:0|1:0,0:0:0:0:
292,114,28860,1,8,0:0:0:0:
363,40,29174,2,0,P|426:33|477:55,1,102,10|8,0:0|2:3,0:0:0:0:
510,134,29802,2,0,P|497:197|495:213,1,51,10|10,0:0|0:0,0:0:0:0:
468,224,30116,2,0,P|481:287|483:303,1,51,8|10,0:0|0:0,0:0:0:0:
490,322,30431,6,0,P|418:310|357:306,1,102,6|2,1:2|1:2,0:0:0:0:
305,364,31059,1,2,1:2:0:0:
263,272,31373,1,2,1:2:0:0:
179,328,31687,2,0,P|112:336|65:305,1,102,6|2,1:2|1:2,0:0:0:0:
49,225,32315,2,0,P|22:216|-26:215,2,51,2|10|0,1:2|0:0|1:2,0:0:0:0:
81,185,32787,6,0,P|128:171|196:158,1,102,10|8,0:0|0:0,0:0:0:0:
230,161,33258,1,2,1:2:0:0:
297,237,33572,1,2,1:2:0:0:
398,225,33886,1,2,1:2:0:0:
447,135,34200,1,6,1:2:0:0:
368,69,34514,2,0,L|385:7,2,51,8|8|10,0:0|0:0|0:0,0:0:0:0:
316,73,34986,2,0,P|254:60|246:59,1,51,8|8,2:3|2:3,0:0:0:0:
221,87,35300,6,0,P|156:101|92:112,1,102,6|0,1:2|1:2,0:0:0:0:
73,88,35771,1,8,0:0:0:0:
15,175,36085,1,8,0:0:0:0:
15,175,36242,2,0,P|23:236|32:296,1,102,2|2,1:2|1:2,0:0:0:0:
83,362,36870,2,0,P|147:344|207:331,1,102,2|0,1:2|1:2,0:0:0:0:
232,338,37342,1,8,0:0:0:0:
278,249,37656,1,8,0:0:0:0:
278,249,37813,6,0,P|214:231|154:218,1,102,6|0,1:2|1:2,0:0:0:0:
130,238,38284,1,10,0:0:0:0:
94,148,38598,1,10,0:0:0:0:
94,148,38755,2,0,P|158:130|218:117,1,102,2|0,1:2|1:2,0:0:0:0:
238,144,39226,1,10,0:0:0:0:
332,105,39541,1,0,1:3:0:0:
413,166,39855,2,0,P|402:239|401:249,1,51,8|8,0:0|0:0,0:0:0:0:
368,252,40169,2,0,P|295:241|285:240,1,51,8|8,2:3|2:3,0:0:0:0:
270,263,40483,6,0,P|205:278|164:280,1,102,6|0,1:2|1:2,0:0:0:0:
125,267,40954,1,10,0:0:0:0:
125,267,41111,1,2,1:2:0:0:
46,212,41425,1,0,1:2:0:0:
75,123,41739,2,0,P|75:76|76:53,1,51,0|8,1:2|0:0,0:0:0:0:
52,29,42054,2,0,P|127:15|186:14,1,102,0|0,1:2|1:2,0:0:0:0:
238,55,42682,2,0,P|247:118|249:137,1,51,0|8,1:2|0:0,0:0:0:0:
226,152,42996,5,6,1:2:0:0:
283,236,43310,2,0,P|309:229|341:224,1,51,10|8,0:0|0:0,0:0:0:0:
376,250,43624,2,0,P|402:257|434:262,1,51,10|8,0:0|0:0,0:0:0:0:
470,234,43938,2,0,P|483:165|490:117,1,102,10|10,0:0|0:0,0:0:0:0:
424,53,44567,2,0,P|371:35|355:36,1,51,2|2,1:2|1:2,0:0:0:0:
331,58,44881,2,0,P|263:75|207:69,1,102,10|10,2:3|0:0,0:0:0:0:
188,47,45352,6,0,B|156:83|156:83|183:166,1,102,6|0,1:2|1:2,0:0:0:0:
195,179,45823,1,8,0:0:0:0:
266,251,46137,1,0,1:2:0:0:
229,346,46452,1,10,0:0:0:0:
128,363,46766,2,0,L|15:347,1,102,2|8,0:0|0:0,0:0:0:0:
2,249,47394,2,0,B|75:226|75:226|125:242,1,102,2|10,1:2|0:0,0:0:0:0:
144,257,47865,6,0,P|158:196|166:143,1,102,6|0,1:2|1:2,0:0:0:0:
150,108,48336,1,8,0:0:0:0:
223,37,48650,1,0,1:2:0:0:
325,34,48965,1,10,0:0:0:0:
404,97,49279,2,0,B|413:128|424:149|424:149|415:178|418:239,1,102,2|0,1:2|1:2,0:0:0:0:
382,292,49907,2,0,P|336:282|310:278,1,51,2|8,1:2|0:0,0:0:0:0:
292,313,50221,2,0,P|246:323|220:327,1,51,10|10,0:0|0:0,0:0:0:0:
202,291,50535,6,0,P|141:276|88:275,1,102,6|10,1:2|0:0,0:0:0:0:
57,299,51006,1,2,0:0:0:0:
57,299,51164,1,2,1:2:0:0:
4,218,51478,1,10,0:0:0:0:
4,218,51635,2,0,P|2:165|0:86,1,102,2|2,0:0|0:0,0:0:0:0:
21,69,52106,1,10,0:0:0:0:
116,32,52420,1,2,1:2:0:0:
191,100,52734,1,10,0:0:0:0:
276,43,53048,5,2,1:2:0:0:
367,64,53363,2,0,L|370:125,2,51,10|2|2,0:0|0:0|1:2,0:0:0:0:
403,35,53834,1,2,0:0:0:0:
470,102,54148,1,2,0:0:0:0:
422,187,54462,1,10,0:0:0:0:
422,187,54619,2,0,P|353:177|292:173,1,102,8|8,0:0|0:0,0:0:0:0:
279,195,55090,2,0,P|222:212|203:214,1,51,2|8,1:2|0:0,0:0:0:0:
190,185,55404,6,0,B|180:127|180:127|192:75,1,102,6|0,1:2|1:2,0:0:0:0:
212,39,55876,1,8,0:0:0:0:
117,1,56190,1,0,1:2:0:0:
31,56,56504,1,10,0:0:0:0:
38,155,56818,2,0,P|105:148|156:145,1,102,2|8,0:0|0:0,0:0:0:0:
222,208,57446,2,0,P|289:215|340:218,1,102,2|10,1:2|0:0,0:0:0:0:
367,192,57917,6,0,P|361:259|353:324,1,102,6|0,1:2|1:2,0:0:0:0:
337,340,58389,1,8,0:0:0:0:
248,288,58703,1,0,1:2:0:0:
161,341,59017,1,10,0:0:0:0:
60,340,59331,2,0,B|49:297|42:267|42:267|56:230,1,102,2|0,1:2|1:2,0:0:0:0:
101,152,59959,2,0,P|151:142|168:141,1,51,2|8,1:2|0:0,0:0:0:0:
185,179,60273,2,0,P|235:189|252:190,1,51,10|10,0:0|0:0,0:0:0:0:
277,159,60588,6,0,P|288:99|290:87,2,51,6|2|10,1:2|0:0|0:0,0:0:0:0:
342,237,61216,2,0,P|344:299|344:320,1,51,2|2,1:2|0:0,0:0:0:0:
315,330,61530,1,10,0:0:0:0:
315,330,61687,2,0,P|238:321|180:319,1,102,2|2,0:0|0:0,0:0:0:0:
167,341,62158,1,10,0:0:0:0:
87,276,62472,1,2,1:2:0:0:
101,174,62787,1,10,0:0:0:0:
191,126,63101,6,0,P|257:119|322:116,1,102,6|0,1:2|0:0,0:0:0:0:
322,157,63572,2,0,P|388:164|453:167,1,102,6|0,1:2|0:0,0:0:0:0:
464,135,64043,1,6,1:2:0:0:
442,35,64357,2,0,P|383:27|355:24,1,51,0|8,1:2|0:0,0:0:0:0:
345,50,64671,1,8,0:0:0:0:
253,4,64986,2,0,P|193:0|174:0,1,51,8|0,0:0|1:2,0:0:0:0:
169,39,65300,1,8,2:3:0:0:
67,28,65614,6,0,P|59:95|56:149,1,102,4|0,1:2|1:2,0:0:0:0:
72,177,66085,1,8,0:0:0:0:
141,252,66399,1,0,1:2:0:0:
141,252,66556,1,8,0:0:0:0:
141,252,68127,6,0,P|208:237|272:233,1,102,6|10,1:2|0:0,0:0:0:0:
287,253,68598,1,2,0:0:0:0:
287,253,68755,1,2,1:2:0:0:
361,183,69069,2,0,P|369:117|375:66,1,102,10|0,0:0|1:2,0:0:0:0:
348,36,69541,1,2,0:0:0:0:
445,6,69855,1,2,0:0:0:0:
502,90,70169,1,2,0:0:0:0:
502,90,70326,2,0,P|486:166|478:215,1,102,10|0,0:0|1:2,0:0:0:0:
481,240,70797,5,10,0:0:0:0:
394,294,71111,1,10,0:0:0:0:
306,242,71425,1,10,0:0:0:0:
306,242,71582,1,10,0:0:0:0:
204,249,71897,2,0,P|189:163|185:130,1,102,2|10,1:2|0:0,0:0:0:0:
216,106,72368,1,2,0:0:0:0:
149,29,72682,1,10,0:0:0:0:
149,29,72839,1,0,1:2:0:0:
51,43,73153,6,0,P|41:105|34:163,1,102,6|10,1:2|0:0,0:0:0:0:
103,220,73781,1,2,1:2:0:0:
198,184,74095,1,10,0:0:0:0:
295,228,74410,1,0,1:2:0:0:
295,228,74567,2,0,P|303:298|291:336,1,102,2|2,0:0|0:0,0:0:0:0:
205,375,75195,1,2,0:0:0:0:
205,375,75352,2,0,P|135:364|80:360,1,102,10|0,0:0|1:2,0:0:0:0:
53,363,75823,6,0,P|40:291|37:237,1,102,10|10,0:0|0:0,0:0:0:0:
99,182,76452,1,10,0:0:0:0:
99,182,76609,1,10,0:0:0:0:
194,216,76923,2,0,P|285:220|324:220,1,102,2|10,1:2|0:0,0:0:0:0:
335,188,77394,1,2,0:0:0:0:
400,109,77708,2,0,P|456:101|483:98,2,51,10|0|10,0:0|1:2|0:0,0:0:0:0:
360,76,78179,5,6,1:2:0:0:
