osu file format v14

[General]
AudioFilename: audio.mp3
AudioLeadIn: 0
PreviewTime: 61939
Countdown: 0
SampleSet: None
StackLeniency: 0.7
Mode: 1
LetterboxInBreaks: 0
WidescreenStoryboard: 1

[Editor]
Bookmarks: 13564,23164,32764,42814,52114,61564,136540,158290,167740
DistanceSpacing: 0.8
BeatDivisor: 4
GridSize: 4
TimelineZoom: 5.099997

[Metadata]
Title:Jump Around
TitleUnicode:Jump Around
Artist:Fear, and Loathing in Las Vegas
ArtistUnicode:Fear, and Loathing in Las Vegas
Creator:Player-
Version:Jump! (2022)
Source:
Tags:
BeatmapID:3585826
BeatmapSetID:915243

[Difficulty]
HPDrainRate:4
CircleSize:5
OverallDifficulty:6.5
ApproachRate:10
SliderMultiplier:1.4
SliderTickRate:1

[Events]
//Background and Video events
0,0,"image.jpg",0,0
//Break Periods
//Storyboard Layer 0 (Background)
//Storyboard Layer 1 (Fail)
//Storyboard Layer 2 (Pass)
//Storyboard Layer 3 (Foreground)
//Storyboard Layer 4 (Overlay)
//Storyboard Sound Samples

[TimingPoints]
10114,300,4,1,0,65,1,0
11314,-111.111111111111,4,1,0,65,0,0
13039,-108.108108108108,4,1,0,69,0,0
13114,-105.263157894737,4,1,0,73,0,0
13264,-100,4,1,0,80,0,0
13564,-80,4,1,0,80,0,0
13714,-90.9090909090909,4,1,0,80,0,0
13864,-100,4,1,0,90,0,0
21964,-97.297297297297,4,1,0,90,0,0
22039,-96,4,1,0,90,0,0
22114,-94.736842105263,4,1,0,90,0,0
22264,-92.307692307692,4,1,0,90,0,0
22414,-90,4,1,0,90,0,0
22564,-87.80487804878,4,1,0,90,0,0
22714,-85.714285714286,4,1,0,90,0,0
22864,-83.720930232558,4,1,0,90,0,0
23014,-81.818181818182,4,1,0,90,0,0
23164,-80,4,1,0,90,0,0
23314,-90.9090909090909,4,1,0,90,0,0
23464,-100,4,1,0,90,0,0
31564,-97.297297297297,4,1,0,90,0,0
31639,-96,4,1,0,90,0,0
31714,-94.736842105263,4,1,0,90,0,0
31864,-92.307692307692,4,1,0,90,0,0
31939,-91.139240506329,4,1,0,90,0,0
32014,-90,4,1,0,90,0,0
32164,-87.80487804878,4,1,0,90,0,0
32314,-85.714285714286,4,1,0,90,0,0
32464,-83.720930232558,4,1,0,90,0,0
32614,-81.818181818182,4,1,0,90,0,0
32764,-80,4,1,0,90,0,0
32914,-90.9090909090909,4,1,0,90,0,0
33064,-100,4,1,0,90,0,0
41314,-100,4,1,0,80,0,0
41464,-101.694915254237,4,1,0,80,0,0
41764,-105.263157894737,4,1,0,80,0,0
42064,-109.090909090909,4,1,0,80,0,0
42364,-113.207547169811,4,1,0,80,0,0
42514,-115.384615384615,4,1,0,80,0,0
42664,-117.647058823529,4,1,0,80,0,0
42814,-100,4,1,0,80,0,0
50164,-80,4,1,0,80,0,0
50239,-80.62015503876,4,1,0,80,0,0
50314,-81.25,4,1,0,80,0,0
50389,-81.889763779528,4,1,0,80,0,0
50464,-82.539682539683,4,1,0,80,0,0
50539,-83.2,4,1,0,80,0,0
50614,-83.870967741935,4,1,0,80,0,0
50689,-84.552845528455,4,1,0,80,0,0
50764,-85.245901639344,4,1,0,80,0,0
50839,-85.95041322314,4,1,0,80,0,0
50914,-86.666666666667,4,1,0,80,0,0
50989,-87.394957983193,4,1,0,80,0,0
51064,-88.135593220339,4,1,0,80,0,0
51139,-88.888888888889,4,1,0,80,0,0
51214,-89.655172413793,4,1,0,80,0,0
51289,-90.434782608696,4,1,0,80,0,0
51364,-91.228070175439,4,1,0,80,0,0
51439,-92.035398230089,4,1,0,80,0,0
51514,-92.857142857143,4,1,0,80,0,0
51589,-93.693693693694,4,1,0,80,0,0
51664,-94.545454545455,4,1,0,80,0,0
51739,-95.412844036697,4,1,0,80,0,0
51814,-96.296296296296,4,1,0,80,0,0
51889,-97.196261682243,4,1,0,80,0,0
51964,-98.11320754717,4,1,0,80,0,0
52039,-99.047619047619,4,1,0,80,0,0
52114,-100,4,1,0,80,0,0
52414,-111.111111111111,4,1,0,80,0,0
56839,-105.263157894737,4,1,0,80,0,0
56914,-100,4,1,0,80,0,0
57664,-97.959183673469,4,1,0,81,0,0
57814,-96,4,1,0,82,0,0
57964,-94.117647058824,4,1,0,83,0,0
58114,-92.307692307692,4,1,0,83,0,0
58264,-90.566037735849,4,1,0,84,0,0
58414,-88.888888888889,4,1,0,85,0,0
58564,-87.272727272727,4,1,0,86,0,0
58714,-85.714285714286,4,1,0,87,0,0
58864,-84.210526315789,4,1,0,88,0,0
59014,-82.758620689655,4,1,0,88,0,0
59164,-81.35593220339,4,1,0,89,0,0
59314,-80,4,1,0,90,0,0
59914,-88.8888888888889,4,1,0,80,0,0
60514,-100,4,1,0,80,0,0
60964,-114.285714285714,4,1,0,80,0,0
61039,-110.344827586207,4,1,0,80,0,0
61114,-106.666666666667,4,1,0,80,0,0
61264,-100,4,1,0,80,0,0
61564,-80,4,1,0,100,0,1
61714,-90.9090909090909,4,1,0,100,0,1
69364,-90.909090909091,4,1,0,100,0,1
69439,-90.056285178236,4,1,0,100,0,1
69514,-89.219330855019,4,1,0,100,0,1
69589,-88.397790055249,4,1,0,100,0,1
69664,-87.591240875912,4,1,0,100,0,1
69739,-86.799276672694,4,1,0,100,0,1
69814,-86.021505376344,4,1,0,100,0,1
69889,-85.257548845471,4,1,0,100,0,1
69964,-84.507042253521,4,1,0,100,0,1
70039,-83.769633507853,4,1,0,100,0,1
70114,-83.044982698962,4,1,0,100,0,1
70189,-82.332761578045,4,1,0,100,0,1
70264,-81.632653061224,4,1,0,100,0,1
70339,-80.944350758853,4,1,0,100,0,1
70414,-80.267558528428,4,1,0,100,0,1
70489,-79.601990049751,4,1,0,100,0,1
70564,-78.947368421053,4,1,0,100,0,1
70639,-78.303425774878,4,1,0,100,0,1
70714,-77.669902912621,4,1,0,100,0,1
70789,-77.046548956661,4,1,0,100,0,1
70864,-76.433121019108,4,1,0,100,0,1
70939,-75.829383886256,4,1,0,100,0,1
71014,-75.235109717868,4,1,0,100,0,1
71089,-74.650077760498,4,1,0,100,0,1
71164,-74.074074074074,4,1,0,100,0,1
71314,-83.3333333333333,4,1,0,100,0,1
71464,-90.9090909090909,4,1,0,100,0,1
80314,-95.2380952380952,4,1,0,100,0,1
80914,-100,4,1,0,100,0,0
83314,-111.111111111111,4,1,0,85,0,0
85039,-108.108108108108,4,1,0,85,0,0
85114,-105.263157894737,4,1,0,85,0,0
85264,-100,4,1,0,85,0,0
85714,-90.9090909090909,4,1,0,80,0,0
86014,-100,4,1,0,80,0,0
95314,300,4,1,0,80,1,8
95322,389.61038961039,4,1,0,85,1,0
95322,-76.9999999999999,4,1,0,85,0,0
95711,-81.626237753445,4,1,0,80,0,0
96101,-86.95652173913,4,1,0,80,0,0
96393,-91.426559474209,4,1,0,80,0,0
96490,-93.014925373134,4,1,0,80,0,0
96685,-96.381070213424,4,1,0,80,0,0
96880,-100,4,1,0,80,0,0
107984,-111.111111111111,4,1,0,80,0,0
108081,-110.23940472339,4,1,0,80,0,0
108179,-109.372492376826,4,1,0,80,0,0
108276,-108.527749024604,4,1,0,80,0,0
108373,-107.69595448799,4,1,0,80,0,0
108471,-106.868433432649,4,1,0,80,0,0
108568,-106.061785075091,4,1,0,80,0,0
108666,-105.259093366283,4,1,0,80,0,0
108763,-104.476467882876,4,1,0,80,0,0
108860,-103.705394506581,4,1,0,80,0,0
108958,-102.937844573673,4,1,0,80,0,0
109055,-102.189233768181,4,1,0,80,0,0
109153,-101.44388210777,4,1,0,80,0,0
109250,-100.716766422818,4,1,0,80,0,0
109347,-100,4,1,0,80,0,0
120841,-98.359276398822,4,1,0,82,0,0
120938,-97.563011183442,4,1,0,82,0,0
121036,-96.771523178808,4,1,0,83,0,0
121133,-96.000656976267,4,1,0,84,0,0
121231,-95.234215885947,4,1,0,85,0,0
121328,-94.487552537989,4,1,0,86,0,0
121425,-93.752506215414,4,1,0,87,0,0
121523,-93.021405267765,4,1,0,88,0,0
121620,-92.308907138345,4,1,0,88,0,0
121718,-91.600062686099,4,1,0,89,0,0
121815,-90.909090909091,4,1,0,90,0,0
122010,-100,4,1,0,90,0,0
133698,-93.0810171496156,4,1,0,90,0,0
133796,-89.9531375014287,4,1,0,90,0,0
133893,-87.0575221238938,4,1,0,90,0,0
133990,-84.3425141999786,4,1,0,90,0,0
134088,-81.7662337662338,4,1,0,90,0,0
134283,389.61038961039,4,1,0,90,1,8
134283,-81.9672131147541,4,1,0,90,0,8
134290,300,4,1,0,80,1,0
134290,-99.9000999001,4,1,0,80,0,0
136015,-96.969696969697,4,1,0,80,0,0
136090,-94.117647058824,4,1,0,80,0,0
136240,-88.888888888889,4,1,0,80,0,0
136390,-84.210526315789,4,1,0,80,0,0
136540,-80,4,1,0,80,0,0
136690,-90.9090909090909,4,1,0,80,0,0
136840,-90.9090909090909,4,1,0,90,0,0
145240,-89.171974522293,4,1,0,90,0,0
145315,-88.328075709779,4,1,0,90,0,0
145390,-87.5,4,1,0,90,0,0
145465,-86.687306501548,4,1,0,90,0,0
145540,-85.889570552147,4,1,0,90,0,0
145615,-85.106382978723,4,1,0,90,0,0
145690,-84.33734939759,4,1,0,90,0,0
145765,-83.582089552239,4,1,0,90,0,0
145840,-82.840236686391,4,1,0,90,0,0
145915,-82.111436950147,4,1,0,90,0,0
145990,-81.395348837209,4,1,0,90,0,0
146140,-80,4,1,0,90,0,0
146290,-90.9090909090909,4,1,0,90,0,0
153790,-100,4,1,0,90,0,0
157790,-101.694915254237,4,1,0,88,0,0
157890,-103.448275862069,4,1,0,87,0,0
157990,-105.263157894737,4,1,0,85,0,0
158090,-107.142857142857,4,1,0,83,0,0
158190,-109.090909090909,4,1,0,82,0,0
158290,-111.111111111111,4,1,0,80,0,0
158590,-125,4,1,0,80,0,0
163090,-111.111111111111,4,1,0,85,0,0
165490,-105.263157894737,4,1,0,85,0,0
165640,-100,4,1,0,85,0,0
165940,-90.9090909090909,4,1,0,85,0,0
166090,-86.9565217391304,4,1,0,85,0,0
166390,-80,4,1,0,85,0,0
166540,-76.9230769230769,4,1,0,85,0,0
166840,-71.428571428571,4,1,0,85,0,0
166990,-68.965517241379,4,1,0,85,0,0
167140,-66.666666666667,4,1,0,85,0,0
167215,-65.573770491803,4,1,0,85,0,0
167290,-64.516129032258,4,1,0,85,0,0
167440,-62.5,4,1,0,85,0,0
167740,-58.8235294117647,4,1,0,85,0,1
167758,-58.8235294117647,4,1,0,85,0,0
167890,-100,4,1,0,85,0,0
170140,-100,4,1,0,85,0,1
170158,-100,4,1,0,85,0,0
172090,-97.560975609756,4,1,0,85,0,0
172240,-95.238095238095,4,1,0,85,0,0
172390,-93.023255813953,4,1,0,85,0,0
172540,-90.909090909091,4,1,0,85,0,1
172558,-90.909090909091,4,1,0,85,0,0
172690,-95.2380952380952,4,1,0,85,0,0
173290,-93.023255813953,4,1,0,85,0,0
173440,-90.909090909091,4,1,0,85,0,0
173590,-88.888888888889,4,1,0,85,0,0
173740,-86.95652173913,4,1,0,85,0,1
173758,-86.95652173913,4,1,0,85,0,0
173890,-90.9090909090909,4,1,0,85,0,0
174340,-89.285714285714,4,1,0,85,0,0
174415,-88.495575221239,4,1,0,85,0,0
174490,-87.719298245614,4,1,0,85,0,0
174640,-86.206896551724,4,1,0,85,0,0
174715,-85.470085470085,4,1,0,85,0,0
174790,-84.745762711864,4,1,0,85,0,0
174940,-83.333333333333,4,1,0,85,0,1
174958,-83.333333333333,4,1,0,85,0,0
175090,-86.9565217391304,4,1,0,85,0,0
175840,-86.95652173913,4,1,0,85,0,0
175915,-86.393088552916,4,1,0,86,0,0
175990,-85.836909871245,4,1,0,87,0,0
176065,-85.287846481876,4,1,0,87,0,0
176140,-84.745762711864,4,1,0,88,0,0
176215,-84.210526315789,4,1,0,89,0,0
176290,-83.682008368201,4,1,0,90,0,0
176365,-83.160083160083,4,1,0,90,0,0
176440,-82.644628099174,4,1,0,91,0,0
176515,-82.135523613963,4,1,0,92,0,0
176590,-81.632653061224,4,1,0,93,0,0
176665,-81.135902636917,4,1,0,93,0,0
176740,-80.645161290323,4,1,0,94,0,0
176815,-80.160320641283,4,1,0,95,0,0
176890,-79.681274900398,4,1,0,96,0,0
176965,-79.207920792079,4,1,0,96,0,0
177040,-78.740157480315,4,1,0,97,0,0
177115,-78.277886497065,4,1,0,98,0,0
177190,-77.821011673152,4,1,0,99,0,0
177265,-77.369439071567,4,1,0,99,0,0
177340,-76.9230769230769,4,1,0,100,0,1
177490,-86.9565217391304,4,1,0,100,0,1
186490,-90.9090909090909,4,1,0,100,0,1
187090,-95.2380952380952,4,1,0,100,0,0
189490,-105.263157894737,4,1,0,85,0,0
191215,-102.564102564103,4,1,0,85,0,0
191290,-100,4,1,0,85,0,0
191440,-95.238095238095,4,1,0,85,0,0
191890,-86.9565217391304,4,1,0,85,0,0
192190,-100,4,1,0,85,0,0
196240,-96.385542168675,4,1,0,89,0,0
196315,-94.674556213018,4,1,0,91,0,0
196390,-93.023255813953,4,1,0,93,0,0
196540,-89.887640449438,4,1,0,96,0,0
196615,-88.397790055249,4,1,0,98,0,0
196690,-86.95652173913,4,1,0,100,0,1
201490,-86.95652173913,4,1,0,100,0,0
203890,-100,4,1,0,90,0,0
206740,-95.238095238095,4,1,0,90,0,0
206815,-93.023255813953,4,1,0,90,0,0
206890,-90.909090909091,4,1,0,90,0,0
207040,-86.95652173913,4,1,0,90,0,0
207490,-80,4,1,0,90,0,0
207658,-80.044676098287,4,1,0,90,0,0
207677,-80.09188836805,4,1,0,90,0,0
207696,-80.13915636454,4,1,0,89,0,0
207715,-80.18648018648,4,1,0,89,0,0
207733,-80.231364866126,4,1,0,89,0,0
207752,-80.278797684984,4,1,0,89,0,0
207771,-80.326286621626,4,1,0,88,0,0
207790,-80.373831775701,4,1,0,88,0,0
207808,-80.418926500842,4,1,0,88,0,0
207827,-80.466581417834,4,1,0,88,0,0
207846,-80.514292847335,4,1,0,87,0,0
207865,-80.56206088993,4,1,0,87,0,0
207883,-80.607367138438,4,1,0,87,0,0
207902,-80.655245717144,4,1,0,87,0,0
207921,-80.703181206794,4,1,0,87,0,0
207940,-80.75117370892,4,1,0,86,0,0
207958,-80.796692972567,4,1,0,86,0,0
207977,-80.844796791276,4,1,0,86,0,0
207996,-80.89295792312,4,1,0,86,0,0
208015,-80.941176470588,4,1,0,85,0,0
208033,-80.986910255203,4,1,0,85,0,0
208052,-81.035240907092,4,1,0,85,0,0
208071,-81.083629278104,4,1,0,85,0,0
208090,-81.132075471698,4,1,0,84,0,0
208108,-81.178025297338,4,1,0,84,0,0
208127,-81.226584390643,4,1,0,84,0,0
208146,-81.275201612903,4,1,0,84,0,0
208165,-81.323877068558,4,1,0,83,0,0
208183,-81.370044469675,4,1,0,83,0,0
208202,-81.418833627872,4,1,0,83,0,0
208221,-81.467681328744,4,1,0,83,0,0
208240,-81.516587677725,4,1,0,83,0,0
208258,-81.562974203338,4,1,0,82,0,0
208277,-81.611995065321,4,1,0,82,0,0
208296,-81.661074887637,4,1,0,82,0,0
208315,-81.710213776722,4,1,0,82,0,0
208333,-81.756820990588,4,1,0,81,0,0
208352,-81.806075210857,4,1,0,81,0,0
208371,-81.855388813097,4,1,0,81,0,0
208390,-81.904761904762,4,1,0,81,0,0
208408,-81.951591385554,4,1,0,80,0,0
208427,-82.001080634396,4,1,0,80,0,0
208446,-82.050629690879,4,1,0,80,0,0
208465,-82.100238663484,4,1,0,80,0,0
208483,-82.147292004967,4,1,0,80,0,0
208502,-82.19701796865,4,1,0,79,0,0
208521,-82.246804169722,4,1,0,79,0,0
208540,-82.296650717703,4,1,0,79,0,0
208558,-82.343929528916,4,1,0,79,0,0
208577,-82.393893909878,4,1,0,78,0,0
208596,-82.443918962101,4,1,0,78,0,0
208615,-82.494004796163,4,1,0,78,0,0
208633,-82.541510701603,4,1,0,78,0,0
208652,-82.591715218644,4,1,0,77,0,0
208671,-82.641980844998,4,1,0,77,0,0
208690,-82.692307692308,4,1,0,77,0,0
208708,-82.740042332115,4,1,0,77,0,0
208727,-82.790488720598,4,1,0,77,0,0
208746,-82.840996660673,4,1,0,76,0,0
208765,-82.89156626506,4,1,0,76,0,0
208783,-82.939531295207,4,1,0,76,0,0
208802,-82.990221307257,4,1,0,76,0,0
208821,-83.040973317455,4,1,0,75,0,0
208840,-83.091787439614,4,1,0,75,0,0
208858,-83.139984532096,4,1,0,75,0,0
208877,-83.190919936801,4,1,0,75,0,0
208896,-83.24191779054,4,1,0,74,0,0
208915,-83.292978208232,4,1,0,74,0,0
208933,-83.341409051265,4,1,0,74,0,0
208952,-83.392591634883,4,1,0,74,0,0
208971,-83.443837122805,4,1,0,73,0,0
208990,-83.495145631068,4,1,0,73,0,0
209008,-83.543811929279,4,1,0,73,0,0
209027,-83.595243495448,4,1,0,73,0,0
209046,-83.646738425626,4,1,0,73,0,0
209065,-83.698296836983,4,1,0,72,0,0
209083,-83.747200311617,4,1,0,72,0,0
209102,-83.798882681564,4,1,0,72,0,0
209121,-83.850628879717,4,1,0,72,0,0
209140,-83.90243902439,4,1,0,71,0,0
209158,-83.95158141351,4,1,0,71,0,0
209177,-84.003516426269,4,1,0,71,0,0
209196,-84.055515735974,4,1,0,71,0,0
209215,-84.107579462103,4,1,0,70,0,0
209233,-84.156962520795,4,1,0,70,0,0
209252,-84.209152033423,4,1,0,70,0,0
209271,-84.26140631634,4,1,0,70,0,0
209290,-84.313725490196,4,1,0,70,0,0
209308,-84.363350990779,4,1,0,69,0,0
209327,-84.415796878579,4,1,0,69,0,0
209346,-84.468308014667,4,1,0,69,0,0
209365,-84.520884520885,4,1,0,69,0,0
209383,-84.570754253122,4,1,0,68,0,0
209402,-84.623458409866,4,1,0,68,0,0
209421,-84.676228297614,4,1,0,68,0,0
209440,-84.729064039409,4,1,0,68,0,0
209458,-84.779179810726,4,1,0,67,0,0
209477,-84.832144148884,4,1,0,67,0,0
209496,-84.885174705534,4,1,0,67,0,0
209515,-84.938271604938,4,1,0,67,0,0
209533,-84.988635240636,4,1,0,67,0,0
209552,-85.041861691608,4,1,0,66,0,0
209571,-85.095154853392,4,1,0,66,0,0
209590,-85.148514851485,4,1,0,66,0,0
209608,-85.199128194967,4,1,0,66,0,0
209627,-85.252618709315,4,1,0,65,0,0
209646,-85.306176431689,4,1,0,65,0,0
209665,-85.359801488834,4,1,0,65,0,0
209683,-85.410666401827,4,1,0,65,0,0
209702,-85.464422949516,4,1,0,64,0,0
209721,-85.518247207398,4,1,0,64,0,0
209740,-85.572139303483,4,1,0,64,0,0
209758,-85.623257666268,4,1,0,64,0,0
209777,-85.677282236908,4,1,0,63,0,0
209796,-85.731375024922,4,1,0,63,0,0
209815,-85.785536159601,4,1,0,63,0,0
209833,-85.836909871245,4,1,0,63,0,0
209852,-85.891204474333,4,1,0,63,0,0
209871,-85.945567807056,4,1,0,62,0,0
209890,-86,4,1,0,62,0,0
209908,-86.051630978587,4,1,0,62,0,0
209927,-86.106197643761,4,1,0,62,0,0
209946,-86.160833555971,4,1,0,61,0,0
209965,-86.215538847118,4,1,0,61,0,0
209983,-86.267429029993,4,1,0,61,0,0
210002,-86.322269807281,4,1,0,61,0,0
210021,-86.377180354213,4,1,0,60,0,0
210040,-86.43216080402,4,1,0,60,0,0
210058,-86.484312148029,4,1,0,60,0,0
210077,-86.539429108107,4,1,0,60,0,0
210096,-86.594616365711,4,1,0,60,0,0
210115,-86.649874055416,4,1,0,59,0,0
210133,-86.702288537151,4,1,0,59,0,0
210152,-86.757683771605,4,1,0,59,0,0
210171,-86.813149836805,4,1,0,59,0,0
210190,-86.868686868687,4,1,0,58,0,0
210208,-86.921366484738,4,1,0,58,0,0
210227,-86.977042106328,4,1,0,58,0,0
210246,-87.032789097288,4,1,0,58,0,0
210265,-87.088607594937,4,1,0,57,0,0
210283,-87.141554362144,4,1,0,57,0,0
210302,-87.19751250507,4,1,0,57,0,0
210321,-87.253542561466,4,1,0,57,0,0
210340,-87.309644670051,4,1,0,57,0,0
210358,-87.362860625762,4,1,0,56,0,0
210377,-87.419103445939,4,1,0,56,0,0
210396,-87.475418729233,4,1,0,56,0,0
210415,-87.531806615776,4,1,0,56,0,0
210433,-87.585293818108,4,1,0,55,0,0
210452,-87.641823493444,4,1,0,55,0,0
210471,-87.698426187158,4,1,0,55,0,0
210490,-87.755102040816,4,1,0,55,0,0
210508,-87.80886256892,4,1,0,54,0,0
210527,-87.865681299595,4,1,0,54,0,0
210546,-87.922573609596,4,1,0,54,0,0
210565,-87.979539641944,4,1,0,54,0,0
210583,-88.033575596274,4,1,0,53,0,0
210602,-88.090685605026,4,1,0,53,0,0
210621,-88.147869759814,4,1,0,53,0,0
210640,-88.205128205128,4,1,0,53,0,0
210658,-88.259441707718,4,1,0,53,0,0
210677,-88.316845240133,4,1,0,52,0,0
210696,-88.374323491128,4,1,0,52,0,0
210715,-88.431876606684,4,1,0,52,0,0
210733,-88.48646980142,4,1,0,52,0,0
210752,-88.544169126227,4,1,0,51,0,0
210771,-88.601943748068,4,1,0,51,0,0
210790,-88.659793814433,4,1,0,51,0,0
210808,-88.714668867341,4,1,0,51,0,0
210827,-88.772666276709,4,1,0,50,0,0
210846,-88.830739567553,4,1,0,50,0,0
210865,-88.888888888889,4,1,0,50,0,0
210883,-88.944047988417,4,1,0,50,0,0
210902,-89.002345798261,4,1,0,50,0,0
210921,-89.060720080086,4,1,0,49,0,0
210940,-89.119170984456,4,1,0,49,0,0
210958,-89.174616341767,4,1,0,49,0,0
210977,-89.233216892055,4,1,0,49,0,0
210996,-89.291894510971,4,1,0,48,0,0
211015,-89.350649350649,4,1,0,48,0,0
211033,-89.406383199917,4,1,0,48,0,0
211052,-89.465288854983,4,1,0,48,0,0
211071,-89.524272181547,4,1,0,47,0,0
211090,-89.583333333333,4,1,0,47,0,0
211108,-89.639357932041,4,1,0,47,0,0
211127,-89.698571080903,4,1,0,47,0,0
211146,-89.757862510437,4,1,0,47,0,0
211165,-89.817232375979,4,1,0,46,0,0
211183,-89.873550005225,4,1,0,46,0,0
211202,-89.933073061907,4,1,0,46,0,0
211221,-89.992675014824,4,1,0,46,0,0
211240,-90.052356020942,4,1,0,45,0,0
211258,-90.10896898575,4,1,0,45,0,0
211277,-90.168804389613,4,1,0,45,0,0
211296,-90.228719311744,4,1,0,45,0,0
211315,-90.288713910761,4,1,0,44,0,0
211333,-90.345624540393,4,1,0,44,0,0
211352,-90.405774756465,4,1,0,44,0,0
211371,-90.466005119394,4,1,0,44,0,0
211390,-90.526315789474,4,1,0,43,0,0
211408,-90.58352643775,4,1,0,43,0,0
211427,-90.643993957067,4,1,0,43,0,0
211446,-90.704542258473,4,1,0,43,0,0
211465,-90.765171503958,4,1,0,43,0,0
211483,-90.822684549583,4,1,0,42,0,0
211502,-90.883471889531,4,1,0,42,0,0
211521,-90.94434065353,4,1,0,42,0,0
211540,-91.005291005291,4,1,0,42,0,0
211558,-91.063108852181,4,1,0,41,0,0
211577,-91.124218556847,4,1,0,41,0,0
211596,-91.185410334346,4,1,0,41,0,0
211615,-91.246684350133,4,1,0,41,0,0
211633,-91.304809427752,4,1,0,40,0,0
211652,-91.366244068277,4,1,0,40,0,0
211671,-91.427761437329,4,1,0,40,0,0
211690,-91.489361702128,4,1,0,40,0,0
211708,-91.547796465829,4,1,0,40,0,0
211727,-91.60955864077,4,1,0,39,0,0
211746,-91.671404206936,4,1,0,39,0,0
211765,-91.733333333333,4,1,0,39,0,0
211783,-91.792080264703,4,1,0,39,0,0
211802,-91.854172600399,4,1,0,38,0,0
211821,-91.916348997114,4,1,0,38,0,0
211840,-91.978609625668,4,1,0,38,0,0
211858,-92.037671232877,4,1,0,38,0,0
211877,-92.100096383822,4,1,0,37,0,0
211896,-92.162606272773,4,1,0,37,0,0
211915,-92.225201072386,4,1,0,37,0,0
211933,-92.284579890546,4,1,0,37,0,0
211952,-92.347340539767,4,1,0,37,0,0
211971,-92.410186611268,4,1,0,36,0,0
211990,-92.47311827957,4,1,0,36,0,0
212008,-92.5328168711,4,1,0,36,0,0
212027,-92.595915730539,4,1,0,36,0,0
212046,-92.659100703922,4,1,0,35,0,0
212065,-92.722371967655,4,1,0,35,0,0
212083,-92.782392922645,4,1,0,35,0,0
212102,-92.845832733554,4,1,0,35,0,0
212121,-92.909359357557,4,1,0,34,0,0
212140,-92.972972972973,4,1,0,34,0,0
212158,-93.033318909563,4,1,0,34,0,0
212177,-93.097102442897,4,1,0,34,0,0
212196,-93.160973496064,4,1,0,33,0,0
212215,-93.224932249323,4,1,0,33,0,0
212233,-93.28560581408,4,1,0,33,0,0
212252,-93.349735870902,4,1,0,33,0,0
212271,-93.41395416199,4,1,0,33,0,0
212290,-93.478260869565,4,1,0,32,0,0
212308,-93.539264737873,4,1,0,32,0,0
212327,-93.603744149766,4,1,0,32,0,0
212346,-93.668312518153,4,1,0,32,0,0
212365,-93.732970027248,4,1,0,31,0,0
212383,-93.794306903697,4,1,0,31,0,0
212402,-93.859138533178,4,1,0,31,0,0
212421,-93.924059849285,4,1,0,31,0,0
212440,-93.989071038251,4,1,0,30,0,0
212458,-94.050743657043,4,1,0,30,0,0
212477,-94.115930397986,4,1,0,30,0,0
212496,-94.1812075637,4,1,0,30,0,0
212515,-94.246575342466,4,1,0,30,0,0
212533,-94.308586467814,4,1,0,29,0,0
212552,-94.374131245885,4,1,0,29,0,0
212571,-94.439767194992,4,1,0,29,0,0
212590,-94.505494505494,4,1,0,29,0,0
212608,-94.567846932043,4,1,0,28,0,0
212627,-94.633752705131,4,1,0,28,0,0
212646,-94.699750403759,4,1,0,28,0,0
212665,-94.765840220386,4,1,0,28,0,0
212683,-94.828536773624,4,1,0,27,0,0
212702,-94.894806532294,4,1,0,27,0,0
212721,-94.961168979351,4,1,0,27,0,0
212740,-95.027624309392,4,1,0,27,0,0
212758,-95.090667846086,4,1,0,27,0,0
212777,-95.157304614023,4,1,0,26,0,0
212796,-95.224034841662,4,1,0,26,0,0
212815,-95.290858725762,4,1,0,26,0,0
212833,-95.354252134383,4,1,0,26,0,0
212852,-95.421258968859,4,1,0,25,0,0
212871,-95.488360042933,4,1,0,25,0,0
212890,-95.555555555556,4,1,0,25,0,0
212908,-95.619301756727,4,1,0,25,0,0
212927,-95.686681749064,4,1,0,24,0,0
212946,-95.754156769596,4,1,0,24,0,0
212965,-95.821727019499,4,1,0,24,0,0
212983,-95.88582896644,4,1,0,24,0,0
213002,-95.953585242487,4,1,0,23,0,0
213021,-96.021437344151,4,1,0,23,0,0
213040,-96.08938547486,4,1,0,23,0,0
213058,-96.153846153846,4,1,0,23,0,0
213077,-96.221981874464,4,1,0,23,0,0
213096,-96.290214227066,4,1,0,22,0,0
213115,-96.358543417367,4,1,0,22,0,0
213133,-96.423365848189,4,1,0,22,0,0
213152,-96.491884209739,4,1,0,22,0,0
213171,-96.560500018713,4,1,0,21,0,0
213190,-96.629213483146,4,1,0,21,0,0
213208,-96.694400719586,4,1,0,21,0,0
213227,-96.763304954431,4,1,0,21,0,0
213246,-96.832307461342,4,1,0,20,0,0
213265,-96.901408450704,4,1,0,20,0,0
213283,-96.966963581013,4,1,0,20,0,0
213302,-97.036256958026,4,1,0,20,0,0
213321,-97.105649441078,4,1,0,20,0,0
213340,-97.175141242938,4,1,0,19,0,0
213358,-97.241067390321,4,1,0,19,0,0
213377,-97.310753215404,4,1,0,19,0,0
213396,-97.38053898996,4,1,0,19,0,0
213415,-97.450424929178,4,1,0,18,0,0
213433,-97.516725252296,4,1,0,18,0,0
213452,-97.586806868901,4,1,0,18,0,0
213471,-97.656989288012,4,1,0,18,0,0
213490,-97.727272727273,4,1,0,17,0,0
213508,-97.793950420741,4,1,0,17,0,0
213527,-97.864431210409,4,1,0,17,0,0
213546,-97.935013665351,4,1,0,17,0,0
213565,-98.005698005698,4,1,0,17,0,0
213583,-98.072756300604,4,1,0,16,0,0
213602,-98.143639683506,4,1,0,16,0,0
213621,-98.214625604324,4,1,0,16,0,0
213640,-98.285714285714,4,1,0,16,0,0
213658,-98.353156450137,4,1,0,15,0,0
213677,-98.424445885629,4,1,0,15,0,0
213696,-98.495838741697,4,1,0,15,0,0
213715,-98.567335243553,4,1,0,15,0,0
213733,-98.635164583094,4,1,0,14,0,0
213752,-98.706863570281,4,1,0,14,0,0
213771,-98.77866687086,4,1,0,14,0,0
213790,-98.850574712644,4,1,0,14,0,0
213808,-98.918794570968,4,1,0,13,0,0
213827,-98.990906649273,4,1,0,13,0,0
213846,-99.063123944095,4,1,0,13,0,0
213865,-99.135446685879,4,1,0,13,0,0
213883,-99.204060445265,4,1,0,13,0,0
213902,-99.276589195013,4,1,0,12,0,0
213921,-99.349224074858,4,1,0,12,0,0
213940,-99.421965317919,4,1,0,12,0,0
213958,-99.490976399815,4,1,0,12,0,0
213977,-99.563925442828,4,1,0,11,0,0
213996,-99.636981540125,4,1,0,11,0,0
214015,-99.710144927536,4,1,0,11,0,0
214033,-99.779556793131,4,1,0,11,0,0
214052,-99.852929793328,4,1,0,10,0,0
214071,-99.926410782757,4,1,0,10,0,0
214090,-100,4,1,0,10,0,0

[HitObjects]
223,218,11314,5,8,1:0:0:0:
240,215,11914,1,8,1:0:0:0:
237,216,12514,1,8,1:0:0:0:
232,227,12964,1,0,1:0:0:0:
231,237,13039,1,0,1:0:0:0:
235,245,13114,1,8,1:0:0:0:
217,234,13264,1,0,1:0:0:0:
247,242,13564,1,12,1:0:0:0:
252,179,13864,1,8,1:0:0:0:
249,210,14014,1,0,1:0:0:0:
237,208,14314,1,8,1:0:0:0:
240,207,14614,1,0,1:0:0:0:
240,207,14914,1,8,1:0:0:0:
251,190,15214,1,0,1:0:0:0:
191,176,15364,1,0,1:0:0:0:
228,186,15514,1,8,1:0:0:0:
228,186,15664,1,0,1:0:0:0:
228,186,15814,1,0,1:0:0:0:
228,186,15964,1,12,1:0:0:0:
283,181,16264,1,8,1:0:0:0:
249,200,16414,1,0,1:0:0:0:
255,193,16714,1,8,1:0:0:0:
228,214,17014,1,0,1:0:0:0:
241,191,17314,1,8,1:0:0:0:
238,187,17614,1,0,1:0:0:0:
234,195,17764,1,0,1:0:0:0:
238,187,17914,1,8,1:0:0:0:
238,187,18064,1,8,1:0:0:0:
238,187,18214,1,0,1:0:0:0:
238,187,18364,1,12,1:0:0:0:
249,169,18664,1,8,1:0:0:0:
249,169,18814,1,8,1:0:0:0:
232,183,18964,1,0,1:0:0:0:
254,169,19114,1,8,1:0:0:0:
234,183,19264,1,0,1:0:0:0:
226,177,19564,1,8,1:0:0:0:
241,193,19864,1,8,1:0:0:0:
241,193,20014,1,0,1:0:0:0:
234,176,20164,1,0,1:0:0:0:
234,176,20314,1,8,1:0:0:0:
252,187,20464,1,0,1:0:0:0:
231,177,20764,1,12,1:0:0:0:
225,180,21064,1,0,1:0:0:0:
249,179,21214,1,8,1:0:0:0:
233,183,21364,1,8,1:0:0:0:
227,188,21514,1,8,1:0:0:0:
236,209,21664,1,0,1:0:0:0:
219,195,21814,1,0,1:0:0:0:
221,187,21964,1,0,1:0:0:0:
221,187,22039,1,0,1:0:0:0:
221,187,22114,1,8,1:0:0:0:
254,195,22264,1,8,1:0:0:0:
217,180,22414,1,8,1:0:0:0:
229,174,22564,1,0,1:0:0:0:
234,178,22714,1,8,1:0:0:0:
220,192,22864,1,8,1:0:0:0:
209,184,23014,1,0,1:0:0:0:
209,184,23164,1,12,1:0:0:0:
252,179,23464,1,0,1:0:0:0:
249,210,23614,1,8,1:0:0:0:
237,208,23914,1,8,1:0:0:0:
240,207,24214,1,0,1:0:0:0:
240,207,24514,1,8,1:0:0:0:
251,190,24814,1,0,1:0:0:0:
224,174,24964,1,0,1:0:0:0:
228,186,25114,1,8,1:0:0:0:
228,186,25264,1,0,1:0:0:0:
228,186,25414,1,0,1:0:0:0:
228,186,25564,1,12,1:0:0:0:
283,181,25864,1,8,1:0:0:0:
249,200,26014,1,8,1:0:0:0:
255,193,26314,1,8,1:0:0:0:
228,214,26614,1,0,1:0:0:0:
241,191,26914,1,8,1:0:0:0:
238,187,27214,1,0,1:0:0:0:
250,183,27364,1,0,1:0:0:0:
238,187,27514,1,8,1:0:0:0:
238,187,27664,1,0,1:0:0:0:
238,187,27814,1,8,1:0:0:0:
238,187,27964,1,12,1:0:0:0:
249,169,28264,1,8,1:0:0:0:
243,183,28414,1,8,1:0:0:0:
226,169,28714,1,0,1:0:0:0:
224,175,28864,1,0,1:0:0:0:
224,175,29014,1,8,1:0:0:0:
226,180,29164,1,0,1:0:0:0:
215,181,29464,1,0,1:0:0:0:
222,182,29614,1,8,1:0:0:0:
213,169,29764,1,0,1:0:0:0:
213,169,29914,1,8,1:0:0:0:
206,170,30064,1,8,1:0:0:0:
206,170,30364,1,4,1:0:0:0:
217,169,30664,1,8,1:0:0:0:
217,169,30814,1,8,1:0:0:0:
217,169,30964,1,0,1:0:0:0:
212,176,31114,1,8,1:0:0:0:
200,175,31264,1,8,1:0:0:0:
200,175,31414,1,0,1:0:0:0:
200,175,31564,1,0,1:0:0:0:
200,175,31639,1,0,1:0:0:0:
200,175,31714,1,8,1:0:0:0:
218,151,31864,1,0,1:0:0:0:
218,151,31939,1,8,1:0:0:0:
222,158,32014,1,8,1:0:0:0:
221,158,32164,1,0,1:0:0:0:
221,158,32314,1,8,1:0:0:0:
221,158,32464,1,0,1:0:0:0:
221,158,32614,1,0,1:0:0:0:
221,158,32764,1,12,1:0:0:0:
237,182,33064,1,0,1:0:0:0:
217,193,33214,1,8,1:0:0:0:
229,193,33514,1,0,1:0:0:0:
201,199,33664,1,0,1:0:0:0:
226,187,33814,1,8,1:0:0:0:
250,173,34114,1,0,1:0:0:0:
243,165,34414,1,8,1:0:0:0:
222,180,34714,1,0,1:0:0:0:
234,192,34864,1,0,1:0:0:0:
235,187,35014,1,8,1:0:0:0:
225,166,35164,1,0,1:0:0:0:
231,178,35464,1,0,1:0:0:0:
231,178,35614,1,8,1:0:0:0:
222,195,35914,1,0,1:0:0:0:
219,197,36214,1,8,1:0:0:0:
219,197,36514,1,0,1:0:0:0:
239,181,36664,1,0,1:0:0:0:
257,178,36814,1,8,1:0:0:0:
247,183,37114,1,8,1:0:0:0:
238,180,37264,1,0,1:0:0:0:
238,180,37414,1,8,1:0:0:0:
205,192,37564,1,0,1:0:0:0:
209,192,37864,1,0,1:0:0:0:
209,192,38014,1,8,1:0:0:0:
212,185,38314,1,0,1:0:0:0:
204,198,38614,1,8,1:0:0:0:
204,197,38914,1,0,1:0:0:0:
216,205,39064,1,0,1:0:0:0:
222,205,39214,1,8,1:0:0:0:
213,185,39364,1,8,1:0:0:0:
208,194,39439,1,0,1:0:0:0:
235,191,39514,1,0,1:0:0:0:
235,191,39664,1,0,1:0:0:0:
202,184,39814,1,8,1:0:0:0:
252,184,39964,1,8,1:0:0:0:
205,178,40264,1,0,1:0:0:0:
205,178,40414,1,8,1:0:0:0:
203,186,40564,1,8,1:0:0:0:
244,203,40714,1,0,1:0:0:0:
247,199,40864,1,0,1:0:0:0:
207,187,41014,1,8,1:0:0:0:
207,187,41164,1,0,1:0:0:0:
207,187,41314,1,8,1:0:0:0:
271,198,41464,1,8,1:0:0:0:
247,197,41764,1,0,1:0:0:0:
233,198,42064,1,8,1:0:0:0:
225,187,42364,1,0,1:0:0:0:
240,193,42664,1,0,1:0:0:0:
208,203,42814,1,12,1:0:0:0:
213,201,43114,1,0,1:0:0:0:
213,201,43264,1,0,1:0:0:0:
213,202,43414,1,8,1:0:0:0:
253,186,43564,1,8,1:0:0:0:
253,186,43714,1,0,1:0:0:0:
207,175,43864,1,0,1:0:0:0:
207,175,43939,1,0,1:0:0:0:
207,175,44014,1,8,1:0:0:0:
182,184,44164,1,8,1:0:0:0:
182,184,44314,1,0,1:0:0:0:
221,199,44389,1,0,1:0:0:0:
202,186,44464,1,8,1:0:0:0:
226,194,44539,1,0,1:0:0:0:
202,186,44614,1,8,1:0:0:0:
188,197,44764,1,4,1:0:0:0:
230,179,45064,1,0,1:0:0:0:
209,186,45214,1,8,1:0:0:0:
232,169,45289,1,8,1:0:0:0:
209,186,45364,1,0,1:0:0:0:
208,187,45514,1,8,1:0:0:0:
238,193,45589,1,0,1:0:0:0:
204,193,45664,1,0,1:0:0:0:
204,193,45814,1,8,1:0:0:0:
204,193,45964,1,0,1:0:0:0:
204,193,46039,1,0,1:0:0:0:
204,193,46114,1,8,1:0:0:0:
204,193,46264,1,0,1:0:0:0:
204,189,46414,1,8,1:0:0:0:
204,189,46564,1,0,1:0:0:0:
207,173,46714,1,8,1:0:0:0:
204,189,46789,1,0,1:0:0:0:
204,166,46864,1,8,1:0:0:0:
235,183,46939,1,8,1:0:0:0:
204,166,47014,1,0,1:0:0:0:
203,165,47164,1,12,1:0:0:0:
216,185,47464,1,0,1:0:0:0:
216,185,47614,1,8,1:0:0:0:
225,212,47689,1,8,1:0:0:0:
216,185,47764,1,8,1:0:0:0:
213,203,47839,1,8,1:0:0:0:
214,186,47914,1,0,1:0:0:0:
207,202,48064,1,0,1:0:0:0:
218,206,48139,1,0,1:0:0:0:
207,202,48214,1,8,1:0:0:0:
208,210,48364,1,0,1:0:0:0:
208,210,48514,1,8,1:0:0:0:
231,188,48589,1,8,1:0:0:0:
200,208,48664,1,0,1:0:0:0:
208,208,48814,1,8,1:0:0:0:
208,208,48964,1,8,1:0:0:0:
236,176,49039,1,8,1:0:0:0:
183,189,49114,1,0,1:0:0:0:
163,175,49264,1,0,1:0:0:0:
208,186,49339,1,8,1:0:0:0:
163,175,49414,1,8,1:0:0:0:
163,175,49564,1,4,1:0:0:0:
221,196,49864,1,0,1:0:0:0:
227,207,50014,1,8,1:0:0:0:
221,192,50164,1,0,1:0:0:0:
221,192,50239,1,0,1:0:0:0:
221,192,50314,1,8,1:0:0:0:
205,178,50389,1,8,1:0:0:0:
206,178,50464,1,0,1:0:0:0:
207,178,50539,1,8,1:0:0:0:
208,180,50614,1,8,1:0:0:0:
198,173,50689,1,8,1:0:0:0:
198,173,50764,1,0,1:0:0:0:
198,173,50839,1,0,1:0:0:0:
199,173,50914,1,8,1:0:0:0:
198,173,50989,1,8,1:0:0:0:
198,173,51064,1,8,1:0:0:0:
199,173,51139,1,8,1:0:0:0:
195,172,51214,1,0,1:0:0:0:
193,171,51289,1,0,1:0:0:0:
193,171,51364,1,0,1:0:0:0:
195,172,51439,1,0,1:0:0:0:
193,171,51514,1,8,1:0:0:0:
199,169,51589,1,0,1:0:0:0:
199,170,51664,1,0,1:0:0:0:
199,170,51739,1,0,1:0:0:0:
199,170,51814,1,8,1:0:0:0:
193,164,51889,1,8,1:0:0:0:
194,163,51964,1,0,1:0:0:0:
194,163,52039,1,0,1:0:0:0:
197,163,52114,1,12,1:0:0:0:
204,187,52414,1,8,1:0:0:0:
200,189,52714,1,0,1:0:0:0:
198,196,52864,1,0,1:0:0:0:
195,195,52939,1,0,1:0:0:0:
200,189,53014,1,8,1:0:0:0:
207,194,53164,1,8,1:0:0:0:
207,194,53314,1,0,1:0:0:0:
202,159,53464,1,0,1:0:0:0:
199,153,53614,1,8,1:0:0:0:
183,194,53764,1,0,1:0:0:0:
193,197,53839,1,0,1:0:0:0:
193,197,53914,1,8,1:0:0:0:
220,169,54064,1,0,1:0:0:0:
197,196,54364,1,0,1:0:0:0:
193,208,54439,1,0,1:0:0:0:
197,196,54514,1,12,1:0:0:0:
225,220,54814,1,8,1:0:0:0:
236,200,55114,1,0,1:0:0:0:
206,166,55264,1,0,1:0:0:0:
212,160,55339,1,8,1:0:0:0:
227,148,55414,1,8,1:0:0:0:
205,168,55564,1,0,1:0:0:0:
178,160,55714,1,8,1:0:0:0:
196,164,55864,1,8,1:0:0:0:
203,176,56014,1,0,1:0:0:0:
207,192,56164,1,0,1:0:0:0:
210,197,56239,1,8,1:0:0:0:
203,179,56314,1,8,1:0:0:0:
214,188,56464,1,8,1:0:0:0:
214,188,56614,1,0,1:0:0:0:
206,184,56764,1,8,1:0:0:0:
206,184,56839,1,0,1:0:0:0:
207,183,56914,1,12,1:0:0:0:
193,191,57214,1,8,1:0:0:0:
194,203,57514,1,8,1:0:0:0:
194,203,57664,1,0,1:0:0:0:
194,202,57814,1,8,1:0:0:0:
208,197,57964,1,8,1:0:0:0:
205,197,58114,1,0,1:0:0:0:
205,197,58264,1,0,1:0:0:0:
208,197,58414,1,8,1:0:0:0:
208,197,58564,1,0,1:0:0:0:
208,197,58714,1,8,1:0:0:0:
237,169,58864,1,8,1:0:0:0:
237,169,59014,1,0,1:0:0:0:
237,169,59164,1,8,1:0:0:0:
238,168,59314,1,4,1:0:0:0:
238,165,59914,1,8,1:0:0:0:
231,170,60514,1,8,1:0:0:0:
230,170,60964,1,0,1:0:0:0:
230,170,61039,1,0,1:0:0:0:
230,170,61114,1,8,1:0:0:0:
230,170,61264,1,0,1:0:0:0:
230,170,61564,1,12,1:0:0:0:
236,221,61864,1,0,1:0:0:0:
215,228,62014,1,8,1:0:0:0:
239,232,62314,1,8,1:0:0:0:
209,226,62464,1,0,1:0:0:0:
223,230,62539,1,0,1:0:0:0:
209,226,62614,1,8,1:0:0:0:
209,226,62764,1,8,1:0:0:0:
209,226,62914,1,8,1:0:0:0:
195,209,62989,1,8,1:0:0:0:
195,209,63064,1,0,1:0:0:0:
195,209,63139,1,0,1:0:0:0:
195,209,63214,1,8,1:0:0:0:
200,218,63364,1,8,1:0:0:0:
216,221,63439,1,0,1:0:0:0:
213,218,63514,1,0,1:0:0:0:
223,212,63664,1,0,1:0:0:0:
217,216,63814,1,8,1:0:0:0:
217,216,63964,1,4,1:0:0:0:
218,236,64264,1,0,1:0:0:0:
218,236,64414,1,8,1:0:0:0:
233,214,64714,1,8,1:0:0:0:
204,226,64864,1,0,1:0:0:0:
218,216,64939,1,8,1:0:0:0:
228,224,65014,1,8,1:0:0:0:
207,221,65164,1,8,1:0:0:0:
211,223,65314,1,0,1:0:0:0:
171,224,65389,1,8,1:0:0:0:
211,223,65464,1,8,1:0:0:0:
211,223,65539,1,0,1:0:0:0:
213,223,65614,1,8,1:0:0:0:
227,217,65764,1,8,1:0:0:0:
220,217,65839,1,8,1:0:0:0:
221,217,65914,1,0,1:0:0:0:
212,216,66064,1,0,1:0:0:0:
212,216,66214,1,8,1:0:0:0:
212,216,66364,1,12,1:0:0:0:
224,224,66664,1,0,1:0:0:0:
213,184,66814,1,8,1:0:0:0:
226,216,66964,1,0,1:0:0:0:
226,216,67114,1,8,1:0:0:0:
208,187,67264,1,8,1:0:0:0:
193,195,67414,1,0,1:0:0:0:
222,205,67564,1,12,1:0:0:0:
220,188,67864,1,0,1:0:0:0:
220,188,68014,1,8,1:0:0:0:
199,181,68164,1,0,1:0:0:0:
193,191,68314,1,8,1:0:0:0:
187,182,68464,1,8,1:0:0:0:
187,182,68614,1,8,1:0:0:0:
181,184,68764,1,4,1:0:0:0:
213,216,69064,1,0,1:0:0:0:
220,185,69214,1,8,1:0:0:0:
206,182,69364,1,8,1:0:0:0:
212,182,69439,1,0,1:0:0:0:
212,182,69514,1,8,1:0:0:0:
192,187,69589,1,8,1:0:0:0:
196,188,69664,1,0,1:0:0:0:
197,190,69739,1,0,1:0:0:0:
199,190,69814,1,8,1:0:0:0:
209,178,69889,1,0,1:0:0:0:
210,189,69964,1,0,1:0:0:0:
210,189,70039,1,0,1:0:0:0:
211,187,70114,1,8,1:0:0:0:
178,212,70189,1,0,1:0:0:0:
190,202,70264,1,8,1:0:0:0:
197,203,70339,1,8,1:0:0:0:
206,199,70414,1,0,1:0:0:0:
202,201,70489,1,0,1:0:0:0:
203,204,70564,1,8,1:0:0:0:
219,186,70639,1,8,1:0:0:0:
220,184,70714,1,0,1:0:0:0:
209,112,70789,1,8,1:0:0:0:
237,170,70864,1,8,1:0:0:0:
258,165,70939,1,8,1:0:0:0:
214,151,71014,1,0,1:0:0:0:
281,213,71089,1,0,1:0:0:0:
208,170,71164,1,12,1:0:0:0:
236,221,71464,1,0,1:0:0:0:
215,228,71614,1,8,1:0:0:0:
239,232,71914,1,8,1:0:0:0:
209,226,72064,1,8,1:0:0:0:
223,230,72139,1,0,1:0:0:0:
209,226,72214,1,8,1:0:0:0:
209,226,72364,1,8,1:0:0:0:
209,226,72514,1,0,1:0:0:0:
195,209,72589,1,8,1:0:0:0:
195,209,72664,1,0,1:0:0:0:
195,209,72739,1,0,1:0:0:0:
195,209,72814,1,8,1:0:0:0:
200,218,72964,1,0,1:0:0:0:
216,221,73039,1,8,1:0:0:0:
213,218,73114,1,0,1:0:0:0:
223,212,73264,1,0,1:0:0:0:
217,216,73414,1,8,1:0:0:0:
217,216,73564,1,4,1:0:0:0:
218,236,73864,1,0,1:0:0:0:
218,236,74014,1,8,1:0:0:0:
233,214,74314,1,8,1:0:0:0:
204,226,74464,1,8,1:0:0:0:
218,216,74539,1,8,1:0:0:0:
228,224,74614,1,8,1:0:0:0:
207,221,74764,1,8,1:0:0:0:
211,223,74914,1,8,1:0:0:0:
171,224,74989,1,8,1:0:0:0:
211,223,75064,1,8,1:0:0:0:
211,223,75139,1,0,1:0:0:0:
213,223,75214,1,8,1:0:0:0:
227,217,75364,1,0,1:0:0:0:
220,217,75439,1,0,1:0:0:0:
221,217,75514,1,0,1:0:0:0:
212,216,75664,1,0,1:0:0:0:
212,216,75814,1,8,1:0:0:0:
212,216,75964,1,12,1:0:0:0:
224,224,76264,1,0,1:0:0:0:
213,184,76414,1,8,1:0:0:0:
226,216,76564,1,0,1:0:0:0:
226,216,76714,1,8,1:0:0:0:
208,187,76864,1,0,1:0:0:0:
193,195,77014,1,0,1:0:0:0:
222,205,77164,1,12,1:0:0:0:
220,188,77464,1,0,1:0:0:0:
220,188,77614,1,8,1:0:0:0:
199,181,77764,1,0,1:0:0:0:
193,191,77914,1,8,1:0:0:0:
187,182,78064,1,8,1:0:0:0:
187,182,78214,1,0,1:0:0:0:
181,184,78364,1,12,1:0:0:0:
195,164,78664,1,0,1:0:0:0:
214,172,78814,1,8,1:0:0:0:
198,164,78964,1,0,1:0:0:0:
198,164,79114,1,8,1:0:0:0:
195,168,79264,1,8,1:0:0:0:
196,173,79414,1,0,1:0:0:0:
188,176,79564,1,8,1:0:0:0:
185,174,79639,1,0,1:0:0:0:
188,176,79714,1,12,1:0:0:0:
182,185,80314,1,8,1:0:0:0:
212,218,80914,1,4,1:0:0:0:
256,192,81064,12,0,83164,1:0:0:0:
185,222,83314,5,8,1:0:0:0:
206,201,83914,1,8,1:0:0:0:
205,196,84514,1,8,1:0:0:0:
197,196,84964,1,0,1:0:0:0:
209,195,85039,1,0,1:0:0:0:
209,202,85114,1,8,1:0:0:0:
203,197,85264,1,0,1:0:0:0:
213,190,85714,1,12,1:0:0:0:
204,192,86014,1,0,1:0:0:0:
212,192,86164,1,0,1:0:0:0:
217,191,86314,1,8,1:0:0:0:
205,185,86464,1,0,1:0:0:0:
193,179,86764,1,0,1:0:0:0:
238,177,86914,1,0,1:0:0:0:
195,170,87064,1,0,1:0:0:0:
205,173,87139,1,0,1:0:0:0:
201,173,87214,1,8,1:0:0:0:
208,159,87514,1,8,1:0:0:0:
187,167,87664,1,8,1:0:0:0:
195,171,87739,1,0,1:0:0:0:
198,178,87814,1,8,1:0:0:0:
191,174,87964,1,8,1:0:0:0:
175,176,88114,1,0,1:0:0:0:
209,186,88414,1,0,1:0:0:0:
191,179,88564,1,0,1:0:0:0:
191,179,88714,1,8,1:0:0:0:
191,187,88864,1,0,1:0:0:0:
182,209,89164,1,8,1:0:0:0:
163,195,89314,1,0,1:0:0:0:
180,189,89464,1,0,1:0:0:0:
196,188,89539,1,0,1:0:0:0:
195,188,89614,1,8,1:0:0:0:
231,174,89764,1,0,1:0:0:0:
220,179,89914,1,8,1:0:0:0:
206,174,90064,1,0,1:0:0:0:
211,172,90139,1,8,1:0:0:0:
228,162,90214,1,8,1:0:0:0:
203,186,90364,1,8,1:0:0:0:
203,186,90514,1,0,1:0:0:0:
207,170,90814,1,0,1:0:0:0:
217,173,90964,1,0,1:0:0:0:
212,176,91114,1,8,1:0:0:0:
209,182,91264,1,0,1:0:0:0:
195,187,91564,1,0,1:0:0:0:
195,187,91714,1,8,1:0:0:0:
184,184,91864,1,8,1:0:0:0:
204,174,91939,1,8,1:0:0:0:
207,174,92014,1,8,1:0:0:0:
237,195,92164,1,8,1:0:0:0:
183,176,92314,1,8,1:0:0:0:
234,195,92464,1,0,1:0:0:0:
234,195,92539,1,8,1:0:0:0:
234,195,92614,1,8,1:0:0:0:
221,175,92764,1,0,1:0:0:0:
221,175,92914,1,8,1:0:0:0:
200,186,93064,1,0,1:0:0:0:
192,185,93364,1,8,1:0:0:0:
200,187,93514,1,8,1:0:0:0:
200,187,93664,1,0,1:0:0:0:
210,193,93814,1,8,1:0:0:0:
198,199,93964,1,8,1:0:0:0:
208,189,94114,1,0,1:0:0:0:
233,160,94264,1,0,1:0:0:0:
211,176,94414,1,8,1:0:0:0:
211,176,94564,1,0,1:0:0:0:
215,178,94714,1,8,1:0:0:0:
200,189,94864,1,0,1:0:0:0:
208,190,95014,1,0,1:0:0:0:
194,179,95164,1,0,1:0:0:0:
206,184,95322,1,8,1:0:0:0:
246,199,95711,1,8,1:0:0:0:
232,214,96101,1,8,1:0:0:0:
223,213,96393,1,8,1:0:0:0:
227,210,96490,1,8,1:0:0:0:
220,212,96685,1,0,1:0:0:0:
220,212,96880,1,12,1:0:0:0:
222,204,97075,1,0,1:0:0:0:
199,207,97172,1,0,1:0:0:0:
208,205,97270,1,8,1:0:0:0:
246,229,97464,1,0,1:0:0:0:
233,208,97562,1,0,1:0:0:0:
228,203,97659,1,8,1:0:0:0:
229,212,97757,1,8,1:0:0:0:
214,214,98049,1,8,1:0:0:0:
214,214,98146,1,8,1:0:0:0:
214,214,98244,1,0,1:0:0:0:
214,214,98341,1,0,1:0:0:0:
223,213,98633,1,0,1:0:0:0:
223,213,98731,1,0,1:0:0:0:
223,213,98828,1,8,1:0:0:0:
211,204,98925,1,0,1:0:0:0:
202,187,99218,1,0,1:0:0:0:
231,199,99315,1,0,1:0:0:0:
231,199,99412,1,8,1:0:0:0:
231,199,99510,1,0,1:0:0:0:
231,199,99607,1,8,1:0:0:0:
231,199,99705,1,8,1:0:0:0:
235,193,99802,1,0,1:0:0:0:
235,193,99899,1,8,1:0:0:0:
232,175,99997,1,0,1:0:0:0:
232,176,100094,1,0,1:0:0:0:
237,175,100192,1,0,1:0:0:0:
232,176,100289,1,0,1:0:0:0:
237,175,100386,1,8,1:0:0:0:
237,175,100581,1,8,1:0:0:0:
237,175,100679,1,8,1:0:0:0:
237,175,100776,1,0,1:0:0:0:
237,175,100873,1,8,1:0:0:0:
237,175,101166,1,8,1:0:0:0:
237,175,101263,1,8,1:0:0:0:
237,175,101360,1,0,1:0:0:0:
237,175,101458,1,0,1:0:0:0:
217,197,101750,1,0,1:0:0:0:
237,197,101847,1,0,1:0:0:0:
237,197,101945,1,8,1:0:0:0:
230,186,102042,1,8,1:0:0:0:
230,186,102334,1,0,1:0:0:0:
230,186,102432,1,0,1:0:0:0:
230,186,102529,1,8,1:0:0:0:
230,186,102627,1,0,1:0:0:0:
230,186,102724,1,8,1:0:0:0:
230,186,102822,1,8,1:0:0:0:
230,186,102919,1,0,1:0:0:0:
230,186,103016,1,0,1:0:0:0:
230,186,103114,1,8,1:0:0:0:
230,186,103211,1,0,1:0:0:0:
230,186,103309,1,0,1:0:0:0:
230,186,103406,1,0,1:0:0:0:
230,186,103503,1,8,1:0:0:0:
246,189,103698,1,0,1:0:0:0:
246,189,103796,1,0,1:0:0:0:
252,189,103893,1,8,1:0:0:0:
221,186,103990,1,8,1:0:0:0:
221,185,104283,1,8,1:0:0:0:
221,185,104380,1,8,1:0:0:0:
221,185,104477,1,0,1:0:0:0:
223,187,104575,1,0,1:0:0:0:
221,183,104867,1,0,1:0:0:0:
221,183,104964,1,0,1:0:0:0:
221,183,105062,1,8,1:0:0:0:
221,183,105159,1,0,1:0:0:0:
221,183,105451,1,0,1:0:0:0:
221,183,105549,1,0,1:0:0:0:
221,183,105646,1,8,1:0:0:0:
221,183,105744,1,0,1:0:0:0:
221,183,105841,1,8,1:0:0:0:
221,183,105938,1,0,1:0:0:0:
221,183,106036,1,0,1:0:0:0:
221,183,106133,1,0,1:0:0:0:
221,183,106231,1,8,1:0:0:0:
221,183,106328,1,0,1:0:0:0:
221,183,106425,1,8,1:0:0:0:
222,179,106523,1,0,1:0:0:0:
222,179,106620,1,8,1:0:0:0:
222,179,106815,1,0,1:0:0:0:
222,179,106912,1,0,1:0:0:0:
222,179,107010,1,8,1:0:0:0:
222,179,107107,1,0,1:0:0:0:
219,180,107399,1,8,1:0:0:0:
219,180,107497,1,8,1:0:0:0:
219,180,107594,1,0,1:0:0:0:
219,180,107692,1,0,1:0:0:0:
219,180,107789,1,8,1:0:0:0:
219,180,107984,1,0,1:0:0:0:
230,210,108081,1,0,1:0:0:0:
238,210,108179,1,8,1:0:0:0:
251,213,108276,1,0,1:0:0:0:
246,213,108373,1,8,1:0:0:0:
244,213,108471,1,8,1:0:0:0:
239,206,108568,1,0,1:0:0:0:
235,204,108666,1,0,1:0:0:0:
235,204,108763,1,8,1:0:0:0:
235,204,108860,1,0,1:0:0:0:
235,204,108958,1,8,1:0:0:0:
242,208,109055,1,8,1:0:0:0:
242,208,109153,1,8,1:0:0:0:
242,208,109250,1,8,1:0:0:0:
242,208,109347,1,4,1:0:0:0:
213,197,109542,1,8,1:0:0:0:
209,184,109640,1,0,1:0:0:0:
235,205,109834,1,0,1:0:0:0:
235,205,109932,1,8,1:0:0:0:
205,204,110322,1,8,1:0:0:0:
219,198,110516,1,0,1:0:0:0:
201,200,110711,1,8,1:0:0:0:
188,195,110906,1,8,1:0:0:0:
188,195,111101,1,8,1:0:0:0:
188,206,111198,1,8,1:0:0:0:
185,210,111393,1,0,1:0:0:0:
185,210,111490,1,8,1:0:0:0:
189,204,111685,1,0,1:0:0:0:
175,206,111880,1,8,1:0:0:0:
189,204,112075,1,8,1:0:0:0:
196,208,112172,1,0,1:0:0:0:
188,215,112270,1,0,1:0:0:0:
196,208,112367,1,0,1:0:0:0:
193,208,112464,1,8,1:0:0:0:
228,196,112659,1,8,1:0:0:0:
232,194,112757,1,0,1:0:0:0:
210,191,112951,1,0,1:0:0:0:
212,198,113049,1,8,1:0:0:0:
268,218,113244,1,0,1:0:0:0:
217,202,113438,1,8,1:0:0:0:
202,204,113633,1,0,1:0:0:0:
202,204,113828,1,8,1:0:0:0:
202,204,114023,1,8,1:0:0:0:
225,200,114218,1,0,1:0:0:0:
210,208,114315,1,0,1:0:0:0:
179,215,114510,1,0,1:0:0:0:
187,215,114607,1,8,1:0:0:0:
229,198,114802,1,0,1:0:0:0:
203,200,114997,1,8,1:0:0:0:
203,200,115192,1,0,1:0:0:0:
203,200,115289,1,0,1:0:0:0:
206,204,115386,1,8,1:0:0:0:
208,203,115484,1,0,1:0:0:0:
206,204,115581,1,8,1:0:0:0:
217,189,115776,1,8,1:0:0:0:
217,189,115873,1,8,1:0:0:0:
217,189,116068,1,0,1:0:0:0:
217,189,116166,1,8,1:0:0:0:
229,198,116360,1,0,1:0:0:0:
208,191,116555,1,8,1:0:0:0:
208,191,116750,1,0,1:0:0:0:
208,191,116945,1,8,1:0:0:0:
215,195,117140,1,0,1:0:0:0:
194,192,117334,1,8,1:0:0:0:
194,192,117432,1,0,1:0:0:0:
194,192,117627,1,0,1:0:0:0:
190,196,117724,1,8,1:0:0:0:
221,199,117919,1,0,1:0:0:0:
208,200,118114,1,8,1:0:0:0:
208,200,118309,1,0,1:0:0:0:
208,200,118406,1,0,1:0:0:0:
208,200,118503,1,8,1:0:0:0:
214,201,118601,1,8,1:0:0:0:
208,200,118698,1,0,1:0:0:0:
200,202,118893,1,8,1:0:0:0:
206,202,118990,1,0,1:0:0:0:
207,188,119185,1,0,1:0:0:0:
207,188,119283,1,8,1:0:0:0:
247,210,119380,1,8,1:0:0:0:
247,210,119477,1,0,1:0:0:0:
247,204,119672,1,8,1:0:0:0:
221,205,119770,1,8,1:0:0:0:
221,205,119867,1,0,1:0:0:0:
221,205,120062,1,8,1:0:0:0:
221,211,120257,1,0,1:0:0:0:
201,209,120549,1,0,1:0:0:0:
210,211,120646,1,8,1:0:0:0:
206,200,120841,1,8,1:0:0:0:
206,200,120938,1,8,1:0:0:0:
200,202,121036,1,0,1:0:0:0:
199,198,121133,1,8,1:0:0:0:
200,202,121231,1,8,1:0:0:0:
259,220,121328,1,8,1:0:0:0:
207,196,121425,1,0,1:0:0:0:
192,200,121523,1,0,1:0:0:0:
225,200,121620,1,8,1:0:0:0:
193,191,121718,1,0,1:0:0:0:
193,191,121815,1,12,1:0:0:0:
216,205,122010,1,0,1:0:0:0:
217,200,122205,1,8,1:0:0:0:
217,200,122399,1,0,1:0:0:0:
188,197,122594,1,0,1:0:0:0:
195,196,122789,1,8,1:0:0:0:
201,198,122886,1,0,1:0:0:0:
245,210,122984,1,8,1:0:0:0:
206,178,123081,1,8,1:0:0:0:
175,182,123276,1,8,1:0:0:0:
196,199,123373,1,0,1:0:0:0:
196,199,123568,1,0,1:0:0:0:
196,199,123666,1,8,1:0:0:0:
187,197,123763,1,8,1:0:0:0:
187,197,123958,1,8,1:0:0:0:
179,188,124153,1,0,1:0:0:0:
179,188,124347,1,0,1:0:0:0:
179,188,124445,1,8,1:0:0:0:
200,191,124542,1,8,1:0:0:0:
174,196,124640,1,0,1:0:0:0:
238,220,124737,1,8,1:0:0:0:
184,196,124932,1,0,1:0:0:0:
235,199,125127,1,0,1:0:0:0:
224,199,125322,1,8,1:0:0:0:
224,199,125516,1,8,1:0:0:0:
224,199,125614,1,8,1:0:0:0:
224,199,125711,1,0,1:0:0:0:
244,197,125809,1,8,1:0:0:0:
231,203,126003,1,0,1:0:0:0:
231,203,126101,1,8,1:0:0:0:
191,197,126198,1,8,1:0:0:0:
227,196,126296,1,0,1:0:0:0:
210,203,126393,1,8,1:0:0:0:
200,202,126490,1,0,1:0:0:0:
249,219,126685,1,0,1:0:0:0:
219,208,126880,1,8,1:0:0:0:
219,208,127075,1,0,1:0:0:0:
219,208,127270,1,8,1:0:0:0:
208,208,127464,1,8,1:0:0:0:
213,200,127562,1,8,1:0:0:0:
209,200,127659,1,0,1:0:0:0:
213,200,127757,1,0,1:0:0:0:
209,200,127854,1,8,1:0:0:0:
204,201,127951,1,0,1:0:0:0:
209,200,128049,1,8,1:0:0:0:
198,200,128244,1,0,1:0:0:0:
209,199,128438,1,8,1:0:0:0:
207,175,128828,1,8,1:0:0:0:
207,175,128925,1,8,1:0:0:0:
207,175,129120,1,0,1:0:0:0:
179,174,129218,1,8,1:0:0:0:
223,181,129315,1,0,1:0:0:0:
237,190,129412,1,8,1:0:0:0:
220,191,129607,1,0,1:0:0:0:
234,198,129802,1,8,1:0:0:0:
231,197,129997,1,8,1:0:0:0:
224,203,130192,1,0,1:0:0:0:
224,203,130386,1,8,1:0:0:0:
231,192,130484,1,0,1:0:0:0:
216,178,130581,1,8,1:0:0:0:
210,195,130679,1,8,1:0:0:0:
213,194,130776,1,8,1:0:0:0:
213,181,130873,1,0,1:0:0:0:
213,181,130971,1,8,1:0:0:0:
226,185,131068,1,8,1:0:0:0:
235,192,131166,1,0,1:0:0:0:
234,201,131360,1,0,1:0:0:0:
223,188,131555,1,8,1:0:0:0:
223,188,131750,1,8,1:0:0:0:
223,188,131945,1,0,1:0:0:0:
222,213,132140,1,0,1:0:0:0:
218,203,132334,1,8,1:0:0:0:
204,196,132432,1,8,1:0:0:0:
195,183,132627,1,8,1:0:0:0:
195,183,132724,1,0,1:0:0:0:
200,182,132919,1,0,1:0:0:0:
200,182,133016,1,8,1:0:0:0:
200,182,133114,1,0,1:0:0:0:
200,182,133309,1,8,1:0:0:0:
200,182,133503,1,0,1:0:0:0:
206,187,133698,1,0,1:0:0:0:
206,187,133796,1,0,1:0:0:0:
206,187,133893,1,8,1:0:0:0:
193,174,133990,1,8,1:0:0:0:
195,178,134088,1,8,1:0:0:0:
201,190,134290,1,0,1:0:0:0:
235,195,135940,1,0,1:0:0:0:
235,195,136015,1,0,1:0:0:0:
235,195,136090,1,8,1:0:0:0:
231,191,136240,1,8,1:0:0:0:
198,210,136390,1,0,1:0:0:0:
217,206,136540,1,12,1:0:0:0:
277,238,136840,1,0,1:0:0:0:
247,223,136990,1,8,1:0:0:0:
233,209,137290,1,8,1:0:0:0:
218,206,137440,1,0,1:0:0:0:
233,214,137590,1,8,1:0:0:0:
252,199,137740,1,8,1:0:0:0:
213,202,138040,1,0,1:0:0:0:
234,199,138190,1,8,1:0:0:0:
236,187,138490,1,0,1:0:0:0:
212,191,138640,1,0,1:0:0:0:
221,195,138790,1,8,1:0:0:0:
226,169,138940,1,4,1:0:0:0:
223,186,139240,1,0,1:0:0:0:
223,186,139390,1,8,1:0:0:0:
209,178,139690,1,0,1:0:0:0:
209,178,139840,1,0,1:0:0:0:
211,183,139990,1,8,1:0:0:0:
184,180,140140,1,8,1:0:0:0:
188,187,140440,1,0,1:0:0:0:
188,187,140590,1,8,1:0:0:0:
210,220,140740,1,0,1:0:0:0:
213,196,140890,1,0,1:0:0:0:
193,169,141040,1,0,1:0:0:0:
193,169,141190,1,8,1:0:0:0:
193,183,141340,1,4,1:0:0:0:
209,219,141640,1,0,1:0:0:0:
217,217,141790,1,8,1:0:0:0:
217,217,142090,1,8,1:0:0:0:
217,217,142240,1,0,1:0:0:0:
217,217,142390,1,8,1:0:0:0:
243,189,142690,1,8,1:0:0:0:
201,224,142840,1,0,1:0:0:0:
206,224,142990,1,8,1:0:0:0:
214,185,143140,1,8,1:0:0:0:
228,194,143290,1,8,1:0:0:0:
234,203,143440,1,0,1:0:0:0:
219,200,143590,1,8,1:0:0:0:
220,213,143740,1,12,1:0:0:0:
205,161,144040,1,0,1:0:0:0:
209,174,144190,1,8,1:0:0:0:
208,200,144340,1,0,1:0:0:0:
208,200,144415,1,0,1:0:0:0:
214,194,144490,1,8,1:0:0:0:
220,213,144640,1,8,1:0:0:0:
201,196,144790,1,0,1:0:0:0:
219,197,144865,1,8,1:0:0:0:
224,192,144940,1,8,1:0:0:0:
209,191,145090,1,8,1:0:0:0:
209,191,145240,1,0,1:0:0:0:
203,189,145315,1,0,1:0:0:0:
203,189,145390,1,8,1:0:0:0:
209,191,145465,1,8,1:0:0:0:
192,183,145540,1,0,1:0:0:0:
192,181,145615,1,8,1:0:0:0:
190,178,145690,1,0,1:0:0:0:
214,161,145765,1,8,1:0:0:0:
218,196,145840,1,0,1:0:0:0:
220,195,145915,1,0,1:0:0:0:
206,182,145990,1,8,1:0:0:0:
215,189,146140,1,12,1:0:0:0:
201,196,146440,1,0,1:0:0:0:
217,201,146590,1,8,1:0:0:0:
230,226,146890,1,0,1:0:0:0:
235,187,147040,1,0,1:0:0:0:
225,227,147190,1,8,1:0:0:0:
253,219,147340,1,8,1:0:0:0:
236,173,147490,1,0,1:0:0:0:
211,196,147640,1,0,1:0:0:0:
217,216,147790,1,8,1:0:0:0:
254,204,148090,1,0,1:0:0:0:
217,201,148240,1,0,1:0:0:0:
217,201,148390,1,8,1:0:0:0:
250,220,148540,1,12,1:0:0:0:
261,202,148840,1,0,1:0:0:0:
261,202,148990,1,8,1:0:0:0:
227,198,149290,1,0,1:0:0:0:
255,185,149440,1,0,1:0:0:0:
241,197,149590,1,8,1:0:0:0:
206,190,149740,1,8,1:0:0:0:
206,190,149815,1,8,1:0:0:0:
206,190,149890,1,8,1:0:0:0:
203,181,150040,1,0,1:0:0:0:
203,181,150190,1,8,1:0:0:0:
203,181,150340,1,0,1:0:0:0:
210,184,150415,1,0,1:0:0:0:
213,183,150490,1,0,1:0:0:0:
210,184,150640,1,0,1:0:0:0:
210,184,150790,1,8,1:0:0:0:
210,184,150940,1,12,1:0:0:0:
232,163,151240,1,0,1:0:0:0:
218,196,151390,1,8,1:0:0:0:
214,185,151690,1,0,1:0:0:0:
214,185,151840,1,0,1:0:0:0:
224,182,151990,1,8,1:0:0:0:
224,182,152290,1,8,1:0:0:0:
224,182,152440,1,0,1:0:0:0:
195,193,152515,1,0,1:0:0:0:
204,178,152590,1,8,1:0:0:0:
204,178,152740,1,8,1:0:0:0:
210,180,152890,1,0,1:0:0:0:
221,179,153040,1,0,1:0:0:0:
209,180,153190,1,8,1:0:0:0:
209,180,153340,1,0,1:0:0:0:
209,180,153490,1,12,1:0:0:0:
219,199,153790,1,0,1:0:0:0:
219,199,154090,1,0,1:0:0:0:
211,202,154240,1,8,1:0:0:0:
219,199,154390,1,0,1:0:0:0:
205,176,154690,1,8,1:0:0:0:
225,197,154915,1,8,1:0:0:0:
225,197,154990,1,0,1:0:0:0:
206,189,155140,1,0,1:0:0:0:
218,192,155290,1,0,1:0:0:0:
218,192,155440,1,8,1:0:0:0:
218,192,155590,1,0,1:0:0:0:
194,187,155740,1,8,1:0:0:0:
194,187,155890,1,0,1:0:0:0:
189,177,156040,1,8,1:0:0:0:
188,170,156190,1,8,1:0:0:0:
187,169,156490,1,8,1:0:0:0:
200,172,156715,1,8,1:0:0:0:
213,166,156790,1,8,1:0:0:0:
196,184,156940,1,8,1:0:0:0:
233,206,157090,1,0,1:0:0:0:
227,186,157240,1,8,1:0:0:0:
239,233,157390,1,8,1:0:0:0:
223,196,157690,1,8,1:0:0:0:
230,208,157790,1,0,1:0:0:0:
228,211,157890,1,0,1:0:0:0:
231,206,157990,1,8,1:0:0:0:
245,209,158090,1,8,1:0:0:0:
246,209,158190,1,8,1:0:0:0:
245,209,158290,1,0,1:0:0:0:
245,228,158590,1,8,1:0:0:0:
232,210,158890,1,8,1:0:0:0:
217,210,159040,1,0,1:0:0:0:
217,210,159190,1,8,1:0:0:0:
232,200,159340,1,8,1:0:0:0:
207,193,159640,1,8,1:0:0:0:
213,197,159940,1,0,1:0:0:0:
195,197,160090,1,8,1:0:0:0:
185,188,160240,1,0,1:0:0:0:
269,196,160390,1,0,1:0:0:0:
228,202,160540,1,0,1:0:0:0:
194,191,160690,1,8,1:0:0:0:
244,195,160990,1,8,1:0:0:0:
224,201,161290,1,8,1:0:0:0:
233,208,161440,1,0,1:0:0:0:
247,214,161590,1,8,1:0:0:0:
239,215,161740,1,8,1:0:0:0:
234,205,162040,1,8,1:0:0:0:
237,199,162340,1,0,1:0:0:0:
225,192,162490,1,8,1:0:0:0:
225,192,162640,1,8,1:0:0:0:
241,194,162790,1,0,1:0:0:0:
226,200,162940,1,0,1:0:0:0:
226,200,163090,1,12,1:0:0:0:
226,171,163390,1,8,1:0:0:0:
240,203,163540,1,0,1:0:0:0:
247,202,163690,1,8,1:0:0:0:
236,189,163840,1,0,1:0:0:0:
236,189,163990,1,8,1:0:0:0:
243,204,164140,1,8,1:0:0:0:
227,209,164290,1,0,1:0:0:0:
227,209,164440,1,8,1:0:0:0:
220,212,164740,1,0,1:0:0:0:
220,212,164890,1,8,1:0:0:0:
220,212,165040,1,8,1:0:0:0:
220,212,165190,1,0,1:0:0:0:
232,182,165340,1,0,1:0:0:0:
217,216,165490,1,8,1:0:0:0:
219,205,165640,1,12,1:0:0:0:
232,199,165940,1,0,1:0:0:0:
232,199,166090,1,12,1:0:0:0:
238,195,166390,1,8,1:0:0:0:
238,195,166540,1,12,1:0:0:0:
241,197,166840,1,0,1:0:0:0:
237,183,166990,1,12,1:0:0:0:
231,194,167140,1,8,1:0:0:0:
230,192,167215,1,8,1:0:0:0:
231,194,167290,1,0,1:0:0:0:
219,195,167440,1,0,1:0:0:0:
205,185,167740,1,12,1:0:0:0:
216,205,168040,1,0,1:0:0:0:
209,210,168190,1,8,1:0:0:0:
215,209,168490,1,8,1:0:0:0:
218,209,168790,1,8,1:0:0:0:
216,209,169090,1,8,1:0:0:0:
216,209,169240,1,8,1:0:0:0:
216,209,169390,1,0,1:0:0:0:
209,208,169540,1,0,1:0:0:0:
213,206,169690,1,8,1:0:0:0:
213,206,169840,1,0,1:0:0:0:
200,206,170140,1,12,1:0:0:0:
239,187,170440,1,0,1:0:0:0:
239,187,170590,1,8,1:0:0:0:
208,196,170890,1,8,1:0:0:0:
210,204,171190,1,8,1:0:0:0:
211,205,171490,1,8,1:0:0:0:
205,202,171640,1,8,1:0:0:0:
205,202,171790,1,0,1:0:0:0:
205,202,171940,1,8,1:0:0:0:
205,202,172090,1,8,1:0:0:0:
205,202,172240,1,0,1:0:0:0:
196,192,172390,1,8,1:0:0:0:
196,192,172540,1,4,1:0:0:0:
213,211,172840,1,0,1:0:0:0:
213,211,172990,1,8,1:0:0:0:
203,191,173140,1,0,1:0:0:0:
212,191,173290,1,8,1:0:0:0:
197,186,173440,1,8,1:0:0:0:
226,185,173590,1,0,1:0:0:0:
218,188,173740,1,12,1:0:0:0:
217,192,174040,1,0,1:0:0:0:
213,197,174190,1,8,1:0:0:0:
209,200,174340,1,0,1:0:0:0:
213,202,174415,1,0,1:0:0:0:
217,197,174490,1,8,1:0:0:0:
218,202,174640,1,8,1:0:0:0:
244,205,174715,1,0,1:0:0:0:
209,197,174790,1,8,1:0:0:0:
209,197,174940,1,12,1:0:0:0:
247,214,175240,1,0,1:0:0:0:
247,195,175390,1,8,1:0:0:0:
214,206,175540,1,0,1:0:0:0:
239,211,175690,1,8,1:0:0:0:
218,204,175840,1,8,1:0:0:0:
231,206,175915,1,0,1:0:0:0:
218,204,175990,1,8,1:0:0:0:
241,200,176065,1,8,1:0:0:0:
247,201,176140,1,0,1:0:0:0:
236,207,176215,1,8,1:0:0:0:
236,207,176290,1,0,1:0:0:0:
214,215,176365,1,0,1:0:0:0:
216,219,176440,1,8,1:0:0:0:
220,221,176515,1,0,1:0:0:0:
220,222,176590,1,8,1:0:0:0:
220,222,176665,1,0,1:0:0:0:
220,222,176740,1,0,1:0:0:0:
220,222,176815,1,0,1:0:0:0:
220,222,176890,1,8,1:0:0:0:
220,222,176965,1,0,1:0:0:0:
227,226,177040,1,8,1:0:0:0:
227,226,177115,1,8,1:0:0:0:
235,219,177190,1,0,1:0:0:0:
227,226,177265,1,8,1:0:0:0:
227,226,177340,1,4,1:0:0:0:
236,221,177640,1,0,1:0:0:0:
215,228,177790,1,8,1:0:0:0:
237,191,177940,1,0,1:0:0:0:
228,177,178015,1,0,1:0:0:0:
239,232,178090,1,8,1:0:0:0:
209,226,178240,1,8,1:0:0:0:
223,230,178315,1,0,1:0:0:0:
209,226,178390,1,8,1:0:0:0:
209,226,178540,1,8,1:0:0:0:
209,226,178690,1,0,1:0:0:0:
195,209,178765,1,8,1:0:0:0:
195,209,178840,1,0,1:0:0:0:
195,209,178915,1,0,1:0:0:0:
195,209,178990,1,8,1:0:0:0:
200,218,179140,1,0,1:0:0:0:
216,221,179215,1,8,1:0:0:0:
213,218,179290,1,0,1:0:0:0:
223,212,179440,1,0,1:0:0:0:
217,216,179590,1,8,1:0:0:0:
217,216,179740,1,4,1:0:0:0:
218,236,180040,1,0,1:0:0:0:
218,236,180190,1,8,1:0:0:0:
252,169,180340,1,8,1:0:0:0:
252,169,180415,1,0,1:0:0:0:
233,214,180490,1,8,1:0:0:0:
204,226,180640,1,8,1:0:0:0:
218,216,180715,1,8,1:0:0:0:
228,224,180790,1,8,1:0:0:0:
207,221,180940,1,8,1:0:0:0:
211,223,181090,1,8,1:0:0:0:
171,224,181165,1,8,1:0:0:0:
211,223,181240,1,8,1:0:0:0:
211,223,181315,1,0,1:0:0:0:
213,223,181390,1,8,1:0:0:0:
227,217,181540,1,0,1:0:0:0:
220,217,181615,1,0,1:0:0:0:
221,217,181690,1,0,1:0:0:0:
212,216,181840,1,0,1:0:0:0:
212,216,181990,1,8,1:0:0:0:
212,216,182140,1,12,1:0:0:0:
224,224,182440,1,0,1:0:0:0:
243,198,182515,1,0,1:0:0:0:
213,184,182590,1,8,1:0:0:0:
226,216,182740,1,0,1:0:0:0:
226,216,182890,1,8,1:0:0:0:
248,184,182965,1,8,1:0:0:0:
208,187,183040,1,0,1:0:0:0:
257,176,183115,1,8,1:0:0:0:
193,195,183190,1,0,1:0:0:0:
222,205,183340,1,12,1:0:0:0:
220,188,183640,1,0,1:0:0:0:
222,197,183715,1,0,1:0:0:0:
220,188,183790,1,8,1:0:0:0:
199,181,183940,1,0,1:0:0:0:
193,191,184090,1,8,1:0:0:0:
223,196,184165,1,0,1:0:0:0:
187,182,184240,1,8,1:0:0:0:
234,193,184315,1,8,1:0:0:0:
187,182,184390,1,0,1:0:0:0:
181,184,184540,1,12,1:0:0:0:
195,164,184840,1,0,1:0:0:0:
238,186,184915,1,0,1:0:0:0:
214,172,184990,1,8,1:0:0:0:
198,164,185140,1,0,1:0:0:0:
198,164,185290,1,8,1:0:0:0:
221,189,185365,1,0,1:0:0:0:
195,168,185440,1,8,1:0:0:0:
225,184,185515,1,0,1:0:0:0:
196,173,185590,1,0,1:0:0:0:
188,176,185740,1,8,1:0:0:0:
185,174,185815,1,0,1:0:0:0:
188,176,185890,1,12,1:0:0:0:
182,185,186490,1,8,1:0:0:0:
212,218,187090,1,4,1:0:0:0:
256,192,187240,12,0,189340,1:0:0:0:
185,222,189490,5,8,1:0:0:0:
206,201,190090,1,8,1:0:0:0:
205,196,190690,1,8,1:0:0:0:
197,196,191140,1,0,1:0:0:0:
209,195,191215,1,0,1:0:0:0:
209,202,191290,1,8,1:0:0:0:
203,197,191440,1,0,1:0:0:0:
213,190,191890,1,12,1:0:0:0:
249,188,192190,1,0,1:0:0:0:
241,199,192340,1,0,1:0:0:0:
236,195,192490,1,8,1:0:0:0:
226,195,192640,1,0,1:0:0:0:
228,196,192940,1,0,1:0:0:0:
228,196,193090,1,0,1:0:0:0:
200,191,193240,1,0,1:0:0:0:
205,188,193315,1,0,1:0:0:0:
212,185,193390,1,0,1:0:0:0:
199,185,193540,1,0,1:0:0:0:
220,197,193690,1,8,1:0:0:0:
211,193,193840,1,0,1:0:0:0:
200,192,193915,1,0,1:0:0:0:
204,193,193990,1,8,1:0:0:0:
228,202,194140,1,8,1:0:0:0:
206,200,194290,1,0,1:0:0:0:
205,201,194590,1,0,1:0:0:0:
199,202,194740,1,0,1:0:0:0:
208,209,194890,1,8,1:0:0:0:
194,194,195040,1,0,1:0:0:0:
207,202,195340,1,0,1:0:0:0:
207,202,195490,1,0,1:0:0:0:
207,202,195640,1,0,1:0:0:0:
207,202,195715,1,8,1:0:0:0:
207,202,195790,1,8,1:0:0:0:
185,202,195940,1,0,1:0:0:0:
206,198,196090,1,8,1:0:0:0:
197,189,196240,1,8,1:0:0:0:
196,195,196315,1,8,1:0:0:0:
204,198,196390,1,8,1:0:0:0:
241,203,196540,1,8,1:0:0:0:
236,204,196615,1,8,1:0:0:0:
241,203,196690,1,4,1:0:0:0:
244,212,196990,1,8,1:0:0:0:
244,212,197140,1,0,1:0:0:0:
244,212,197290,1,0,1:0:0:0:
238,223,197440,1,0,1:0:0:0:
238,223,197590,1,8,1:0:0:0:
236,206,197740,1,8,1:0:0:0:
210,199,197890,1,0,1:0:0:0:
205,196,198040,1,0,1:0:0:0:
210,203,198190,1,8,1:0:0:0:
215,196,198340,1,0,1:0:0:0:
215,196,198490,1,0,1:0:0:0:
219,200,198640,1,0,1:0:0:0:
219,200,198790,1,8,1:0:0:0:
212,192,198940,1,8,1:0:0:0:
224,193,199090,1,0,1:0:0:0:
205,201,199390,1,8,1:0:0:0:
205,201,199540,1,8,1:0:0:0:
205,201,199690,1,0,1:0:0:0:
197,197,199840,1,0,1:0:0:0:
226,199,199990,1,8,1:0:0:0:
221,201,200140,1,0,1:0:0:0:
221,201,200290,1,8,1:0:0:0:
202,200,200440,1,0,1:0:0:0:
226,202,200590,1,8,1:0:0:0:
226,202,200740,1,8,1:0:0:0:
229,193,200890,1,0,1:0:0:0:
229,186,201040,1,0,1:0:0:0:
229,186,201190,1,8,1:0:0:0:
250,202,201340,1,0,1:0:0:0:
250,202,201490,1,12,1:0:0:0:
256,207,203890,1,8,1:0:0:0:
240,207,204040,1,8,1:0:0:0:
231,228,204190,1,0,1:0:0:0:
235,229,204265,1,0,1:0:0:0:
249,229,204340,1,8,1:0:0:0:
249,225,204415,1,8,1:0:0:0:
249,225,204490,1,0,1:0:0:0:
249,229,204565,1,8,1:0:0:0:
249,225,204640,1,0,1:0:0:0:
249,225,204715,1,0,1:0:0:0:
249,229,204790,1,8,1:0:0:0:
216,216,204940,1,8,1:0:0:0:
216,216,205090,1,0,1:0:0:0:
199,217,205165,1,8,1:0:0:0:
203,217,205240,1,8,1:0:0:0:
204,217,205315,1,8,1:0:0:0:
206,216,205390,1,0,1:0:0:0:
206,216,205465,1,8,1:0:0:0:
206,216,205540,1,0,1:0:0:0:
206,216,205615,1,0,1:0:0:0:
206,216,205690,1,8,1:0:0:0:
191,203,205840,1,0,1:0:0:0:
200,205,205915,1,8,1:0:0:0:
213,208,205990,1,0,1:0:0:0:
208,210,206065,1,8,1:0:0:0:
209,210,206140,1,0,1:0:0:0:
187,214,206215,1,0,1:0:0:0:
189,214,206290,1,8,1:0:0:0:
187,214,206590,1,8,1:0:0:0:
187,214,206740,1,0,1:0:0:0:
187,214,206815,1,0,1:0:0:0:
187,214,206890,1,8,1:0:0:0:
187,214,207040,1,0,1:0:0:0:
250,192,207490,1,12,1:0:0:0:
256,192,207640,12,0,214090,1:0:0:0:
