osu file format v14

[General]
AudioFilename: audio.mp3
AudioLeadIn: 0
PreviewTime: 42806
Countdown: 0
SampleSet: Normal
StackLeniency: 0.7
Mode: 3
LetterboxInBreaks: 0
SpecialStyle: 0
WidescreenStoryboard: 1

[Editor]
DistanceSpacing: 0.4
BeatDivisor: 4
GridSize: 4
TimelineZoom: 3.699999

[Metadata]
Title:Cast Your Shell
TitleUnicode:Cast Your Shell
Artist:Fear, and Loathing in Las Vegas
ArtistUnicode:Fear, and Loathing in Las Vegas
Creator:puxtu
Version:HD
Source:
Tags:Feeling of Unity Electronicore Digital hardcore Metalcore Post-hardcore falilv Regraz Len SnowNiNo_ Nerova Riuz GX Battle Akitoshi
BeatmapID:1571178
BeatmapSetID:707133

[Difficulty]
HPDrainRate:8
CircleSize:4
OverallDifficulty:8
ApproachRate:9.5
SliderMultiplier:1.4
SliderTickRate:1

[Events]
//Background and Video events
0,0,"Akanya.jpg",0,0
//Break Periods
//Storyboard Layer 0 (Background)
//Storyboard Layer 1 (Fail)
//Storyboard Layer 2 (Pass)
//Storyboard Layer 3 (Foreground)
//Storyboard Sound Samples

[TimingPoints]
5050,292.682926829268,4,1,4,50,1,0
61098,-100,4,1,4,50,0,1
75147,-100,4,1,4,50,0,0
79830,-100,4,1,4,50,0,1
88757,-100,4,1,4,50,0,0
89196,-100,4,1,4,50,0,1
96220,-100,4,1,4,50,0,0
117293,-100,4,1,4,50,0,1
129001,-100,4,1,4,50,0,0

[Colours]
Combo1 : 255,255,85
Combo2 : 85,98,255
Combo3 : 85,170,255
Combo4 : 170,170,170

[HitObjects]
320,192,4903,5,4,0:0:0:0:
64,192,4903,1,0,0:0:0:0:
448,192,4903,128,2,5196:0:0:0:0:
192,192,5196,1,0,0:0:0:0:
320,192,5342,1,8,0:0:0:0:
64,192,5342,1,2,0:0:0:0:
448,192,5489,1,0,0:0:0:0:
192,192,5635,1,2,0:0:0:0:
320,192,5635,1,8,0:0:0:0:
64,192,5781,1,0,0:0:0:0:
320,192,5928,1,8,0:0:0:0:
448,192,5928,1,2,0:0:0:0:
64,192,6074,1,0,0:0:0:0:
192,192,6147,1,0,0:0:0:0:
320,192,6220,1,2,0:0:0:0:
448,192,6220,1,8,0:0:0:0:
192,192,6367,1,0,0:0:0:0:
64,192,6513,1,2,0:0:0:0:
320,192,6513,1,8,0:0:0:0:
448,192,6659,1,0,0:0:0:0:
64,192,6806,1,8,0:0:0:0:
192,192,6806,1,2,0:0:0:0:
320,192,6879,1,0,0:0:0:0:
448,192,6952,1,0,0:0:0:0:
192,192,7025,1,0,0:0:0:0:
320,192,7098,1,8,0:0:0:0:
64,192,7098,1,2,0:0:0:0:
320,192,7245,1,0,0:0:0:0:
192,192,7245,1,2,0:0:0:0:
448,192,7245,128,4,7537:0:0:0:0:
64,192,7537,1,0,0:0:0:0:
192,192,7684,1,2,0:0:0:0:
320,192,7684,1,8,0:0:0:0:
448,192,7830,1,0,0:0:0:0:
64,192,7976,1,8,0:0:0:0:
320,192,7976,1,2,0:0:0:0:
192,192,8123,1,0,0:0:0:0:
64,192,8269,1,2,0:0:0:0:
448,192,8269,1,8,0:0:0:0:
320,192,8415,1,0,0:0:0:0:
448,192,8489,1,0,0:0:0:0:
192,192,8562,1,8,0:0:0:0:
64,192,8562,1,2,0:0:0:0:
320,192,8708,1,8,3:0:0:0:
192,192,8781,1,8,3:0:0:0:
64,192,8854,1,8,0:0:0:0:
448,192,8854,1,2,0:0:0:0:
320,192,8928,1,8,0:0:0:0:
192,192,9001,1,8,3:0:0:0:
448,192,9074,1,8,3:0:0:0:
320,192,9147,1,8,3:0:0:0:
64,192,9220,1,8,3:0:0:0:
192,192,9293,1,8,3:0:0:0:
448,192,9367,1,8,3:0:0:0:
320,192,9440,1,2,0:0:0:0:
64,192,9440,1,8,0:0:0:0:
448,192,9586,1,2,0:0:0:0:
192,192,9586,1,0,0:0:0:0:
64,192,9586,128,4,10025:0:0:0:0:
320,192,10025,1,8,0:0:0:0:
192,192,10025,1,2,0:0:0:0:
448,192,10171,1,2,0:0:0:0:
192,192,10318,1,2,0:0:0:0:
64,192,10318,1,0,0:0:0:0:
320,192,10464,1,2,0:0:0:0:
64,192,10610,1,0,0:0:0:0:
448,192,10610,1,8,0:0:0:0:
192,192,10757,1,2,0:0:0:0:
320,192,10903,1,2,0:0:0:0:
448,192,10903,1,0,0:0:0:0:
192,192,11049,1,2,0:0:0:0:
320,192,11196,1,8,0:0:0:0:
64,192,11196,1,2,0:0:0:0:
448,192,11342,1,2,0:0:0:0:
192,192,11489,1,0,0:0:0:0:
320,192,11489,1,2,0:0:0:0:
64,192,11635,1,2,0:0:0:0:
448,192,11781,1,2,0:0:0:0:
320,192,11781,1,8,0:0:0:0:
192,192,11928,1,2,0:0:0:0:
64,192,11928,1,0,0:0:0:0:
448,192,11928,128,4,12367:0:0:0:0:
192,192,12367,1,8,0:0:0:0:
320,192,12367,1,2,0:0:0:0:
64,192,12513,1,2,0:0:0:0:
320,192,12659,1,2,0:0:0:0:
448,192,12659,1,0,0:0:0:0:
192,192,12806,1,2,0:0:0:0:
64,192,12952,1,2,0:0:0:0:
320,192,12952,1,8,0:0:0:0:
448,192,13098,1,2,0:0:0:0:
64,192,13245,1,2,0:0:0:0:
192,192,13245,1,0,0:0:0:0:
448,192,13391,1,2,0:0:0:0:
320,192,13391,1,8,0:0:0:0:
320,192,13537,1,8,0:0:0:0:
448,192,13537,1,2,0:0:0:0:
192,192,13684,1,0,0:0:0:0:
64,192,13757,1,0,0:0:0:0:
320,192,13830,1,8,3:0:0:0:
448,192,13903,1,8,3:0:0:0:
64,192,13976,1,0,0:0:0:0:
192,192,14049,1,0,0:0:0:0:
320,192,14123,1,8,0:0:0:0:
448,192,14123,1,2,0:0:0:0:
192,192,14269,1,4,0:0:0:0:
448,192,14269,1,0,0:0:0:0:
64,192,14269,128,2,14562:0:0:0:0:
320,192,14562,1,0,0:0:0:0:
192,192,14708,1,8,0:0:0:0:
448,192,14708,1,2,0:0:0:0:
64,192,14854,1,0,0:0:0:0:
320,192,15001,1,2,0:0:0:0:
192,192,15001,1,8,0:0:0:0:
448,192,15147,1,0,0:0:0:0:
192,192,15293,1,8,0:0:0:0:
64,192,15293,1,2,0:0:0:0:
320,192,15440,1,0,0:0:0:0:
192,192,15513,1,0,0:0:0:0:
448,192,15586,1,2,0:0:0:0:
64,192,15586,1,8,0:0:0:0:
320,192,15732,1,0,0:0:0:0:
448,192,15879,1,2,0:0:0:0:
64,192,15879,1,8,0:0:0:0:
192,192,16025,1,0,0:0:0:0:
64,192,16171,1,8,0:0:0:0:
320,192,16171,1,2,0:0:0:0:
192,192,16245,1,0,0:0:0:0:
448,192,16318,1,0,0:0:0:0:
320,192,16391,1,0,0:0:0:0:
192,192,16464,1,8,0:0:0:0:
64,192,16464,1,2,0:0:0:0:
320,192,16610,1,0,0:0:0:0:
448,192,16610,1,4,0:0:0:0:
64,192,16610,128,2,16903:0:0:0:0:
448,192,16903,1,0,0:0:0:0:
320,192,17049,1,2,0:0:0:0:
192,192,17049,1,8,0:0:0:0:
64,192,17196,1,0,0:0:0:0:
192,192,17342,1,8,0:0:0:0:
448,192,17342,1,2,0:0:0:0:
320,192,17489,1,0,0:0:0:0:
448,192,17635,1,2,0:0:0:0:
64,192,17635,1,8,0:0:0:0:
192,192,17781,1,0,0:0:0:0:
64,192,17854,1,0,0:0:0:0:
320,192,17928,1,8,0:0:0:0:
448,192,17928,1,2,0:0:0:0:
64,192,18074,1,0,0:0:0:0:
192,192,18147,1,0,0:0:0:0:
320,192,18220,1,8,0:0:0:0:
448,192,18220,1,2,0:0:0:0:
64,192,18293,1,10,0:0:0:0:
192,192,18367,1,0,0:0:0:0:
320,192,18440,1,0,0:0:0:0:
448,192,18513,1,8,3:0:0:0:
192,192,18586,1,8,3:0:0:0:
320,192,18659,1,0,0:0:0:0:
64,192,18732,1,0,0:0:0:0:
192,192,18806,1,2,0:0:0:0:
448,192,18806,1,8,0:0:0:0:
448,192,18952,1,2,0:0:0:0:
320,192,18952,1,0,0:0:0:0:
64,192,18952,128,4,19391:0:0:0:0:
192,192,19391,1,8,0:0:0:0:
448,192,19391,1,0,0:0:0:0:
320,192,19537,1,2,0:0:0:0:
192,192,19684,1,2,0:0:0:0:
64,192,19684,1,0,0:0:0:0:
448,192,19830,1,2,0:0:0:0:
192,192,19976,1,2,0:0:0:0:
320,192,19976,1,8,0:0:0:0:
64,192,20123,1,2,0:0:0:0:
192,192,20269,1,2,0:0:0:0:
448,192,20269,1,0,0:0:0:0:
320,192,20415,1,2,0:0:0:0:
192,192,20562,1,8,0:0:0:0:
64,192,20562,1,2,0:0:0:0:
448,192,20708,1,2,0:0:0:0:
64,192,20854,1,0,0:0:0:0:
320,192,20854,1,2,0:0:0:0:
192,192,21001,1,2,0:0:0:0:
320,192,21147,1,2,0:0:0:0:
448,192,21147,1,8,0:0:0:0:
64,192,21293,1,2,0:0:0:0:
448,192,21293,1,0,0:0:0:0:
192,192,21293,128,4,21732:0:0:0:0:
64,192,21732,1,8,0:0:0:0:
320,192,21732,1,2,0:0:0:0:
192,192,21879,1,2,0:0:0:0:
320,192,22025,1,2,0:0:0:0:
448,192,22025,1,0,0:0:0:0:
192,192,22171,1,2,0:0:0:0:
64,192,22318,1,2,0:0:0:0:
448,192,22318,1,8,0:0:0:0:
320,192,22464,1,2,0:0:0:0:
192,192,22610,1,2,0:0:0:0:
64,192,22610,1,0,0:0:0:0:
320,192,22757,1,2,0:0:0:0:
448,192,22757,1,8,0:0:0:0:
448,192,22903,1,8,0:0:0:0:
320,192,22903,1,2,0:0:0:0:
192,192,23049,1,0,0:0:0:0:
64,192,23196,1,8,3:0:0:0:
448,192,23196,1,0,0:0:0:0:
320,192,23342,1,0,0:0:0:0:
192,192,23635,1,4,0:0:0:0:
448,192,23635,1,2,0:0:0:0:
64,192,23635,128,0,24952:0:0:0:0:
448,192,24074,1,2,0:0:0:0:
320,192,24367,1,2,0:0:0:0:
448,192,24659,1,2,0:0:0:0:
448,192,24952,1,2,0:0:0:0:
192,192,24952,1,0,0:0:0:0:
320,192,25098,1,0,0:0:0:0:
64,192,25098,1,2,0:0:0:0:
448,192,25245,1,2,0:0:0:0:
192,192,25391,1,2,0:0:0:0:
320,192,25391,1,0,0:0:0:0:
448,192,25537,1,2,0:0:0:0:
192,192,25684,1,2,0:0:0:0:
64,192,25684,1,0,0:0:0:0:
448,192,25830,1,2,0:0:0:0:
64,192,25976,1,0,0:0:0:0:
192,192,25976,1,2,0:0:0:0:
320,192,25976,128,4,27293:0:0:0:0:
64,192,26415,1,2,0:0:0:0:
192,192,26708,1,2,0:0:0:0:
64,192,27001,1,2,0:0:0:0:
64,192,27293,1,2,0:0:0:0:
448,192,27293,1,0,0:0:0:0:
320,192,27440,1,2,0:0:0:0:
192,192,27440,1,0,0:0:0:0:
64,192,27586,1,2,0:0:0:0:
320,192,27732,1,0,0:0:0:0:
448,192,27806,1,0,0:0:0:0:
192,192,27879,1,8,3:0:0:0:
320,192,27952,1,8,3:0:0:0:
64,192,28025,1,0,0:0:0:0:
192,192,28098,1,0,0:0:0:0:
320,192,28171,1,8,0:0:0:0:
448,192,28171,1,0,0:0:0:0:
64,192,28318,1,2,0:0:0:0:
192,192,28318,1,4,0:0:0:0:
448,192,28318,128,0,28610:0:0:0:0:
64,192,28610,1,0,0:0:0:0:
192,192,28684,1,0,0:0:0:0:
320,192,28757,1,8,0:0:0:0:
448,192,28757,1,2,0:0:0:0:
192,192,28903,1,0,0:0:0:0:
64,192,28976,1,0,0:0:0:0:
448,192,29049,1,2,0:0:0:0:
320,192,29049,1,8,0:0:0:0:
192,192,29196,1,2,0:0:0:0:
64,192,29196,1,0,0:0:0:0:
448,192,29342,1,0,0:0:0:0:
320,192,29489,1,0,0:0:0:0:
192,192,29562,1,0,0:0:0:0:
448,192,29635,1,8,0:0:0:0:
64,192,29635,1,2,0:0:0:0:
320,192,29781,1,0,0:0:0:0:
192,192,29781,1,2,0:0:0:0:
64,192,29928,1,0,0:0:0:0:
320,192,30074,1,0,0:0:0:0:
192,192,30147,1,0,0:0:0:0:
64,192,30220,1,8,0:0:0:0:
320,192,30220,1,2,0:0:0:0:
448,192,30367,1,0,0:0:0:0:
192,192,30513,1,2,0:0:0:0:
64,192,30513,1,8,0:0:0:0:
320,192,30659,1,4,0:0:0:0:
64,192,30659,1,2,0:0:0:0:
448,192,30659,128,0,30952:0:0:0:0:
192,192,30952,1,0,0:0:0:0:
64,192,31098,1,8,0:0:0:0:
448,192,31098,1,2,0:0:0:0:
320,192,31245,1,0,0:0:0:0:
448,192,31391,1,2,0:0:0:0:
192,192,31391,1,8,0:0:0:0:
64,192,31537,1,2,0:0:0:0:
320,192,31537,1,0,0:0:0:0:
448,192,31684,1,0,0:0:0:0:
192,192,31830,1,0,0:0:0:0:
320,192,31903,1,0,0:0:0:0:
64,192,31976,1,2,0:0:0:0:
192,192,31976,1,8,0:0:0:0:
448,192,32123,1,2,0:0:0:0:
320,192,32123,1,0,0:0:0:0:
192,192,32415,1,0,0:0:0:0:
448,192,32562,1,0,0:0:0:0:
64,192,32562,1,2,0:0:0:0:
448,192,32708,1,0,0:0:0:0:
192,192,33001,1,4,0:0:0:0:
64,192,33001,1,2,0:0:0:0:
448,192,33001,128,0,34318:0:0:0:0:
64,192,33440,1,2,0:0:0:0:
320,192,33732,1,2,0:0:0:0:
64,192,34025,1,2,0:0:0:0:
64,192,34318,1,2,0:0:0:0:
320,192,34318,1,0,0:0:0:0:
192,192,34464,1,0,0:0:0:0:
448,192,34464,1,2,0:0:0:0:
64,192,34610,1,2,0:0:0:0:
320,192,34757,1,2,0:0:0:0:
192,192,34757,1,0,0:0:0:0:
64,192,34903,1,2,0:0:0:0:
320,192,35049,1,2,0:0:0:0:
448,192,35049,1,0,0:0:0:0:
64,192,35196,1,2,0:0:0:0:
448,192,35342,1,0,0:0:0:0:
320,192,35342,1,2,0:0:0:0:
192,192,35342,128,4,36659:0:0:0:0:
448,192,35781,1,2,0:0:0:0:
320,192,36074,1,2,0:0:0:0:
448,192,36367,1,2,0:0:0:0:
448,192,36659,1,2,0:0:0:0:
320,192,36659,1,0,0:0:0:0:
192,192,36806,1,2,0:0:0:0:
64,192,36806,1,0,0:0:0:0:
448,192,36952,1,2,0:0:0:0:
192,192,37098,1,0,0:0:0:0:
64,192,37171,1,0,0:0:0:0:
320,192,37245,1,8,3:0:0:0:
192,192,37318,1,8,3:0:0:0:
448,192,37391,1,0,0:0:0:0:
320,192,37464,1,0,0:0:0:0:
192,192,37537,1,8,0:0:0:0:
64,192,37537,1,2,0:0:0:0:
448,192,37684,1,2,0:0:0:0:
320,192,37684,1,4,0:0:0:0:
64,192,37684,128,0,37976:0:0:0:0:
448,192,37976,1,0,0:0:0:0:
320,192,38049,1,0,0:0:0:0:
192,192,38123,1,8,0:0:0:0:
448,192,38123,1,2,0:0:0:0:
64,192,38269,1,0,0:0:0:0:
192,192,38342,1,0,0:0:0:0:
64,192,38415,1,2,0:0:0:0:
320,192,38415,1,8,0:0:0:0:
448,192,38562,1,2,0:0:0:0:
192,192,38562,1,0,0:0:0:0:
64,192,38708,1,0,0:0:0:0:
320,192,38854,1,0,0:0:0:0:
192,192,38928,1,0,0:0:0:0:
320,192,39001,1,8,0:0:0:0:
448,192,39001,1,2,0:0:0:0:
192,192,39147,1,0,0:0:0:0:
64,192,39147,1,2,0:0:0:0:
448,192,39293,1,0,0:0:0:0:
320,192,39440,1,0,0:0:0:0:
448,192,39513,1,0,0:0:0:0:
192,192,39586,1,8,0:0:0:0:
64,192,39586,1,2,0:0:0:0:
320,192,39732,1,0,0:0:0:0:
448,192,39879,1,2,0:0:0:0:
192,192,39879,1,8,0:0:0:0:
448,192,40025,1,4,0:0:0:0:
320,192,40025,1,2,0:0:0:0:
64,192,40025,128,0,40318:0:0:0:0:
192,192,40318,1,0,0:0:0:0:
320,192,40464,1,8,0:0:0:0:
64,192,40464,1,2,0:0:0:0:
448,192,40610,1,0,0:0:0:0:
192,192,40757,1,2,0:0:0:0:
320,192,40757,1,8,0:0:0:0:
64,192,40903,1,0,0:0:0:0:
320,192,41049,1,8,3:0:0:0:
448,192,41196,1,0,0:0:0:0:
64,192,41196,1,2,0:0:0:0:
192,192,41342,1,2,0:0:0:0:
320,192,41489,1,0,0:0:0:0:
64,192,41635,1,8,0:0:0:0:
192,192,41635,1,2,0:0:0:0:
320,192,41781,1,8,0:0:0:0:
448,192,41781,1,0,0:0:0:0:
192,192,41854,1,8,0:0:0:0:
64,192,41854,1,0,0:0:0:0:
448,192,41928,1,0,0:0:0:0:
320,192,41928,1,8,0:0:0:0:
192,192,42074,1,8,3:0:0:0:
192,192,42220,1,8,3:0:0:0:
320,192,42367,1,4,0:0:0:0:
448,192,42367,1,2,0:0:0:0:
64,192,42367,128,0,42659:0:0:0:0:
448,192,42659,1,0,0:0:0:0:
320,192,42806,1,8,0:0:0:0:
64,192,42806,1,2,0:0:0:0:
192,192,42952,1,2,0:0:0:0:
448,192,43098,1,0,0:0:0:0:
320,192,43098,1,2,0:0:0:0:
64,192,43245,1,0,0:0:0:0:
448,192,43391,1,2,0:0:0:0:
320,192,43391,1,8,0:0:0:0:
192,192,43537,1,2,0:0:0:0:
64,192,43537,1,0,0:0:0:0:
320,192,43684,1,2,0:0:0:0:
64,192,43830,1,0,0:0:0:0:
192,192,43903,1,0,0:0:0:0:
320,192,43976,1,8,0:0:0:0:
448,192,43976,1,2,0:0:0:0:
448,192,44123,1,2,0:0:0:0:
320,192,44123,1,8,0:0:0:0:
64,192,44269,1,0,0:0:0:0:
320,192,44415,1,0,0:0:0:0:
192,192,44562,1,8,0:0:0:0:
64,192,44562,1,2,0:0:0:0:
320,192,44708,1,2,0:0:0:0:
448,192,44708,128,0,45001:0:0:0:0:
64,192,45001,1,0,0:0:0:0:
192,192,45074,1,0,0:0:0:0:
320,192,45147,1,8,0:0:0:0:
448,192,45147,1,2,0:0:0:0:
192,192,45293,1,2,0:0:0:0:
448,192,45440,1,0,0:0:0:0:
64,192,45440,1,2,0:0:0:0:
320,192,45586,1,0,0:0:0:0:
64,192,45732,1,2,0:0:0:0:
192,192,45732,1,8,0:0:0:0:
320,192,45879,1,0,0:0:0:0:
448,192,45879,1,2,0:0:0:0:
192,192,46025,1,2,0:0:0:0:
448,192,46171,1,0,0:0:0:0:
320,192,46245,1,0,0:0:0:0:
192,192,46318,1,8,0:0:0:0:
64,192,46318,1,2,0:0:0:0:
64,192,46464,1,2,0:0:0:0:
192,192,46464,1,8,0:0:0:0:
320,192,46610,1,0,0:0:0:0:
64,192,46757,1,0,0:0:0:0:
192,192,46903,1,8,0:0:0:0:
448,192,46903,1,2,0:0:0:0:
320,192,47049,1,2,0:0:0:0:
64,192,47049,128,0,47342:0:0:0:0:
192,192,47342,1,0,0:0:0:0:
320,192,47415,1,0,0:0:0:0:
448,192,47489,1,2,0:0:0:0:
192,192,47489,1,8,0:0:0:0:
320,192,47635,1,2,0:0:0:0:
64,192,47781,1,0,0:0:0:0:
192,192,47781,1,2,0:0:0:0:
320,192,47928,1,0,0:0:0:0:
448,192,48074,1,2,0:0:0:0:
192,192,48074,1,8,0:0:0:0:
64,192,48220,1,0,0:0:0:0:
320,192,48220,1,2,0:0:0:0:
192,192,48367,1,2,0:0:0:0:
448,192,48513,1,0,0:0:0:0:
320,192,48586,1,0,0:0:0:0:
192,192,48659,1,8,0:0:0:0:
64,192,48659,1,2,0:0:0:0:
64,192,48806,1,2,0:0:0:0:
192,192,48806,1,8,0:0:0:0:
320,192,48952,1,0,0:0:0:0:
64,192,49098,1,0,0:0:0:0:
320,192,49245,1,8,0:0:0:0:
448,192,49245,1,2,0:0:0:0:
192,192,49391,1,2,0:0:0:0:
64,192,49391,128,0,49684:0:0:0:0:
320,192,49684,1,0,0:0:0:0:
192,192,49757,1,0,0:0:0:0:
448,192,49830,1,2,0:0:0:0:
320,192,49830,1,8,0:0:0:0:
192,192,49976,1,2,0:0:0:0:
448,192,50123,1,2,0:0:0:0:
64,192,50123,1,0,0:0:0:0:
320,192,50269,1,0,0:0:0:0:
192,192,50415,1,8,0:0:0:0:
448,192,50415,1,2,0:0:0:0:
320,192,50562,1,2,0:0:0:0:
64,192,50562,1,0,0:0:0:0:
448,192,50708,1,2,0:0:0:0:
192,192,50854,1,0,0:0:0:0:
320,192,50928,1,0,0:0:0:0:
64,192,51001,1,2,0:0:0:0:
448,192,51001,1,8,0:0:0:0:
448,192,51147,1,8,0:0:0:0:
64,192,51147,1,2,0:0:0:0:
320,192,51293,1,0,0:0:0:0:
192,192,51367,1,0,0:0:0:0:
64,192,51440,1,0,0:0:0:0:
320,192,51513,1,0,0:0:0:0:
448,192,51586,1,2,0:0:0:0:
192,192,51586,1,8,0:0:0:0:
320,192,51732,1,0,0:0:0:0:
64,192,51732,128,2,52025:0:0:0:0:
192,192,52025,1,0,0:0:0:0:
320,192,52098,1,0,0:0:0:0:
192,192,52171,1,8,0:0:0:0:
64,192,52171,1,2,0:0:0:0:
448,192,52171,1,4,0:0:0:0:
320,192,52318,1,2,0:0:0:0:
64,192,52464,1,2,0:0:0:0:
192,192,52464,1,2,0:0:0:0:
448,192,52610,1,0,0:0:0:0:
320,192,52757,1,2,0:0:0:0:
64,192,52757,1,8,0:0:0:0:
192,192,52903,1,2,0:0:0:0:
448,192,52903,1,0,0:0:0:0:
320,192,53049,1,2,0:0:0:0:
64,192,53196,1,0,0:0:0:0:
192,192,53269,1,0,0:0:0:0:
320,192,53342,1,8,0:0:0:0:
448,192,53342,1,2,0:0:0:0:
448,192,53489,1,2,0:0:0:0:
320,192,53489,1,8,0:0:0:0:
192,192,53635,1,0,0:0:0:0:
320,192,53708,1,0,0:0:0:0:
64,192,53781,1,0,0:0:0:0:
192,192,53854,1,0,0:0:0:0:
320,192,53928,1,8,0:0:0:0:
448,192,53928,1,2,0:0:0:0:
192,192,54074,1,0,0:0:0:0:
64,192,54074,128,2,54367:0:0:0:0:
320,192,54367,1,0,0:0:0:0:
192,192,54440,1,0,0:0:0:0:
320,192,54513,1,8,0:0:0:0:
448,192,54513,1,0,0:0:0:0:
64,192,54513,1,4,0:0:0:0:
192,192,54659,1,2,0:0:0:0:
64,192,54806,1,0,0:0:0:0:
448,192,54806,1,2,0:0:0:0:
320,192,54952,1,0,0:0:0:0:
64,192,55098,1,2,0:0:0:0:
192,192,55098,1,8,0:0:0:0:
448,192,55245,1,0,0:0:0:0:
320,192,55245,1,2,0:0:0:0:
64,192,55391,1,2,0:0:0:0:
192,192,55537,1,0,0:0:0:0:
320,192,55610,1,0,0:0:0:0:
64,192,55684,1,8,0:0:0:0:
448,192,55684,1,2,0:0:0:0:
448,192,55830,1,2,0:0:0:0:
64,192,55830,1,8,0:0:0:0:
192,192,55976,1,0,0:0:0:0:
320,192,56049,1,0,0:0:0:0:
64,192,56123,1,0,0:0:0:0:
192,192,56196,1,0,0:0:0:0:
320,192,56269,1,8,0:0:0:0:
448,192,56269,1,2,0:0:0:0:
192,192,56415,1,2,0:0:0:0:
64,192,56415,128,0,56708:0:0:0:0:
320,192,56708,1,0,0:0:0:0:
192,192,56781,1,0,0:0:0:0:
448,192,56854,1,0,0:0:0:0:
320,192,56854,1,8,0:0:0:0:
64,192,56854,1,4,0:0:0:0:
192,192,57001,1,2,0:0:0:0:
64,192,57147,1,0,0:0:0:0:
448,192,57147,1,2,0:0:0:0:
320,192,57293,1,0,0:0:0:0:
448,192,57440,1,2,0:0:0:0:
64,192,57440,1,8,0:0:0:0:
192,192,57586,1,0,0:0:0:0:
320,192,57586,1,2,0:0:0:0:
64,192,57732,1,2,0:0:0:0:
448,192,57879,1,0,0:0:0:0:
192,192,58025,1,8,0:0:0:0:
64,192,58025,1,2,0:0:0:0:
320,192,58171,1,2,0:0:0:0:
448,192,58318,1,2,0:0:0:0:
64,192,58318,1,0,0:0:0:0:
192,192,58464,1,2,0:0:0:0:
320,192,58610,1,8,0:0:0:0:
64,192,58610,1,2,0:0:0:0:
192,192,58684,1,0,0:0:0:0:
448,192,58757,1,0,0:0:0:0:
320,192,58830,1,0,0:0:0:0:
192,192,58903,1,2,0:0:0:0:
448,192,59049,1,8,0:0:0:0:
320,192,59049,1,6,0:0:0:0:
64,192,59049,1,0,0:0:0:0:
192,192,59196,1,0,0:0:0:0:
320,192,59342,1,2,0:0:0:0:
64,192,59489,1,8,0:0:0:0:
192,192,59489,1,6,0:0:0:0:
448,192,59489,1,0,0:0:0:0:
320,192,59635,1,0,0:0:0:0:
192,192,59781,1,2,0:0:0:0:
448,192,59928,1,8,0:0:0:0:
320,192,59928,1,6,0:0:0:0:
64,192,59928,1,0,0:0:0:0:
192,192,60074,1,0,0:0:0:0:
320,192,60147,1,0,0:0:0:0:
448,192,60220,1,0,0:0:0:0:
192,192,60293,1,0,0:0:0:0:
320,192,60367,1,0,0:0:0:0:
64,192,60440,1,0,0:0:0:0:
192,192,60513,1,0,0:0:0:0:
320,192,60586,1,0,0:0:0:0:
448,192,60659,1,2,0:0:0:0:
192,192,60659,1,8,0:0:0:0:
64,192,60659,1,0,0:0:0:0:
448,192,60806,1,0,0:0:0:0:
64,192,60806,1,2,0:0:0:0:
192,192,61098,1,4,0:0:0:0:
64,192,61098,1,2,0:0:0:0:
448,192,61098,128,0,61391:0:0:0:0:
320,192,61391,1,0,0:0:0:0:
64,192,61537,1,2,0:0:0:0:
448,192,61537,1,8,0:0:0:0:
320,192,61684,128,2,61976:0:0:0:0:
192,192,61830,1,2,0:0:0:0:
64,192,61830,1,0,0:0:0:0:
448,192,61976,1,0,0:0:0:0:
192,192,62123,1,2,0:0:0:0:
64,192,62123,1,8,0:0:0:0:
320,192,62269,1,2,0:0:0:0:
448,192,62269,128,0,62562:0:0:0:0:
192,192,62562,1,0,0:0:0:0:
64,192,62708,1,2,0:0:0:0:
320,192,62708,1,8,0:0:0:0:
448,192,62854,1,2,0:0:0:0:
64,192,63001,1,0,0:0:0:0:
192,192,63074,1,0,0:0:0:0:
320,192,63147,1,0,0:0:0:0:
64,192,63147,1,2,0:0:0:0:
192,192,63293,1,2,0:0:0:0:
448,192,63293,1,8,0:0:0:0:
320,192,63440,1,0,0:0:0:0:
64,192,63440,128,2,63732:0:0:0:0:
192,192,63732,1,0,0:0:0:0:
448,192,63879,1,8,0:0:0:0:
320,192,63879,1,2,0:0:0:0:
192,192,64025,128,2,64318:0:0:0:0:
448,192,64171,1,0,0:0:0:0:
64,192,64171,1,2,0:0:0:0:
320,192,64318,1,0,0:0:0:0:
192,192,64464,1,8,0:0:0:0:
448,192,64464,1,2,0:0:0:0:
320,192,64610,1,0,0:0:0:0:
64,192,64610,128,2,64903:0:0:0:0:
192,192,64903,1,0,0:0:0:0:
64,192,65049,1,2,0:0:0:0:
448,192,65049,1,8,0:0:0:0:
320,192,65196,1,2,0:0:0:0:
192,192,65342,1,2,0:0:0:0:
64,192,65342,1,0,0:0:0:0:
320,192,65489,1,0,0:0:0:0:
192,192,65635,1,2,0:0:0:0:
448,192,65635,1,8,0:0:0:0:
320,192,65781,1,2,0:0:0:0:
64,192,65781,1,4,0:0:0:0:
448,192,65781,128,0,66074:0:0:0:0:
192,192,66074,1,0,0:0:0:0:
64,192,66220,1,2,0:0:0:0:
448,192,66220,1,8,0:0:0:0:
320,192,66367,1,2,0:0:0:0:
192,192,66513,1,2,0:0:0:0:
448,192,66513,1,0,0:0:0:0:
64,192,66659,1,0,0:0:0:0:
192,192,66806,1,2,0:0:0:0:
320,192,66806,1,8,0:0:0:0:
448,192,66952,1,0,0:0:0:0:
64,192,66952,128,2,67245:0:0:0:0:
320,192,67245,1,0,0:0:0:0:
192,192,67391,1,8,0:0:0:0:
448,192,67391,128,0,67684:0:0:0:0:
64,192,67684,1,0,0:0:0:0:
192,192,67757,1,0,0:0:0:0:
320,192,67830,1,0,0:0:0:0:
448,192,67830,1,2,0:0:0:0:
192,192,67976,1,2,0:0:0:0:
64,192,67976,1,8,0:0:0:0:
320,192,68123,1,0,0:0:0:0:
448,192,68123,128,2,68415:0:0:0:0:
192,192,68415,1,0,0:0:0:0:
64,192,68562,1,8,0:0:0:0:
320,192,68562,1,2,0:0:0:0:
448,192,68708,1,2,0:0:0:0:
64,192,68854,1,0,0:0:0:0:
192,192,68854,128,2,69001:0:0:0:0:
320,192,69001,1,0,0:0:0:0:
64,192,69147,1,8,0:0:0:0:
448,192,69147,1,2,0:0:0:0:
192,192,69293,1,0,0:0:0:0:
320,192,69293,128,2,69586:0:0:0:0:
64,192,69586,1,0,0:0:0:0:
448,192,69732,1,2,0:0:0:0:
320,192,69732,1,8,0:0:0:0:
192,192,69879,1,2,0:0:0:0:
64,192,70025,1,2,0:0:0:0:
448,192,70025,1,0,0:0:0:0:
320,192,70171,1,2,0:0:0:0:
448,192,70318,1,2,0:0:0:0:
192,192,70318,1,8,0:0:0:0:
320,192,70464,1,0,0:0:0:0:
64,192,70464,128,4,70757:0:0:0:0:
448,192,70757,1,0,0:0:0:0:
320,192,70903,1,8,0:0:0:0:
192,192,70903,1,2,0:0:0:0:
448,192,71049,128,2,71342:0:0:0:0:
64,192,71196,1,0,0:0:0:0:
320,192,71196,1,2,0:0:0:0:
192,192,71342,1,0,0:0:0:0:
448,192,71489,1,8,0:0:0:0:
320,192,71489,1,2,0:0:0:0:
192,192,71635,1,2,0:0:0:0:
64,192,71635,128,0,71928:0:0:0:0:
320,192,71928,1,0,0:0:0:0:
192,192,72074,1,8,0:0:0:0:
448,192,72074,1,2,0:0:0:0:
64,192,72220,1,2,0:0:0:0:
448,192,72367,1,0,0:0:0:0:
320,192,72440,1,0,0:0:0:0:
64,192,72513,1,2,0:0:0:0:
192,192,72513,1,0,0:0:0:0:
448,192,72659,1,8,0:0:0:0:
320,192,72659,1,2,0:0:0:0:
64,192,72806,1,0,0:0:0:0:
192,192,72806,128,2,73098:0:0:0:0:
320,192,73098,1,0,0:0:0:0:
448,192,73245,1,2,0:0:0:0:
192,192,73245,1,8,0:0:0:0:
64,192,73391,1,2,0:0:0:0:
320,192,73537,1,2,0:0:0:0:
448,192,73537,1,0,0:0:0:0:
192,192,73684,1,0,0:0:0:0:
320,192,73830,1,2,0:0:0:0:
64,192,73830,1,8,0:0:0:0:
192,192,73976,1,0,0:0:0:0:
448,192,73976,128,2,74269:0:0:0:0:
320,192,74269,1,0,0:0:0:0:
448,192,74415,1,2,0:0:0:0:
64,192,74415,128,8,74708:0:0:0:0:
192,192,74708,1,0,0:0:0:0:
320,192,74708,1,2,0:0:0:0:
448,192,74854,1,0,0:0:0:0:
320,192,75001,1,8,0:0:0:0:
64,192,75001,1,2,0:0:0:0:
448,192,75147,1,4,0:0:0:0:
192,192,75147,1,2,0:0:0:0:
64,192,75147,128,0,75586:0:0:0:0:
448,192,75586,1,8,0:0:0:0:
320,192,75659,1,8,0:0:0:0:
64,192,75732,1,8,0:0:0:0:
192,192,75806,1,8,0:0:0:0:
320,192,75879,1,8,0:0:0:0:
448,192,75952,1,8,0:0:0:0:
192,192,76025,1,8,0:0:0:0:
64,192,76098,1,8,0:0:0:0:
448,192,76171,1,8,0:0:0:0:
320,192,76245,1,8,0:0:0:0:
192,192,76318,1,8,0:0:0:0:
64,192,76391,1,8,0:0:0:0:
448,192,76464,1,8,0:0:0:0:
320,192,76537,1,8,0:0:0:0:
64,192,76610,1,8,0:0:0:0:
192,192,76684,1,8,0:0:0:0:
320,192,76757,1,8,0:0:0:0:
448,192,76830,1,8,0:0:0:0:
192,192,76903,1,8,0:0:0:0:
320,192,76976,1,8,0:0:0:0:
448,192,77049,1,8,0:0:0:0:
64,192,77123,1,8,0:0:0:0:
192,192,77196,1,8,0:0:0:0:
320,192,77269,1,8,0:0:0:0:
448,192,77342,1,8,0:0:0:0:
64,192,77415,1,8,0:0:0:0:
192,192,77489,1,8,0:0:0:0:
448,192,77562,1,8,0:0:0:0:
320,192,77635,1,8,0:0:0:0:
192,192,77708,1,8,0:0:0:0:
64,192,77781,1,8,0:0:0:0:
448,192,77854,1,8,0:0:0:0:
320,192,77928,1,8,0:0:0:0:
64,192,78001,1,8,0:0:0:0:
192,192,78074,1,8,0:0:0:0:
320,192,78147,1,8,0:0:0:0:
448,192,78220,1,8,0:0:0:0:
64,192,78293,1,8,0:0:0:0:
192,192,78367,1,8,0:0:0:0:
448,192,78440,1,8,0:0:0:0:
320,192,78513,1,8,0:0:0:0:
192,192,78586,1,8,0:0:0:0:
448,192,78659,1,8,0:0:0:0:
320,192,78732,1,8,0:0:0:0:
192,192,78806,1,8,0:0:0:0:
64,192,78879,1,8,0:0:0:0:
320,192,78952,1,8,0:0:0:0:
448,192,79025,1,8,0:0:0:0:
64,192,79098,1,8,0:0:0:0:
192,192,79171,1,8,0:0:0:0:
448,192,79245,1,8,0:0:0:0:
320,192,79318,1,8,0:0:0:0:
64,192,79391,1,8,0:0:0:0:
192,192,79464,1,8,0:0:0:0:
448,192,79537,1,8,0:0:0:0:
320,192,79610,1,8,0:0:0:0:
192,192,79684,1,8,0:0:0:0:
448,192,79830,1,0,0:0:0:0:
320,192,79830,1,2,0:0:0:0:
64,192,79830,128,4,80123:0:0:0:0:
192,192,80123,1,0,0:0:0:0:
448,192,80269,1,2,0:0:0:0:
320,192,80269,1,8,0:0:0:0:
192,192,80415,1,0,0:0:0:0:
448,192,80562,1,2,0:0:0:0:
64,192,80562,1,0,0:0:0:0:
320,192,80708,1,0,0:0:0:0:
192,192,80854,1,2,0:0:0:0:
64,192,80854,1,8,0:0:0:0:
320,192,81001,1,2,0:0:0:0:
448,192,81001,128,0,81293:0:0:0:0:
192,192,81293,1,0,0:0:0:0:
64,192,81440,1,2,0:0:0:0:
448,192,81440,1,8,0:0:0:0:
320,192,81586,1,0,0:0:0:0:
192,192,81659,1,0,0:0:0:0:
320,192,81732,1,2,0:0:0:0:
448,192,81732,1,0,0:0:0:0:
192,192,81879,1,0,0:0:0:0:
64,192,82025,1,2,0:0:0:0:
448,192,82025,1,8,0:0:0:0:
320,192,82171,1,2,0:0:0:0:
192,192,82171,128,0,82464:0:0:0:0:
448,192,82464,1,0,0:0:0:0:
320,192,82537,1,0,0:0:0:0:
192,192,82610,1,8,0:0:0:0:
64,192,82610,1,2,0:0:0:0:
320,192,82757,1,0,0:0:0:0:
448,192,82903,1,0,0:0:0:0:
64,192,82903,1,8,0:0:0:0:
192,192,82976,1,0,0:0:0:0:
320,192,83049,1,0,0:0:0:0:
448,192,83123,1,0,0:0:0:0:
64,192,83196,1,8,0:0:0:0:
192,192,83196,1,2,0:0:0:0:
320,192,83342,1,2,0:0:0:0:
448,192,83342,128,0,83635:0:0:0:0:
64,192,83635,1,0,0:0:0:0:
192,192,83708,1,0,0:0:0:0:
320,192,83781,1,2,0:0:0:0:
448,192,83781,1,8,0:0:0:0:
192,192,83928,1,0,0:0:0:0:
320,192,84074,1,0,0:0:0:0:
192,192,84147,1,0,0:0:0:0:
448,192,84220,1,0,0:0:0:0:
320,192,84293,1,0,0:0:0:0:
64,192,84367,1,2,0:0:0:0:
192,192,84367,1,8,0:0:0:0:
320,192,84513,1,2,0:0:0:0:
448,192,84513,1,0,0:0:0:0:
64,192,84513,128,4,84806:0:0:0:0:
192,192,84806,1,0,0:0:0:0:
320,192,84879,1,0,0:0:0:0:
448,192,84952,1,8,0:0:0:0:
64,192,84952,1,2,0:0:0:0:
320,192,85098,1,0,0:0:0:0:
448,192,85245,1,0,0:0:0:0:
64,192,85245,1,2,0:0:0:0:
192,192,85391,1,0,0:0:0:0:
448,192,85537,1,8,0:0:0:0:
320,192,85537,1,2,0:0:0:0:
64,192,85684,1,0,0:0:0:0:
192,192,85684,128,2,85976:0:0:0:0:
448,192,85976,1,0,0:0:0:0:
64,192,86123,1,2,0:0:0:0:
320,192,86123,1,8,0:0:0:0:
192,192,86269,1,0,0:0:0:0:
64,192,86342,1,0,0:0:0:0:
320,192,86415,1,2,0:0:0:0:
448,192,86415,1,0,0:0:0:0:
192,192,86562,1,0,0:0:0:0:
64,192,86708,1,2,0:0:0:0:
448,192,86708,1,8,0:0:0:0:
192,192,86854,1,0,0:0:0:0:
320,192,86854,128,2,87147:0:0:0:0:
64,192,87147,1,0,0:0:0:0:
192,192,87220,1,0,0:0:0:0:
448,192,87293,1,8,0:0:0:0:
320,192,87293,1,2,0:0:0:0:
192,192,87440,1,0,0:0:0:0:
320,192,87513,1,0,0:0:0:0:
448,192,87586,1,8,0:0:0:0:
64,192,87586,1,2,0:0:0:0:
192,192,87732,1,0,0:0:0:0:
64,192,87806,1,0,0:0:0:0:
448,192,87879,1,8,3:0:0:0:
320,192,87952,1,8,0:0:0:0:
192,192,88025,1,8,0:0:0:0:
64,192,88098,1,8,0:0:0:0:
320,192,88171,1,8,3:0:0:0:
448,192,88245,1,8,3:0:0:0:
192,192,88318,1,8,3:0:0:0:
64,192,88391,1,8,3:0:0:0:
320,192,88464,1,8,3:0:0:0:
448,192,88537,1,8,3:0:0:0:
192,192,88610,1,8,3:0:0:0:
320,192,88684,1,8,3:0:0:0:
448,192,88757,1,8,3:0:0:0:
64,192,88757,1,8,0:0:0:0:
192,192,88830,1,8,3:0:0:0:
320,192,88903,1,8,3:0:0:0:
64,192,88976,1,8,3:0:0:0:
192,192,89049,1,8,0:0:0:0:
448,192,89049,1,8,3:0:0:0:
320,192,89196,1,4,0:0:0:0:
64,192,89196,1,0,0:0:0:0:
448,192,89196,128,2,89489:0:0:0:0:
192,192,89489,1,0,0:0:0:0:
320,192,89562,1,0,0:0:0:0:
64,192,89635,1,2,0:0:0:0:
448,192,89635,1,8,0:0:0:0:
320,192,89781,1,0,0:0:0:0:
192,192,89928,1,2,0:0:0:0:
64,192,89928,1,0,0:0:0:0:
320,192,90074,1,0,0:0:0:0:
64,192,90220,1,2,0:0:0:0:
448,192,90220,1,8,0:0:0:0:
192,192,90367,1,2,0:0:0:0:
320,192,90367,128,0,90659:0:0:0:0:
64,192,90659,1,0,0:0:0:0:
448,192,90806,1,2,0:0:0:0:
192,192,90806,1,8,0:0:0:0:
320,192,90952,1,0,0:0:0:0:
448,192,91025,1,0,0:0:0:0:
192,192,91098,1,2,0:0:0:0:
64,192,91098,1,0,0:0:0:0:
320,192,91245,1,0,0:0:0:0:
448,192,91391,1,2,0:0:0:0:
192,192,91391,1,8,0:0:0:0:
320,192,91537,1,2,0:0:0:0:
64,192,91537,128,0,91830:0:0:0:0:
448,192,91830,1,0,0:0:0:0:
320,192,91903,1,0,0:0:0:0:
64,192,91976,1,8,0:0:0:0:
192,192,91976,1,2,0:0:0:0:
320,192,92123,1,0,0:0:0:0:
64,192,92269,1,0,0:0:0:0:
192,192,92342,1,0,0:0:0:0:
448,192,92415,1,0,0:0:0:0:
320,192,92489,1,0,0:0:0:0:
64,192,92562,1,8,0:0:0:0:
192,192,92562,1,2,0:0:0:0:
448,192,92708,1,0,0:0:0:0:
320,192,92708,128,2,93001:0:0:0:0:
64,192,93001,1,0,0:0:0:0:
192,192,93074,1,0,0:0:0:0:
320,192,93147,1,2,0:0:0:0:
448,192,93147,1,8,0:0:0:0:
192,192,93293,1,0,0:0:0:0:
320,192,93440,1,0,0:0:0:0:
448,192,93513,1,0,0:0:0:0:
64,192,93586,1,0,0:0:0:0:
192,192,93659,1,0,0:0:0:0:
320,192,93732,1,2,0:0:0:0:
448,192,93732,1,8,0:0:0:0:
192,192,93879,1,2,0:0:0:0:
64,192,93879,1,0,0:0:0:0:
448,192,93879,128,4,94171:0:0:0:0:
320,192,94171,1,0,0:0:0:0:
192,192,94245,1,0,0:0:0:0:
64,192,94318,1,8,0:0:0:0:
448,192,94318,1,2,0:0:0:0:
320,192,94464,1,0,0:0:0:0:
64,192,94610,1,0,0:0:0:0:
192,192,94610,1,2,0:0:0:0:
320,192,94757,1,0,0:0:0:0:
448,192,94903,1,8,0:0:0:0:
192,192,94903,1,2,0:0:0:0:
320,192,95049,1,2,0:0:0:0:
64,192,95049,128,0,95342:0:0:0:0:
448,192,95342,1,0,0:0:0:0:
320,192,95489,1,2,0:0:0:0:
192,192,95489,1,8,0:0:0:0:
64,192,95635,1,0,0:0:0:0:
448,192,95708,1,0,0:0:0:0:
192,192,95781,1,8,3:0:0:0:
320,192,95854,1,8,3:0:0:0:
64,192,95928,1,0,0:0:0:0:
192,192,96001,1,0,0:0:0:0:
320,192,96074,1,8,0:0:0:0:
448,192,96074,1,2,0:0:0:0:
64,192,96220,1,2,0:0:0:0:
192,192,96220,1,4,0:0:0:0:
448,192,96220,128,0,98415:0:0:0:0:
64,192,97537,1,2,0:0:0:0:
64,192,97830,1,2,0:0:0:0:
64,192,98123,1,2,0:0:0:0:
192,192,98415,1,8,0:0:0:0:
320,192,98415,1,2,0:0:0:0:
448,192,98562,1,2,0:0:0:0:
64,192,98562,128,4,98854:0:0:0:0:
192,192,98854,1,2,0:0:0:0:
448,192,98854,1,0,0:0:0:0:
320,192,99001,1,2,0:0:0:0:
64,192,99001,1,8,0:0:0:0:
448,192,99147,1,0,0:0:0:0:
192,192,99440,1,2,0:0:0:0:
64,192,99440,1,0,0:0:0:0:
448,192,99586,1,8,0:0:0:0:
320,192,99586,1,2,0:0:0:0:
192,192,99732,1,0,0:0:0:0:
320,192,100025,1,0,0:0:0:0:
192,192,100098,1,0,0:0:0:0:
448,192,100171,1,2,0:0:0:0:
64,192,100171,1,8,0:0:0:0:
320,192,100318,1,0,0:0:0:0:
192,192,100610,1,0,0:0:0:0:
320,192,100684,1,0,0:0:0:0:
192,192,100757,1,8,0:0:0:0:
64,192,100757,1,2,0:0:0:0:
320,192,100903,1,4,0:0:0:0:
448,192,100903,128,0,101196:0:0:0:0:
320,192,101196,1,2,0:0:0:0:
192,192,101196,1,0,0:0:0:0:
64,192,101342,1,2,0:0:0:0:
448,192,101342,1,8,0:0:0:0:
192,192,101489,1,0,0:0:0:0:
64,192,101781,1,2,0:0:0:0:
320,192,101781,1,0,0:0:0:0:
448,192,101928,1,8,0:0:0:0:
192,192,101928,1,2,0:0:0:0:
64,192,102074,1,0,0:0:0:0:
320,192,102367,1,0,0:0:0:0:
64,192,102440,1,0,0:0:0:0:
192,192,102513,1,2,0:0:0:0:
448,192,102513,1,8,0:0:0:0:
320,192,102659,1,0,0:0:0:0:
192,192,102952,1,0,0:0:0:0:
320,192,103025,1,0,0:0:0:0:
448,192,103098,1,8,0:0:0:0:
192,192,103098,1,2,0:0:0:0:
320,192,103245,1,4,0:0:0:0:
64,192,103245,128,0,103537:0:0:0:0:
192,192,103537,1,2,0:0:0:0:
320,192,103537,1,0,0:0:0:0:
448,192,103684,1,8,0:0:0:0:
64,192,103684,1,2,0:0:0:0:
192,192,103830,1,0,0:0:0:0:
64,192,104123,1,0,0:0:0:0:
320,192,104123,1,2,0:0:0:0:
192,192,104269,1,2,0:0:0:0:
448,192,104269,1,8,0:0:0:0:
320,192,104415,1,0,0:0:0:0:
64,192,104708,1,0,0:0:0:0:
192,192,104781,1,0,0:0:0:0:
448,192,104854,1,8,0:0:0:0:
320,192,104854,1,2,0:0:0:0:
192,192,105001,1,0,0:0:0:0:
320,192,105293,1,0,0:0:0:0:
192,192,105367,1,0,0:0:0:0:
64,192,105440,1,2,0:0:0:0:
320,192,105440,1,8,0:0:0:0:
192,192,105586,1,4,0:0:0:0:
448,192,105586,128,0,105879:0:0:0:0:
320,192,105879,1,0,0:0:0:0:
64,192,105879,1,2,0:0:0:0:
192,192,106025,1,2,0:0:0:0:
448,192,106025,1,8,0:0:0:0:
64,192,106171,1,0,0:0:0:0:
320,192,106464,1,2,0:0:0:0:
448,192,106464,1,0,0:0:0:0:
192,192,106610,1,8,0:0:0:0:
64,192,106610,1,2,0:0:0:0:
320,192,106757,1,0,0:0:0:0:
192,192,107049,1,0,0:0:0:0:
320,192,107123,1,0,0:0:0:0:
64,192,107196,1,2,0:0:0:0:
448,192,107196,1,8,0:0:0:0:
192,192,107342,1,0,0:0:0:0:
320,192,107635,1,0,0:0:0:0:
192,192,107708,1,0,0:0:0:0:
448,192,107781,1,8,0:0:0:0:
320,192,107781,1,2,0:0:0:0:
64,192,107928,1,0,0:0:0:0:
192,192,107928,128,4,108220:0:0:0:0:
448,192,108220,1,0,0:0:0:0:
64,192,108220,1,2,0:0:0:0:
192,192,108367,1,8,0:0:0:0:
320,192,108367,1,2,0:0:0:0:
64,192,108513,1,0,0:0:0:0:
64,192,108806,1,0,0:0:0:0:
320,192,108806,1,2,0:0:0:0:
192,192,108952,1,2,0:0:0:0:
448,192,108952,1,8,0:0:0:0:
320,192,109098,1,0,0:0:0:0:
192,192,109391,1,0,0:0:0:0:
320,192,109464,1,0,0:0:0:0:
448,192,109537,1,8,0:0:0:0:
192,192,109537,1,2,0:0:0:0:
64,192,109684,1,0,0:0:0:0:
448,192,109976,1,0,0:0:0:0:
320,192,110049,1,0,0:0:0:0:
64,192,110123,1,2,0:0:0:0:
192,192,110123,1,8,0:0:0:0:
320,192,110269,1,4,0:0:0:0:
448,192,110269,128,0,110562:0:0:0:0:
192,192,110562,1,2,0:0:0:0:
64,192,110562,1,0,0:0:0:0:
320,192,110708,1,2,0:0:0:0:
448,192,110708,1,8,0:0:0:0:
64,192,110854,1,0,0:0:0:0:
192,192,111147,1,2,0:0:0:0:
448,192,111147,1,0,0:0:0:0:
64,192,111293,1,8,0:0:0:0:
320,192,111293,1,2,0:0:0:0:
192,192,111440,1,0,0:0:0:0:
64,192,111732,1,0,0:0:0:0:
192,192,111806,1,0,0:0:0:0:
320,192,111879,1,2,0:0:0:0:
448,192,111879,1,8,0:0:0:0:
192,192,112025,1,0,0:0:0:0:
320,192,112318,1,0,0:0:0:0:
64,192,112391,1,0,0:0:0:0:
448,192,112464,1,8,0:0:0:0:
192,192,112464,1,2,0:0:0:0:
64,192,112610,1,0,0:0:0:0:
320,192,112610,128,4,112903:0:0:0:0:
64,192,112903,1,0,0:0:0:0:
192,192,112903,1,2,0:0:0:0:
448,192,113049,1,8,0:0:0:0:
320,192,113049,1,2,0:0:0:0:
64,192,113196,1,0,0:0:0:0:
448,192,113342,1,0,0:0:0:0:
192,192,113489,1,0,0:0:0:0:
320,192,113489,1,2,0:0:0:0:
64,192,113635,1,2,0:0:0:0:
448,192,113635,1,8,0:0:0:0:
320,192,113781,1,0,0:0:0:0:
64,192,113928,1,0,0:0:0:0:
192,192,114074,1,0,0:0:0:0:
320,192,114147,1,0,0:0:0:0:
64,192,114220,1,8,0:0:0:0:
192,192,114220,1,2,0:0:0:0:
448,192,114367,1,0,0:0:0:0:
64,192,114513,1,0,0:0:0:0:
320,192,114659,1,0,0:0:0:0:
192,192,114732,1,0,0:0:0:0:
64,192,114806,1,2,0:0:0:0:
320,192,114806,1,8,0:0:0:0:
192,192,114952,1,4,0:0:0:0:
448,192,114952,128,0,115245:0:0:0:0:
320,192,115245,1,0,0:0:0:0:
64,192,115245,1,2,0:0:0:0:
192,192,115391,1,8,0:0:0:0:
448,192,115391,1,2,0:0:0:0:
64,192,115537,1,0,0:0:0:0:
320,192,115684,1,0,0:0:0:0:
192,192,115757,1,0,0:0:0:0:
448,192,115830,1,2,0:0:0:0:
64,192,115830,1,0,0:0:0:0:
320,192,115976,1,0,0:0:0:0:
192,192,115976,1,8,3:0:0:0:
64,192,116123,1,2,0:0:0:0:
448,192,116123,1,8,0:0:0:0:
320,192,116269,1,0,0:0:0:0:
448,192,116415,1,8,0:0:0:0:
64,192,116415,1,2,0:0:0:0:
320,192,116562,1,0,0:0:0:0:
192,192,116562,1,2,0:0:0:0:
64,192,116708,1,0,0:0:0:0:
448,192,116854,1,8,0:0:0:0:
64,192,116928,1,8,0:0:0:0:
448,192,117001,1,8,0:0:0:0:
64,192,117074,1,8,0:0:0:0:
320,192,117147,1,0,0:0:0:0:
192,192,117220,1,0,0:0:0:0:
320,192,117293,1,4,0:0:0:0:
64,192,117293,1,0,0:0:0:0:
448,192,117293,128,2,117586:0:0:0:0:
192,192,117586,1,2,0:0:0:0:
320,192,117732,1,8,0:0:0:0:
64,192,117732,1,2,0:0:0:0:
192,192,117879,1,2,0:0:0:0:
448,192,118025,1,2,0:0:0:0:
320,192,118025,1,0,0:0:0:0:
192,192,118171,1,2,0:0:0:0:
64,192,118318,1,2,0:0:0:0:
320,192,118318,1,8,0:0:0:0:
448,192,118464,1,2,0:0:0:0:
64,192,118610,1,2,0:0:0:0:
320,192,118610,1,0,0:0:0:0:
192,192,118757,1,2,0:0:0:0:
320,192,118903,1,8,0:0:0:0:
448,192,118903,1,2,0:0:0:0:
64,192,119049,1,2,0:0:0:0:
320,192,119196,1,0,0:0:0:0:
192,192,119196,1,2,0:0:0:0:
448,192,119342,1,2,0:0:0:0:
192,192,119489,1,2,0:0:0:0:
64,192,119489,1,8,0:0:0:0:
320,192,119635,1,2,0:0:0:0:
448,192,119635,1,0,0:0:0:0:
64,192,119635,128,4,119928:0:0:0:0:
448,192,119928,1,2,0:0:0:0:
320,192,120074,1,8,0:0:0:0:
192,192,120074,1,2,0:0:0:0:
448,192,120220,1,2,0:0:0:0:
192,192,120367,1,2,0:0:0:0:
64,192,120367,1,0,0:0:0:0:
320,192,120513,1,2,0:0:0:0:
448,192,120659,1,2,0:0:0:0:
192,192,120659,1,8,0:0:0:0:
320,192,120806,1,2,0:0:0:0:
448,192,120952,1,2,0:0:0:0:
64,192,120952,1,0,0:0:0:0:
64,192,121098,1,2,0:0:0:0:
320,192,121245,1,8,0:0:0:0:
448,192,121245,1,2,0:0:0:0:
320,192,121391,1,2,0:0:0:0:
192,192,121537,1,0,0:0:0:0:
64,192,121537,1,2,0:0:0:0:
192,192,121684,1,2,0:0:0:0:
320,192,121830,1,2,0:0:0:0:
448,192,121830,1,8,0:0:0:0:
64,192,121976,1,4,0:0:0:0:
192,192,121976,1,2,0:0:0:0:
448,192,121976,128,0,122269:0:0:0:0:
192,192,122269,1,2,0:0:0:0:
320,192,122415,1,8,0:0:0:0:
64,192,122415,1,2,0:0:0:0:
192,192,122562,1,2,0:0:0:0:
448,192,122708,1,2,0:0:0:0:
320,192,122708,1,0,0:0:0:0:
64,192,122854,1,2,0:0:0:0:
448,192,123001,1,2,0:0:0:0:
192,192,123001,1,8,0:0:0:0:
320,192,123147,1,2,0:0:0:0:
64,192,123293,1,2,0:0:0:0:
192,192,123293,1,0,0:0:0:0:
320,192,123440,1,2,0:0:0:0:
64,192,123586,1,8,0:0:0:0:
448,192,123586,1,2,0:0:0:0:
192,192,123732,1,2,0:0:0:0:
320,192,123879,1,0,0:0:0:0:
64,192,123879,1,2,0:0:0:0:
448,192,124025,1,2,0:0:0:0:
320,192,124171,1,2,0:0:0:0:
192,192,124171,1,8,0:0:0:0:
192,192,124318,1,2,0:0:0:0:
64,192,124318,1,0,0:0:0:0:
448,192,124318,128,4,124610:0:0:0:0:
64,192,124610,1,2,0:0:0:0:
192,192,124757,1,8,0:0:0:0:
320,192,124757,1,2,0:0:0:0:
448,192,124903,1,2,0:0:0:0:
192,192,125049,1,2,0:0:0:0:
64,192,125049,1,0,0:0:0:0:
320,192,125196,1,2,0:0:0:0:
448,192,125342,1,2,0:0:0:0:
192,192,125342,1,8,0:0:0:0:
320,192,125489,1,2,0:0:0:0:
448,192,125635,1,2,0:0:0:0:
64,192,125635,1,0,0:0:0:0:
64,192,125781,1,2,0:0:0:0:
320,192,125928,1,8,0:0:0:0:
448,192,125928,1,2,0:0:0:0:
448,192,126074,1,2,0:0:0:0:
192,192,126220,1,0,0:0:0:0:
64,192,126220,1,2,0:0:0:0:
192,192,126367,1,2,0:0:0:0:
320,192,126513,1,2,0:0:0:0:
448,192,126513,1,8,0:0:0:0:
320,192,126659,1,2,0:0:0:0:
448,192,126806,1,2,0:0:0:0:
64,192,126806,1,0,0:0:0:0:
192,192,126879,1,0,0:0:0:0:
320,192,126952,1,0,0:0:0:0:
64,192,127098,1,2,0:0:0:0:
448,192,127098,1,0,0:0:0:0:
192,192,127098,1,8,0:0:0:0:
320,192,127245,1,0,0:0:0:0:
192,192,127391,1,0,0:0:0:0:
64,192,127537,1,2,0:0:0:0:
448,192,127537,1,0,0:0:0:0:
320,192,127537,1,8,0:0:0:0:
192,192,127684,1,0,0:0:0:0:
64,192,127830,1,0,0:0:0:0:
320,192,127976,1,8,0:0:0:0:
448,192,127976,1,0,0:0:0:0:
192,192,127976,1,2,0:0:0:0:
64,192,128123,1,0,0:0:0:0:
320,192,128269,1,0,0:0:0:0:
64,192,128415,1,2,0:0:0:0:
448,192,128415,1,0,0:0:0:0:
192,192,128415,1,8,0:0:0:0:
64,192,128562,1,0,0:0:0:0:
448,192,128562,1,2,0:0:0:0:
192,192,128562,1,8,0:0:0:0:
320,192,128708,1,0,0:0:0:0:
192,192,128854,1,0,0:0:0:0:
64,192,129001,1,2,0:0:0:0:
448,192,129001,1,0,0:0:0:0:
320,192,129001,1,8,0:0:0:0:
