osu file format v14

[General]
AudioFilename: RURadyToBlastOff.mp3
AudioLeadIn: 0
PreviewTime: 975
Countdown: 0
SampleSet: Normal
StackLeniency: 0.7
Mode: 0
LetterboxInBreaks: 1
WidescreenStoryboard: 0

[Editor]
DistanceSpacing: 1.2
BeatDivisor: 4
GridSize: 4
TimelineZoom: 2.100002

[Metadata]
Title:Are You Ready to Blast Off?
TitleUnicode:Are You Ready to Blast Off?
Artist:Fear, and Loathing in Las Vegas
ArtistUnicode:Fear, and Loathing in Las Vegas
Creator:JuVA624
Version:Insane
Source:
Tags:PHASE 2 2014 so minami sxun taiki tomori kei trancecore electronicore
BeatmapID:1427931
BeatmapSetID:674936

[Difficulty]
HPDrainRate:8
CircleSize:4
OverallDifficulty:8.7
ApproachRate:9
SliderMultiplier:1.4
SliderTickRate:1

[Events]
//Background and Video events
0,0,"Background.JPG",0,0
//Break Periods
//Storyboard Layer 0 (Background)
//Storyboard Layer 1 (Fail)
//Storyboard Layer 2 (Pass)
//Storyboard Layer 3 (Foreground)
//Storyboard Layer 4 (Overlay)
//Storyboard Sound Samples

[TimingPoints]
975,324.149108589951,4,1,1,100,1,0
25610,-125,4,1,1,60,0,0
35983,-100,4,1,1,80,0,0
56728,-111.111111111111,4,1,1,97,0,0
65804,-100,4,1,1,50,0,0
80067,-100,4,1,1,80,0,0
98219,-90.9090909090909,4,1,1,100,0,0
100813,375,4,1,1,100,1,0

[Colours]
Combo1 : 0,255,0
Combo2 : 0,255,0
Combo3 : 0,255,0
Combo4 : 0,255,0
SliderBorder : 0,255,0

[HitObjects]
88,157,25610,6,0,P|136:157|201:195,1,112,2|0,0:0|0:0,0:0:0:0:
323,289,26258,1,0,0:0:0:0:
159,325,26582,1,2,0:0:0:0:
214,166,26906,5,8,0:0:0:0:
214,166,27555,1,0,0:0:0:0:
508,4,28203,6,0,P|439:-5|372:4,1,112,2|2,0:0|0:0,0:0:0:0:
318,27,28689,1,2,0:0:0:0:
267,94,28851,2,0,P|262:119|296:202,1,112,2|2,0:0|0:0,0:0:0:0:
363,241,29338,1,2,0:0:0:0:
446,248,29500,1,8,0:0:0:0:
446,248,30148,1,0,0:0:0:0:
207,12,30796,6,0,P|148:21|100:55,1,112,2|0,0:0|0:0,0:0:0:0:
15,192,31445,2,0,P|2:255|17:301,1,112,0|2,0:0|0:0,0:0:0:0:
58,304,31850,2,0,L|104:289,2,28,2|2|2,0:0|0:0|0:0,0:0:0:0:
34,338,32093,1,8,0:0:0:0:
34,338,32741,1,0,0:0:0:0:
317,157,33389,6,0,B|352:143|352:143|437:157,1,112,2|2,0:0|0:0,0:0:0:0:
370,115,33876,1,2,0:0:0:0:
289,55,34038,1,2,0:0:0:0:
150,150,34362,6,0,L|174:110,3,28,2|2|2|2,0:0|0:0|0:0|0:0,0:0:0:0:
143,162,34686,1,8,0:0:0:0:
136,204,34767,1,2,0:0:0:0:
146,244,34848,1,2,0:0:0:0:
170,278,34929,1,2,0:0:0:0:
206,299,35010,1,2,0:0:0:0:
246,309,35091,1,2,0:0:0:0:
287,302,35172,1,8,0:0:0:0:
325,285,35253,1,2,0:0:0:0:
349,250,35334,1,2,0:0:0:0:
361,209,35415,1,2,0:0:0:0:
362,167,35496,1,2,0:0:0:0:
342,129,35577,2,0,P|358:121|382:121,1,28,2|8,0:0|0:0,0:0:0:0:
163,69,35983,6,0,P|166:115|179:149,1,70,2|0,0:0|0:0,0:0:0:0:
291,212,36307,2,0,L|267:132,1,70,8|0,0:0|0:0,0:0:0:0:
346,262,36631,2,0,L|322:182,1,70,2|0,0:0|0:0,0:0:0:0:
388,319,36955,2,0,L|364:239,1,70,8|0,0:0|0:0,0:0:0:0:
328,117,37279,5,2,0:0:0:0:
249,232,37441,1,0,0:0:0:0:
380,185,37603,1,8,0:0:0:0:
257,118,37765,2,0,L|249:206,1,70,0|2,0:0|0:0,0:0:0:0:
314,313,38090,2,0,L|306:401,1,70,0|8,0:0|0:0,0:0:0:0:
412,290,38414,1,0,0:0:0:0:
327,178,38576,5,2,0:0:0:0:
257,299,38738,1,0,0:0:0:0:
377,227,38900,1,8,0:0:0:0:
285,120,39062,2,0,L|193:120,1,70,0|2,0:0|0:0,0:0:0:0:
91,186,39386,2,0,L|-1:186,1,70,0|8,0:0|0:0,0:0:0:0:
130,273,39710,2,0,L|222:273,1,70,0|2,0:0|0:0,0:0:0:0:
91,186,40034,1,0,0:0:0:0:
31,313,40197,1,8,0:0:0:0:
167,282,40359,6,0,L|175:190,1,70,0|2,0:0|0:0,0:0:0:0:
241,90,40683,6,0,L|237:182,1,70,0|8,0:0|0:0,0:0:0:0:
294,287,41007,2,0,L|297:202,1,70,0|2,0:0|0:0,0:0:0:0:
285,77,41331,1,0,0:0:0:0:
148,109,41493,1,8,0:0:0:0:
236,217,41655,2,0,L|316:221,1,70,0|2,0:0|0:0,0:0:0:0:
172,177,41979,2,0,L|252:181,1,70,0|8,0:0|0:0,0:0:0:0:
103,152,42304,2,0,L|183:156,1,70,0|2,0:0|0:0,0:0:0:0:
312,157,42628,5,0,0:0:0:0:
275,21,42790,1,8,0:0:0:0:
241,156,42952,2,0,L|229:232,1,70,0|2,0:0|0:0,0:0:0:0:
311,338,43276,2,0,L|323:262,1,70,0|8,0:0|0:0,0:0:0:0:
353,132,43600,1,0,0:0:0:0:
244,220,43762,1,2,0:0:0:0:
383,220,43924,5,0,0:0:0:0:
266,141,44086,1,8,0:0:0:0:
139,199,44248,2,0,L|68:229,1,70,0|2,0:0|0:0,0:0:0:0:
198,293,44573,2,0,L|275:309,1,70,0|8,0:0|0:0,0:0:0:0:
397,256,44897,5,0,0:0:0:0:
304,151,45059,1,2,0:0:0:0:
300,290,45221,1,0,0:0:0:0:
395,188,45383,1,8,0:0:0:0:
258,218,45545,1,0,0:0:0:0:
397,256,45707,1,2,0:0:0:0:
368,119,45869,1,0,0:0:0:0:
318,250,46031,1,8,0:0:0:0:
427,162,46193,1,0,0:0:0:0:
315,77,46355,5,2,0:0:0:0:
202,159,46517,1,0,0:0:0:0:
325,226,46680,1,8,0:0:0:0:
255,104,46842,2,0,L|187:64,1,70,0|2,0:0|0:0,0:0:0:0:
66,125,47166,2,0,L|134:165,1,70,0|8,0:0|0:0,0:0:0:0:
263,189,47490,1,0,0:0:0:0:
194,68,47652,5,2,0:0:0:0:
113,182,47814,1,0,0:0:0:0:
236,248,47976,1,8,0:0:0:0:
300,123,48138,2,0,L|328:39,1,70,0|2,0:0|0:0,0:0:0:0:
191,107,48462,2,0,L|118:136,1,70,0|8,0:0|0:0,0:0:0:0:
258,178,48786,5,0,0:0:0:0:
221,42,48949,1,2,0:0:0:0:
122,140,49111,1,0,0:0:0:0:
258,107,49273,1,8,0:0:0:0:
140,31,49435,2,0,L|156:119,1,70,0|2,0:0|0:0,0:0:0:0:
259,189,49759,2,0,L|275:277,1,70,0|8,0:0|0:0,0:0:0:0:
357,147,50083,2,0,L|340:57,1,70,0|2,0:0|0:0,0:0:0:0:
306,214,50407,5,0,0:0:0:0:
441,180,50569,1,8,0:0:0:0:
306,140,50731,2,0,L|243:171,1,70,0|2,0:0|0:0,0:0:0:0:
203,306,51056,2,0,L|123:346,1,70,0|8,0:0|0:0,0:0:0:0:
23,260,51380,1,0,0:0:0:0:
94,139,51542,5,2,0:0:0:0:
135,272,51704,1,0,0:0:0:0:
39,170,51866,1,8,0:0:0:0:
176,144,52028,2,0,L|264:137,1,70,0|2,0:0|0:0,0:0:0:0:
381,172,52352,2,0,L|433:120,1,70,0|8,0:0|0:0,0:0:0:0:
293,150,52676,5,0,0:0:0:0:
403,236,52838,1,2,0:0:0:0:
349,106,53000,1,0,0:0:0:0:
239,194,53163,1,8,0:0:0:0:
377,174,53325,2,0,P|429:152|454:140,1,70,0|2,0:0|0:0,0:0:0:0:
335,54,53649,2,0,L|254:40,1,70,0|8,0:0|0:0,0:0:0:0:
134,90,53973,5,0,0:0:0:0:
197,214,54135,1,2,0:0:0:0:
239,80,54297,1,0,0:0:0:0:
129,166,54459,1,8,0:0:0:0:
268,161,54621,2,0,P|313:147|352:133,1,70,0|2,0:0|0:0,0:0:0:0:
210,74,54945,2,0,L|127:60,1,70,0|8,0:0|0:0,0:0:0:0:
9,110,55269,1,0,0:0:0:0:
101,216,55432,2,0,L|151:274,1,70,2|0,0:0|0:0,0:0:0:0:
286,275,55756,2,0,L|302:191,1,70,8|0,0:0|0:0,0:0:0:0:
189,293,56080,2,0,L|213:368,1,70,2|0,0:0|0:0,0:0:0:0:
342,313,56404,1,8,0:0:0:0:
346,278,56485,1,8,0:0:0:0:
350,243,56566,1,8,0:0:0:0:
355,208,56647,1,8,0:0:0:0:
405,169,56728,6,0,L|410:113,1,31.4999990386963,2|2,0:0|0:0,0:0:0:0:
368,88,56890,2,0,L|363:46,1,31.4999990386963,2|2,0:0|0:0,0:0:0:0:
391,0,57052,1,2,0:0:0:0:
391,0,57701,1,2,0:0:0:0:
391,0,58349,1,2,0:0:0:0:
391,0,58997,1,2,0:0:0:0:
144,50,59321,6,0,L|111:82,1,31.4999990386963,2|2,0:0|0:0,0:0:0:0:
106,133,59483,2,0,L|75:161,1,31.4999990386963,2|2,0:0|0:0,0:0:0:0:
58,212,59645,1,2,0:0:0:0:
58,212,60294,1,2,0:0:0:0:
58,212,60942,1,2,0:0:0:0:
58,212,61590,1,2,0:0:0:0:
300,282,61915,6,0,L|351:290,1,31.4999990386963,2|2,0:0|0:0,0:0:0:0:
382,323,62077,2,0,L|428:328,1,31.4999990386963,2|2,0:0|0:0,0:0:0:0:
472,303,62239,1,2,0:0:0:0:
411,58,62563,6,0,B|385:26|385:26|281:31,1,125.999996154785,2|2,0:0|0:0,0:0:0:0:
242,275,63211,2,0,B|262:291|262:291|300:236|290:187,1,125.999996154785,2|2,0:0|0:0,0:0:0:0:
110,24,63859,2,0,P|71:70|67:148,1,125.999996154785,2|2,0:0|0:0,0:0:0:0:
276,269,64508,6,0,L|311:244,4,31.4999990386963,2|2|2|2|2,0:0|0:0|0:0|0:0|0:0,0:0:0:0:
211,161,64994,6,0,L|231:197,4,31.4999990386963,2|2|2|2|2,0:0|0:0|0:0|0:0|0:0,0:0:0:0:
305,77,65480,6,0,L|337:93,1,31.4999990386963,2|2,0:0|0:0,0:0:0:0:
375,138,65642,2,0,L|414:158,1,31.4999990386963,2|2,0:0|0:0,0:0:0:0:
464,184,65804,5,0,0:0:0:0:
479,215,65885,1,0,0:0:0:0:
475,249,65966,1,0,0:0:0:0:
461,281,66047,1,0,0:0:0:0:
437,306,66128,1,0,0:0:0:0:
403,316,66210,1,0,0:0:0:0:
368,309,66291,1,0,0:0:0:0:
341,286,66372,1,0,0:0:0:0:
309,270,66453,5,0,0:0:0:0:
274,268,66534,1,0,0:0:0:0:
242,282,66615,1,0,0:0:0:0:
214,303,66696,1,0,0:0:0:0:
197,333,66777,1,0,0:0:0:0:
167,350,66858,1,0,0:0:0:0:
132,350,66939,1,0,0:0:0:0:
105,327,67020,1,0,0:0:0:0:
81,301,67101,6,0,L|37:289,3,35,2|0|0|0,0:0|0:0|0:0|0:0,0:0:0:0:
69,264,67425,2,0,L|37:232,3,35
77,228,67749,2,0,L|61:188,3,35
98,189,68073,2,0,L|106:137,3,35
113,120,68398,5,0,0:0:0:0:
140,97,68479,1,0,0:0:0:0:
174,93,68560,1,0,0:0:0:0:
203,111,68641,1,0,0:0:0:0:
215,143,68722,1,0,0:0:0:0:
215,177,68803,1,0,0:0:0:0:
212,211,68884,1,0,0:0:0:0:
215,245,68965,1,0,0:0:0:0:
233,274,69046,5,0,0:0:0:0:
263,290,69127,1,0,0:0:0:0:
297,296,69208,1,0,0:0:0:0:
331,289,69289,1,0,0:0:0:0:
358,267,69370,1,0,0:0:0:0:
379,239,69451,1,0,0:0:0:0:
390,205,69532,1,2,0:0:0:0:
384,168,69613,1,0,0:0:0:0:
363,139,69694,6,0,L|383:111,3,35,0|0|2|0,0:0|0:0|0:0|0:0,0:0:0:0:
348,110,70018,2,0,L|341:64,3,35
310,61,70342,2,0,L|322:9,3,35
283,35,70667,2,0,L|279:-13,3,35
254,23,70991,2,0,L|222:-5,3,35
224,34,71315,2,0,L|182:36,3,35
156,47,71639,5,0,0:0:0:0:
132,72,71720,1,0,0:0:0:0:
117,104,71801,1,0,0:0:0:0:
117,138,71882,1,0,0:0:0:0:
120,172,71963,1,0,0:0:0:0:
138,201,72044,1,0,0:0:0:0:
168,218,72125,1,0,0:0:0:0:
202,212,72206,1,0,0:0:0:0:
228,188,72287,5,2,0:0:0:0:
241,155,72368,1,0,0:0:0:0:
265,129,72449,1,0,0:0:0:0:
298,119,72530,1,0,0:0:0:0:
332,122,72611,1,0,0:0:0:0:
361,140,72692,1,0,0:0:0:0:
380,169,72774,1,0,0:0:0:0:
382,203,72855,1,0,0:0:0:0:
378,237,72936,5,0,0:0:0:0:
362,268,73017,1,0,0:0:0:0:
333,288,73098,1,0,0:0:0:0:
298,287,73179,1,0,0:0:0:0:
263,280,73260,1,0,0:0:0:0:
237,255,73341,1,0,0:0:0:0:
204,243,73422,1,0,0:0:0:0:
169,251,73503,1,0,0:0:0:0:
141,272,73584,6,0,L|132:312,7,35
151,335,74232,2,0,L|187:351,7,35,0|0|0|0|0|0|2|0,0:0|0:0|0:0|0:0|0:0|0:0|0:0|0:0,0:0:0:0:
214,333,74880,6,0,L|248:316,7,35,0|0|2|0|2|0|0|0,0:0|0:0|0:0|0:0|0:0|0:0|0:0|0:0,0:0:0:0:
279,307,75529,2,0,L|301:346,7,35
317,364,76177,1,2,0:0:0:0:
40,280,77474,6,0,L|112:264,1,62.9999980773926
160,216,77798,2,0,L|234:241,1,70
296,238,78122,1,0,0:0:0:0:
335,176,78284,1,0,0:0:0:0:
316,108,78446,2,0,P|300:51|292:21,1,70
227,39,78770,5,0,0:0:0:0:
200,61,78851,1,0,0:0:0:0:
179,89,78932,1,0,0:0:0:0:
172,123,79013,1,0,0:0:0:0:
181,156,79094,1,0,0:0:0:0:
202,183,79175,1,0,0:0:0:0:
236,192,79257,1,0,0:0:0:0:
270,199,79338,1,0,0:0:0:0:
292,225,79419,1,0,0:0:0:0:
293,259,79500,1,0,0:0:0:0:
280,291,79581,6,0,L|260:304,3,17.5
248,306,79743,6,0,L|218:303,3,17.5
213,300,79905,6,0,L|183:288,3,17.5
183,281,80067,2,0,P|141:216|143:139,1,140,2|8,0:0|0:0,0:0:0:0:
201,30,80553,2,0,L|283:42,1,70,0|2,0:0|0:0,0:0:0:0:
390,110,80877,2,0,L|408:195,1,70,0|8,0:0|0:0,0:0:0:0:
362,311,81201,2,0,L|285:269,1,70,0|2,0:0|0:0,0:0:0:0:
227,156,81526,2,0,L|312:151,1,70,0|8,0:0|0:0,0:0:0:0:
203,255,81850,2,0,L|129:232,1,70,0|2,0:0|0:0,0:0:0:0:
43,129,82174,1,0,0:0:0:0:
179,160,82336,1,8,0:0:0:0:
56,228,82498,1,0,0:0:0:0:
121,104,82660,2,0,P|180:79|251:109,1,140,2|8,0:0|0:0,0:0:0:0:
314,228,83146,2,0,L|281:294,1,70,0|2,0:0|0:0,0:0:0:0:
155,348,83470,2,0,L|111:278,1,70,0|8,0:0|0:0,0:0:0:0:
215,187,83795,2,0,L|203:268,1,70,0|2,0:0|0:0,0:0:0:0:
94,170,84119,2,0,L|39:104,1,70,0|8,0:0|0:0,0:0:0:0:
186,88,84443,2,0,L|265:94,1,70,0|2,0:0|0:0,0:0:0:0:
387,140,84767,1,0,0:0:0:0:
254,185,84929,1,8,0:0:0:0:
314,58,85091,1,0,0:0:0:0:
335,196,85253,6,0,P|339:251|321:338,1,140,2|8,0:0|0:0,0:0:0:0:
190,380,85739,2,0,L|121:371,1,70,0|2,0:0|0:0,0:0:0:0:
199,254,86064,2,0,L|274:250,1,70,0|8,0:0|0:0,0:0:0:0:
368,348,86388,2,0,L|282:338,1,70,0|2,0:0|0:0,0:0:0:0:
269,202,86712,2,0,L|309:123,1,70,0|8,0:0|0:0,0:0:0:0:
424,205,87036,2,0,L|345:209,1,70,0|2,0:0|0:0,0:0:0:0:
214,208,87360,5,0,0:0:0:0:
319,116,87522,1,8,0:0:0:0:
307,255,87684,1,0,0:0:0:0:
238,132,87846,2,0,P|234:87|287:9,1,140,2|8,0:0|0:0,0:0:0:0:
424,0,88333,2,0,L|479:53,1,70,0|2,0:0|0:0,0:0:0:0:
345,102,88657,2,0,L|255:119,1,70,0|8,0:0|0:0,0:0:0:0:
136,125,88981,2,0,L|48:97,1,70,0|2,0:0|0:0,0:0:0:0:
191,35,89305,2,0,L|277:8,2,70,0|8|0,0:0|0:0|0:0,0:0:0:0:
131,161,89791,1,2,0:0:0:0:
264,202,89953,2,0,L|241:111,2,70,0|8|0,0:0|0:0|0:0,0:0:0:0:
368,296,90440,2,0,P|421:239|427:161,1,140,2|8,0:0|0:0,0:0:0:0:
395,44,90926,2,0,L|312:35,1,70,0|2,0:0|0:0,0:0:0:0:
195,88,91250,2,0,L|103:99,1,70,0|8,0:0|0:0,0:0:0:0:
38,205,91574,2,0,L|111:222,1,70,0|2,0:0|0:0,0:0:0:0:
241,183,91898,2,0,L|299:125,1,70,0|8,0:0|0:0,0:0:0:0:
238,3,92222,2,0,L|229:80,1,70,0|2,0:0|0:0,0:0:0:0:
319,181,92547,1,0,0:0:0:0:
359,47,92709,1,8,0:0:0:0:
231,105,92871,1,0,0:0:0:0:
261,241,93033,2,0,P|300:289|401:301,1,140,2|8,0:0|0:0,0:0:0:0:
495,238,93519,2,0,L|415:205,1,70,0|2,0:0|0:0,0:0:0:0:
297,255,93843,2,0,L|221:269,1,70,0|8,0:0|0:0,0:0:0:0:
115,184,94167,2,0,L|39:151,1,70,0|2,0:0|0:0,0:0:0:0:
169,79,94492,2,0,L|245:64,1,70,0|8,0:0|0:0,0:0:0:0:
316,181,94816,2,0,L|394:204,1,70,0|2,0:0|0:0,0:0:0:0:
253,254,95140,1,0,0:0:0:0:
255,114,95302,1,8,0:0:0:0:
378,180,95464,1,0,0:0:0:0:
238,181,95626,2,0,P|161:180|67:170,1,140,2|8,0:0|0:0,0:0:0:0:
15,61,96112,2,0,L|73:10,1,70,0|2,0:0|0:0,0:0:0:0:
126,141,96436,2,0,L|148:215,1,70,0|8,0:0|0:0,0:0:0:0:
37,297,96761,2,0,L|50:220,1,70,0|2,0:0|0:0,0:0:0:0:
83,92,97085,2,0,L|139:26,1,70,0|8,0:0|0:0,0:0:0:0:
266,62,97409,2,0,L|362:51,1,70,0|2,0:0|0:0,0:0:0:0:
416,168,97733,2,0,B|447:233,2,70,0|8|0,0:0|0:0|0:0,0:0:0:0:
263,146,98219,6,0,P|225:152|187:162,1,77.0000023498536,8|2,0:0|0:0,0:0:0:0:
192,316,98543,2,0,P|236:314|287:301,1,77.0000023498536,8|2,0:0|0:0,0:0:0:0:
122,254,98868,2,0,P|92:282|78:322,1,77.0000023498536,8|2,0:0|0:0,0:0:0:0:
209,232,99192,2,0,P|231:198|240:157,1,77.0000023498536,8|2,0:0|0:0,0:0:0:0:
147,39,99516,2,0,P|86:63|105:248,1,269.500008224488,2|0,0:0|0:0,0:0:0:0:
162,265,100164,2,0,B|301:218|426:263,1,269.500008224488,2|0,0:0|0:0,0:0:0:0:
481,289,100813,5,2,0:0:0:0:
481,289,101563,1,0,0:0:0:0:
481,289,102313,5,0,0:0:0:0:
481,289,103063,1,0,0:0:0:0:
285,193,103813,5,2,0:0:0:0:
285,193,104563,1,0,0:0:0:0:
285,193,105313,5,0,0:0:0:0:
285,193,106063,1,0,0:0:0:0:
128,101,106813,5,2,0:0:0:0:
407,118,107563,1,2,0:0:0:0:
215,321,108313,1,2,0:0:0:0:
221,41,109063,1,2,0:0:0:0:
447,205,109813,5,2,0:0:0:0:
314,251,110188,1,2,0:0:0:0:
393,135,110563,1,2,0:0:0:0:
471,251,110938,1,2,0:0:0:0:
339,202,111313,1,2,0:0:0:0:
469,150,111688,1,2,0:0:0:0:
385,262,112063,5,8,0:0:0:0:
399,88,112250,1,8,0:0:0:0:
503,228,112438,1,8,0:0:0:0:
335,180,112625,1,8,0:0:0:0:
