osu file format v14

[General]
AudioFilename: audio.mp3
AudioLeadIn: 0
PreviewTime: 136313
Countdown: 0
SampleSet: Soft
StackLeniency: 0.7
Mode: 0
LetterboxInBreaks: 0
WidescreenStoryboard: 0

[Editor]
Bookmarks: 93050,161419
DistanceSpacing: 1
BeatDivisor: 4
GridSize: 32
TimelineZoom: 1.7

[Metadata]
Title:INFINITE SKY
TitleUnicode:INFINITE SKY
Artist:Faylan
ArtistUnicode:Faylan
Creator:Yogurtt
Version:Eternity feat. KoldNoodl
Source:蒼の彼方のフォーリズム
Tags:op opening 2 aokana ao no kanata four rhythms across the blue sprite 2nd season rhythm into firmament video game female vocals visual novel vn bgm japanese pop jpop eroge erisu lanzhu koldnoodl -_Ex_- kowari skyflame cover j-pop
BeatmapID:3813017
BeatmapSetID:1855532

[Difficulty]
HPDrainRate:7
CircleSize:4
OverallDifficulty:9
ApproachRate:9.3
SliderMultiplier:1.74
SliderTickRate:1

[Events]
//Background and Video events
0,0,"yogurttbg.jpg",0,0
//Break Periods
2,86130,92481
2,172024,180113
//Storyboard Layer 0 (Background)
//Storyboard Layer 1 (Fail)
//Storyboard Layer 2 (Pass)
//Storyboard Layer 3 (Foreground)
//Storyboard Layer 4 (Overlay)
//Storyboard Sound Samples

[TimingPoints]
2562,315.789473684211,4,2,1,40,1,0
3193,-117.647058823529,4,2,1,40,0,0
13298,-222.222222222221,4,2,1,40,0,0
13929,-222.222222222221,4,2,1,5,0,0
14246,-222.222222222221,4,2,1,50,0,0
14719,-111.111111111111,4,2,1,50,0,0
15035,-111.111111111111,4,2,1,45,0,0
29088,-111.111111111111,4,2,1,50,0,0
30351,-100,4,2,1,50,0,0
45509,-133.333333333333,4,2,1,50,0,0
45825,-100,4,2,1,50,0,0
58140,-100,4,2,2,50,0,0
58456,-100,4,2,1,50,0,0
59719,-76.9230769230769,4,2,1,50,0,0
60667,-76.9230769230769,4,2,2,70,0,1
60825,-100,4,2,1,70,0,1
70140,-83.3333333333333,4,2,1,70,0,1
71404,-100,4,2,1,70,0,1
83088,-100,4,2,2,70,0,1
83245,-100,4,2,1,70,0,1
84667,-100,4,2,1,70,0,0
85930,-100,4,2,1,40,0,0
93035,-111.111111111111,4,2,1,60,0,0
96035,-100,4,2,1,60,0,0
116246,-200,4,2,1,30,0,0
118772,-100,4,2,1,50,0,0
120035,-100,4,2,1,60,0,0
121298,-133.333333333333,4,2,1,40,0,0
121614,-100,4,2,1,60,0,0
136456,-100,4,2,2,70,0,1
136614,-100,4,2,1,70,0,1
145930,-83.3333333333333,4,2,1,70,0,1
146562,-100,4,2,1,70,0,1
158877,-100,4,2,2,70,0,1
159034,-100,4,2,1,70,0,1
160456,-100,4,2,1,70,0,0
161404,-83.3333333333333,4,2,1,70,0,0
161877,-100,4,2,1,70,0,0
180667,-133.333333333333,4,2,1,70,0,0
185719,-100,4,2,1,70,0,0
189509,-100,4,2,2,70,0,0
189667,-100,4,2,1,70,0,0
192035,-166.666666666667,4,2,1,70,0,0
192351,-83.3333333333333,4,2,3,70,0,1
192508,-83.3333333333333,4,2,1,70,0,1
192667,-100,4,2,1,70,0,1
199614,-83.3333333333333,4,2,1,70,0,1
202772,-100,4,2,1,70,0,1
214456,-100,4,2,2,70,0,1
214613,-100,4,2,1,70,0,1
216035,-100,4,2,1,70,0,0
217298,-100,4,2,1,40,0,0
227719,-100,4,2,1,70,0,0
228508,-100,4,2,2,70,0,0
231193,-100,4,2,2,5,0,0

[Colours]
Combo1 : 244,198,57
Combo2 : 240,55,171
Combo3 : 230,122,43
Combo4 : 253,77,77

[HitObjects]
47,110,2562,5,6,2:2:0:0:
54,193,2719,1,2,2:2:0:0:
127,233,2877,1,2,2:2:0:0:
201,194,3035,1,2,2:2:0:0:
210,286,3193,6,0,P|264:249|363:276,2,147.900000000001,2|2|2,2:2|2:2|2:2,0:0:0:0:
287,336,4140,1,2,2:2:0:0:
287,336,4298,2,0,L|258:164,1,147.900000000001,2|2,2:2|2:2,0:0:0:0:
292,109,4772,1,2,2:2:0:0:
267,24,4930,1,2,2:2:0:0:
380,129,5088,5,2,2:2:0:0:
262,190,5246,1,2,2:2:0:0:
401,141,5404,1,2,2:2:0:0:
237,178,5562,2,0,B|165:169|168:215|68:196,1,147.900000000001,2|2,2:2|2:2,0:0:0:0:
251,278,6035,1,2,2:2:0:0:
351,215,6193,5,2,2:2:0:0:
351,215,6272,1,0,0:0:0:0:
351,215,6351,2,0,P|394:253|494:227,1,147.900000000001,2|0,2:2|0:0,0:0:0:0:
436,98,6825,2,0,L|425:179,1,73.9500000000003,2|2,2:2|2:2,0:0:0:0:
315,351,7140,6,0,B|297:282|297:282|305:205|305:205|280:132,1,221.850000000001,2|2,2:2|2:2,0:0:0:0:
163,73,7772,1,2,2:2:0:0:
116,156,7930,1,2,2:2:0:0:
199,203,8088,1,2,2:2:0:0:
246,120,8246,6,0,P|243:87|235:30,1,73.9500000000003,2|0,2:2|0:0,0:0:0:0:
187,187,8562,2,0,P|190:220|198:277,1,73.9500000000003,2|2,2:2|2:2,0:0:0:0:
131,349,8877,2,0,P|76:367|31:274,1,147.900000000001,2|0,2:2|0:0,0:0:0:0:
195,260,9351,2,0,P|244:241|346:238,1,147.900000000001,0|2,0:0|2:2,0:0:0:0:
402,164,9825,1,2,2:2:0:0:
361,68,9983,1,2,2:2:0:0:
502,195,10140,6,0,P|502:268|478:338,1,147.900000000001,2|0,2:2|0:0,0:0:0:0:
361,380,10614,1,2,2:2:0:0:
361,380,10772,2,0,P|337:310|337:236,1,147.900000000001,2|0,2:2|0:0,0:0:0:0:
401,35,11404,6,0,P|424:104|424:178,1,147.900000000001,2|0,2:2|0:0,0:0:0:0:
268,143,11877,1,2,2:2:0:0:
268,143,12035,2,0,P|267:69|291:0,1,147.900000000001,2|0,2:2|0:0,0:0:0:0:
162,194,12667,6,0,P|88:193|18:217,1,147.900000000001,2|0,2:2|0:0,0:0:0:0:
247,241,13140,1,2,2:2:0:0:
247,241,13298,6,0,P|320:241|398:211,1,156.600000000001,2|0,2:2|0:0,0:0:0:0:
397,211,14246,5,10,2:2:0:0:
260,141,14404,1,2,1:2:0:0:
308,324,14562,1,10,2:2:0:0:
157,368,14719,2,0,P|99:353|33:341,1,117.45,2|0,1:2|0:0,0:0:0:0:
20,317,15035,6,0,P|53:253|59:152,1,156.6,6|2,1:2|2:2,0:0:0:0:
88,72,15509,2,0,P|49:85|-15:94,1,78.3000000000001,2|2,2:2|1:2,0:0:0:0:
132,123,15825,2,0,P|124:84|112:47,1,78.3000000000001,2|2,1:2|2:2,0:0:0:0:
292,128,16140,2,0,P|253:115|189:106,1,78.3000000000001,2|2,2:2|2:2,0:0:0:0:
207,276,16456,6,0,P|214:237|226:200,1,78.3000000000001,2|0,1:2|0:0,0:0:0:0:
244,68,16772,1,2,2:2:0:0:
145,171,16930,1,2,1:2:0:0:
305,151,17088,2,0,P|343:143|380:131,1,78.3000000000001,2|2,2:2|2:2,0:0:0:0:
481,67,17404,2,0,P|488:105|500:142,1,78.3000000000001,2|2,2:2|1:2,0:0:0:0:
426,202,17640,5,0,1:0:0:0:
426,202,17719,2,0,P|418:159|380:51,1,156.6,2|2,1:2|2:2,0:0:0:0:
305,151,18193,1,2,1:2:0:0:
255,277,18351,1,2,2:2:0:0:
370,331,18509,1,2,2:2:0:0:
370,331,18667,2,0,P|362:292|350:255,1,78.3000000000001,2|2,2:2|2:2,0:0:0:0:
204,357,18983,6,0,P|147:370|74:300,1,156.6,2|2,1:2|1:2,0:0:0:0:
176,123,19456,2,0,B|187:212|146:192|164:294,1,156.6,2|2,1:2|2:2,0:0:0:0:
93,149,19930,1,2,2:2:0:0:
243,246,20088,1,2,1:2:0:0:
59,327,20246,1,2,1:2:0:0:
59,327,20562,6,0,P|98:316|160:302,1,78.3000000000001,2|2,2:2|1:2,0:0:0:0:
299,208,20877,2,0,P|259:218|198:233,1,78.3000000000001,2|0,2:2|0:0,0:0:0:0:
107,120,21193,2,0,P|117:157|127:196,1,78.3000000000001,2|0,2:2|0:0,0:0:0:0:
281,297,21509,5,2,1:2:0:0:
239,203,21667,1,0,0:0:0:0:
386,237,21825,1,2,2:2:0:0:
208,329,21983,2,0,P|250:371|354:332,1,156.6,2|0,1:2|0:0,0:0:0:0:
395,197,22456,2,0,P|404:235|414:272,1,78.3000000000001,2|0,2:2|0:0,0:0:0:0:
447,121,22772,6,0,B|396:109|396:109|343:122|343:122|288:108,1,156.6,2|0,1:2|0:0,0:0:0:0:
119,157,23246,2,0,B|103:127|103:127|126:70,1,78.3000000000001,0|0,1:1|0:0,0:0:0:0:
340,40,23562,1,0,0:0:0:0:
190,124,23719,1,2,2:2:0:0:
297,195,23877,1,2,2:2:0:0:
64,258,24035,6,0,P|136:235|226:213,1,156.6,2|2,1:2|2:2,0:0:0:0:
275,94,24509,2,0,P|203:117|113:139,1,156.6,0|0,1:1|0:0,0:0:0:0:
325,251,24983,2,0,P|313:213|303:175,1,78.3000000000001,2|0,2:2|0:0,0:0:0:0:
384,73,25298,5,2,1:2:0:0:
330,188,25456,1,2,2:2:0:0:
437,256,25614,1,2,2:2:0:0:
437,256,25772,2,0,P|474:246|512:234,2,78.3000000000001,0|0|0,1:0|0:0|0:0,0:0:0:0:
344,356,26246,2,0,P|292:324|212:345,1,117.45,2|0,2:2|0:0,0:0:0:0:
164,372,26562,6,0,P|136:320|168:218,1,156.6,0|2,1:1|2:2,0:0:0:0:
292,137,27035,1,2,1:2:0:0:
347,202,27193,2,0,P|294:221|248:216,1,78.3000000000001
179,255,27509,2,0,P|140:251|104:235,1,78.3000000000001,2|2,2:2|2:2,0:0:0:0:
25,143,27825,6,0,P|77:115|179:147,1,156.6,0|0,1:1|0:0,0:0:0:0:
272,221,28298,5,0,1:0:0:0:
292,137,28456,1,0,0:0:0:0:
254,53,28614,1,0,0:0:0:0:
292,238,28772,1,0,0:0:0:0:
410,121,28930,1,0,0:0:0:0:
187,215,29088,5,2,1:2:0:0:
434,309,29246,1,0,1:1:0:0:
292,137,29404,1,8,2:2:0:0:
483,72,29562,1,8,2:2:0:0:
483,72,29640,1,8,2:2:0:0:
483,72,29719,1,10,2:2:0:0:
371,203,29877,1,8,2:3:0:0:
362,221,29956,1,4,2:3:0:0:
354,241,30035,1,4,2:3:0:0:
348,261,30114,1,4,2:3:0:0:
343,281,30193,1,0,1:1:0:0:
340,302,30272,1,4,2:3:0:0:
336,321,30351,6,0,P|285:353|199:271,1,174,6|10,1:2|2:2,0:0:0:0:
25,300,30825,1,2,2:2:0:0:
156,217,30983,1,2,1:2:0:0:
76,108,31140,1,0,1:1:0:0:
274,268,31298,2,0,P|270:225|258:184,1,87,10|0,2:2|0:0,0:0:0:0:
109,299,31614,6,0,P|113:342|126:384,1,87,2|0,1:2|0:0,0:0:0:0:
143,184,31930,1,10,2:2:0:0:
20,242,32088,2,0,P|71:274|157:192,1,174,2|0,2:2|1:1,0:0:0:0:
277,26,32562,2,0,L|293:110,1,87,10|0,2:2|0:0,0:0:0:0:
408,2,32877,5,2,1:2:0:0:
363,158,33035,1,0,0:0:0:0:
204,79,33193,2,0,P|157:72|119:62,1,87,8|0,2:2|0:0,0:0:0:0:
346,187,33509,2,0,P|388:176|431:169,1,87,0|0,1:1|1:1,0:0:0:0:
187,300,33825,2,0,P|197:257|204:214,1,87,10|2,2:2|1:2,0:0:0:0:
284,124,34140,5,2,1:2:0:0:
115,212,34298,1,0,1:1:0:0:
133,81,34456,5,10,2:2:0:0:
223,234,34614,1,0,0:0:0:0:
85,316,34772,2,0,P|40:331|0:333,1,87,2|0,1:2|1:1,0:0:0:0:
295,178,35088,2,0,P|310:223|312:263,1,87,10|0,2:2|1:1,0:0:0:0:
217,350,35325,5,8,2:2:0:0:
217,350,35404,2,0,P|188:267|178:181,1,174,2|10,1:2|2:2,0:0:0:0:
429,132,35877,2,0,P|374:196|279:157,1,174,0|0,0:0|1:1,0:0:0:0:
326,31,36351,2,0,P|342:80|349:131,1,87,10|2,2:2|2:2,0:0:0:0:
117,50,36667,5,2,1:2:0:0:
266,105,36825,1,0,1:1:0:0:
101,205,36983,1,8,2:2:0:0:
303,185,37140,5,8,2:2:0:0:
303,185,37219,1,8,2:2:0:0:
303,185,37298,1,10,2:2:0:0:
211,297,37456,1,8,2:3:0:0:
181,105,37614,5,6,2:3:0:0:
396,216,37772,1,0,1:1:0:0:
257,370,37930,2,0,P|252:283|286:204,1,174,6|0,1:2|0:0,0:0:0:0:
383,116,38404,1,0,1:1:0:0:
188,35,38562,2,0,P|204:84|212:143,1,87,8|0,2:2|0:0,0:0:0:0:
174,214,38877,2,0,P|125:230|66:238,1,87,2|10,1:2|2:2,0:0:0:0:
29,383,39193,6,0,P|23:337|-8:254,1,130.5,2|0,1:2|0:0,0:0:0:0:
105,263,39509,2,0,P|141:296|255:236,1,174,2|10,1:2|2:2,0:0:0:0:
455,167,39983,2,0,P|445:98|407:67,1,87,0|2,0:0|1:2,0:0:0:0:
221,99,40298,1,0,0:0:0:0:
379,143,40456,6,0,L|320:159,1,43.5,0|2,1:2|1:2,0:0:0:0:
263,172,40614,1,0,0:0:0:0:
472,256,40772,1,12,2:2:0:0:
354,67,40930,5,0,0:0:0:0:
354,67,41009,1,2,0:0:0:0:
354,67,41088,1,2,1:2:0:0:
323,241,41246,1,2,1:2:0:0:
210,345,41404,1,10,2:2:0:0:
179,171,41562,1,6,1:2:0:0:
389,288,41719,6,0,P|332:321|286:312,1,87,0|0,0:0|1:1,0:0:0:0:
174,259,42035,1,10,2:2:0:0:
226,103,42193,2,0,P|259:160|250:206,1,87,2|0,2:2|1:1,0:0:0:0:
14,242,42509,2,0,P|54:229|111:205,1,87,2|8,1:2|2:2,0:0:0:0:
167,289,42825,6,0,P|117:304|-9:358,1,174,6|0,1:2|1:1,0:0:0:0:
179,171,43298,1,8,2:2:0:0:
152,312,43456,1,0,1:0:0:0:
259,237,43614,1,0,1:1:0:0:
177,70,43772,1,0,1:1:0:0:
353,247,43930,5,8,2:2:0:0:
347,289,44009,1,0,0:0:0:0:
321,324,44088,1,0,1:1:0:0:
282,341,44167,1,0,0:0:0:0:
239,337,44246,1,6,1:2:0:0:
281,105,44404,6,0,L|270:185,1,43.5,0|0,1:1|1:0,0:0:0:0:
259,237,44562,1,10,2:2:0:0:
192,53,44719,5,0,0:0:0:0:
358,142,44877,1,2,1:2:0:0:
257,320,45035,1,10,2:2:0:0:
509,235,45193,5,10,2:2:0:0:
509,235,45272,1,8,2:2:0:0:
509,235,45351,1,8,2:2:0:0:
509,235,45430,1,8,2:2:0:0:
509,235,45509,2,0,P|470:229|394:253,1,97.8750000000002,2|0,2:2|0:0,0:0:0:0:
275,148,45825,6,0,P|298:204|425:194,1,174,12|10,2:2|2:3,0:0:0:0:
382,55,46298,1,6,2:3:0:0:
243,1,46456,1,10,2:2:0:0:
136,202,46614,1,6,1:2:0:0:
275,148,46772,1,0,0:0:0:0:
248,328,46930,6,0,P|229:287|233:212,1,87,0|10,1:1|2:2,0:0:0:0:
84,311,47246,2,0,P|43:330|-32:326,1,87,2|0,1:2|0:0,0:0:0:0:
212,152,47562,2,0,P|255:156|294:174,1,87,2|8,1:2|2:2,0:0:0:0:
27,250,47877,6,0,B|46:152|3:174|31:48,1,174,6|0,1:2|1:1,0:0:0:0:
161,230,48351,2,0,P|190:276|309:251,1,174,8|0,2:2|1:1,0:0:0:0:
309,17,48825,1,0,1:1:0:0:
216,44,48983,2,0,P|192:86|194:138,1,87,8|0,2:2|0:0,0:0:0:0:
402,173,49298,5,14,1:2:0:0:
270,112,49456,1,0,0:0:0:0:
419,67,49614,1,10,2:2:0:0:
259,137,49772,1,0,1:1:0:0:
489,269,49930,5,10,2:2:0:0:
285,350,50088,1,0,0:0:0:0:
503,248,50246,1,10,2:2:0:0:
315,202,50404,1,0,1:1:0:0:
396,337,50562,5,6,1:2:0:0:
469,145,50719,1,2,2:2:0:0:
309,73,50877,1,10,2:2:0:0:
424,219,51035,1,2,2:2:0:0:
424,219,51114,1,0,0:0:0:0:
424,219,51193,1,2,1:2:0:0:
214,269,51351,1,2,1:2:0:0:
376,135,51509,1,10,2:2:0:0:
376,135,51825,5,2,1:2:0:0:
341,251,51983,1,0,0:0:0:0:
264,333,52140,1,10,2:2:0:0:
217,187,52298,1,2,2:2:0:0:
408,312,52456,1,2,1:2:0:0:
408,312,52535,1,0,0:0:0:0:
408,312,52614,1,2,1:2:0:0:
130,377,52772,1,10,2:2:0:0:
130,377,53088,5,2,1:2:0:0:
73,233,53246,1,2,2:2:0:0:
295,137,53404,1,10,2:2:0:0:
238,281,53562,1,2,2:2:0:0:
238,281,53640,1,0,0:0:0:0:
238,281,53719,1,2,1:2:0:0:
59,208,53877,1,2,1:2:0:0:
358,74,54035,1,10,2:2:0:0:
358,74,54351,6,0,P|382:138|373:176,1,87,2|0,1:2|0:0,0:0:0:0:
126,141,54667,1,10,2:2:0:0:
86,43,54825,2,0,P|151:58|236:70,1,130.5,2|0,1:2|0:0,0:0:0:0:
248,68,55140,1,2,1:2:0:0:
177,210,55298,1,10,2:2:0:0:
259,165,55456,1,2,1:2:0:0:
189,307,55614,5,14,2:2:0:0:
113,160,55772,1,0,1:1:0:0:
178,328,55930,1,0,1:1:0:0:
341,214,56088,1,14,2:2:0:0:
167,349,56246,5,2,1:2:0:0:
250,188,56404,1,0,1:1:0:0:
77,327,56562,5,12,2:2:0:0:
283,286,56719,1,0,1:1:0:0:
188,118,56877,1,0,1:1:0:0:
445,251,57035,2,0,P|474:188|445:56,1,174,12|0,2:2|1:1,0:0:0:0:
371,295,57509,2,0,P|414:330|468:332,1,87,14|0,2:2|1:1,0:0:0:0:
289,98,57825,2,0,P|247:108|216:138,1,87,12|0,2:2|1:1,0:0:0:0:
382,158,58140,5,14,1:3:0:0:
271,79,58298,1,0,1:1:0:0:
277,54,58377,1,0,1:1:0:0:
283,29,58456,1,8,2:2:0:0:
449,109,58614,5,8,1:3:0:0:
258,240,58772,1,0,1:1:0:0:
233,234,58851,1,0,1:1:0:0:
208,228,58930,1,8,2:2:0:0:
147,70,59088,5,8,1:3:0:0:
16,297,59246,1,0,1:1:0:0:
173,372,59404,6,0,L|158:308,1,43.5,8|0,2:2|0:0,0:0:0:0:
198,203,59562,2,0,L|240:212,1,43.5,10|0,2:2|0:0,0:0:0:0:
367,308,59719,6,0,L|304:322,1,56.55,10|0,2:2|0:0,0:0:0:0:
112,221,59877,2,0,L|128:155,1,56.55,10|0,2:2|0:0,0:0:0:0:
332,0,60035,5,10,2:2:0:0:
388,178,60193,1,10,2:2:0:0:
209,235,60351,1,10,2:2:0:0:
153,56,60509,1,10,2:2:0:0:
295,198,60667,5,2,2:2:0:0:
295,198,60825,2,0,P|315:239|321:302,1,87,2|10,2:2|2:2,0:0:0:0:
83,305,61140,1,0,0:0:0:0:
83,305,61219,1,0,0:0:0:0:
83,305,61298,1,2,1:2:0:0:
234,120,61456,1,2,1:2:0:0:
107,181,61614,2,0,P|64:173|25:154,1,87,10|0,2:2|0:0,0:0:0:0:
202,374,61930,6,0,P|190:332|199:194,1,174,2|10,1:2|2:2,0:0:0:0:
425,79,62404,1,2,1:2:0:0:
425,79,62483,1,0,1:0:0:0:
425,79,62562,2,0,P|444:117|451:160,1,87,0|0,1:0|1:1,0:0:0:0:
317,311,62877,1,10,2:2:0:0:
366,147,63035,1,2,2:2:0:0:
244,352,63193,5,6,1:2:0:0:
385,263,63351,1,2,2:2:0:0:
242,117,63509,1,10,2:2:0:0:
339,328,63667,1,2,2:2:0:0:
196,203,63825,5,2,1:2:0:0:
14,299,63983,1,2,1:2:0:0:
14,299,64062,1,0,1:0:0:0:
14,299,64140,1,10,2:2:0:0:
110,99,64298,1,0,0:0:0:0:
97,375,64456,6,0,P|110:332|83:192,1,174,2|10,1:2|2:2,0:0:0:0:
194,84,64930,1,2,1:2:0:0:
25,117,65088,2,0,P|56:169|181:141,1,174,0|8,1:1|2:2,0:0:0:0:
286,19,65562,5,8,0:0:0:0:
412,110,65720,2,0,P|420:67|405:26,1,87,14|0,1:2|0:2,0:0:0:0:
194,84,66035,1,10,2:2:0:0:
332,275,66193,1,0,0:0:0:0:
154,353,66351,2,0,P|147:311|162:271,1,87,2|0,1:2|0:0,0:0:0:0:
427,300,66667,6,0,B|334:276|360:337|228:314,1,174,10|2,2:2|1:2,0:0:0:0:
240,226,67140,1,0,0:0:0:0:
21,333,67298,1,10,2:2:0:0:
21,333,67377,1,2,2:2:0:0:
21,333,67456,1,2,2:2:0:0:
83,222,67614,2,0,P|42:207|0:199,1,87,0|0,1:2|2:2,0:0:0:0:
82,43,67929,1,8,0:2:0:0:
217,124,68088,5,0,0:0:0:0:
217,124,68167,1,0,0:0:0:0:
217,124,68246,2,0,P|161:131|106:155,1,87,6|0,1:2|0:0,0:0:0:0:
352,247,68562,2,0,P|338:205|334:162,1,87,8|0,2:2|0:0,0:0:0:0:
364,25,68877,5,6,1:2:0:0:
310,194,69035,1,0,0:0:0:0:
471,101,69193,1,8,2:2:0:0:
244,1,69351,1,0,0:0:0:0:
411,310,69509,6,0,P|369:323|326:327,1,87,6|0,1:2|1:1,0:0:0:0:
210,174,69825,1,10,2:2:0:0:
58,364,69983,1,2,1:2:0:0:
264,378,70140,6,0,P|248:340|246:318,1,52.2,4|0,1:2|0:0,0:0:0:0:
223,192,70298,2,0,P|228:166|240:143,1,52.2,8|0,2:2|0:0,0:0:0:0:
454,123,70456,5,8,2:3:0:0:
444,173,70535,1,4,2:3:0:0:
407,209,70614,1,0,1:1:0:0:
356,217,70693,1,0,1:1:0:0:
310,194,70772,1,6,1:2:0:0:
308,40,70930,5,2,1:2:0:0:
123,138,71088,1,10,2:2:0:0:
253,302,71246,1,2,1:2:0:0:
36,344,71404,2,0,B|16:306|16:306|39:227,1,87,2|2,1:2|2:2,0:0:0:0:
255,214,71719,2,0,B|203:232|203:232|168:275|168:275|94:298,1,174,10|2,2:2|1:2,0:0:0:0:
171,145,72193,5,0,1:1:0:0:
354,221,72351,1,10,2:2:0:0:
235,197,72509,1,2,1:2:0:0:
429,118,72667,1,0,0:0:0:0:
356,335,72825,1,0,1:1:0:0:
356,335,72904,1,0,1:0:0:0:
356,335,72983,2,0,P|338:286|346:234,1,87,10|2,2:2|2:2,0:0:0:0:
511,117,73298,6,0,P|479:189|386:189,2,174,6|8|2,1:2|2:2|1:2,0:0:0:0:
378,12,74088,2,0,P|337:24|253:37,1,87,0|8,1:1|2:2,0:0:0:0:
167,14,74404,2,0,P|173:34|179:76,1,43.5
190,134,74562,5,6,1:2:0:0:
56,86,74719,1,10,2:3:0:0:
151,296,74877,1,6,2:3:0:0:
304,150,75035,2,0,P|291:191|279:349,1,174,6|0,1:2|1:1,0:0:0:0:
81,192,75509,1,8,2:2:0:0:
165,384,75667,5,8,2:2:0:0:
165,384,75746,1,0,0:0:0:0:
165,384,75825,2,0,P|177:342|189:184,1,174,6|8,1:2|2:2,0:0:0:0:
417,205,76298,2,0,P|338:229|283:167,1,174,6|8,1:2|2:2,0:0:0:0:
82,108,76772,2,0,P|160:132|215:70,1,174,6|0,1:2|0:0,0:0:0:0:
289,1,77246,5,0,1:1:0:0:
289,1,77404,2,0,P|314:57|302:101,1,87,10|0,2:2|0:0,0:0:0:0:
206,197,77719,2,0,L|104:176,1,87,10|10,1:3|2:2,0:0:0:0:
15,254,78035,5,8,2:2:0:0:
13,329,78140,5,8,2:3:0:0:
77,370,78246,5,4,2:3:0:0:
144,325,78351,6,0,B|238:306|221:355|349:326,1,174,6|8,1:2|2:2,0:0:0:0:
484,184,78825,2,0,P|448:256|351:231,1,174,6|8,1:2|2:2,0:0:0:0:
281,231,79298,6,0,P|289:164|277:36,1,174,6|8,1:2|2:2,0:0:0:0:
281,58,79693,1,8,2:2:0:0:
281,58,79772,1,8,2:2:0:0:
87,51,79930,1,10,1:3:0:0:
201,221,80088,2,0,L|188:179,2,43.5,0|4|10,1:1|2:3|2:2,0:0:0:0:
238,319,80404,5,10,2:2:0:0:
100,384,80562,1,8,2:3:0:0:
104,170,80719,1,0,1:1:0:0:
19,214,80877,2,0,P|109:204|199:175,1,174,6|8,1:2|2:2,0:0:0:0:
304,203,81351,2,0,P|278:119|269:33,1,174,6|8,1:2|2:2,0:0:0:0:
422,157,81825,6,0,P|412:243|387:326,1,174,6|8,1:2|2:2,0:0:0:0:
205,291,82298,2,0,P|214:204|239:121,1,174,6|8,1:2|2:2,0:0:0:0:
295,347,82772,5,6,1:2:0:0:
295,347,82930,1,8,2:2:0:0:
125,204,83088,5,14,1:3:0:0:
125,204,83246,1,4,2:3:0:0:
313,74,83404,5,6,1:2:0:0:
389,202,83562,1,8,2:2:0:0:
389,202,83640,1,8,2:2:0:0:
389,202,83719,1,8,2:2:0:0:
252,146,83877,5,8,2:3:0:0:
272,360,84035,1,8,2:2:0:0:
158,131,84193,5,8,2:2:0:0:
158,131,84272,1,8,0:0:0:0:
158,131,84351,1,0,1:1:0:0:
23,351,84509,1,8,2:2:0:0:
17,147,84667,5,14,2:2:0:0:
310,265,84825,1,12,2:2:0:0:
256,192,84904,12,6,85930,2:2:0:0:
125,209,93035,5,2,2:2:0:0:
59,148,93193,1,2,2:2:0:0:
95,72,93351,1,2,2:2:0:0:
47,270,93509,6,0,P|108:254|229:243,1,156.599995220947,6|0,1:2|0:0,0:0:0:0:
320,282,93983,1,2,1:2:0:0:
182,144,94140,2,0,P|231:150|286:172,1,78.2999976104737,10|0,2:2|0:0,0:0:0:0:
229,335,94456,2,0,P|191:345|152:349,1,78.2999976104737,2|8,1:2|2:2,0:0:0:0:
389,228,94772,5,2,1:2:0:0:
277,151,94930,1,0,1:1:0:0:
357,363,95088,1,10,2:2:0:0:
357,363,95404,6,0,P|422:342|456:342,1,78.2999976104737,10|0,2:3|0:0,0:0:0:0:
498,263,95640,1,4,2:3:0:0:
488,268,95719,2,0,P|449:261|413:246,1,78.2999976104737,6|0,2:3|1:1,0:0:0:0:
285,277,96035,6,0,P|313:226|290:109,1,174,6|10,1:2|2:2,0:0:0:0:
76,83,96509,1,2,2:2:0:0:
134,216,96667,2,0,P|190:209|248:177,1,87,2|0,1:2|0:0,0:0:0:0:
178,119,96983,1,10,2:2:0:0:
40,233,97140,1,0,0:0:0:0:
203,362,97298,5,2,1:2:0:0:
131,202,97456,1,0,1:1:0:0:
131,202,97535,1,0,1:0:0:0:
131,202,97614,1,10,2:2:0:0:
346,240,97772,2,0,P|391:285|378:402,1,174,2|0,1:2|0:0,0:0:0:0:
217,348,98246,2,0,P|276:331|330:332,1,87,10|0,2:2|0:0,0:0:0:0:
480,364,98562,6,0,P|497:302|498:250,1,87,2|0,1:2|0:0,0:0:0:0:
283,155,98877,2,0,P|288:198|301:239,1,87,8|0,2:2|0:0,0:0:0:0:
453,185,99193,1,0,1:1:0:0:
353,87,99351,1,0,1:1:0:0:
402,300,99509,1,10,2:2:0:0:
402,300,99667,1,2,2:2:0:0:
278,164,99825,6,0,P|207:162|124:251,1,174,2|10,1:2|2:2,0:0:0:0:
248,294,100298,1,0,0:0:0:0:
352,211,100456,1,2,2:2:0:0:
252,384,100614,1,0,1:1:0:0:
252,384,100693,1,0,1:0:0:0:
252,384,100772,2,0,P|191:375|148:361,1,87,10|8,2:2|2:2,0:0:0:0:
337,203,101088,5,6,1:2:0:0:
487,294,101246,1,2,1:2:0:0:
453,103,101404,2,0,P|433:148|426:200,1,87,10|0,2:2|0:0,0:0:0:0:
280,297,101719,2,0,P|348:286|392:267,1,87,0|0,1:1|0:0,0:0:0:0:
258,132,102035,1,10,2:2:0:0:
107,191,102193,1,2,2:2:0:0:
179,322,102351,6,0,P|198:266|196:222,1,87,0|0,1:1|0:0,0:0:0:0:
199,239,102588,1,0,0:0:0:0:
199,239,102667,1,10,2:2:0:0:
43,89,102825,2,0,P|92:146|200:123,1,174,2|0,2:2|1:1,0:0:0:0:
403,38,103298,2,0,L|312:53,1,87,10|2,2:2|2:2,0:0:0:0:
208,25,103614,5,0,1:1:0:0:
314,144,103772,1,0,1:1:0:0:
205,292,103930,2,0,B|185:255|185:255|195:197,1,87,8|0,2:2|0:0,0:0:0:0:
443,202,104246,1,0,1:1:0:0:
443,202,104404,2,0,P|358:227|268:241,1,174,0|0,1:1|0:0,0:0:0:0:
50,366,104877,6,0,P|108:341|149:336,1,87,0|0,1:1|1:1,0:0:0:0:
366,365,105193,2,0,P|355:300|337:263,1,87,8|0,2:2|1:1,0:0:0:0:
278,244,105430,1,0,1:1:0:0:
278,244,105509,2,0,L|263:306,1,43.5,8|0,2:2|0:0,0:0:0:0:
218,384,105667,2,0,L|207:341,1,43.5,0|0,1:1|1:1,0:0:0:0:
87,264,105825,1,8,2:2:0:0:
70,224,105903,1,8,2:3:0:0:
73,181,105982,1,8,2:3:0:0:
94,143,106061,1,4,2:3:0:0:
129,118,106140,6,0,P|197:127|254:140,1,87,4|0,1:2|0:0,0:0:0:0:
412,214,106456,2,0,P|394:171|389:117,1,87,10|2,2:2|2:2,0:0:0:0:
422,29,106772,1,2,1:2:0:0:
290,184,106930,1,0,1:1:0:0:
280,46,107088,5,10,2:2:0:0:
403,141,107246,1,0,0:0:0:0:
326,263,107404,2,0,P|270:287|177:223,1,174,2|10,1:2|2:2,0:0:0:0:
85,288,107877,2,0,P|72:218|35:109,1,174,2|0,1:2|1:1,0:0:0:0:
271,53,108351,2,0,P|218:81|163:87,1,87,10|0,2:2|0:0,0:0:0:0:
91,25,108667,5,2,1:2:0:0:
173,176,108825,1,0,0:0:0:0:
336,127,108983,1,8,2:2:0:0:
335,126,109140,2,0,P|356:164|360:207,1,87,0|0,0:0|1:1,0:0:0:0:
290,330,109456,1,0,1:1:0:0:
142,276,109614,1,10,2:2:0:0:
258,188,109772,1,2,2:2:0:0:
170,370,109930,6,0,P|120:364|76:351,1,87,2|0,1:2|0:0,0:0:0:0:
370,289,110246,2,0,P|420:295|464:308,1,87,10|0,2:2|0:0,0:0:0:0:
250,242,110562,2,0,P|235:191|228:128,1,87,2|0,1:2|1:1,0:0:0:0:
157,93,110877,2,0,P|166:36|187:-8,1,87,10|8,2:2|2:2,0:0:0:0:
177,9,111114,1,8,2:2:0:0:
177,9,111193,5,2,1:2:0:0:
152,177,111351,1,2,1:2:0:0:
337,129,111509,1,10,2:2:0:0:
269,54,111667,1,0,0:0:0:0:
242,182,111825,5,0,1:1:0:0:
381,238,111983,1,0,1:1:0:0:
494,111,112140,2,0,P|456:88|413:85,1,87,10|2,2:2|2:2,0:0:0:0:
294,256,112456,2,0,P|282:321|271:359,1,87,2|0,1:2|0:0,0:0:0:0:
153,255,112772,1,8,2:2:0:0:
247,144,112930,5,0,1:1:0:0:
247,144,113009,1,0,1:1:0:0:
247,144,113088,1,10,2:2:0:0:
182,347,113246,1,8,2:3:0:0:
388,243,113404,5,6,2:3:0:0:
160,174,113562,1,0,1:1:0:0:
420,70,113719,6,0,B|361:77|361:77|318:114|318:114|260:124,1,174,6|0,1:2|0:0,0:0:0:0:
131,232,114193,1,0,1:1:0:0:
199,49,114351,2,0,P|188:92|173:133,1,87,8|0,2:2|0:0,0:0:0:0:
84,152,114667,2,0,P|41:139|-6:136,1,87
207,282,114983,6,0,P|267:287|336:240,1,130.5,2|0,1:2|0:0,0:0:0:0:
341,232,115298,2,0,P|328:183|328:125,1,87
241,384,115614,5,10,2:2:0:0:
108,273,115772,1,8,2:2:0:0:
293,124,115930,1,10,2:2:0:0:
223,275,116088,1,8,2:2:0:0:
268,11,118772,5,2,0:0:0:0:
245,34,118850,1,2,0:0:0:0:
233,64,118929,1,2,0:0:0:0:
233,97,119008,1,2,0:0:0:0:
245,127,119088,2,0,P|292:122|364:101,1,87,4|0,1:2|0:0,0:0:0:0:
312,206,119325,1,0,0:0:0:0:
312,206,119404,2,0,P|236:216|155:253,1,130.5,8|0,2:3|0:0,0:0:0:0:
166,226,119719,2,0,P|105:215|69:199,1,87,4|0,2:3|0:0,0:0:0:0:
31,105,120035,5,2,1:2:0:0:
171,58,120193,1,0,0:0:0:0:
76,300,120351,2,0,P|62:258|66:215,1,87,10|0,2:2|0:0,0:0:0:0:
274,266,120667,5,2,1:2:0:0:
327,381,120825,1,2,2:2:0:0:
165,318,120983,1,10,2:2:0:0:
165,318,121062,1,0,1:0:0:0:
165,318,121140,1,0,1:1:0:0:
404,294,121298,6,0,P|420:247|409:192,1,97.8750037336351,2|0,2:2|0:0,0:0:0:0:
399,178,121614,6,0,P|406:245|442:380,1,174,12|2,2:2|1:2,0:0:0:0:
499,207,122088,1,2,1:2:0:0:
314,115,122246,1,10,2:2:0:0:
512,54,122404,6,0,P|468:78|414:83,1,87,6|0,1:2|0:0,0:0:0:0:
306,206,122719,1,0,1:1:0:0:
200,104,122877,1,10,2:2:0:0:
336,37,123035,5,2,1:2:0:0:
285,215,123193,1,0,0:0:0:0:
109,166,123351,2,0,P|96:106|102:49,1,87,2|8,1:2|2:2,0:0:0:0:
206,287,123667,6,0,P|131:293|12:345,1,174,6|0,1:2|1:1,0:0:0:0:
204,384,124140,1,8,2:2:0:0:
322,233,124298,1,0,0:0:0:0:
322,233,124377,1,0,0:0:0:0:
322,233,124456,1,0,1:1:0:0:
228,116,124614,1,0,1:1:0:0:
219,294,124772,2,0,P|275:314|319:318,1,87,8|0,2:2|0:0,0:0:0:0:
452,215,125088,5,6,1:2:0:0:
409,372,125246,1,0,0:0:0:0:
292,232,125404,1,10,2:2:0:0:
395,384,125562,1,0,1:1:0:0:
319,141,125719,5,10,2:2:0:0:
219,294,125877,1,0,0:0:0:0:
162,95,126035,1,10,2:2:0:0:
205,306,126193,1,0,1:1:0:0:
70,260,126351,5,6,1:2:0:0:
257,213,126509,1,0,0:0:0:0:
258,42,126667,1,10,2:2:0:0:
158,184,126825,1,2,2:2:0:0:
419,220,126983,1,2,1:2:0:0:
419,220,127062,1,0,0:0:0:0:
419,220,127140,1,2,1:2:0:0:
260,133,127298,1,10,2:2:0:0:
260,133,127614,5,2,1:2:0:0:
345,281,127772,1,2,2:2:0:0:
508,225,127930,1,10,2:2:0:0:
373,133,128088,1,2,2:2:0:0:
266,346,128246,1,2,1:2:0:0:
266,346,128325,1,0,0:0:0:0:
266,346,128404,1,2,1:2:0:0:
71,266,128562,1,10,2:2:0:0:
71,266,128877,5,2,1:2:0:0:
178,374,129035,1,2,2:2:0:0:
224,215,129193,1,10,2:2:0:0:
25,137,129351,1,2,2:2:0:0:
104,285,129509,1,2,1:2:0:0:
104,285,129588,1,0,0:0:0:0:
104,285,129667,1,2,1:2:0:0:
331,226,129825,1,10,2:2:0:0:
331,226,130140,6,0,P|347:169|366:125,1,87,2|0,1:2|0:0,0:0:0:0:
161,289,130456,1,10,2:2:0:0:
55,202,130614,2,0,P|115:178|179:164,1,130.5,2|0,1:2|0:0,0:0:0:0:
203,170,130930,5,2,1:2:0:0:
127,85,131088,1,10,2:2:0:0:
174,266,131246,1,2,1:2:0:0:
436,181,131404,5,14,2:2:0:0:
311,82,131562,1,0,1:1:0:0:
450,194,131719,1,0,1:1:0:0:
317,274,131877,1,14,2:2:0:0:
467,203,132035,5,2,1:2:0:0:
254,153,132193,1,0,1:1:0:0:
497,104,132351,5,12,2:2:0:0:
299,251,132509,1,0,1:1:0:0:
247,31,132667,1,0,1:1:0:0:
85,304,132825,2,0,P|56:229|89:134,1,174,12|0,2:2|1:1,0:0:0:0:
311,273,133298,2,0,P|245:254|198:252,1,87,14|0,2:2|1:1,0:0:0:0:
5,97,133614,2,0,P|69:117|124:121,1,87,12|0,2:2|1:1,0:0:0:0:
438,159,133930,5,6,1:2:0:0:
279,57,134088,1,0,1:1:0:0:
265,78,134167,1,0,1:1:0:0:
262,104,134246,1,8,2:2:0:0:
190,268,134404,5,0,1:1:0:0:
316,178,134562,1,0,1:1:0:0:
330,200,134640,1,0,1:1:0:0:
332,231,134719,1,8,2:2:0:0:
106,323,134877,2,0,P|150:301|219:293,1,87,0|0,1:1|1:1,0:0:0:0:
465,355,135193,5,12,2:2:0:0:
390,284,135351,1,2,2:2:0:0:
287,320,135509,1,2,2:2:0:0:
221,225,135667,1,2,2:2:0:0:
319,188,135825,5,2,2:2:0:0:
366,362,135983,1,2,2:2:0:0:
209,246,136140,1,2,2:2:0:0:
343,86,136298,1,2,2:2:0:0:
141,177,136456,6,0,P|83:163|44:146,1,87,2|2,2:2|2:2,0:0:0:0:
184,56,136772,1,10,2:2:0:0:
236,246,136930,1,2,2:2:0:0:
58,304,137088,1,2,1:2:0:0:
58,304,137167,1,0,1:0:0:0:
58,304,137246,1,2,1:2:0:0:
312,351,137404,2,0,P|327:309|333:266,1,87,10|0,2:2|0:0,0:0:0:0:
275,94,137719,6,0,P|332:115|477:136,1,174,2|10,1:2|2:2,0:0:0:0:
360,10,138193,1,2,1:2:0:0:
204,184,138351,2,0,P|146:169|106:168,1,87,0|0,1:0|1:1,0:0:0:0:
119,167,138588,1,0,1:0:0:0:
119,167,138667,1,10,2:2:0:0:
311,236,138825,1,2,2:2:0:0:
170,361,138983,5,6,1:2:0:0:
424,273,139140,1,2,2:2:0:0:
302,100,139298,1,10,2:2:0:0:
249,303,139456,1,2,2:2:0:0:
249,303,139535,1,0,0:0:0:0:
249,303,139614,2,0,P|261:345|278:385,1,87,2|2,1:2|1:2,0:0:0:0:
505,257,139930,2,0,P|440:246|403:233,1,87,10|0,2:2|0:0,0:0:0:0:
91,241,140246,5,2,1:2:0:0:
180,126,140404,1,0,0:0:0:0:
315,187,140562,1,10,2:2:0:0:
233,29,140719,1,2,1:2:0:0:
185,281,140877,2,0,B|132:270|132:270|70:289|70:289|5:275,1,174,0|8,1:1|2:2,0:0:0:0:
195,175,141351,5,8,2:2:0:0:
195,175,141430,1,8,2:2:0:0:
195,175,141509,2,0,P|244:192|280:199,1,87,6|0,1:2|0:0,0:0:0:0:
442,147,141825,1,10,2:2:0:0:
330,18,141983,1,0,0:0:0:0:
401,244,142140,2,0,P|385:284|377:327,1,87,0|0,1:2|2:2,0:0:0:0:
241,381,142456,2,0,P|253:339|258:296,1,87,8|0,0:0|0:2,0:0:0:0:
268,170,142772,5,0,1:2:0:0:
377,327,142930,1,0,0:0:0:0:
187,235,143088,1,10,2:2:0:0:
347,108,143246,1,0,0:0:0:0:
276,318,143404,1,2,1:2:0:0:
219,85,143562,2,0,L|102:61,1,87,0|10,1:1|2:2,0:0:0:0:
30,226,143877,5,0,0:0:0:0:
30,226,143956,1,0,0:0:0:0:
30,226,144035,2,0,L|130:199,1,87,6|0,1:2|0:0,0:0:0:0:
354,321,144351,2,0,P|364:281|374:234,1,87,8|0,2:2|0:0,0:0:0:0:
323,115,144667,5,6,1:2:0:0:
246,275,144825,1,0,1:1:0:0:
448,343,144983,1,8,2:2:0:0:
457,148,145140,5,0,0:0:0:0:
457,148,145219,1,0,0:0:0:0:
457,148,145298,1,6,1:2:0:0:
255,294,145456,1,0,1:1:0:0:
54,103,145614,2,0,P|97:91|137:75,1,87,10|2,2:2|1:2,0:0:0:0:
250,18,145930,6,0,P|238:62|237:97,1,52.1999984069825,4|0,1:2|0:0,0:0:0:0:
170,176,146088,2,0,P|176:204|195:242,1,52.1999984069825,8|0,2:2|0:0,0:0:0:0:
452,188,146246,5,8,2:3:0:0:
423,144,146324,1,4,2:3:0:0:
377,121,146403,1,0,1:1:0:0:
326,122,146482,1,0,1:1:0:0:
281,149,146561,1,6,1:2:0:0:
376,324,146719,5,2,1:2:0:0:
176,305,146877,2,0,P|239:289|280:264,1,87,10|2,2:2|1:2,0:0:0:0:
5,211,147193,1,2,1:2:0:0:
192,146,147351,1,2,2:2:0:0:
74,345,147509,2,0,P|86:288|105:239,1,87,10|0,2:2|0:0,0:0:0:0:
257,59,147825,6,0,P|167:106|80:93,1,174,2|10,1:2|2:2,0:0:0:0:
11,40,148298,1,2,1:2:0:0:
122,185,148456,1,0,0:0:0:0:
0,292,148614,1,0,1:1:0:0:
0,292,148693,1,2,0:0:0:0:
0,292,148772,1,10,2:2:0:0:
285,201,148930,1,2,2:2:0:0:
110,359,149088,6,0,P|98:319|92:266,1,87,6|0,1:2|0:0,0:0:0:0:
409,297,149404,2,0,P|365:291|323:280,1,87,8|0,2:2|0:0,0:0:0:0:
170,125,149719,2,0,P|194:214|204:308,1,174,2|8,1:2|2:2,0:0:0:0:
84,195,150193,1,0,0:0:0:0:
329,363,150351,5,6,1:2:0:0:
213,199,150509,1,10,2:3:0:0:
213,199,150588,1,8,0:3:0:0:
213,199,150667,1,6,2:3:0:0:
511,118,150825,2,0,P|457:186|360:160,1,174,6|0,1:2|1:1,0:0:0:0:
214,91,151298,1,8,2:2:0:0:
194,279,151456,5,8,2:2:0:0:
194,279,151535,1,8,2:2:0:0:
194,279,151614,2,0,P|178:213|221:109,1,174,6|8,1:2|2:2,0:0:0:0:
399,200,152088,2,0,P|415:266|372:370,1,174,6|8,1:2|2:2,0:0:0:0:
85,340,152562,6,0,P|169:312|284:295,1,174,6|0,1:2|0:0,0:0:0:0:
317,232,153035,1,0,1:1:0:0:
317,232,153193,2,0,P|278:221|222:207,1,87,10|0,2:2|0:0,0:0:0:0:
95,202,153509,1,10,1:3:0:0:
173,93,153667,1,10,2:2:0:0:
26,37,153825,1,8,2:2:0:0:
30,58,153903,1,8,0:0:0:0:
35,79,153982,1,8,2:2:0:0:
41,100,154062,1,8,0:0:0:0:
45,121,154140,6,0,B|138:91|118:161|233:120,1,174,6|8,1:2|2:2,0:0:0:0:
422,24,154614,2,0,P|354:34|310:144,1,174,6|8,1:2|2:2,0:0:0:0:
441,344,155088,2,0,L|420:232,1,87,6|0,1:2|0:0,0:0:0:0:
404,169,155404,5,8,2:2:0:0:
404,169,155483,1,8,2:2:0:0:
404,169,155562,2,0,L|351:187,1,43.5,8|0,2:2|0:0,0:0:0:0:
134,245,155719,1,10,1:3:0:0:
134,245,155798,1,8,0:3:0:0:
134,245,155877,2,0,L|187:263,1,43.5,0|0,1:1|0:0,0:0:0:0:
281,139,156035,5,8,0:3:0:0:
245,168,156140,1,8,0:3:0:0:
248,214,156246,1,8,0:3:0:0:
274,251,156351,5,4,2:3:0:0:
303,286,156456,1,4,0:3:0:0:
299,332,156562,1,4,0:3:0:0:
268,366,156667,6,0,P|186:345|77:336,1,174,6|8,1:2|2:2,0:0:0:0:
367,238,157140,2,0,P|453:249|520:162,1,174,6|8,1:2|2:2,0:0:0:0:
165,32,157614,6,0,P|131:83|156:219,1,174,6|8,1:2|2:2,0:0:0:0:
421,150,158088,2,0,P|339:119|253:110,1,174,6|8,1:2|2:2,0:0:0:0:
55,52,158562,5,6,1:2:0:0:
55,52,158719,1,8,2:2:0:0:
219,184,158877,5,14,1:3:0:0:
219,184,159035,1,4,2:3:0:0:
36,289,159193,5,6,1:2:0:0:
140,105,159351,1,8,2:2:0:0:
140,105,159430,1,8,2:2:0:0:
140,105,159509,1,8,2:2:0:0:
246,290,159667,5,8,2:3:0:0:
217,149,159825,1,8,2:2:0:0:
329,330,159983,5,8,2:2:0:0:
329,330,160062,1,8,0:0:0:0:
329,330,160140,1,0,1:1:0:0:
393,83,160298,1,8,2:2:0:0:
471,332,160456,5,14,2:2:0:0:
151,232,160614,1,12,2:2:0:0:
39,311,161404,6,0,B|76:328|76:328|100:316|100:316|182:344|236:276,1,208.79999362793,2|6,2:2|1:2,0:0:0:0:
106,122,161877,6,0,L|139:232,1,87,0|8,0:0|2:2,0:0:0:0:
218,42,162193,1,2,2:2:0:0:
228,218,162351,1,2,1:2:0:0:
221,238,162429,1,0,0:0:0:0:
215,259,162508,1,2,1:2:0:0:
341,163,162667,1,10,2:2:0:0:
136,304,162825,6,0,P|204:351|291:281,1,174,2|0,2:2|0:0,0:0:0:0:
361,139,163298,2,0,L|264:170,1,87,8|0,2:2|0:0,0:0:0:0:
430,201,163614,1,2,2:2:0:0:
468,53,163772,1,2,1:2:0:0:
289,147,163930,1,10,2:2:0:0:
369,312,164088,1,2,2:2:0:0:
215,238,164246,6,0,P|187:201|198:128,1,87,0|0,1:1|0:0,0:0:0:0:
363,100,164562,2,0,L|486:126,1,87,8|2,2:2|2:2,0:0:0:0:
278,165,164877,1,2,1:2:0:0:
247,50,165035,1,2,1:2:0:0:
362,19,165193,1,10,2:2:0:0:
393,134,165351,1,2,1:2:0:0:
229,31,165509,5,0,1:1:0:0:
76,158,165667,1,2,2:2:0:0:
0,38,165825,2,0,P|38:50|99:62,1,87,10|2,2:2|1:2,0:0:0:0:
259,184,166140,2,0,P|221:172|160:160,1,87,8|8,2:3|2:2,0:0:0:0:
74,220,166377,1,8,0:0:0:0:
74,220,166456,2,0,P|86:182|98:121,1,87,8|8,2:2|2:2,0:0:0:0:
11,325,166772,5,6,1:2:0:0:
151,257,166930,1,2,2:2:0:0:
272,359,167088,1,10,2:2:0:0:
326,257,167246,5,0,0:0:0:0:
181,349,167404,1,2,1:2:0:0:
127,157,167562,1,2,1:2:0:0:
242,275,167719,1,10,2:2:0:0:
285,58,167877,5,2,2:2:0:0:
285,58,167956,1,0,0:0:0:0:
285,58,168035,1,0,1:1:0:0:
230,255,168193,1,2,2:2:0:0:
299,139,168351,1,8,2:2:0:0:
354,336,168509,1,0,0:0:0:0:
387,170,168667,5,2,1:2:0:0:
387,170,168746,1,0,1:0:0:0:
387,170,168825,1,2,1:2:0:0:
311,362,168983,1,10,2:2:0:0:
119,286,169140,1,2,2:2:0:0:
195,94,169298,2,0,B|228:190|172:167|221:299,1,174,6|8,1:2|2:2,0:0:0:0:
36,128,169772,5,0,1:1:0:0:
36,128,169851,1,0,1:0:0:0:
36,128,169930,2,0,P|74:142|123:150,1,87,8|0,2:2|1:1,0:0:0:0:
373,186,170246,2,0,P|330:193|289:207,1,87,8|2,2:2|1:2,0:0:0:0:
119,286,170562,1,10,2:2:0:0:
134,326,170640,1,0,0:0:0:0:
165,355,170719,1,0,1:1:0:0:
206,368,170798,1,0,0:0:0:0:
249,360,170877,1,10,2:2:0:0:
283,335,170956,1,0,0:0:0:0:
323,318,171035,1,0,1:1:0:0:
366,319,171114,1,0,0:0:0:0:
402,342,171193,6,0,P|449:356|493:351,1,87,10|8,2:3|2:3,0:0:0:0:
429,94,171509,2,0,L|451:280,1,174,6|6,2:3|1:2,0:0:0:0:
103,125,180667,6,0,L|120:203,1,65.2500024890901,2|0,0:0|0:0,0:0:0:0:
205,155,180983,2,0,L|188:233,1,65.2500024890901,2|0,0:0|0:0,0:0:0:0:
191,218,181219,1,0,0:0:0:0:
191,218,181298,1,2,0:0:0:0:
25,182,181456,5,0,1:0:0:0:
264,69,181614,1,10,2:2:0:0:
264,69,181930,5,6,1:2:0:0:
155,9,182088,1,2,1:2:0:0:
74,170,182246,1,10,2:2:0:0:
356,99,182404,1,2,1:2:0:0:
186,97,182562,1,2,1:2:0:0:
186,97,182640,1,0,1:0:0:0:
186,97,182719,1,2,1:2:0:0:
412,1,182877,1,10,2:2:0:0:
412,1,183193,5,2,1:2:0:0:
488,153,183351,1,2,1:2:0:0:
317,66,183509,1,10,2:2:0:0:
252,210,183667,1,2,1:2:0:0:
423,98,183825,1,2,1:2:0:0:
423,98,183904,1,0,1:0:0:0:
423,98,183983,1,2,1:2:0:0:
155,9,184140,1,10,2:2:0:0:
155,9,184456,5,2,1:2:0:0:
100,158,184614,1,2,1:2:0:0:
201,280,184772,1,10,2:2:0:0:
357,253,184930,1,2,1:2:0:0:
229,117,185088,1,2,1:2:0:0:
229,117,185167,1,0,1:0:0:0:
229,117,185246,1,2,1:2:0:0:
264,371,185404,1,10,2:2:0:0:
264,371,185719,6,0,P|266:323|273:264,1,87,2|0,1:2|1:1,0:0:0:0:
132,149,186035,1,10,2:2:0:0:
7,299,186193,2,0,P|64:342|144:312,1,130.5,2|0,1:2|0:0,0:0:0:0:
145,306,186509,1,2,1:2:0:0:
195,69,186667,1,10,2:2:0:0:
143,167,186825,1,2,1:2:0:0:
298,70,186983,5,14,2:2:0:0:
112,0,187140,1,0,1:1:0:0:
318,57,187298,1,0,1:1:0:0:
233,192,187456,1,14,2:2:0:0:
435,88,187614,5,2,1:2:0:0:
260,1,187772,1,0,1:1:0:0:
364,211,187930,5,12,2:2:0:0:
124,307,188088,1,0,1:1:0:0:
202,109,188246,1,0,1:1:0:0:
262,375,188404,2,0,P|277:289|251:190,1,174,12|0,2:2|1:1,0:0:0:0:
79,267,188877,2,0,P|18:295|-28:289,1,87,14|0,2:2|1:1,0:0:0:0:
253,114,189193,2,0,P|295:119|332:142,1,87,12|0,2:2|1:1,0:0:0:0:
16,209,189509,5,14,1:3:0:0:
102,52,189667,1,8,1:2:0:0:
91,29,189746,1,8,1:2:0:0:
80,6,189825,1,8,2:2:0:0:
274,92,189983,5,8,1:3:0:0:
232,226,190140,1,0,1:1:0:0:
209,237,190219,1,0,1:1:0:0:
186,248,190298,1,8,2:2:0:0:
389,302,190456,5,8,1:3:0:0:
459,126,190614,1,0,1:1:0:0:
302,271,190772,5,8,2:2:0:0:
186,248,190930,1,10,2:2:0:0:
209,132,191088,1,10,2:2:0:0:
325,155,191246,1,10,2:2:0:0:
276,360,191404,5,10,1:2:0:0:
91,225,191562,1,10,1:2:0:0:
226,40,191720,1,10,1:2:0:0:
419,183,191878,1,10,1:2:0:0:
419,183,191956,1,8,1:2:0:0:
419,183,192035,2,0,P|430:217|411:276,1,78.2999976104737,2|0,2:2|0:0,0:0:0:0:
411,286,192351,6,0,P|391:218|434:117,1,156.599995220947,10|0,2:2|0:0,0:0:0:0:
483,73,192667,1,2,1:2:0:0:
309,194,192825,1,2,1:2:0:0:
309,194,192904,1,0,1:0:0:0:
309,194,192983,1,10,2:2:0:0:
195,66,193140,1,0,0:0:0:0:
205,294,193298,6,0,P|225:249|222:185,1,87,2|0,1:2|0:0,0:0:0:0:
183,49,193614,1,10,2:2:0:0:
122,356,193772,2,0,P|118:312|99:273,1,87,2|0,1:2|1:0,0:0:0:0:
99,273,194009,1,0,1:0:0:0:
99,273,194088,1,0,1:1:0:0:
17,216,194246,1,10,2:2:0:0:
205,294,194404,1,2,2:2:0:0:
66,99,194562,6,0,L|76:165,1,43.5,6|0,1:2|0:0,0:0:0:0:
243,196,194719,1,2,1:2:0:0:
19,301,194877,1,10,2:2:0:0:
145,199,195035,1,2,2:2:0:0:
268,361,195193,1,2,1:2:0:0:
427,269,195351,1,2,1:2:0:0:
298,191,195509,2,0,P|276:233|287:304,1,87,10|8,2:2|1:3,0:0:0:0:
392,143,195825,6,0,P|364:159|284:70,1,174,2|10,1:2|2:2,0:0:0:0:
505,211,196298,1,2,1:2:0:0:
503,17,196456,2,0,B|469:114|528:94|486:201,1,174,8|8,2:3|2:2,0:0:0:0:
296,170,196930,5,8,0:0:0:0:
392,320,197089,2,0,P|428:342|470:336,1,87,6|0,1:2|0:2,0:0:0:0:
417,128,197404,1,10,2:2:0:0:
208,205,197562,1,0,0:0:0:0:
314,195,197719,2,0,P|327:147|311:78,1,87,2|0,1:2|1:1,0:0:0:0:
199,20,198035,2,0,P|186:68|202:137,1,87,10|0,2:2|0:0,0:0:0:0:
151,268,198351,5,2,1:2:0:0:
104,179,198509,1,0,0:0:0:0:
263,276,198667,1,10,2:2:0:0:
47,380,198825,1,0,0:0:0:0:
263,276,198983,1,2,1:2:0:0:
4,181,199140,1,0,1:1:0:0:
161,375,199298,5,10,2:2:0:0:
161,375,199377,1,0,0:0:0:0:
161,375,199456,1,0,0:0:0:0:
161,375,199535,1,0,0:0:0:0:
161,375,199614,2,0,P|137:303|180:212,1,156.599995220947,6|0,1:2|0:0,0:0:0:0:
241,258,199930,2,0,L|367:238,1,104.399996813965,8|0,2:2|1:1,0:0:0:0:
216,128,200246,5,6,1:2:0:0:
78,226,200404,1,0,0:0:0:0:
306,339,200562,1,8,2:2:0:0:
241,258,200719,1,0,0:0:0:0:
350,155,200877,5,14,1:2:0:0:
162,229,201035,1,0,1:1:0:0:
386,235,201193,1,10,2:2:0:0:
125,148,201351,1,2,1:2:0:0:
442,132,201509,1,12,1:2:0:0:
70,252,201667,1,8,2:2:0:0:
232,123,201825,5,8,2:3:0:0:
232,123,201904,1,4,2:3:0:0:
232,123,201983,1,0,1:1:0:0:
232,123,202062,1,0,1:1:0:0:
232,123,202140,1,6,1:2:0:0:
175,298,202298,1,2,1:2:0:0:
375,246,202456,1,10,2:2:0:0:
494,369,202614,1,2,1:2:0:0:
472,162,202772,2,0,P|487:122|479:56,1,87,2|2,1:2|2:2,0:0:0:0:
234,63,203088,6,0,L|435:111,1,174,10|2,2:2|1:2,0:0:0:0:
403,103,203562,1,0,1:1:0:0:
325,46,203719,1,10,2:2:0:0:
189,208,203877,1,2,1:2:0:0:
120,10,204035,2,0,L|140:75,1,43.5,0|0,1:0|1:0,0:0:0:0:
162,126,204193,1,0,1:1:0:0:
17,67,204351,5,10,2:2:0:0:
286,129,204509,1,2,2:2:0:0:
47,298,204667,2,0,P|33:214|71:137,1,174,6|8,1:2|2:2,0:0:0:0:
286,129,205140,1,0,0:0:0:0:
343,212,205298,2,0,P|301:223|258:225,1,87,2|0,1:2|1:1,0:0:0:0:
153,350,205614,2,0,P|150:307|140:265,1,87,8|0,2:2|0:0,0:0:0:0:
71,136,205930,5,6,1:2:0:0:
381,248,206088,1,10,2:3:0:0:
282,37,206246,1,6,2:3:0:0:
153,350,206404,2,0,P|237:364|314:326,1,174,6|0,1:2|1:1,0:0:0:0:
285,237,206877,2,0,L|243:249,1,43.5,8|0,2:2|1:0,0:0:0:0:
401,263,207035,2,0,L|385:207,1,43.5,8|8,2:2|2:2,0:0:0:0:
248,116,207193,6,0,P|210:193|224:277,1,174,6|8,1:2|2:2,0:0:0:0:
365,382,207667,2,0,P|402:305|388:220,1,174,6|8,1:2|2:2,0:0:0:0:
248,116,208140,2,0,B|159:94|174:155|54:121,1,174,6|0,1:2|2:2,0:0:0:0:
41,57,208614,1,0,1:1:0:0:
41,57,208772,2,0,P|5:92|4:141,1,87,10|0,2:2|0:0,0:0:0:0:
89,222,209088,2,0,L|193:195,1,87,10|10,1:3|2:2,0:0:0:0:
173,200,209325,1,8,0:0:0:0:
173,200,209404,1,8,2:2:0:0:
189,376,209562,2,0,L|178:334,1,43.5,8|0,2:2|0:0,0:0:0:0:
170,319,209719,6,0,P|78:306|-18:283,1,174,6|8,1:2|2:2,0:0:0:0:
261,324,210193,2,0,P|275:238|295:153,1,174,6|8,1:2|2:2,0:0:0:0:
257,60,210588,1,0,0:0:0:0:
257,60,210667,2,0,P|196:65|183:180,1,174,6|8,1:2|2:2,0:0:0:0:
169,161,211062,1,8,2:2:0:0:
169,161,211140,1,8,2:2:0:0:
310,249,211298,6,0,L|415:227,1,87,10|0,1:3|1:1,0:0:0:0:
470,298,211535,1,4,2:3:0:0:
482,277,211614,2,0,L|460:172,1,87,10|10,2:2|2:2,0:0:0:0:
390,19,211930,1,8,2:3:0:0:
307,160,212088,1,0,1:1:0:0:
178,102,212246,6,0,P|152:165|173:292,1,174,6|8,1:2|2:2,0:0:0:0:
323,326,212719,2,0,P|335:241|306:159,1,174,6|8,1:2|2:2,0:0:0:0:
79,291,213193,6,0,P|123:347|236:308,1,174,6|8,1:2|2:2,0:0:0:0:
394,135,213667,2,0,P|350:79|237:118,1,174,6|8,1:2|2:2,0:0:0:0:
283,261,214140,5,6,1:2:0:0:
283,261,214298,1,8,2:2:0:0:
198,162,214456,5,14,1:3:0:0:
198,162,214614,1,4,2:3:0:0:
351,47,214772,5,6,1:2:0:0:
182,1,214930,1,8,2:2:0:0:
182,1,215009,1,8,2:2:0:0:
182,1,215088,1,8,2:2:0:0:
394,135,215246,5,8,2:3:0:0:
101,206,215404,1,8,2:2:0:0:
101,206,215483,1,8,2:2:0:0:
101,206,215562,1,8,2:2:0:0:
445,275,215719,5,0,1:1:0:0:
60,365,215877,1,8,2:2:0:0:
60,365,215956,1,8,2:2:0:0:
60,365,216035,1,14,2:2:0:0:
256,195,216193,5,12,2:2:0:0:
256,192,216272,12,6,217298,2:2:0:0:
