osu file format v14

[General]
AudioFilename: audio.mp3
AudioLeadIn: 0
PreviewTime: 136313
Countdown: 0
SampleSet: Soft
StackLeniency: 0.7
Mode: 0
LetterboxInBreaks: 0
WidescreenStoryboard: 1

[Editor]
Bookmarks: 59734,93050,161419
DistanceSpacing: 1.5
BeatDivisor: 4
GridSize: 4
TimelineZoom: 1.7

[Metadata]
Title:INFINITE SKY
TitleUnicode:INFINITE SKY
Artist:Faylan
ArtistUnicode:Faylan
Creator:Yogurtt
Version:Collab Hard
Source:蒼の彼方のフォーリズム
Tags:op opening 2 aokana ao no kanata four rhythms across the blue sprite 2nd season rhythm into firmament video game female vocals visual novel vn bgm japanese pop jpop eroge erisu lanzhu koldnoodl -_Ex_- kowari skyflame cover j-pop
BeatmapID:3815760
BeatmapSetID:1855532

[Difficulty]
HPDrainRate:4.3
CircleSize:3.5
OverallDifficulty:7
ApproachRate:8
SliderMultiplier:1.5
SliderTickRate:1

[Events]
//Background and Video events
0,0,"yogurttbg.jpg",0,0
//Break Periods
2,85025,92210
2,172025,180789
//Storyboard Layer 0 (Background)
//Storyboard Layer 1 (Fail)
//Storyboard Layer 2 (Pass)
//Storyboard Layer 3 (Foreground)
//Storyboard Layer 4 (Overlay)
//Storyboard Sound Samples

[TimingPoints]
2562,315.789473684211,4,2,1,40,1,0
2562,-133.333333333333,4,2,1,40,0,0
13929,-133.333333333333,4,2,1,5,0,0
14246,-100,4,2,1,50,0,0
15035,-100,4,2,1,45,0,0
29088,-100,4,2,1,50,0,0
58140,-100,4,2,2,50,0,0
58456,-100,4,2,1,50,0,0
60667,-90.9090909090909,4,2,2,70,0,0
60825,-90.9090909090909,4,2,1,70,0,0
83088,-90.9090909090909,4,2,2,70,0,0
83245,-90.9090909090909,4,2,1,70,0,0
85930,-90.9090909090909,4,2,1,40,0,0
93035,-100,4,2,1,60,0,0
116246,-100,4,2,1,30,0,0
118772,-100,4,2,1,50,0,0
120035,-100,4,2,1,60,0,0
121298,-100,4,2,1,40,0,0
121614,-100,4,2,1,60,0,0
136456,-90.9090909090909,4,2,2,70,0,0
136614,-90.9090909090909,4,2,1,70,0,0
158877,-90.9090909090909,4,2,2,70,0,0
159034,-90.9090909090909,4,2,1,70,0,0
161719,-100,4,2,1,70,0,0
189509,-100,4,2,2,70,0,0
189667,-100,4,2,1,70,0,0
192351,-90.9090909090909,4,2,3,70,0,0
192508,-90.9090909090909,4,2,1,70,0,0
214456,-90.9090909090909,4,2,2,70,0,0
214613,-90.9090909090909,4,2,1,70,0,0
217298,-90.9090909090909,4,2,1,40,0,0
227719,-90.9090909090909,4,2,1,70,0,0
228508,-90.9090909090909,4,2,2,70,0,0
231193,-90.9090909090909,4,2,2,5,0,0

[Colours]
Combo1 : 244,198,57
Combo2 : 240,55,171
Combo3 : 230,122,43
Combo4 : 253,77,77

[HitObjects]
48,83,2562,6,0,P|34:38|28:11,2,56.2500021457673,6|2|2,2:2|2:2|2:2,0:0:0:0:
120,137,3035,1,2,2:2:0:0:
120,137,3193,2,0,P|173:117|251:106,1,112.500004291535,2|2,2:2|2:2,0:0:0:0:
423,30,3825,6,0,P|413:88|402:157,1,112.500004291535,2|2,2:2|2:2,0:0:0:0:
389,222,4298,1,2,2:2:0:0:
463,353,4614,2,0,P|486:368|516:377,2,56.2500021457673,2|2|2,2:2|2:2|2:2,0:0:0:0:
373,309,5088,6,0,P|308:292|284:292,1,56.2500021457673,2|2,2:2|2:2,0:0:0:0:
263,234,5404,1,2,2:2:0:0:
263,234,5562,2,0,P|198:242|167:319,1,112.500004291535,2|2,2:2|2:2,0:0:0:0:
139,351,6035,1,2,2:2:0:0:
32,237,6351,6,0,P|38:181|64:93,1,112.500004291535,2|0,2:2|0:0,0:0:0:0:
123,82,6825,1,2,2:2:0:0:
123,82,6983,2,0,P|135:27|137:12,1,56.2500021457673,2|2,2:2|2:2,0:0:0:0:
293,65,7456,1,0,0:0:0:0:
293,65,7614,6,0,P|281:116|280:142,2,56.2500021457673,2|2|2,2:2|2:2|2:2,0:0:0:0:
364,15,8088,1,2,2:2:0:0:
364,15,8246,2,0,P|426:19|453:77,1,112.500004291535,2|2,2:2|2:2,0:0:0:0:
512,188,8877,2,0,P|450:192|423:250,1,112.500004291535,2|0,2:2|0:0,0:0:0:0:
369,294,9351,2,0,L|220:268,1,112.500004291535,0|2,0:0|2:2,0:0:0:0:
178,254,9825,1,2,2:2:0:0:
53,347,10140,6,0,P|25:280|61:172,1,168.750006437302,2|2,2:2|2:2,0:0:0:0:
99,125,10772,1,2,2:2:0:0:
362,84,11404,6,0,P|390:151|354:259,1,168.750006437302,2|2,2:2|2:2,0:0:0:0:
316,306,12036,1,2,2:2:0:0:
130,209,12667,6,0,L|307:172,1,168.750006437302,2|2,2:2|2:2,0:0:0:0:
375,155,13298,2,0,L|428:143,6,28.1250010728836,2|0|0|0|0|0|0,2:2|0:0|0:0|0:0|0:0|0:0|0:0,0:0:0:0:
81,37,14246,5,10,2:2:0:0:
39,113,14404,1,2,1:2:0:0:
111,168,14562,1,10,2:2:0:0:
59,237,14719,2,0,P|91:280|197:262,1,150,2|6,1:2|1:2,0:0:0:0:
348,355,15351,5,2,2:2:0:0:
348,355,15509,2,0,P|338:312|333:261,1,75,2|2,2:2|1:2,0:0:0:0:
386,217,15825,2,0,P|381:176|366:127,1,75,2|2,1:2|2:2,0:0:0:0:
298,100,16140,2,0,P|290:50|290:7,1,75,2|2,2:2|2:2,0:0:0:0:
197,18,16456,6,0,P|135:30|124:128,1,150,2|2,1:2|2:2,0:0:0:0:
70,188,16930,1,2,1:2:0:0:
70,188,17088,2,0,P|132:200|143:298,1,150,2|2,2:2|2:2,0:0:0:0:
294,322,17719,6,0,P|352:341|425:275,1,150,2|2,1:2|2:2,0:0:0:0:
485,236,18193,1,2,1:2:0:0:
485,236,18351,2,0,P|472:184|468:144,1,75,2|2,2:2|2:2,0:0:0:0:
391,125,18667,2,0,P|385:87|375:51,1,75,2|2,2:2|2:2,0:0:0:0:
289,2,18983,6,0,P|210:17|198:100,1,150,2|2,1:2|1:2,0:0:0:0:
139,150,19456,2,0,P|79:157|30:88,1,150,2|2,1:2|2:2,0:0:0:0:
23,9,19930,2,0,L|71:15,4,37.5,2|0|2|0|2,2:2|0:0|1:2|0:0|1:2,0:0:0:0:
190,76,20562,6,0,P|217:109|226:153,1,75,2|2,2:2|1:2,0:0:0:0:
201,219,20877,2,0,P|251:168|332:182,1,150,2|2,2:2|2:2,0:0:0:0:
503,278,21509,2,0,P|453:329|372:315,1,150,2|2,1:2|2:2,0:0:0:0:
311,371,21983,2,0,P|261:320|180:334,1,150,2|0,1:2|0:0,0:0:0:0:
117,373,22456,1,2,2:2:0:0:
29,243,22772,6,0,P|1:158|172:59,1,300,2|0,1:2|0:0,0:0:0:0:
286,138,23719,2,0,P|340:123|378:111,1,75,2|2,2:2|2:2,0:0:0:0:
396,37,24035,6,0,P|444:94|425:175,1,150,2|2,1:2|2:2,0:0:0:0:
512,287,24667,2,0,P|459:339|377:327,1,150,0|2,0:0|2:2,0:0:0:0:
226,263,25298,6,0,P|216:309|211:346,1,75,2|2,1:2|2:2,0:0:0:0:
290,373,25614,2,0,P|317:251|297:78,1,300,2|2,2:2|2:2,0:0:0:0:
165,164,26562,2,0,L|11:137,1,150,0|2,1:1|2:2,0:0:0:0:
0,224,27035,1,2,1:2:0:0:
0,224,27193,2,0,L|154:251,1,150,0|2,0:0|2:2,0:0:0:0:
314,350,27825,6,0,P|387:359|441:310,1,150,0|0,1:1|0:0,0:0:0:0:
502,253,28298,1,0,1:0:0:0:
502,253,28456,2,0,P|487:188|487:161,1,75
383,148,28772,2,0,P|398:213|398:240,1,75
314,273,29088,5,2,1:2:0:0:
251,212,29246,1,0,1:1:0:0:
180,262,29404,2,0,P|138:255|101:257,1,75,8|8,2:2|2:2,0:0:0:0:
93,268,29640,1,8,2:2:0:0:
83,280,29719,6,0,P|71:230|65:188,1,75,10|8,2:2|2:3,0:0:0:0:
0,138,30035,2,0,P|6:101|15:64,1,75,4|0,2:3|1:1,0:0:0:0:
82,4,30351,1,6,1:2:0:0:
214,142,30667,6,0,P|261:126|317:120,1,75,10|2,2:2|2:2,0:0:0:0:
347,59,30983,2,0,P|410:68|443:83,1,75,2|0,1:2|1:1,0:0:0:0:
512,52,31298,2,0,P|504:102|488:144,1,75,10|0,2:2|0:0,0:0:0:0:
512,222,31614,6,0,P|468:274|379:256,1,150,2|10,1:2|2:2,0:0:0:0:
327,321,32088,2,0,P|255:329|207:275,1,150,2|0,2:2|1:1,0:0:0:0:
206,191,32562,1,10,2:2:0:0:
97,73,32877,6,0,P|74:121|66:225,1,150,2|8,1:2|2:2,0:0:0:0:
12,283,33351,1,0,0:0:0:0:
12,283,33509,2,0,P|23:335|36:360,1,75,0|0,1:1|1:1,0:0:0:0:
111,384,33825,2,0,L|205:361,1,75,10|2,2:2|1:2,0:0:0:0:
240,294,34140,5,2,1:2:0:0:
392,368,34456,1,10,2:2:0:0:
509,243,34772,2,0,P|499:190|500:141,1,75,2|0,1:2|1:1,0:0:0:0:
407,114,35088,2,0,P|415:181|411:205,1,75,10|0,2:2|1:1,0:0:0:0:
345,246,35404,5,2,1:2:0:0:
278,185,35562,1,0,0:0:0:0:
196,221,35719,2,0,P|141:207|24:207,1,150,10|0,2:2|0:0,0:0:0:0:
50,26,36351,1,10,2:2:0:0:
117,87,36509,1,2,2:2:0:0:
199,51,36666,2,0,P|254:65|371:65,1,150,2|8,1:2|2:2,0:0:0:0:
431,12,37140,5,8,2:2:0:0:
431,12,37219,1,8,2:2:0:0:
431,12,37298,2,0,P|441:59|447:97,1,75,10|8,2:2|2:3,0:0:0:0:
512,158,37614,2,0,P|502:205|496:243,1,75,6|0,2:3|1:1,0:0:0:0:
425,298,37930,6,0,P|371:246|216:270,1,225,6|0,1:2|1:1,0:0:0:0:
167,339,38562,1,8,2:2:0:0:
14,291,38877,1,2,1:2:0:0:
14,291,39035,1,10,2:2:0:0:
70,223,39193,6,0,P|83:166|88:118,1,75,2|0,1:2|0:0,0:0:0:0:
191,96,39509,2,0,P|178:153|173:201,1,75,2|0,1:2|0:0,0:0:0:0:
249,262,39825,2,0,P|262:205|267:157,1,75,10|0,2:2|0:0,0:0:0:0:
372,123,40140,2,0,P|359:180|354:228,1,75,2|0,1:2|0:0,0:0:0:0:
396,278,40456,1,0,1:2:0:0:
466,105,40772,6,0,P|426:43|354:28,1,150,12|2,2:2|1:2,0:0:0:0:
281,73,41246,1,2,1:2:0:0:
281,73,41404,1,10,2:2:0:0:
209,6,41562,6,0,P|175:58|211:144,1,150,6|0,1:2|1:1,0:0:0:0:
256,209,42035,1,10,2:2:0:0:
256,209,42193,2,0,P|314:192|435:189,1,150,2|2,2:2|1:2,0:0:0:0:
287,347,42825,2,0,P|229:371|139:252,1,225,6|8,1:2|2:2,0:0:0:0:
60,113,43614,1,0,1:1:0:0:
60,113,43772,1,0,1:1:0:0:
138,60,43930,2,0,P|151:100|149:158,1,75,8|0,2:2|1:1,0:0:0:0:
221,201,44246,6,0,P|269:184|309:183,1,75,6|0,1:2|1:1,0:0:0:0:
371,254,44562,2,0,P|323:271|283:272,1,75,10|0,2:2|0:0,0:0:0:0:
225,339,44877,1,2,1:2:0:0:
225,339,45035,1,10,2:2:0:0:
135,293,45193,2,0,P|110:251|140:141,1,150,10|2,2:2|2:2,0:0:0:0:
0,29,45825,6,0,P|75:68|151:43,1,150,12|10,2:2|2:3,0:0:0:0:
216,98,46298,1,6,2:3:0:0:
216,98,46456,1,10,2:2:0:0:
261,19,46614,6,0,P|315:47|302:157,1,150,6|0,1:2|1:1,0:0:0:0:
263,193,47088,1,10,2:2:0:0:
263,193,47246,2,0,P|341:217|420:218,1,150,2|2,1:2|1:2,0:0:0:0:
280,345,47877,2,0,P|202:321|123:320,1,150,6|0,1:2|1:1,0:0:0:0:
60,369,48351,2,0,P|22:313|57:224,1,150,8|0,2:2|1:1,0:0:0:0:
102,175,48825,1,0,1:1:0:0:
102,175,48983,1,8,2:2:0:0:
49,44,49298,6,0,P|131:54|146:52,1,75,14|0,1:2|0:0,0:0:0:0:
180,126,49614,2,0,P|262:136|277:134,1,75,10|0,2:2|1:1,0:0:0:0:
323,77,49930,2,0,P|405:87|420:85,1,75,10|0,2:2|0:0,0:0:0:0:
474,41,50246,2,0,P|493:112|471:183,1,150,10|6,2:2|1:2,0:0:0:0:
489,335,50877,6,0,P|442:320|399:318,1,75,10|2,2:2|2:2,0:0:0:0:
355,263,51193,1,2,1:2:0:0:
355,263,51351,1,2,1:2:0:0:
290,330,51509,2,0,P|262:263|298:184,1,150,10|2,2:2|1:2,0:0:0:0:
393,29,52140,6,0,P|346:44|303:46,1,75,10|2,2:2|2:2,0:0:0:0:
259,101,52456,1,2,1:2:0:0:
259,101,52614,1,2,1:2:0:0:
195,30,52772,2,0,P|167:97|203:176,1,150,10|2,2:2|1:2,0:0:0:0:
256,227,53246,1,2,2:2:0:0:
204,301,53404,6,0,P|157:286|114:284,1,75,10|2,2:2|2:2,0:0:0:0:
70,229,53720,1,2,1:2:0:0:
70,229,53878,1,2,1:2:0:0:
2,294,54036,2,0,P|-26:227|10:148,1,150,10|2,2:2|1:2,0:0:0:0:
171,55,54667,1,10,2:2:0:0:
171,55,54825,2,0,P|199:122|163:201,1,150,2|2,1:2|1:2,0:0:0:0:
96,248,55298,1,10,2:2:0:0:
180,289,55456,1,2,1:2:0:0:
258,235,55614,6,0,P|337:213|419:215,1,150,14|0,2:2|1:1,0:0:0:0:
478,272,56088,2,0,P|492:217|476:122,1,150,14|0,2:2|1:1,0:0:0:0:
401,53,56562,6,0,P|369:90|266:90,1,150,12|0,2:2|1:1,0:0:0:0:
203,38,57035,2,0,P|148:29|99:130,1,150,12|0,2:2|1:1,0:0:0:0:
40,181,57509,6,0,L|142:193,1,75,14|0,2:2|1:1,0:0:0:0:
183,260,57825,2,0,L|285:272,1,75,12|0,2:2|1:1,0:0:0:0:
344,332,58140,6,0,P|356:270|306:173,1,150,14|8,1:3|2:2,0:0:0:0:
243,144,58614,2,0,P|239:71|295:14,1,150,8|8,1:3|2:2,0:0:0:0:
383,7,59088,1,8,1:3:0:0:
445,82,59246,1,0,1:1:0:0:
418,174,59404,6,0,L|322:160,1,75,8|10,2:2|2:2,0:0:0:0:
221,233,59719,2,0,L|317:247,1,75,10|10,2:2|2:2,0:0:0:0:
363,316,60035,1,10,2:2:0:0:
292,377,60193,1,10,2:2:0:0:
213,324,60351,2,0,L|148:315,3,37.5,10|0|10|0,2:2|0:0|2:2|0:0,0:0:0:0:
131,334,60667,6,0,P|115:286|119:238,1,82.5000025177003,2|2,2:2|2:2,0:0:0:0:
61,186,60983,2,0,P|62:115|146:67,1,165.000005035401,10|2,2:2|1:2,0:0:0:0:
206,125,61456,1,2,1:2:0:0:
276,65,61614,2,0,P|331:82|382:79,1,82.5000025177003,10|0,2:2|0:0,0:0:0:0:
459,35,61930,6,0,P|443:98|432:206,1,165.000005035401,2|10,1:2|2:2,0:0:0:0:
337,222,62404,2,0,P|353:285|364:393,1,165.000005035401,2|0,1:2|1:1,0:0:0:0:
262,362,62877,2,0,P|253:316|249:265,1,82.5000025177003,10|2,2:2|2:2,0:0:0:0:
164,186,63193,5,6,1:2:0:0:
164,186,63351,1,2,2:2:0:0:
233,127,63509,2,0,P|285:141|342:138,1,82.5000025177003,10|2,2:2|2:2,0:0:0:0:
328,50,63825,2,0,P|276:36|219:39,1,82.5000025177003,2|2,1:2|1:2,0:0:0:0:
172,71,64140,2,0,P|116:67|75:52,1,82.5000025177003,10|0,2:2|0:0,0:0:0:0:
0,0,64456,6,0,L|32:174,1,165.000005035401,2|10,1:2|2:2,0:0:0:0:
106,213,64930,2,0,L|74:387,1,165.000005035401,2|0,1:2|0:0,0:0:0:0:
177,323,65404,1,8,2:2:0:0:
261,378,65562,5,8,2:2:0:0:
261,378,65640,1,8,0:0:0:0:
261,378,65719,2,0,P|336:367|362:286,1,165.000005035401,6|10,1:2|2:2,0:0:0:0:
512,159,66351,2,0,P|437:148|411:67,1,165.000005035401,2|10,1:2|2:2,0:0:0:0:
222,9,66983,6,0,P|240:81|258:201,1,165.000005035401,2|10,1:2|2:2,0:0:0:0:
134,335,67614,2,0,P|121:286|119:236,1,82.5000025177003,2|0,1:2|1:1,0:0:0:0:
43,202,67930,2,0,P|38:142|43:99,1,82.5000025177003,10|0,2:2|0:0,0:0:0:0:
107,40,68246,6,0,P|145:81|264:63,1,165.000005035401,6|8,1:2|2:2,0:0:0:0:
318,10,68719,1,0,0:0:0:0:
403,51,68877,2,0,P|428:152|379:207,1,165.000005035401,6|8,1:2|2:2,0:0:0:0:
317,267,69351,1,0,0:0:0:0:
235,215,69509,6,0,P|225:161|221:115,1,82.5000025177003,6|0,1:2|1:1,0:0:0:0:
93,118,69825,2,0,P|103:172|107:218,1,82.5000025177003,10|2,2:2|1:2,0:0:0:0:
66,311,70140,1,4,1:2:0:0:
160,376,70298,1,8,2:2:0:0:
160,376,70377,1,0,0:0:0:0:
160,376,70456,2,0,L|213:358,3,41.2500012588501,8|4|0|0,2:3|2:3|1:1|1:1,0:0:0:0:
225,329,70772,6,0,P|272:332|323:318,1,82.5000025177003,6|2,1:2|1:2,0:0:0:0:
398,384,71088,2,0,P|412:334|416:281,1,82.5000025177003,10|2,2:2|1:2,0:0:0:0:
353,223,71404,1,2,1:2:0:0:
353,223,71562,1,2,2:2:0:0:
434,163,71719,2,0,P|454:103|379:29,1,165.000005035401,10|2,2:2|1:2,0:0:0:0:
317,93,72193,5,0,1:1:0:0:
249,19,72351,1,10,2:2:0:0:
167,68,72509,2,0,P|144:122|153:257,1,165.000005035401,2|0,1:2|1:1,0:0:0:0:
216,285,72983,2,0,P|263:278|310:267,1,82.5000025177003,10|2,2:2|2:2,0:0:0:0:
369,211,73298,6,0,P|315:163|211:193,1,165.000005035401,6|8,1:2|2:2,0:0:0:0:
139,227,73772,1,0,0:0:0:0:
139,227,73930,2,0,P|71:241|19:142,1,165.000005035401,2|8,1:2|2:2,0:0:0:0:
72,6,74562,5,6,1:2:0:0:
138,76,74719,1,10,2:3:0:0:
216,18,74877,1,6,2:3:0:0:
275,91,75035,2,0,P|342:73|467:66,1,165.000005035401,6|0,1:2|1:1,0:0:0:0:
508,128,75509,2,0,L|496:179,3,41.2500012588501,8|0|8|0,2:2|0:0|2:2|0:0,0:0:0:0:
491,202,75825,6,0,P|420:177|368:250,1,165.000005035401,6|8,1:2|2:2,0:0:0:0:
305,300,76298,2,0,P|237:333|186:240,1,165.000005035401,6|8,1:2|2:2,0:0:0:0:
107,224,76772,2,0,P|129:149|131:27,1,165.000005035401,6|0,1:2|0:0,0:0:0:0:
51,0,77246,5,0,1:1:0:0:
51,0,77404,2,0,P|41:51|42:96,1,82.5000025177003,10|0,2:2|0:0,0:0:0:0:
112,145,77719,1,10,1:3:0:0:
199,125,77877,2,0,P|264:99|389:96,1,165.000005035401,10|0,2:2|0:0,0:0:0:0:
480,26,78351,6,0,P|457:101|449:222,1,165.000005035401,6|8,1:2|2:2,0:0:0:0:
506,258,78825,2,0,P|480:318|368:297,1,165.000005035401,6|8,1:2|2:2,0:0:0:0:
330,250,79298,2,0,P|288:231|172:245,1,165.000005035401,6|8,1:2|2:2,0:0:0:0:
88,315,79772,5,8,2:2:0:0:
88,315,79930,2,0,P|68:244|70:222,1,82.5000025177003,10|0,1:3|1:1,0:0:0:0:
126,161,80246,1,10,2:2:0:0:
48,106,80404,2,0,P|51:35|158:20,1,165.000005035401,10|0,2:2|1:1,0:0:0:0:
206,75,80877,6,0,P|271:53|391:43,1,165.000005035401,6|8,1:2|2:2,0:0:0:0:
452,3,81351,2,0,P|478:55|451:166,1,165.000005035401,6|8,1:2|2:2,0:0:0:0:
469,254,81825,6,0,P|405:235|287:234,1,165.000005035401,6|8,1:2|2:2,0:0:0:0:
241,305,82298,2,0,P|196:320|125:221,1,165.000005035401,6|8,1:2|2:2,0:0:0:0:
62,162,82772,6,0,P|118:149|149:137,1,82.5000025177003,6|8,1:2|2:2,0:0:0:0:
199,57,83088,2,0,P|255:70|286:82,1,82.5000025177003,14|4,1:3|2:3,0:0:0:0:
408,69,83404,6,0,P|378:153|371:253,1,165.000005035401,6|8,1:2|2:2,0:0:0:0:
270,306,83877,2,0,P|252:239|196:156,1,165.000005035401,8|8,2:3|2:2,0:0:0:0:
94,97,84351,2,0,P|80:144|83:195,1,82.5000025177003,0|8,1:1|2:2,0:0:0:0:
188,61,84667,1,14,2:2:0:0:
100,0,84825,1,12,2:2:0:0:
59,122,93035,6,0,P|38:168|43:206,2,75,2|2|2,2:2|2:2|2:2,0:0:0:0:
33,36,93509,6,0,P|71:86|173:57,1,150,6|0,1:2|0:0,0:0:0:0:
222,131,93983,1,2,1:2:0:0:
222,131,94140,2,0,P|265:82|350:91,1,150,10|2,2:2|1:2,0:0:0:0:
479,192,94772,6,0,P|469:239|460:353,1,150,2|10,1:2|2:2,0:0:0:0:
321,281,95404,2,0,P|285:296|239:300,1,75,10|0,2:3|0:0,0:0:0:0:
185,364,95719,2,0,P|142:348|98:347,1,75,6|0,2:3|1:1,0:0:0:0:
28,384,96035,6,0,L|4:220,1,150,6|10,1:2|2:2,0:0:0:0:
64,173,96509,1,2,2:2:0:0:
64,173,96667,2,0,P|53:102|109:57,1,150,2|10,1:2|2:2,0:0:0:0:
249,117,97298,6,0,P|290:103|333:97,1,75,2|0,1:2|1:1,0:0:0:0:
386,41,97614,1,10,2:2:0:0:
386,41,97772,2,0,P|417:81|417:191,1,150,2|0,1:2|0:0,0:0:0:0:
373,245,98246,1,10,2:2:0:0:
438,367,98562,6,0,P|352:342|285:346,1,150,2|8,1:2|2:2,0:0:0:0:
150,276,99193,1,0,1:1:0:0:
150,276,99351,1,0,1:1:0:0:
71,331,99509,2,0,P|60:295|55:257,1,75,10|2,2:2|2:2,0:0:0:0:
114,181,99825,6,0,P|90:132|155:54,1,150,2|10,1:2|2:2,0:0:0:0:
221,92,100298,2,0,P|266:76|372:67,1,150,0|0,0:0|1:1,0:0:0:0:
436,12,100772,1,10,2:2:0:0:
481,172,101088,5,6,1:2:0:0:
481,172,101246,1,2,1:2:0:0:
415,227,101404,2,0,P|365:202|265:195,2,150,10|0|10,2:2|1:1|2:2,0:0:0:0:
393,313,102193,5,2,2:2:0:0:
393,313,102351,2,0,P|308:303|249:275,1,150,0|10,1:1|2:2,0:0:0:0:
175,317,102825,2,0,P|106:323|96:230,1,150,2|0,2:2|1:1,0:0:0:0:
138,191,103298,2,0,P|128:146|116:96,1,75,10|2,2:2|2:2,0:0:0:0:
82,38,103614,5,0,1:1:0:0:
82,38,103772,1,0,1:1:0:0:
174,28,103930,2,0,P|220:15|303:78,1,150,8|0,2:2|1:1,0:0:0:0:
251,159,104404,2,0,P|334:172|386:117,1,150,0|0,1:1|0:0,0:0:0:0:
415,53,104877,5,0,1:1:0:0:
501,176,105193,2,0,P|480:233|450:337,1,150,8|8,2:2|2:2,0:0:0:0:
353,358,105667,1,0,1:1:0:0:
353,358,105825,2,0,P|366:310|376:263,1,75,8|8,2:2|2:3,0:0:0:0:
393,204,106140,1,4,1:2:0:0:
249,106,106456,6,0,P|259:146|273:193,1,75,10|2,2:2|2:2,0:0:0:0:
221,247,106772,2,0,P|165:248|141:155,1,150,2|10,1:2|2:2,0:0:0:0:
155,14,107404,2,0,P|73:17|54:100,1,150,2|10,1:2|2:2,0:0:0:0:
1,142,107877,2,0,P|31:202|42:301,1,150,2|0,1:2|1:1,0:0:0:0:
6,358,108351,1,10,2:2:0:0:
161,262,108667,6,0,P|211:253|278:331,1,150,2|8,1:2|2:2,0:0:0:0:
346,368,109140,2,0,P|404:378|460:292,1,150,0|0,0:0|1:1,0:0:0:0:
512,232,109614,2,0,P|474:228|440:213,1,75,10|2,2:2|2:2,0:0:0:0:
377,149,109930,5,2,1:2:0:0:
260,228,110246,1,10,2:2:0:0:
165,123,110562,2,0,P|164:69|151:22,1,75,2|0,1:2|1:1,0:0:0:0:
71,57,110877,2,0,P|72:111|85:158,1,75,10|8,2:2|2:2,0:0:0:0:
131,208,111194,5,2,1:2:0:0:
78,288,111352,1,2,1:2:0:0:
148,349,111509,2,0,P|222:354|285:315,1,150,10|0,2:2|1:1,0:0:0:0:
459,326,112140,5,10,2:2:0:0:
512,246,112298,1,2,2:2:0:0:
441,184,112455,2,0,P|367:179|304:218,1,150,2|8,1:2|2:2,0:0:0:0:
205,255,112930,5,0,1:1:0:0:
205,255,113009,1,0,1:1:0:0:
205,255,113088,2,0,P|215:208|221:170,1,75,10|8,2:2|2:3,0:0:0:0:
290,123,113404,2,0,P|296:86|304:49,1,75,6|0,2:3|1:1,0:0:0:0:
217,12,113719,6,0,P|139:0|86:137,1,225,6|0,1:2|1:1,0:0:0:0:
115,187,114352,1,8,2:2:0:0:
17,299,114667,1,0,0:0:0:0:
17,299,114825,1,0,0:0:0:0:
88,344,114983,6,0,P|124:337|161:328,1,75,2|0,1:2|0:0,0:0:0:0:
226,248,115298,2,0,P|262:254|299:263,1,75
389,334,115614,2,0,P|405:288|410:231,1,75,10|8,2:2|2:2,0:0:0:0:
340,170,115930,2,0,P|346:133|360:98,1,75,10|8,2:2|2:2,0:0:0:0:
447,38,116246,5,0,0:0:0:0:
483,73,118772,6,0,L|470:123,3,37.5,2|2|2|2,0:0|0:0|0:0|0:0,0:0:0:0:
452,132,119088,2,0,P|420:117|371:114,1,75,4|0,1:2|0:0,0:0:0:0:
308,51,119404,1,8,2:3:0:0:
308,51,119562,1,0,0:0:0:0:
237,125,119720,2,0,P|242:167|258:224,1,75,4|0,2:3|0:0,0:0:0:0:
301,282,120036,6,0,P|263:286|229:300,1,75,2|0,1:2|0:0,0:0:0:0:
175,366,120352,2,0,P|127:383|87:384,1,75,10|0,2:2|0:0,0:0:0:0:
33,318,120667,1,2,1:2:0:0:
33,318,120825,1,2,2:2:0:0:
91,248,120983,2,0,P|116:206|86:96,1,150,10|2,2:2|2:2,0:0:0:0:
222,194,121615,6,0,P|249:169|369:179,1,150,12|2,2:2|1:2,0:0:0:0:
415,245,122088,1,2,1:2:0:0:
415,245,122246,1,10,2:2:0:0:
481,175,122404,6,0,P|478:102|417:64,1,150,6|0,1:2|1:1,0:0:0:0:
330,17,122878,1,10,2:2:0:0:
330,17,123036,2,0,P|255:20|184:43,1,150,2|2,1:2|1:2,0:0:0:0:
53,170,123667,2,0,P|126:174|198:197,1,150,6|0,1:2|1:1,0:0:0:0:
277,165,124141,2,0,P|315:226|295:296,1,150,8|0,2:2|1:1,0:0:0:0:
232,356,124615,1,0,1:1:0:0:
232,356,124773,1,8,2:2:0:0:
396,339,125088,6,0,P|406:257|404:242,1,75,6|0,1:2|0:0,0:0:0:0:
462,201,125404,2,0,P|472:119|470:104,1,75,10|0,2:2|1:1,0:0:0:0:
404,73,125719,2,0,P|362:87|319:91,1,75,10|0,2:2|0:0,0:0:0:0:
254,39,126035,2,0,P|203:34|137:124,1,150,10|6,2:2|1:2,0:0:0:0:
20,213,126667,6,0,P|57:218|93:231,1,75,10|2,2:2|2:2,0:0:0:0:
149,309,126983,1,2,1:2:0:0:
149,309,127141,1,2,1:2:0:0:
220,261,127298,2,0,P|238:194|176:127,1,150,10|2,2:2|1:2,0:0:0:0:
54,46,127930,6,0,P|101:61|144:63,1,75,10|2,2:2|2:2,0:0:0:0:
192,133,128246,1,2,1:2:0:0:
192,133,128404,1,2,1:2:0:0:
265,63,128562,2,0,P|290:131|262:199,1,150,10|2,2:2|1:2,0:0:0:0:
198,259,129036,1,2,2:2:0:0:
254,336,129194,6,0,P|291:340|326:353,1,75,10|2,2:2|2:2,0:0:0:0:
400,302,129510,1,2,1:2:0:0:
400,302,129668,1,2,1:2:0:0:
466,364,129826,2,0,P|494:297|458:218,1,150,10|2,2:2|1:2,0:0:0:0:
315,150,130457,1,10,2:2:0:0:
315,150,130615,2,0,P|287:83|323:4,1,150,2|2,1:2|1:2,0:0:0:0:
408,41,131088,1,10,2:2:0:0:
445,128,131246,1,2,1:2:0:0:
379,211,131404,6,0,P|305:239|230:241,1,150,14|0,2:2|1:1,0:0:0:0:
137,269,131878,2,0,P|151:214|135:119,1,150,14|0,2:2|1:1,0:0:0:0:
31,120,132351,6,0,P|17:175|33:270,1,150,12|0,2:2|1:1,0:0:0:0:
91,352,132825,2,0,P|162:358|216:287,1,150,12|0,2:2|1:1,0:0:0:0:
174,215,133299,6,0,L|276:227,1,75,14|0,2:2|1:1,0:0:0:0:
317,305,133615,2,0,L|419:317,1,75,12|0,2:2|1:1,0:0:0:0:
479,365,133930,6,0,P|491:303|441:206,1,150,6|8,1:2|2:2,0:0:0:0:
392,156,134404,2,0,P|336:182|243:171,1,150,0|8,1:1|2:2,0:0:0:0:
178,94,134878,1,0,1:1:0:0:
87,124,135036,1,0,1:1:0:0:
52,215,135193,6,0,P|61:278|79:297,1,75,12|2,2:2|2:2,0:0:0:0:
157,266,135509,2,0,P|148:203|130:184,1,75,2|2,2:2|2:2,0:0:0:0:
121,347,135825,1,2,2:2:0:0:
121,347,135983,1,2,2:2:0:0:
214,367,136140,1,2,2:2:0:0:
254,282,136298,1,2,2:2:0:0:
335,337,136456,6,0,P|376:331|424:318,1,82.5000025177003,2|2,2:2|2:2,0:0:0:0:
470,253,136772,2,0,P|463:203|434:153,1,82.5000025177003,10|2,2:2|2:2,0:0:0:0:
381,122,137088,1,2,1:2:0:0:
381,122,137246,1,2,1:2:0:0:
320,191,137404,2,0,P|264:208|171:145,1,165.000005035401,10|2,2:2|1:2,0:0:0:0:
151,74,137877,1,0,0:0:0:0:
67,58,138035,1,10,2:2:0:0:
9,119,138193,2,0,P|-18:174|11:279,1,165.000005035401,2|0,1:2|1:1,0:0:0:0:
71,332,138667,2,0,P|109:317|150:314,1,82.5000025177003,10|2,2:2|2:2,0:0:0:0:
240,254,138983,5,6,1:2:0:0:
240,254,139140,1,2,2:2:0:0:
313,322,139298,2,0,P|323:278|346:237,1,82.5000025177003,10|2,2:2|2:2,0:0:0:0:
427,213,139614,2,0,P|423:161|400:116,1,82.5000025177003,2|2,1:2|1:2,0:0:0:0:
344,70,139930,2,0,P|305:101|245:110,1,82.5000025177003,10|0,2:2|0:0,0:0:0:0:
189,153,140246,6,0,P|166:102|43:95,1,165.000005035401,2|10,1:2|2:2,0:0:0:0:
13,165,140719,2,0,P|55:232|135:237,1,165.000005035401,2|0,1:2|0:0,0:0:0:0:
204,300,141193,2,0,P|241:284|282:281,1,82.5000025177003,8|8,2:2|2:2,0:0:0:0:
297,288,141430,1,8,2:2:0:0:
317,298,141509,6,0,P|337:244|318:137,1,165.000005035401,6|10,1:2|2:2,0:0:0:0:
177,5,142140,2,0,P|157:59|176:166,1,165.000005035401,2|10,1:2|2:2,0:0:0:0:
402,86,142772,6,0,P|352:55|246:83,1,165.000005035401,2|10,1:2|2:2,0:0:0:0:
214,244,143404,2,0,P|161:254|125:272,1,82.5000025177003,2|0,1:2|1:1,0:0:0:0:
80,341,143719,2,0,P|34:327|0:324,1,82.5000025177003,10|0,2:2|0:0,0:0:0:0:
40,239,144035,6,0,P|24:179|100:96,1,165.000005035401,6|8,1:2|2:2,0:0:0:0:
164,56,144509,1,0,0:0:0:0:
190,147,144667,2,0,P|227:167|319:81,1,165.000005035401,6|8,1:2|2:2,0:0:0:0:
361,24,145140,1,0,0:0:0:0:
438,87,145298,6,0,P|444:135|445:195,1,82.5000025177003,6|0,1:2|1:1,0:0:0:0:
369,227,145614,2,0,P|371:268|376:309,1,82.5000025177003,10|2,2:2|1:2,0:0:0:0:
440,374,145930,1,4,1:2:0:0:
511,303,146088,1,8,2:2:0:0:
511,303,146167,1,0,0:0:0:0:
511,303,146246,2,0,L|452:284,3,41.2500012588501,8|4|0|0,2:3|2:3|1:1|1:1,0:0:0:0:
441,263,146562,6,0,P|388:277|355:288,1,82.5000025177003,6|2,1:2|1:2,0:0:0:0:
299,348,146877,2,0,P|248:335|201:327,1,82.5000025177003,10|2,2:2|1:2,0:0:0:0:
164,264,147193,1,2,1:2:0:0:
164,264,147351,1,2,2:2:0:0:
83,328,147509,2,0,P|49:261|98:172,1,165.000005035401,10|2,2:2|1:2,0:0:0:0:
183,172,147983,2,0,P|164:130|159:90,1,82.5000025177003,0|10,0:0|2:2,0:0:0:0:
237,12,148298,2,0,P|265:66|280:190,1,165.000005035401,2|0,1:2|1:1,0:0:0:0:
239,257,148772,5,10,2:2:0:0:
337,271,148930,1,2,2:2:0:0:
406,206,149088,2,0,P|421:154|354:69,1,165.000005035401,6|8,1:2|2:2,0:0:0:0:
290,136,149562,1,0,0:0:0:0:
225,72,149719,2,0,P|150:51|52:48,1,165.000005035401,2|8,1:2|2:2,0:0:0:0:
7,223,150351,6,0,P|65:208|106:206,1,82.5000025177003,6|10,1:2|2:3,0:0:0:0:
161,267,150667,1,6,2:3:0:0:
214,188,150825,2,0,P|257:178|314:279,1,165.000005035401,6|0,1:2|1:1,0:0:0:0:
289,345,151298,2,0,L|356:353,3,41.2500012588501,8|0|8|8,2:2|0:0|2:2|2:2,0:0:0:0:
356,365,151614,6,0,P|417:319|413:203,1,165.000005035401,6|8,1:2|2:2,0:0:0:0:
504,170,152088,2,0,P|465:99|387:81,1,165.000005035401,6|8,1:2|2:2,0:0:0:0:
268,38,152562,2,0,P|289:93|310:228,1,165.000005035401,6|0,1:2|0:0,0:0:0:0:
230,264,153035,5,0,1:1:0:0:
230,264,153193,2,0,P|217:209|196:174,1,82.5000025177003,10|0,2:2|0:0,0:0:0:0:
122,139,153509,1,10,1:3:0:0:
55,211,153667,2,0,P|1:154|34:84,1,165.000005035401,10|8,2:2|2:2,0:0:0:0:
104,15,154140,6,0,P|152:28|284:34,1,165.000005035401,6|8,1:2|2:2,0:0:0:0:
370,5,154614,2,0,P|348:70|422:139,1,165.000005035401,6|8,1:2|2:2,0:0:0:0:
501,97,155088,2,0,P|478:197|462:283,1,165.000005035401,6|8,1:2|2:2,0:0:0:0:
401,329,155562,5,8,2:2:0:0:
401,329,155719,2,0,P|345:298|313:298,1,82.5000025177003,10|0,1:3|1:1,0:0:0:0:
254,234,156035,1,8,0:3:0:0:
218,321,156193,2,0,P|171:346|66:282,1,165.000005035401
14,230,156667,6,0,P|78:221|177:185,1,165.000005035401,6|8,1:2|2:2,0:0:0:0:
206,96,157140,2,0,P|250:108|382:113,1,165.000005035401,6|8,1:2|2:2,0:0:0:0:
443,67,157614,6,0,P|470:152|414:232,1,165.000005035401,6|8,1:2|2:2,0:0:0:0:
431,306,158088,2,0,P|352:311|297:253,1,165.000005035401,6|8,1:2|2:2,0:0:0:0:
228,186,158562,6,0,P|181:196|134:207,1,82.5000025177003,6|8,1:2|2:2,0:0:0:0:
82,119,158877,2,0,P|129:109|176:98,1,82.5000025177003,14|4,1:3|2:3,0:0:0:0:
226,12,159193,6,0,P|298:27|329:131,1,165.000005035401,6|8,1:2|2:2,0:0:0:0:
265,171,159667,2,0,P|236:210|273:320,1,165.000005035401,8|8,2:3|2:2,0:0:0:0:
345,372,160140,2,0,P|350:323|362:274,1,82.5000025177003,0|8,1:1|2:2,0:0:0:0:
454,214,160456,1,14,2:2:0:0:
467,307,160614,1,12,2:2:0:0:
55,266,161719,6,0,P|45:200|16:112,2,150,6|8|2,1:2|2:2|1:2,0:0:0:0:
122,338,162509,1,2,1:2:0:0:
122,338,162588,1,0,0:0:0:0:
122,338,162667,1,10,2:2:0:0:
183,271,162825,6,0,P|255:273|304:327,1,150,2|0,2:2|0:0,0:0:0:0:
372,377,163298,2,0,P|393:341|384:294,1,75,8|0,2:2|0:0,0:0:0:0:
350,221,163614,2,0,L|442:234,2,75,2|2|10,2:2|1:2|2:2,0:0:0:0:
281,167,164088,1,2,2:2:0:0:
360,116,164246,6,0,P|356:48|267:40,1,150,0|8,1:1|2:2,0:0:0:0:
215,82,164719,1,2,2:2:0:0:
215,82,164877,2,0,P|155:68|111:67,1,75,2|2,1:2|1:2,0:0:0:0:
71,14,165193,1,10,2:2:0:0:
9,87,165351,6,0,P|-2:139|54:236,1,150,2|2,1:2|2:2,0:0:0:0:
73,303,165825,2,0,P|109:288|155:283,1,75,10|2,2:2|1:2,0:0:0:0:
212,226,166140,1,8,2:3:0:0:
212,226,166298,1,8,2:2:0:0:
267,304,166456,2,0,P|326:298|359:281,1,75,8|8,2:2|2:2,0:0:0:0:
433,248,166772,6,0,L|421:343,2,75,6|2|10,1:2|2:2|2:2,0:0:0:0:
379,177,167246,1,0,0:0:0:0:
445,119,167404,2,0,P|433:69|407:45,1,75,2|2,1:2|1:2,0:0:0:0:
335,10,167719,2,0,P|280:22|245:30,1,75,10|2,2:2|2:2,0:0:0:0:
199,94,168035,5,0,1:1:0:0:
142,20,168193,1,2,2:2:0:0:
56,70,168351,2,0,P|36:113|87:208,1,150,8|2,2:2|1:2,0:0:0:0:
135,263,168825,1,2,1:2:0:0:
202,209,168983,2,0,P|239:200|293:194,1,75,10|2,2:2|2:2,0:0:0:0:
355,133,169298,6,0,P|451:126|435:299,1,300,6|8,1:2|2:2,0:0:0:0:
395,354,170088,1,0,1:1:0:0:
395,354,170167,1,0,0:0:0:0:
395,354,170246,2,0,L|356:341,3,37.5,8|0|2|0,2:2|0:0|1:2|0:0,0:0:0:0:
334,315,170562,6,0,P|296:323|246:333,1,75,10|0,2:2|1:1,0:0:0:0:
166,371,170877,2,0,P|147:316|140:280,1,75,10|0,2:2|1:1,0:0:0:0:
56,238,171193,2,0,P|62:176|76:136,1,75,10|8,2:3|2:3,0:0:0:0:
177,85,171509,2,0,P|173:127|162:183,1,75,6|0,2:3|0:0,0:0:0:0:
252,245,171825,5,6,1:2:0:0:
0,263,181614,5,10,2:2:0:0:
72,384,181930,2,0,P|122:372|162:371,1,75,6|2,1:2|1:2,0:0:0:0:
206,301,182246,2,0,P|253:295|293:282,1,75,10|2,2:2|1:2,0:0:0:0:
351,351,182562,1,2,1:2:0:0:
351,351,182719,1,2,1:2:0:0:
428,299,182877,2,0,P|459:236|411:156,1,150,10|2,2:2|1:2,0:0:0:0:
360,112,183351,5,2,1:2:0:0:
299,170,183509,2,0,P|256:177|212:197,1,75,10|2,2:2|1:2,0:0:0:0:
172,265,183825,1,2,1:2:0:0:
172,265,183983,1,2,1:2:0:0:
89,225,184140,2,0,P|52:175|87:93,1,150,10|2,2:2|1:2,0:0:0:0:
225,17,184772,6,0,P|234:67|247:106,1,75,10|2,2:2|1:2,0:0:0:0:
308,147,185088,1,2,1:2:0:0:
308,147,185246,1,2,1:2:0:0:
373,91,185404,2,0,P|423:97|446:200,1,150,10|2,2:2|1:2,0:0:0:0:
469,334,186035,5,10,2:2:0:0:
396,283,186193,2,0,P|324:306|241:314,1,150,2|2,1:2|1:2,0:0:0:0:
180,363,186667,2,0,P|133:355|96:348,1,75,10|2,2:2|1:2,0:0:0:0:
16,377,186983,6,0,P|1:317|43:217,1,150,14|0,2:2|1:1,0:0:0:0:
110,168,187456,2,0,P|140:189|251:181,1,150,14|0,2:2|1:1,0:0:0:0:
327,139,187930,6,0,P|307:64|361:1,1,150,12|0,2:2|1:1,0:0:0:0:
420,82,188404,2,0,P|432:138|378:225,1,150,12|0,2:2|1:1,0:0:0:0:
413,308,188877,6,0,L|323:292,1,75,14|0,2:2|1:1,0:0:0:0:
270,351,189193,2,0,L|180:335,1,75,12|0,2:2|1:1,0:0:0:0:
107,377,189509,6,0,P|98:331|132:225,1,150,14|8,1:3|2:2,0:0:0:0:
227,187,189983,2,0,P|236:97|181:61,1,150,8|8,1:3|2:2,0:0:0:0:
90,111,190456,6,0,P|31:138|43:232,1,150,8|8,1:3|2:2,0:0:0:0:
75,295,190930,1,10,2:2:0:0:
167,305,191088,2,0,P|225:293|257:290,1,75,10|10,2:2|2:2,0:0:0:0:
320,350,191404,2,0,P|374:339|410:335,1,75,10|10,1:2|1:2,0:0:0:0:
462,270,191719,1,10,1:2:0:0:
398,197,191877,1,10,1:2:0:0:
321,249,192035,1,2,2:2:0:0:
254,90,192351,6,0,P|272:32|386:35,1,165.000005035401,10|2,2:2|1:2,0:0:0:0:
456,0,192825,1,2,1:2:0:0:
456,0,192983,2,0,P|443:42|440:101,1,82.5000025177003,10|0,2:2|0:0,0:0:0:0:
483,184,193298,6,0,P|376:183|348:238,1,165.000005035401,2|10,1:2|2:2,0:0:0:0:
377,319,193772,2,0,P|308:302|197:299,1,165.000005035401,2|0,1:2|1:1,0:0:0:0:
138,354,194246,2,0,P|123:294|124:248,1,82.5000025177003,10|2,2:2|2:2,0:0:0:0:
54,199,194562,5,6,1:2:0:0:
54,199,194719,1,2,1:2:0:0:
116,135,194877,2,0,P|166:150|219:142,1,82.5000025177003,10|2,2:2|2:2,0:0:0:0:
215,62,195193,2,0,P|144:43|118:44,1,82.5000025177003,2|2,1:2|1:2,0:0:0:0:
276,130,195509,2,0,P|326:131|407:55,1,165.000005035401,10|2,2:2|1:2,0:0:0:0:
512,206,196140,1,10,2:2:0:0:
460,285,196298,2,0,P|410:286|329:210,1,165.000005035401,2|0,1:2|0:0,0:0:0:0:
277,130,196772,2,0,P|226:150|188:153,1,82.5000025177003,8|8,2:2|2:2,0:0:0:0:
109,84,197088,6,0,P|77:138|104:239,1,165.000005035401,6|10,1:2|2:2,0:0:0:0:
248,335,197719,2,0,P|280:281|253:180,1,165.000005035401,2|10,1:2|2:2,0:0:0:0:
337,32,198351,6,0,P|409:49|417:143,1,165.000005035401,2|10,1:2|2:2,0:0:0:0:
475,291,198983,2,0,L|373:275,1,82.5000025177003,2|0,1:2|1:1,0:0:0:0:
327,333,199298,2,0,P|278:324|224:315,1,82.5000025177003,10|0,2:2|0:0,0:0:0:0:
160,369,199614,6,0,P|82:362|56:280,1,165.000005035401,6|8,1:2|2:2,0:0:0:0:
129,231,200088,1,0,1:1:0:0:
176,153,200246,2,0,P|198:88|113:35,1,165.000005035401,6|8,1:2|2:2,0:0:0:0:
45,85,200719,1,0,0:0:0:0:
68,178,200877,2,0,P|95:210|148:238,1,82.5000025177003,14|0,1:2|1:1,0:0:0:0:
193,303,201193,2,0,P|245:283|295:275,1,82.5000025177003,10|2,2:2|1:2,0:0:0:0:
336,214,201509,1,12,1:2:0:0:
403,295,201667,1,8,2:2:0:0:
403,295,201746,1,0,0:0:0:0:
403,295,201825,2,0,L|466:278,3,41.2500012588501,8|4|0|0,2:3|2:3|1:1|1:1,0:0:0:0:
466,268,202140,6,0,P|475:223|490:176,1,82.5000025177003,6|2,1:2|1:2,0:0:0:0:
433,119,202456,2,0,P|440:70|459:22,1,82.5000025177003,10|2,2:2|1:2,0:0:0:0:
372,1,202772,1,2,1:2:0:0:
372,1,202930,1,2,2:2:0:0:
309,66,203088,2,0,P|243:20|165:39,1,165.000005035401,10|2,2:2|1:2,0:0:0:0:
101,104,203562,5,0,1:1:0:0:
148,191,203719,1,10,2:2:0:0:
233,163,203877,2,0,P|292:165|363:258,1,165.000005035401,2|0,1:2|1:1,0:0:0:0:
405,339,204351,2,0,L|300:323,1,82.5000025177003,10|2,2:2|2:2,0:0:0:0:
230,373,204667,6,0,P|168:375|98:294,1,165.000005035401,6|8,1:2|2:2,0:0:0:0:
17,250,205140,1,0,0:0:0:0:
17,250,205298,2,0,P|60:213|178:253,1,165.000005035401,2|8,1:2|2:2,0:0:0:0:
316,355,205930,6,0,P|304:291|302:252,1,82.5000025177003,6|10,1:2|2:3,0:0:0:0:
360,201,206246,1,6,2:3:0:0:
300,137,206404,2,0,P|294:74|377:30,1,165.000005035401,6|0,1:2|1:1,0:0:0:0:
473,2,206877,2,0,L|456:67,3,41.2500012588501,8|0|8|8,2:2|1:0|2:2|2:2,0:0:0:0:
445,69,207193,6,0,P|465:132|468:258,1,165.000005035401,6|8,1:2|2:2,0:0:0:0:
417,308,207667,2,0,P|352:288|239:292,1,165.000005035401,6|8,1:2|2:2,0:0:0:0:
188,361,208140,2,0,P|138:332|159:230,1,165.000005035401,6|0,1:2|0:0,0:0:0:0:
226,179,208614,5,0,1:1:0:0:
226,179,208772,2,0,P|212:132|213:89,1,82.5000025177003,10|0,2:2|0:0,0:0:0:0:
237,17,209088,1,10,1:3:0:0:
143,13,209246,2,0,P|85:29|74:145,1,165.000005035401,10|8,2:2|2:2,0:0:0:0:
16,227,209719,6,0,P|96:198|181:199,1,165.000005035401,6|8,1:2|2:2,0:0:0:0:
245,254,210193,2,0,P|294:235|289:111,1,165.000005035401,6|8,1:2|2:2,0:0:0:0:
345,56,210667,2,0,P|421:61|438:157,1,165.000005035401,6|8,1:2|2:2,0:0:0:0:
494,223,211140,5,8,2:2:0:0:
494,223,211298,2,0,L|409:238,1,82.5000025177003,10|0,1:3|1:1,0:0:0:0:
367,317,211614,1,10,2:2:0:0:
306,245,211772,2,0,P|262:234|190:342,1,165.000005035401,10|0,2:2|1:1,0:0:0:0:
98,378,212246,6,0,P|89:308|50:204,1,165.000005035401,6|8,1:2|2:2,0:0:0:0:
130,132,212719,2,0,P|156:211|197:293,1,165.000005035401,6|8,1:2|2:2,0:0:0:0:
286,350,213193,6,0,P|340:324|355:219,1,165.000005035401,6|8,1:2|2:2,0:0:0:0:
276,162,213667,2,0,P|281:75|372:64,1,165.000005035401,6|8,1:2|2:2,0:0:0:0:
444,23,214140,6,0,P|428:79|422:120,1,82.5000025177003,6|8,1:2|2:2,0:0:0:0:
492,182,214456,2,0,P|482:229|484:266,1,82.5000025177003,14|4,1:3|2:3,0:0:0:0:
432,348,214772,6,0,P|375:323|263:328,1,165.000005035401,6|8,1:2|2:2,0:0:0:0:
180,373,215246,2,0,P|142:328|164:217,1,165.000005035401,8|8,2:3|2:2,0:0:0:0:
244,166,215719,2,0,P|253:205|249:246,1,82.5000025177003,0|8,1:1|2:2,0:0:0:0:
155,128,216035,1,14,2:2:0:0:
71,179,216193,1,12,2:2:0:0:
