osu file format v14

[General]
AudioFilename: audio.mp3
AudioLeadIn: 0
PreviewTime: 60328
Countdown: 0
SampleSet: Soft
StackLeniency: 0.7
Mode: 0
LetterboxInBreaks: 0
WidescreenStoryboard: 1

[Editor]
Bookmarks: 14223
DistanceSpacing: 1
BeatDivisor: 4
GridSize: 32
TimelineZoom: 1.9

[Metadata]
Title:INFINITE SKY
TitleUnicode:INFINITE SKY
Artist:Faylan
ArtistUnicode:Faylan
Creator:Kawasaki Sakura
Version:NYAN_KOT_NYAN's Normal
Source:蒼の彼方のフォーリズム
Tags:-karupa- beyond NYAN_KOT_NYAN KoldNoodl cjstmdals op opening 2 aokana ao no kanata four rhythms across the blue sprite 2nd season rhythm into firmament video game female vocals visual novel vn bgm japanese pop jpop eroge j-pop
BeatmapID:4430158
BeatmapSetID:2109234

[Difficulty]
HPDrainRate:3
CircleSize:3.2
OverallDifficulty:4
ApproachRate:6
SliderMultiplier:0.999999999999999
SliderTickRate:1

[Events]
//Background and Video events
0,0,"wallpaperbetter.com_1920x1080 (6).jpg",0,0
//Break Periods
//Storyboard Layer 0 (Background)
//Storyboard Layer 1 (Fail)
//Storyboard Layer 2 (Pass)
//Storyboard Layer 3 (Foreground)
//Storyboard Layer 4 (Overlay)
//Storyboard Sound Samples

[TimingPoints]
1276,315.789473684211,4,2,1,100,1,0
2539,-100,4,2,1,50,0,0
14223,-100,4,2,1,70,0,0
15012,-100,4,2,1,60,0,0
30328,-100,4,2,1,70,0,0
50539,-100,4,2,1,75,0,0
60644,-90.9090909090909,4,2,1,85,0,1
84802,-100,4,2,1,85,0,0
85907,-100,4,2,1,60,0,0
96328,-100,4,2,1,80,0,0

[Colours]
Combo1 : 128,255,255
Combo2 : 255,128,128
Combo3 : 255,255,128
Combo4 : 128,255,128

[HitObjects]
466,80,14223,6,0,L|457:147,1,50,10|2,0:0|1:2,0:0:0:0:
441,176,14539,2,0,L|450:243,1,50,10|2,0:0|1:2,0:0:0:0:
391,308,15012,6,0,B|349:305|349:305|338:296|338:296|283:292,1,99.9999999999999,6|0,1:2|1:2,0:0:0:0:
244,285,15486,1,2,1:2:0:0:
144,271,15802,1,2,0:0:0:0:
154,171,16118,1,2,0:0:0:0:
253,181,16433,2,0,L|265:64,1,99.9999999999999,2|2,1:2|0:0,0:0:0:0:
343,21,17065,1,2,0:0:0:0:
416,88,17381,2,0,L|473:83,1,50,2|0,0:0|0:0,0:0:0:0:
495,124,17697,6,0,P|511:166|495:232,1,99.9999999999999,2|2,1:2|0:0,0:0:0:0:
402,227,18328,1,2,0:0:0:0:
416,325,18644,1,2,0:0:0:0:
316,333,18960,2,0,L|199:338,1,99.9999999999999,2|2,1:2|0:0,0:0:0:0:
170,317,19433,1,2,1:2:0:0:
170,317,19591,2,0,P|175:279|181:263,1,50,2|2,0:0|0:0,0:0:0:0:
151,226,19907,2,0,P|145:188|140:172,1,50,2|0,0:0|0:0,0:0:0:0:
171,136,20223,5,0,1:2:0:0:
238,62,20539,2,0,L|355:75,1,99.9999999999999,2|2,0:0|0:0,0:0:0:0:
419,129,21170,1,2,0:0:0:0:
376,219,21486,2,0,P|362:257|376:323,1,99.9999999999999,2|2,1:2|0:0,0:0:0:0:
418,331,21960,1,2,1:2:0:0:
273,370,22433,1,2,0:0:0:0:
187,318,22749,6,0,L|203:201,1,99.9999999999999,2|0,1:2|0:0,0:0:0:0:
181,172,23223,1,0,1:2:0:0:
72,68,23697,2,0,L|127:62,1,50,2|2,0:0|0:0,0:0:0:0:
165,38,24012,2,0,L|276:65,1,99.9999999999999,2|2,1:2|0:0,0:0:0:0:
307,40,24486,1,0,1:2:0:0:
423,134,24960,1,2,0:0:0:0:
383,226,25276,6,0,L|392:286,1,50,2|2,1:2|0:0,0:0:0:0:
355,310,25591,2,0,P|305:291|250:297,1,99.9999999999999,2|0,0:0|0:0,0:0:0:0:
175,349,26223,1,2,0:0:0:0:
175,349,26381,2,0,L|67:368,1,99.9999999999999,2|0,0:0|0:0,0:0:0:0:
27,354,26854,2,0,P|15:309|34:252,1,99.9999999999999,2|0,0:0|0:0,0:0:0:0:
91,180,27486,1,2,0:0:0:0:
91,180,27644,2,0,L|189:197,1,99.9999999999999,2|0,0:0|0:0,0:0:0:0:
239,204,28118,1,2,0:0:0:0:
316,141,28433,2,0,P|303:83|335:39,1,99.9999999999999,2|2,0:0|0:0,0:0:0:0:
420,25,29065,6,0,L|410:88,1,50,0|0,1:2|1:2,0:0:0:0:
447,110,29381,1,10,0:0:0:0:
428,211,29697,1,8,0:0:0:0:
428,211,29854,2,0,L|448:315,1,99.9999999999999,4|6,3:0|3:0,0:0:0:0:
457,358,30328,5,4,1:2:0:0:
359,337,30644,2,0,L|251:356,1,99.9999999999999,10|2,0:0|1:2,0:0:0:0:
160,364,31276,1,10,0:0:0:0:
100,284,31591,2,0,P|81:250|110:180,1,99.9999999999999,2|8,1:2|0:0,0:0:0:0:
131,158,32065,2,0,L|230:166,1,99.9999999999999,2|0,1:2|1:2,0:0:0:0:
270,196,32539,1,10,0:0:0:0:
333,119,32854,6,0,B|329:78|329:78|335:69|335:69|327:6,1,99.9999999999999,2|8,1:2|0:0,0:0:0:0:
428,12,33486,1,0,1:2:0:0:
454,110,33802,2,0,L|446:165,1,50,10|2,0:0|0:0,0:0:0:0:
471,203,34118,2,0,P|493:243|479:303,1,99.9999999999999,2|10,1:2|0:0,0:0:0:0:
406,358,34749,1,2,0:0:0:0:
330,292,35065,1,10,0:0:0:0:
254,357,35381,6,0,L|197:350,1,50,2|2,1:2|1:2,0:0:0:0:
158,371,35697,2,0,L|141:253,1,99.9999999999999,10|0,0:0|1:2,0:0:0:0:
68,206,36328,2,0,L|78:135,1,50,10|2,0:0|0:0,0:0:0:0:
106,116,36644,2,0,P|155:138|207:123,1,99.9999999999999,2|8,1:2|0:0,0:0:0:0:
203,28,37276,1,10,0:0:0:0:
302,27,37591,1,6,3:0:0:0:
304,127,37907,6,0,B|304:162|304:162|309:177|309:177|306:233,1,99.9999999999999,6|0,1:2|0:0,0:0:0:0:
251,310,38539,1,8,0:0:0:0:
165,258,38854,2,0,L|106:263,1,50,2|2,0:0|0:0,0:0:0:0:
72,235,39170,2,0,P|54:175|73:131,1,99.9999999999999,2|10,1:2|0:0,0:0:0:0:
128,63,39802,1,10,0:0:0:0:
196,136,40118,1,8,0:0:0:0:
267,66,40433,2,0,L|317:74,1,50,10|0,0:0|1:2,0:0:0:0:
359,48,40749,6,0,B|387:78|387:78|371:153,1,99.9999999999999,12|2,0:0|0:0,0:0:0:0:
311,213,41381,1,10,0:0:0:0:
311,213,41539,2,0,B|315:250|315:250|312:266|312:266|319:323,1,99.9999999999999,6|0,1:2|0:0,0:0:0:0:
288,352,42012,1,10,0:0:0:0:
156,279,42486,2,0,L|88:284,1,50,2|8,0:0|0:0,0:0:0:0:
73,244,42802,6,0,B|52:192|52:192|73:137,1,99.9999999999999,6|0,1:2|1:2,0:0:0:0:
95,108,43276,2,0,L|195:119,1,99.9999999999999,8|0,0:0|1:2,0:0:0:0:
234,89,43749,1,0,0:0:0:0:
340,195,44223,1,14,0:0:0:0:
424,140,44539,1,10,0:0:0:0:
485,218,44854,2,0,L|476:285,1,50,10|2,0:0|1:2,0:0:0:0:
438,298,45170,1,10,0:0:0:0:
356,355,45486,6,0,B|314:351|314:351|308:355|308:355|240:349,1,99.9999999999999,2|12,1:2|0:0,0:0:0:0:
173,295,46118,2,0,L|179:235,1,50,2|0,1:2|1:2,0:0:0:0:
145,215,46433,1,10,0:0:0:0:
145,215,46591,2,0,B|82:234|82:234|44:211,1,99.9999999999999,6|0,1:2|0:0,0:0:0:0:
17,180,47065,1,10,0:0:0:0:
41,31,47539,6,0,L|98:24,1,50,2|8,0:0|0:0,0:0:0:0:
139,15,47854,2,0,B|181:20|181:20|195:17|195:17|256:30,1,99.9999999999999,6|0,1:2|1:2,0:0:0:0:
287,31,48328,1,8,0:0:0:0:
386,23,48644,1,0,1:2:0:0:
396,122,48960,1,8,0:0:0:0:
290,146,49276,2,0,L|296:206,1,50,14|0,0:0|1:2,0:0:0:0:
326,234,49591,2,0,L|320:294,1,50,10|0,0:0|1:2,0:0:0:0:
306,332,49907,2,0,P|252:340|203:316,1,99.9999999999999,10|10,0:0|0:0,0:0:0:0:
115,290,50539,6,0,L|127:234,1,50,6|2,1:2|0:0,0:0:0:0:
95,200,50854,1,10,0:0:0:0:
144,113,51170,2,0,L|132:57,1,50,2|2,1:2|1:2,0:0:0:0:
164,23,51485,1,10,0:0:0:0:
251,72,51802,2,0,L|367:61,1,99.9999999999999,2|10,1:2|0:0,0:0:0:0:
425,128,52433,2,0,L|412:194,1,50,2|2,1:2|1:2,0:0:0:0:
438,221,52749,1,10,0:0:0:0:
358,282,53065,6,0,P|311:264|255:272,1,99.9999999999999,2|10,1:2|0:0,0:0:0:0:
184,332,53697,2,0,L|121:319,1,50,2|2,1:2|1:2,0:0:0:0:
88,340,54012,1,10,0:0:0:0:
18,269,54328,2,0,B|24:229|24:229|32:222|32:222|40:158,1,99.9999999999999,2|10,1:2|0:0,0:0:0:0:
46,123,54802,1,2,0:0:0:0:
144,141,55118,1,2,1:2:0:0:
144,141,55276,2,0,L|198:138,1,50,10|2,0:0|0:0,0:0:0:0:
232,106,55591,5,14,0:0:0:0:
381,94,56065,1,14,0:0:0:0:
405,242,56539,1,12,0:0:0:0:
256,259,57012,1,12,0:0:0:0:
232,106,57486,6,0,L|227:38,1,50,14|0,0:0|1:2,0:0:0:0:
205,11,57802,1,0,1:2:0:0:
117,59,58118,2,0,L|-3:43,1,99.9999999999999,10|8,3:0|0:0,0:0:0:0:
16,95,58591,1,4,3:0:0:0:
86,173,58907,1,8,3:0:0:0:
86,173,59065,1,8,0:0:0:0:
38,261,59381,6,0,L|47:325,1,50,0|0,1:2|1:2,0:0:0:0:
80,346,59697,1,8,0:0:0:0:
167,298,60012,2,0,L|217:304,1,50,8|8,0:0|0:0,0:0:0:0:
258,331,60328,2,0,L|308:325,1,50,8|10,0:0|0:0,0:0:0:0:
346,284,60644,6,0,B|340:240|340:240|344:226|344:226|335:166,1,110.000003356934,6|10,1:2|0:0,0:0:0:0:
330,65,61276,2,0,L|266:74,1,55.0000016784668,2|2,1:2|1:2,0:0:0:0:
227,45,61591,1,10,0:0:0:0:
140,112,61907,2,0,P|87:96|19:115,1,110.000003356934,2|10,1:2|0:0,0:0:0:0:
8,155,62381,2,0,L|36:278,1,110.000003356934,2|0,1:2|1:2,0:0:0:0:
16,314,62854,1,10,0:0:0:0:
107,375,63170,6,0,L|168:363,1,55.0000016784668,6|2,1:2|0:0,0:0:0:0:
206,333,63486,2,0,L|267:345,1,55.0000016784668,10|2,0:0|0:0,0:0:0:0:
302,379,63802,1,2,1:2:0:0:
402,333,64118,2,0,L|407:258,1,55.0000016784668,10|2,0:0|0:0,0:0:0:0:
408,223,64433,2,0,L|417:99,1,110.000003356934,2|10,1:2|0:0,0:0:0:0:
404,59,64907,2,0,P|349:43|283:78,1,110.000003356934,2|0,1:2|0:0,0:0:0:0:
289,114,65381,1,8,0:0:0:0:
198,176,65697,6,0,B|199:221|199:221|206:233|206:233|212:303,1,110.000003356934,6|10,1:2|0:0,0:0:0:0:
274,373,66328,1,2,1:2:0:0:
376,318,66644,1,10,0:0:0:0:
322,221,66960,2,0,P|308:171|321:112,1,110.000003356934,2|10,1:2|0:0,0:0:0:0:
393,33,67591,1,2,1:2:0:0:
287,1,67907,1,10,0:0:0:0:
199,67,68223,6,0,B|158:64|158:64|146:57|146:57|75:52,1,110.000003356934,6|8,1:2|0:0,0:0:0:0:
40,76,68697,1,0,0:0:0:0:
40,76,68854,1,10,0:0:0:0:
11,182,69170,1,8,0:0:0:0:
83,265,69486,2,0,L|211:249,1,110.000003356934,14|10,0:0|0:0,0:0:0:0:
296,287,70118,2,0,L|362:276,1,55.0000016784668,4|8,1:2|0:0,0:0:0:0:
401,298,70433,1,0,1:2:0:0:
502,254,70749,6,0,L|494:192,1,55.0000016784668,6|2,1:2|0:0,0:0:0:0:
457,158,71065,2,0,L|465:96,1,55.0000016784668,10|2,0:0|0:0,0:0:0:0:
500,61,71381,2,0,L|492:-1,1,55.0000016784668,2|2,1:2|1:2,0:0:0:0:
437,9,71697,1,10,0:0:0:0:
363,83,72012,2,0,B|306:97|306:97|256:76,1,110.000003356934,2|10,1:2|0:0,0:0:0:0:
221,35,72486,2,0,L|87:47,1,110.000003356934,2|0,1:2|1:2,0:0:0:0:
62,70,72960,1,10,0:0:0:0:
78,178,73276,6,0,B|70:219|70:219|76:232|76:232|65:296,1,110.000003356934,6|8,1:2|0:0,0:0:0:0:
140,366,73907,1,2,1:2:0:0:
203,276,74223,1,8,0:0:0:0:
284,350,74539,2,0,L|342:341,1,55.0000016784668,6|10,1:2|3:0,0:0:0:0:
381,375,74854,1,6,3:0:0:0:
381,375,75012,2,0,B|399:310|399:310|380:253,1,110.000003356934,6|8,1:2|0:0,0:0:0:0:
345,231,75486,1,0,1:2:0:0:
424,154,75802,6,0,B|416:107|416:107|418:97|418:97|407:29,1,110.000003356934,6|8,1:2|0:0,0:0:0:0:
360,19,76276,2,0,P|316:2|248:29,1,110.000003356934,6|8,1:2|0:0,0:0:0:0:
236,70,76749,2,0,L|105:58,1,110.000003356934,6|0,1:2|0:0,0:0:0:0:
39,128,77381,1,10,0:0:0:0:
82,234,77697,1,10,3:0:0:0:
82,234,77854,2,0,L|73:305,1,55.0000016784668,2|4,0:0|3:0,0:0:0:0:
156,363,78328,6,0,B|206:358|206:358|211:353|211:353|281:349,1,110.000003356934,6|8,1:2|0:0,0:0:0:0:
300,309,78802,2,0,P|316:268|294:191,1,110.000003356934,6|8,1:2|0:0,0:0:0:0:
333,157,79276,2,0,B|383:161|383:161|388:167|388:167|458:171,1,110.000003356934,6|8,1:2|0:0,0:0:0:0:
493,73,79907,1,10,3:0:0:0:
400,13,80223,1,6,3:0:0:0:
400,13,80381,2,0,L|332:22,1,55.0000016784668,2|0,0:0|0:0,0:0:0:0:
250,75,80854,6,0,B|198:72|198:72|193:66|193:66|143:62,1,110.000003356934,14|0,0:0|1:2,0:0:0:0:
93,86,81328,2,0,P|69:135|96:191,1,110.000003356934,14|0,0:0|1:2,0:0:0:0:
127,222,81802,2,0,B|177:218|177:218|182:212|182:212|233:209,1,110.000003356934,14|0,0:0|1:2,0:0:0:0:
283,233,82276,2,0,P|307:282|280:338,1,110.000003356934,14|0,0:0|1:2,0:0:0:0:
236,349,82749,1,14,0:0:0:0:
127,328,83065,1,14,0:0:0:0:
148,220,83381,6,0,L|129:88,1,110.000003356934,6|4,1:2|3:0,0:0:0:0:
158,62,83854,2,0,P|192:39|268:52,1,110.000003356934,4|4,3:0|3:0,0:0:0:0:
285,93,84328,1,0,1:2:0:0:
382,41,84644,1,2,1:2:0:0:
382,41,84802,1,0,1:2:0:0:
256,192,85907,12,8,95381,0:0:0:0:
141,10,96012,5,0,1:2:0:0:
59,68,96328,2,0,L|70:122,1,50,8|8,0:0|0:0,0:0:0:0:
95,160,96644,2,0,L|84:214,1,50,8|8,0:0|0:0,0:0:0:0:
158,277,97118,1,12,0:0:0:0:
256,192,97276,12,0,99802,0:0:0:0:
