osu file format v14

[General]
AudioFilename: audio.mp3
AudioLeadIn: 0
PreviewTime: 60328
Countdown: 0
SampleSet: Soft
StackLeniency: 0.7
Mode: 0
LetterboxInBreaks: 0
WidescreenStoryboard: 1

[Editor]
DistanceSpacing: 0.6
BeatDivisor: 4
GridSize: 4
TimelineZoom: 1.9

[Metadata]
Title:INFINITE SKY
TitleUnicode:INFINITE SKY
Artist:Faylan
ArtistUnicode:Faylan
Creator:Kawasaki Sakura
Version:KoldNoodl's Insane
Source:蒼の彼方のフォーリズム
Tags:-karupa- beyond NYAN_KOT_NYAN KoldNoodl cjstmdals op opening 2 aokana ao no kanata four rhythms across the blue sprite 2nd season rhythm into firmament video game female vocals visual novel vn bgm japanese pop jpop eroge j-pop
BeatmapID:4444310
BeatmapSetID:2109234

[Difficulty]
HPDrainRate:5
CircleSize:4
OverallDifficulty:8
ApproachRate:9
SliderMultiplier:1.7
SliderTickRate:1

[Events]
//Background and Video events
0,0,"wallpaperbetter.com_1920x1080 (6).jpg",0,0
//Break Periods
//Storyboard Layer 0 (Background)
//Storyboard Layer 1 (Fail)
//Storyboard Layer 2 (Pass)
//Storyboard Layer 3 (Foreground)
//Storyboard Layer 4 (Overlay)
//Storyboard Sound Samples

[TimingPoints]
1276,315.789473684211,4,2,1,100,1,0
2539,-100,4,2,1,50,0,0
10118,-125,4,2,1,50,0,0
14223,-111.111111111111,4,2,1,70,0,0
15012,-111.111111111111,4,2,1,60,0,0
20065,-111.111111111111,4,2,1,60,0,0
30328,-100,4,2,1,70,0,0
50539,-100,4,2,1,75,0,0
60644,-100,4,2,1,85,0,0
85907,-100,4,2,1,60,0,0
96328,-100,4,2,1,80,0,0

[Colours]
Combo1 : 128,255,255
Combo2 : 255,128,128
Combo3 : 255,255,128
Combo4 : 128,255,128

[HitObjects]
256,192,7591,12,2,9802,0:0:0:0:
91,62,10118,6,0,P|128:96|123:183,1,136,2|0,0:0|0:0,0:0:0:0:
61,237,10591,1,2,0:0:0:0:
143,261,10749,2,0,P|196:248|274:227,1,136,2|0,0:0|0:0,0:0:0:0:
488,79,11381,6,0,P|414:74|365:135,1,136,2|0,0:0|0:0,0:0:0:0:
381,199,11854,1,2,0:0:0:0:
302,164,12012,2,0,P|286:114|259:24,2,136,2|0|2,0:0|0:0|0:0,0:0:0:0:
255,337,13118,5,2,0:0:0:0:
255,337,13276,1,2,0:0:0:0:
255,337,14223,5,10,0:0:0:0:
175,237,14381,1,2,1:2:0:0:
277,163,14539,1,10,0:0:0:0:
355,265,14697,1,2,1:2:0:0:
355,265,15012,6,0,P|399:207|380:135,1,152.999995330811,6|0,1:2|1:2,0:0:0:0:
267,97,15486,1,2,1:2:0:0:
351,31,15644,1,2,0:0:0:0:
311,192,15802,2,0,P|273:185|236:175,1,76.4999976654053,2|2,0:0|0:0,0:0:0:0:
120,131,16118,1,2,0:0:0:0:
204,41,16276,1,0,0:0:0:0:
53,77,16433,6,0,P|34:139|85:210,1,152.999995330811,2|2,1:2|0:0,0:0:0:0:
64,308,16907,2,0,B|103:296|103:296|150:303|150:303|214:283,1,152.999995330811,2|2,1:2|0:0,0:0:0:0:
328,240,17381,1,2,0:0:0:0:
178,193,17539,1,0,0:0:0:0:
248,76,17697,6,0,P|262:111|269:148,1,76.4999976654053,2|0,1:2|0:0,0:0:0:0:
211,283,18012,1,2,0:0:0:0:
341,345,18170,2,0,P|419:330|460:254,1,152.999995330811,2|0,1:2|0:0,0:0:0:0:
414,123,18644,1,2,0:0:0:0:
363,248,18802,5,0,1:2:0:0:
363,248,18881,1,0,1:2:0:0:
363,248,18960,1,2,1:2:0:0:
228,198,19118,1,0,0:0:0:0:
335,246,19276,1,2,0:0:0:0:
199,316,19433,1,2,1:2:0:0:
315,151,19591,5,2,0:0:0:0:
216,115,19749,1,2,0:0:0:0:
139,190,19907,1,2,0:0:0:0:
164,292,20065,1,0,1:2:0:0:
164,292,20144,1,0,1:2:0:0:
164,292,20223,2,0,P|121:322|16:313,2,152.999995330811,0|2|2,1:2|0:0|0:0,0:0:0:0:
68,164,21012,2,0,P|73:208|85:242,1,76.4999976654053,0|2,0:0|0:0,0:0:0:0:
151,88,21328,1,0,0:0:0:0:
243,203,21486,6,0,L|149:178,1,76.4999976654053,2|0,1:2|0:0,0:0:0:0:
169,183,21802,1,2,0:0:0:0:
327,117,21960,2,0,P|364:138|358:260,1,152.999995330811,2|0,1:2|0:0,0:0:0:0:
232,112,22433,2,0,P|253:73|272:28,1,76.4999976654053,2|0,0:0|0:0,0:0:0:0:
306,291,22749,1,2,1:2:0:0:
306,291,23065,6,0,B|351:277|351:277|407:293|407:293|465:277,1,152.999995330811
303,193,23539,1,0,0:0:0:0:
218,373,23697,1,2,0:0:0:0:
306,291,23854,1,2,0:0:0:0:
150,221,24012,6,0,P|105:270|133:376,1,152.999995330811,2|2,1:2|0:0,0:0:0:0:
257,167,24486,2,0,L|105:107,1,152.999995330811,0|0,1:2|0:0,0:0:0:0:
0,262,24960,2,0,P|45:249|89:233,1,76.4999976654053,2|0,0:0|0:0,0:0:0:0:
72,239,25197,1,0,0:0:0:0:
72,239,25276,5,2,1:2:0:0:
211,288,25433,1,2,0:0:0:0:
180,166,25591,1,2,0:0:0:0:
155,353,25749,2,0,P|234:360|288:292,1,152.999995330811
265,208,26223,1,2,0:0:0:0:
390,351,26381,1,2,0:0:0:0:
196,278,26539,6,0,B|170:236|175:192|175:192|160:165|160:165|169:110,1,152.999995330811,0|2,1:2|0:0,0:0:0:0:
345,35,27012,2,0,B|371:77|366:121|366:121|381:148|381:148|372:203,1,152.999995330811,2|0,1:2|0:0,0:0:0:0:
287,328,27486,1,2,0:0:0:0:
440,300,27644,5,2,1:2:0:0:
440,300,27723,1,0,1:2:0:0:
440,300,27802,2,0,P|389:282|341:269,1,76.4999976654053,0|0,1:2|0:0,0:0:0:0:
236,273,28118,1,2,0:0:0:0:
330,179,28276,1,2,1:2:0:0:
262,299,28433,1,2,0:0:0:0:
136,267,28591,1,2,0:0:0:0:
264,384,28749,2,0,P|278:346|292:296,1,76.4999976654053,2|0,0:0|0:0,0:0:0:0:
407,128,29065,6,0,P|366:143|315:157,1,76.4999976654053,0|0,1:2|1:2,0:0:0:0:
159,227,29381,2,0,P|200:243|242:262,1,76.4999976654053,10|8,0:0|0:0,0:0:0:0:
229,256,29618,1,8,0:0:0:0:
229,256,29697,2,0,L|293:235,1,38.2499988327027,10|2,0:0|0:0,0:0:0:0:
438,202,29854,2,0,L|374:180,1,38.2499988327027,6|2,3:0|0:0,0:0:0:0:
268,143,30012,2,0,L|290:83,1,38.2499988327027,2|2,0:0|0:0,0:0:0:0:
384,41,30170,2,0,L|368:93,1,38.2499988327027,6|2,3:0|0:0,0:0:0:0:
310,216,30328,6,0,P|224:217|189:143,1,170,4|10,1:2|0:0,0:0:0:0:
235,18,30802,1,2,0:0:0:0:
406,63,30960,2,0,P|392:122|377:162,1,85,2|0,1:2|1:2,0:0:0:0:
289,241,31276,2,0,P|275:200|266:159,1,85,10|0,0:0|0:0,0:0:0:0:
473,122,31591,1,2,1:2:0:0:
384,227,31749,1,0,1:2:0:0:
480,114,31907,1,8,0:0:0:0:
408,318,32065,6,0,B|357:307|357:307|299:324|299:324|226:306,1,170,2|0,1:2|1:2,0:0:0:0:
61,225,32539,2,0,P|141:229|159:298,1,127.5,10|0,0:0|0:0,0:0:0:0:
163,288,32854,6,0,P|187:239|203:202,1,85,2|0,1:2|1:2,0:0:0:0:
233,94,33170,1,8,0:0:0:0:
73,50,33328,1,0,1:2:0:0:
73,50,33407,1,0,1:2:0:0:
73,50,33486,2,0,P|84:100|98:145,1,85,0|0,1:2|1:2,0:0:0:0:
176,291,33802,5,10,0:0:0:0:
29,232,33960,1,2,0:0:0:0:
211,179,34118,2,0,P|277:224|281:315,2,170,2|10|2,1:2|0:0|0:0,0:0:0:0:
83,317,34907,2,0,P|126:302|175:282,1,85,0|10,1:2|0:0,0:0:0:0:
72,122,35223,5,8,0:0:0:0:
72,122,35302,1,8,0:0:0:0:
72,122,35381,2,0,P|94:156|115:204,1,85,2|2,1:2|1:2,0:0:0:0:
159,377,35697,1,10,0:0:0:0:
381,212,35854,2,0,B|271:178|271:178|216:203,1,170,2|0,0:0|1:2,0:0:0:0:
240,354,36328,2,0,P|305:304|280:215,1,170,10|2,0:0|1:2,0:0:0:0:
141,148,36802,1,0,1:2:0:0:
230,275,36960,1,8,0:0:0:0:
64,347,37118,2,0,L|89:303,2,42.5,8|8|10,0:0|0:0|0:0,0:0:0:0:
139,232,37433,5,4,3:0:0:0:
168,348,37591,1,6,3:0:0:0:
38,236,37749,1,4,3:0:0:0:
214,172,37907,2,0,B|259:170|307:217|307:217|345:195|391:206,1,170,6|0,1:2|0:0,0:0:0:0:
447,257,38381,1,0,0:0:0:0:
444,60,38539,2,0,P|376:48|321:129,1,170,8|2,0:0|0:0,0:0:0:0:
362,311,39012,5,2,1:2:0:0:
362,311,39091,1,0,1:2:0:0:
362,311,39170,2,0,P|307:297|263:288,1,85,2|0,1:2|0:0,0:0:0:0:
114,196,39486,2,0,P|155:186|196:176,1,85,10|0,0:0|0:0,0:0:0:0:
361,102,39802,2,0,P|345:161|330:209,1,85,10|0,0:0|0:0,0:0:0:0:
197,384,40118,2,0,B|154:327|172:259|172:259|207:305,1,170,8|10,0:0|0:0,0:0:0:0:
194,288,40512,1,8,0:0:0:0:
194,288,40591,1,0,1:2:0:0:
434,280,40749,6,0,B|396:289|396:289|362:263|362:263|316:280|265:237,1,170,12|2,0:0|0:0,0:0:0:0:
242,115,41223,1,2,1:2:0:0:
335,181,41381,1,10,0:0:0:0:
287,39,41539,2,0,P|211:30|153:124,1,170,6|0,1:2|0:0,0:0:0:0:
160,196,42012,2,0,P|107:180|55:160,1,85,10|2,0:0|0:0,0:0:0:0:
243,114,42328,1,0,1:2:0:0:
223,260,42486,1,2,0:0:0:0:
69,168,42644,1,8,0:0:0:0:
146,325,42802,6,0,B|197:309|197:309|258:322|258:322|319:298,1,170,6|0,1:2|1:2,0:0:0:0:
394,360,43276,2,0,P|412:312|429:258,1,85,8|0,0:0|0:0,0:0:0:0:
374,165,43591,1,0,1:2:0:0:
211,234,43749,1,0,0:0:0:0:
327,297,43907,1,8,0:0:0:0:
387,147,44065,5,8,0:0:0:0:
387,147,44144,1,8,0:0:0:0:
387,147,44223,1,14,0:0:0:0:
299,217,44381,1,0,1:2:0:0:
263,91,44539,1,10,0:0:0:0:
289,234,44697,1,0,0:0:0:0:
337,43,44854,5,10,0:0:0:0:
193,115,45012,1,2,1:2:0:0:
368,157,45170,1,10,0:0:0:0:
155,185,45328,1,8,0:0:0:0:
155,185,45407,1,8,0:0:0:0:
155,185,45486,2,0,P|111:119|135:59,1,127.5,2|0,1:2|0:0,0:0:0:0:
193,115,45802,6,0,B|170:229|170:229|119:274,1,170,12|2,0:0|1:2,0:0:0:0:
0,207,46276,1,0,1:2:0:0:
99,139,46433,1,10,0:0:0:0:
73,331,46591,6,0,P|151:351|211:293,1,170,6|0,1:2|0:0,0:0:0:0:
217,178,47065,1,10,0:0:0:0:
92,133,47223,2,0,P|105:192|122:245,1,85,2|0,0:0|1:2,0:0:0:0:
278,257,47539,1,2,0:0:0:0:
204,144,47697,1,8,0:0:0:0:
387,193,47854,6,0,B|278:243|278:243|219:221,1,170,6|0,1:2|1:2,0:0:0:0:
380,113,48328,2,0,P|456:149|456:239,1,170,8|0,0:0|1:2,0:0:0:0:
349,303,48802,1,0,0:0:0:0:
387,193,48960,1,8,0:0:0:0:
451,333,49118,1,0,0:0:0:0:
297,231,49276,6,0,P|271:273|265:328,1,85,14|0,0:0|1:2,0:0:0:0:
160,132,49591,2,0,P|212:149|273:167,1,85,10|0,0:0|1:2,0:0:0:0:
390,113,49907,1,10,0:0:0:0:
297,231,50065,1,0,0:0:0:0:
474,289,50223,1,10,0:0:0:0:
474,289,50539,6,0,L|440:238,3,42.5,6|0|2|0,1:2|0:0|0:0|0:0,0:0:0:0:
375,197,50854,2,0,L|395:147,3,42.5,10|0|2|0,0:0|0:0|0:0|0:0,0:0:0:0:
458,74,51170,1,2,1:2:0:0:
503,200,51328,1,2,1:2:0:0:
316,113,51486,1,10,0:0:0:0:
316,113,51802,6,0,L|277:140,3,42.5,2|0|2|0,1:2|0:0|0:0|0:0,0:0:0:0:
190,231,52118,2,0,L|138:185,3,42.5,10|0|2|0,0:0|0:0|0:0|0:0,0:0:0:0:
141,105,52433,1,2,1:2:0:0:
277,231,52591,1,2,1:2:0:0:
135,336,52749,1,10,0:0:0:0:
135,336,53065,6,0,L|112:285,3,42.5,2|0|2|0,1:2|0:0|0:0|0:0,0:0:0:0:
209,195,53381,2,0,L|194:242,3,42.5,10|0|2|0,0:0|0:0|0:0|0:0,0:0:0:0:
220,343,53697,1,2,1:2:0:0:
94,206,53854,1,2,1:2:0:0:
264,108,54012,1,10,0:0:0:0:
264,108,54328,6,0,P|323:164|404:150,1,170,2|10,1:2|0:0,0:0:0:0:
482,339,54802,2,0,P|431:289|326:308,1,170,2|2,0:0|1:2,0:0:0:0:
163,368,55276,2,0,P|180:328|197:287,1,85,10|2,0:0|0:0,0:0:0:0:
62,64,55591,5,14,0:0:0:0:
101,199,55749,1,0,1:2:0:0:
256,140,55907,1,0,1:2:0:0:
156,65,56065,5,14,0:0:0:0:
191,217,56223,1,2,1:2:0:0:
345,162,56381,1,0,1:2:0:0:
226,314,56539,6,0,P|168:326|88:237,1,170,12|0,0:0|1:2,0:0:0:0:
345,215,57012,2,0,B|390:277|373:338|373:338|323:314,1,170,12|0,0:0|1:2,0:0:0:0:
170,220,57486,1,14,0:0:0:0:
286,102,57644,1,0,1:2:0:0:
257,240,57802,1,0,1:2:0:0:
75,200,57960,1,0,1:2:0:0:
256,336,58118,6,0,P|273:290|288:243,1,85,10|8,3:0|0:0,0:0:0:0:
284,255,58354,1,8,0:0:0:0:
284,255,58433,1,8,0:0:0:0:
372,170,58591,2,0,P|339:213|223:196,1,170,4|8,3:0|3:0,0:0:0:0:
140,43,59065,2,0,P|179:61|229:92,1,85,8|0,0:0|0:0,0:0:0:0:
290,148,59381,5,0,1:2:0:0:
300,43,59539,1,0,1:2:0:0:
166,150,59697,1,8,0:0:0:0:
372,188,59854,1,8,0:0:0:0:
137,265,60012,5,8,0:0:0:0:
286,183,60170,1,8,0:0:0:0:
395,358,60328,2,0,L|350:337,1,42.5,8|8,0:0|0:0,0:0:0:0:
241,279,60486,2,0,L|295:262,1,42.5,10|8,0:0|0:0,0:0:0:0:
399,242,60644,6,0,P|413:197|430:136,1,85,6|2,1:2|0:0,0:0:0:0:
297,47,60960,1,10,0:0:0:0:
324,170,61118,1,2,0:0:0:0:
283,33,61276,1,2,1:2:0:0:
440,76,61433,1,2,1:2:0:0:
245,124,61591,6,0,B|202:132|202:132|170:107|170:107|124:115|87:71,1,170,10|2,0:0|1:2,0:0:0:0:
233,38,62065,1,0,1:2:0:0:
233,38,62144,1,0,1:2:0:0:
233,38,62223,1,10,0:0:0:0:
133,187,62381,2,0,P|119:262|154:298,1,127.5,2|0,1:2|0:0,0:0:0:0:
152,311,62697,2,0,P|197:294|240:283,1,85,0|10,1:2|0:0,0:0:0:0:
354,324,63012,1,2,0:0:0:0:
247,177,63170,6,0,P|230:234|224:269,1,85,6|2,1:2|0:0,0:0:0:0:
366,348,63486,1,10,0:0:0:0:
310,240,63644,1,2,0:0:0:0:
463,179,63802,1,2,1:2:0:0:
395,266,63960,1,2,1:2:0:0:
395,266,64039,1,0,1:2:0:0:
395,266,64118,1,10,0:0:0:0:
478,176,64276,1,2,0:0:0:0:
343,44,64433,6,0,P|287:107|314:184,1,170,2|10,1:2|0:0,0:0:0:0:
435,145,64907,1,2,1:2:0:0:
342,275,65065,2,0,P|285:262|221:246,1,85,8|0,3:0|1:2,0:0:0:0:
234,262,65302,1,0,1:2:0:0:
234,262,65381,2,0,P|212:214|196:169,1,85,8|0,0:0|0:0,0:0:0:0:
203,43,65697,5,6,1:2:0:0:
276,141,65854,1,0,0:0:0:0:
100,205,66012,1,10,0:0:0:0:
146,108,66170,1,0,0:0:0:0:
160,267,66328,5,2,1:2:0:0:
16,190,66486,1,0,1:2:0:0:
106,331,66644,2,0,P|179:346|241:267,1,170,10|2,0:0|1:2,0:0:0:0:
218,157,67118,5,0,0:0:0:0:
330,300,67276,1,10,0:0:0:0:
160,271,67433,2,0,P|146:227|134:167,1,85,0|2,0:0|1:2,0:0:0:0:
275,73,67749,1,0,1:2:0:0:
275,73,67828,1,0,1:2:0:0:
275,73,67907,1,10,0:0:0:0:
229,211,68065,1,0,0:0:0:0:
447,207,68223,6,0,P|387:151|292:179,1,170,6|8,1:2|0:0,0:0:0:0:
212,243,68697,1,0,0:0:0:0:
257,66,68854,2,0,P|273:105|286:145,1,85,10|0,0:0|1:2,0:0:0:0:
338,341,69170,2,0,P|289:323|255:314,1,85,8|0,0:0|1:2,0:0:0:0:
40,357,69486,5,14,0:0:0:0:
145,324,69644,1,0,1:2:0:0:
192,219,69802,1,10,0:0:0:0:
126,122,69960,1,2,1:2:0:0:
71,251,70118,5,4,1:2:0:0:
286,295,70276,1,8,0:0:0:0:
48,246,70433,1,0,1:2:0:0:
191,87,70591,5,8,3:0:0:0:
191,87,70670,1,8,3:0:0:0:
190,86,70749,2,0,P|208:123|210:165,1,85,6|2,1:2|0:0,0:0:0:0:
93,266,71065,1,10,0:0:0:0:
132,149,71223,1,2,0:0:0:0:
9,104,71381,1,2,1:2:0:0:
9,104,71539,1,2,1:2:0:0:
41,320,71697,6,0,P|109:340|170:264,1,170,10|2,0:0|1:2,0:0:0:0:
95,169,72170,1,0,1:2:0:0:
95,169,72249,1,0,1:2:0:0:
95,169,72328,1,10,0:0:0:0:
223,73,72486,2,0,P|243:121|255:164,1,85,2|0,1:2|0:0,0:0:0:0:
269,292,72802,1,0,1:2:0:0:
152,164,72960,1,10,0:0:0:0:
320,74,73118,1,2,0:0:0:0:
183,246,73276,6,0,B|129:229|129:229|72:246|72:246|14:228,1,170,6|8,1:2|0:0,0:0:0:0:
206,142,73749,1,0,0:0:0:0:
164,361,73907,2,0,P|149:326|135:266,1,85,2|0,1:2|0:0,0:0:0:0:
310,144,74223,2,0,P|291:177|271:235,1,85,8|0,0:0|0:0,0:0:0:0:
383,368,74539,1,6,1:2:0:0:
223,289,74697,1,10,3:0:0:0:
413,202,74854,1,6,3:0:0:0:
286,380,75012,6,0,P|258:322|275:220,1,170,6|8,1:2|0:0,0:0:0:0:
428,93,75486,2,0,P|414:147|400:191,1,85,0|8,1:2|0:0,0:0:0:0:
387,198,75723,1,8,0:0:0:0:
371,220,75802,6,0,P|323:150|239:144,1,170,6|8,1:2|0:0,0:0:0:0:
107,244,76276,2,0,B|214:266|214:266|274:231,1,170,6|8,1:2|0:0,0:0:0:0:
424,112,76749,2,0,P|397:233|382:284,2,170,6|0|10,1:2|0:0|0:0,0:0:0:0:
318,22,77539,1,0,0:0:0:0:
338,134,77697,1,10,3:0:0:0:
506,106,77854,1,2,0:0:0:0:
365,236,78012,2,0,L|318:213,3,42.5,4|4|4|4,3:0|3:0|3:0|3:0,0:0:0:0:
298,202,78328,6,0,P|249:232|231:356,1,170,6|8,1:2|0:0,0:0:0:0:
33,200,78802,2,0,B|86:188|144:227|144:227|162:182|195:163,1,170,6|8,1:2|0:0,0:0:0:0:
364,276,79276,2,0,P|322:302|224:224,1,170,6|8,1:2|0:0,0:0:0:0:
227,248,79670,1,8,0:0:0:0:
227,248,79749,1,8,0:0:0:0:
235,64,79907,2,0,P|251:100|260:116,3,42.5,10|0|0|0,3:0|0:0|0:0|0:0,0:0:0:0:
299,195,80223,2,0,P|330:186|356:180,3,42.5,6|0|2|0,3:0|0:0|0:0|0:0,0:0:0:0:
353,95,80539,2,0,P|408:111|447:129,1,85,0|4,1:2|3:0,0:0:0:0:
390,339,80854,6,0,P|372:290|361:245,1,85,14|0,0:0|1:2,0:0:0:0:
491,305,81170,1,0,1:2:0:0:
247,279,81328,2,0,P|261:218|289:94,1,170,14|0,0:0|1:2,0:0:0:0:
86,40,81802,6,0,P|102:100|121:148,1,85,14|0,0:0|1:2,0:0:0:0:
233,24,82118,1,0,1:2:0:0:
339,194,82276,2,0,P|281:173|238:154,1,85,14|0,0:0|1:2,0:0:0:0:
60,101,82591,5,0,1:2:0:0:
71,268,82749,2,0,P|119:253|173:236,1,85,14|0,0:0|0:0,0:0:0:0:
349,357,83065,2,0,P|322:313|301:271,1,85,14|0,0:0|0:0,0:0:0:0:
469,88,83381,2,0,P|453:155|418:290,1,170,6|4,1:2|3:0,0:0:0:0:
160,169,83854,2,0,P|204:124|321:149,1,170,4|4,3:0|3:0,0:0:0:0:
387,332,84328,2,0,P|356:293|341:246,1,85,0|0,1:2|0:0,0:0:0:0:
381,41,84644,1,2,1:2:0:0:
381,41,84723,1,0,1:2:0:0:
381,41,84802,1,0,1:2:0:0:
256,192,85907,12,2,92223,0:0:0:0:
