osu file format v14

[General]
AudioFilename: audio.mp3
AudioLeadIn: 0
PreviewTime: 60328
Countdown: 0
SampleSet: Soft
StackLeniency: 0.7
Mode: 0
LetterboxInBreaks: 0
WidescreenStoryboard: 1

[Editor]
Bookmarks: 73907,76276
DistanceSpacing: 1.7
BeatDivisor: 4
GridSize: 4
TimelineZoom: 1.9

[Metadata]
Title:INFINITE SKY
TitleUnicode:INFINITE SKY
Artist:Faylan
ArtistUnicode:Faylan
Creator:Kawasaki Sakura
Version:Hard
Source:蒼の彼方のフォーリズム
Tags:-karupa- beyond NYAN_KOT_NYAN KoldNoodl cjstmdals op opening 2 aokana ao no kanata four rhythms across the blue sprite 2nd season rhythm into firmament video game female vocals visual novel vn bgm japanese pop jpop eroge j-pop
BeatmapID:4525568
BeatmapSetID:2109234

[Difficulty]
HPDrainRate:4
CircleSize:3.6
OverallDifficulty:7
ApproachRate:8
SliderMultiplier:1.4
SliderTickRate:1

[Events]
//Background and Video events
0,0,"wallpaperbetter.com_1920x1080 (6).jpg",0,0
//Break Periods
2,92423,95578
//Storyboard Layer 0 (Background)
//Storyboard Layer 1 (Fail)
//Storyboard Layer 2 (Pass)
//Storyboard Layer 3 (Foreground)
//Storyboard Layer 4 (Overlay)
//Storyboard Sound Samples

[TimingPoints]
1276,315.789473684211,4,2,1,100,1,0
2539,-117.647058823529,4,2,1,50,0,0
14223,-117.647058823529,4,2,1,70,0,0
15012,-111.111111111111,4,2,1,60,0,0
29065,-100,4,2,1,60,0,0
30328,-100,4,2,1,70,0,0
41065,-100,4,2,1,70,0,0
46118,-100,4,2,1,70,0,0
50539,-100,4,2,1,75,0,0
60644,-100,4,2,1,85,0,1
70749,-100,4,2,1,85,0,1
85907,-133.333333333333,4,2,1,60,0,0
96328,-133.333333333333,4,2,1,80,0,0
97118,-500,4,2,1,80,0,0

[Colours]
Combo1 : 128,255,255
Combo2 : 255,128,128
Combo3 : 255,255,128
Combo4 : 128,255,128

[HitObjects]
71,113,14223,5,10,0:0:0:0:
123,185,14381,1,2,1:2:0:0:
210,167,14539,1,10,0:0:0:0:
288,208,14697,1,2,1:2:0:0:
288,208,15012,6,0,P|335:173|325:87,1,125.999996154785,6|0,1:2|1:2,0:0:0:0:
276,45,15486,2,0,P|234:28|140:44,1,125.999996154785,2|2,1:2|0:0,0:0:0:0:
83,83,15960,1,2,0:0:0:0:
83,83,16118,2,0,L|91:152,1,62.9999980773926,2|0,0:0|0:0,0:0:0:0:
152,208,16433,2,0,L|131:357,1,125.999996154785,2|2,1:2|0:0,0:0:0:0:
284,373,17065,2,0,L|350:361,1,62.9999980773926,2|2,0:0|0:0,0:0:0:0:
426,328,17381,1,2,0:0:0:0:
508,191,17697,6,0,P|443:170|378:173,1,125.999996154785,2|2,1:2|0:0,0:0:0:0:
321,225,18170,1,2,1:2:0:0:
321,225,18328,2,0,P|258:225|198:205,1,125.999996154785,2|2,0:0|0:0,0:0:0:0:
101,110,18960,1,2,1:2:0:0:
185,6,19276,2,0,L|259:26,1,62.9999980773926,2|2,0:0|1:2,0:0:0:0:
306,83,19591,2,0,L|366:66,2,62.9999980773926,2|2|2,0:0|0:0|0:0,0:0:0:0:
198,205,20223,5,0,1:2:0:0:
198,205,20539,2,0,L|206:274,1,62.9999980773926,2|2,0:0|1:2,0:0:0:0:
248,339,20854,2,0,P|306:364|385:338,1,125.999996154785,2|2,0:0|0:0,0:0:0:0:
467,274,21486,2,0,B|483:245|483:245|473:141,1,125.999996154785,2|2,1:2|0:0,0:0:0:0:
406,98,21960,2,0,P|346:94|271:105,1,125.999996154785,2|0,1:2|0:0,0:0:0:0:
214,154,22433,1,2,0:0:0:0:
91,107,22749,6,0,P|77:145|87:233,1,125.999996154785,2|0,1:2|0:0,0:0:0:0:
151,292,23223,2,0,P|208:268|285:298,1,125.999996154785,0|0,1:2|0:0,0:0:0:0:
326,342,23697,1,2,0:0:0:0:
452,283,24012,2,0,P|448:241|418:141,1,125.999996154785,2|2,1:2|0:0,0:0:0:0:
340,134,24486,1,0,1:2:0:0:
340,134,24644,2,0,P|287:139|202:127,1,125.999996154785,2|2,0:0|0:0,0:0:0:0:
88,68,25276,6,0,L|91:144,1,62.9999980773926,2|2,1:2|0:0,0:0:0:0:
155,189,25591,2,0,L|138:330,1,125.999996154785,2|0,0:0|0:0,0:0:0:0:
4,234,26223,1,2,0:0:0:0:
4,234,26381,2,0,L|19:108,1,125.999996154785,2|0,0:0|0:0,0:0:0:0:
0,28,26854,1,2,0:0:0:0:
0,28,27012,2,0,P|57:28|118:67,1,125.999996154785,2|0,1:2|0:0,0:0:0:0:
178,121,27486,1,2,0:0:0:0:
178,121,27644,6,0,P|235:121|296:82,1,125.999996154785,2|0,0:0|0:0,0:0:0:0:
346,22,28118,1,2,0:0:0:0:
346,22,28276,1,2,1:2:0:0:
462,203,28749,1,2,0:0:0:0:
324,261,29065,6,0,L|249:245,1,70,0|0,1:2|1:2,0:0:0:0:
170,182,29381,2,0,L|75:198,1,70,10|8,0:0|0:0,0:0:0:0:
69,171,29618,1,8,0:0:0:0:
69,171,29697,1,8,0:0:0:0:
11,106,29854,1,4,3:0:0:0:
30,22,30012,2,0,L|75:32,3,35,2|2|6|2,0:0|0:0|3:0|0:0,0:0:0:0:
86,61,30328,6,0,L|244:39,1,140,4|10,1:2|0:0,0:0:0:0:
302,94,30802,1,2,0:0:0:0:
379,34,30960,2,0,P|430:52|463:72,1,70,2|0,1:2|1:2,0:0:0:0:
503,138,31276,2,0,P|509:176|507:219,1,70,10|0,0:0|0:0,0:0:0:0:
445,276,31591,2,0,P|381:291|311:256,1,140,2|8,1:2|0:0,0:0:0:0:
227,202,32065,2,0,P|164:172|97:187,1,140,2|0,1:2|1:2,0:0:0:0:
150,272,32539,1,10,0:0:0:0:
315,261,32854,6,0,P|326:197|308:113,1,140,2|8,1:2|0:0,0:0:0:0:
287,34,33328,2,0,L|204:55,1,70,0|0,0:0|1:2,0:0:0:0:
153,121,33644,1,0,1:2:0:0:
153,121,33802,2,0,L|85:103,1,70,10|2,0:0|0:0,0:0:0:0:
14,175,34118,2,0,P|25:276|33:333,1,140,2|10,1:2|0:0,0:0:0:0:
108,373,34591,1,0,1:2:0:0:
108,373,34749,2,0,L|182:353,1,70,2|0,0:0|1:2,0:0:0:0:
208,261,35065,2,0,L|275:279,1,70,10|8,0:0|0:0,0:0:0:0:
307,293,35302,5,8,0:0:0:0:
307,293,35381,2,0,P|341:236|331:151,1,140,2|10,1:2|0:0,0:0:0:0:
250,105,35854,2,0,P|282:70|389:71,1,140,0|0,0:0|1:2,0:0:0:0:
456,118,36328,1,10,0:0:0:0:
492,290,36644,1,2,1:2:0:0:
492,290,36802,2,0,P|439:307|402:307,1,70,0|8,1:2|0:0,0:0:0:0:
344,349,37118,1,8,0:0:0:0:
344,349,37197,1,8,0:0:0:0:
344,349,37276,2,0,P|311:336|277:330,1,70,10|4,0:0|3:0,0:0:0:0:
230,247,37591,2,0,P|197:259|163:265,1,70,6|4,3:0|3:0,0:0:0:0:
53,311,37907,6,0,P|28:268|19:85,1,210,6|0,1:2|0:0,0:0:0:0:
73,34,38539,1,8,0:0:0:0:
211,124,38854,1,2,0:0:0:0:
211,124,39012,1,2,0:0:0:0:
274,45,39170,2,0,P|295:92|302:183,1,140,2|10,1:2|0:0,0:0:0:0:
168,296,39802,2,0,P|142:231|139:161,1,140,10|8,0:0|0:0,0:0:0:0:
274,45,40433,6,0,L|327:57,2,35,10|8|0,0:0|0:0|1:2,0:0:0:0:
178,133,40749,2,0,L|39:156,1,140,12|2,0:0|0:0,0:0:0:0:
1,259,41223,1,2,1:2:0:0:
1,259,41381,1,10,0:0:0:0:
69,338,41539,6,0,L|207:361,1,140,6|0,1:2|0:0,0:0:0:0:
276,297,42012,1,10,0:0:0:0:
369,299,42170,2,0,P|412:324|446:330,1,70,2|0,0:0|1:2,0:0:0:0:
441,221,42486,2,0,P|489:208|517:188,1,70,2|8,0:0|0:0,0:0:0:0:
432,113,42802,2,0,B|382:97|382:97|339:105|339:105|291:91,1,140,6|0,1:2|1:2,0:0:0:0:
202,10,43276,2,0,B|189:52|189:52|197:95|197:95|181:145,1,140,8|0,0:0|1:2,0:0:0:0:
102,206,43749,1,0,0:0:0:0:
102,206,43907,1,8,0:0:0:0:
160,286,44065,5,8,0:0:0:0:
160,286,44144,1,8,0:0:0:0:
160,286,44223,2,0,P|219:278|243:274,1,70,14|0,0:0|1:2,0:0:0:0:
291,186,44539,2,0,P|256:181|221:176,1,70,10|0,0:0|0:0,0:0:0:0:
156,89,44854,2,0,P|190:83|225:79,1,70,10|2,0:0|1:2,0:0:0:0:
295,14,45170,2,0,L|344:32,3,35,10|8|8|8,0:0|0:0|0:0|0:0,0:0:0:0:
350,65,45486,6,0,L|464:54,1,105,2|0,1:2|0:0,0:0:0:0:
474,73,45802,2,0,P|491:123|463:212,1,140,12|2,0:0|1:2,0:0:0:0:
392,262,46276,1,0,1:2:0:0:
392,262,46433,1,10,0:0:0:0:
298,215,46591,6,0,P|230:210|160:255,1,140,6|0,1:2|0:0,0:0:0:0:
90,288,47065,1,10,0:0:0:0:
90,288,47223,2,0,P|62:258|56:225,1,70,2|0,0:0|1:2,0:0:0:0:
13,135,47539,2,0,P|14:93|33:66,1,70,2|8,0:0|0:0,0:0:0:0:
121,17,47854,2,0,P|166:16|275:70,1,140,6|0,1:2|1:2,0:0:0:0:
310,127,48328,2,0,P|359:137|397:132,1,70,8|0,0:0|0:0,0:0:0:0:
464,88,48644,2,0,B|481:121|481:121|465:224,1,140,0|8,1:2|0:0,0:0:0:0:
326,290,49276,6,0,P|280:275|250:269,1,70,14|0,0:0|1:2,0:0:0:0:
158,262,49591,2,0,P|173:216|179:186,1,70,10|0,0:0|1:2,0:0:0:0:
186,94,49907,2,0,P|232:109|262:115,1,70,10|0,0:0|0:0,0:0:0:0:
354,122,50223,1,10,0:0:0:0:
480,249,50539,6,0,P|497:205|488:107,1,140,6|10,1:2|0:0,0:0:0:0:
413,51,51012,1,2,0:0:0:0:
413,51,51170,2,0,P|371:63|333:66,1,70,2|2,1:2|1:2,0:0:0:0:
264,15,51486,1,10,0:0:0:0:
111,103,51802,6,0,B|119:181|128:147|136:245,1,140,2|10,1:2|0:0,0:0:0:0:
207,289,52276,1,2,0:0:0:0:
286,245,52433,2,0,P|329:256|361:274,2,70,2|2|10,1:2|1:2|0:0,0:0:0:0:
156,154,53065,6,0,P|111:160|79:163,1,70,2|2,1:2|0:0,0:0:0:0:
36,65,53381,2,0,P|70:60|105:56,1,70,10|2,0:0|0:0,0:0:0:0:
192,9,53697,1,2,1:2:0:0:
192,9,53854,1,2,1:2:0:0:
269,67,54012,1,10,0:0:0:0:
445,10,54328,6,0,P|471:62|454:154,1,140,2|10,1:2|0:0,0:0:0:0:
365,179,54802,2,0,P|339:231|356:323,1,140,2|2,0:0|1:2,0:0:0:0:
265,366,55276,2,0,L|192:350,1,70,10|2,0:0|0:0,0:0:0:0:
95,360,55591,6,0,P|83:300|70:196,1,140,14|0,0:0|1:2,0:0:0:0:
122,113,56065,2,0,P|165:91|263:118,1,140,14|0,0:0|1:2,0:0:0:0:
320,206,56539,2,0,P|314:248|311:291,1,70,12|0,0:0|1:2,0:0:0:0:
393,362,56854,1,0,1:2:0:0:
491,294,57012,2,0,B|510:257|510:257|504:150,1,140,12|0,0:0|1:2,0:0:0:0:
420,72,57486,1,14,0:0:0:0:
263,172,57802,1,0,1:2:0:0:
127,58,58118,5,10,3:0:0:0:
56,125,58276,1,8,0:0:0:0:
56,125,58354,1,8,0:0:0:0:
56,125,58433,1,8,0:0:0:0:
122,199,58591,2,0,P|102:260|111:338,1,140,4|8,3:0|3:0,0:0:0:0:
196,381,59065,1,8,0:0:0:0:
262,223,59381,2,0,L|245:151,1,70,0|0,1:2|1:2,0:0:0:0:
352,78,59697,2,0,L|338:155,1,70,8|8,0:0|0:0,0:0:0:0:
424,211,60012,1,8,0:0:0:0:
344,283,60170,1,8,0:0:0:0:
445,341,60328,2,0,L|457:304,3,35,8|8|10|8,0:0|0:0|0:0|0:0,0:0:0:0:
484,278,60644,6,0,P|476:225|456:131,1,140,6|10,1:2|0:0,0:0:0:0:
361,83,61118,1,2,0:0:0:0:
276,137,61276,2,0,P|236:124|201:123,1,70,2|2,1:2|1:2,0:0:0:0:
106,115,61591,2,0,P|108:149|120:182,1,70,10|0,0:0|0:0,0:0:0:0:
215,240,61907,6,0,P|184:271|78:285,1,140,2|10,1:2|0:0,0:0:0:0:
3,221,62381,2,0,P|15:147|22:70,1,140,2|0,1:2|1:2,0:0:0:0:
96,19,62854,1,10,0:0:0:0:
96,19,63012,1,2,0:0:0:0:
173,93,63170,6,0,P|224:78|259:73,1,70,6|2,1:2|0:0,0:0:0:0:
341,145,63486,1,10,0:0:0:0:
341,145,63644,1,2,0:0:0:0:
274,230,63802,2,0,P|223:245|188:250,1,70,2|2,1:2|1:2,0:0:0:0:
333,310,64118,2,0,P|367:317|400:327,1,70,10|2,0:0|0:0,0:0:0:0:
485,272,64433,6,0,P|501:215|478:117,1,140,2|10,1:2|0:0,0:0:0:0:
411,49,64907,2,0,P|353:85|266:76,1,140,2|0,1:2|0:0,0:0:0:0:
175,56,65381,2,0,P|173:90|182:124,1,70,8|0,0:0|0:0,0:0:0:0:
240,206,65697,6,0,P|236:248|211:361,2,140,6|10|2,1:2|0:0|1:2,0:0:0:0:
182,124,66486,1,0,1:2:0:0:
89,171,66644,2,0,P|66:138|61:104,1,70,10|0,0:0|0:0,0:0:0:0:
117,7,66960,6,0,P|171:22|214:29,1,70,2|0,1:2|0:0,0:0:0:0:
263,87,67276,2,0,P|297:79|330:69,1,70,10|0,0:0|0:0,0:0:0:0:
422,134,67591,2,0,P|414:188|405:221,1,70,2|0,1:2|1:2,0:0:0:0:
315,254,67907,2,0,P|323:308|332:341,1,70,10|0,0:0|0:0,0:0:0:0:
410,202,68223,6,0,P|340:163|257:175,1,140,6|8,1:2|0:0,0:0:0:0:
192,222,68697,1,0,0:0:0:0:
89,185,68854,2,0,P|71:240|90:340,1,140,10|8,0:0|0:0,0:0:0:0:
166,374,69328,1,0,1:2:0:0:
251,306,69486,6,0,L|331:335,1,70,14|0,0:0|1:2,0:0:0:0:
406,374,69802,1,10,0:0:0:0:
476,294,69960,2,0,P|482:258|481:217,1,70,2|4,1:2|1:2,0:0:0:0:
402,146,70276,1,8,0:0:0:0:
306,192,70433,2,0,L|265:206,3,35,0|0|8|0,1:2|0:0|3:0|0:0,0:0:0:0:
250,235,70749,6,0,P|163:218|95:204,1,140,6|10,1:2|0:0,0:0:0:0:
42,135,71223,1,2,0:0:0:0:
76,40,71381,2,0,P|116:31|163:40,1,70,2|2,1:2|1:2,0:0:0:0:
231,87,71697,2,0,P|264:95|299:93,1,70,10|0,0:0|0:0,0:0:0:0:
410,27,72012,6,0,B|416:81|416:81|409:115|409:115|427:177,1,140,2|10,1:2|0:0,0:0:0:0:
508,245,72486,2,0,P|496:305|468:400,1,140,2|0,1:2|1:2,0:0:0:0:
384,325,72960,1,10,0:0:0:0:
384,325,73118,1,2,0:0:0:0:
286,364,73276,6,0,P|226:350|195:347,1,70,6|0,1:2|0:0,0:0:0:0:
134,276,73591,2,0,P|126:231|118:201,1,70,8|0,0:0|0:0,0:0:0:0:
211,138,73907,2,0,P|216:103|225:69,2,70,2|0|8,1:2|1:2|0:0,0:0:0:0:
338,241,74539,5,6,1:2:0:0:
373,156,74697,1,10,3:0:0:0:
472,164,74854,1,6,3:0:0:0:
422,76,75012,2,0,P|382:61|288:89,1,140,6|8,1:2|0:0,0:0:0:0:
202,143,75486,2,0,L|123:126,1,70,0|8,1:2|0:0,0:0:0:0:
104,152,75723,5,8,0:0:0:0:
104,152,75802,2,0,P|76:249|87:310,1,140,6|8,1:2|0:0,0:0:0:0:
137,372,76276,2,0,P|201:346|271:348,1,140,6|8,1:2|0:0,0:0:0:0:
373,303,76749,2,0,P|406:253|378:88,1,210,6|0,1:2|1:2,0:0:0:0:
312,31,77381,5,10,0:0:0:0:
167,103,77697,1,10,3:0:0:0:
86,59,77854,1,2,0:0:0:0:
8,107,78012,2,0,L|0:72,2,35,4|4|4,3:0|3:0|3:0,0:0:0:0:
86,173,78328,6,0,P|137:149|233:159,1,140,6|8,1:2|0:0,0:0:0:0:
245,46,78802,2,0,P|298:65|358:140,1,140,6|8,1:2|0:0,0:0:0:0:
432,39,79276,2,0,P|456:90|410:257,1,210,6|8,1:2|0:0,0:0:0:0:
342,287,79907,5,10,3:0:0:0:
190,240,80223,1,6,3:0:0:0:
190,240,80381,2,0,P|169:202|181:96,1,140,2|4,0:0|3:0,0:0:0:0:
250,27,80854,6,0,P|321:47|344:52,1,70,14|0,0:0|1:2,0:0:0:0:
411,10,81170,1,0,1:2:0:0:
485,79,81328,2,0,P|499:139|476:240,1,140,14|0,0:0|1:2,0:0:0:0:
400,268,81802,2,0,P|400:307|404:347,2,70,14|0|0,0:0|1:2|1:2,0:0:0:0:
316,207,82276,6,0,P|262:200|240:196,1,70,14|0,0:0|1:2,0:0:0:0:
153,127,82591,1,0,1:2:0:0:
58,204,82749,2,0,P|66:242|77:282,1,70,14|0,0:0|0:0,0:0:0:0:
182,316,83065,2,0,P|174:354|163:394,1,70,14|0,0:0|0:0,0:0:0:0:
297,333,83381,6,0,P|354:347|382:351,1,70,6|4,1:2|3:0,0:0:0:0:
384,328,83618,1,4,3:0:0:0:
384,328,83697,1,4,3:0:0:0:
460,259,83854,2,0,P|477:216|446:117,1,140,4|4,3:0|3:0,0:0:0:0:
364,79,84328,2,0,L|274:97,1,70,0|0,1:2|0:0,0:0:0:0:
193,156,84644,5,2,1:2:0:0:
139,60,84802,1,0,1:2:0:0:
281,194,85907,6,0,P|274:246|265:306,1,105.000004005432,2|2,0:0|0:0,0:0:0:0:
191,333,86381,1,2,0:0:0:0:
191,333,86539,1,2,0:0:0:0:
256,192,86618,12,2,92223,0:0:0:0:
96,99,96328,5,8,0:0:0:0:
170,50,96486,1,8,0:0:0:0:
259,48,96644,1,8,0:0:0:0:
341,82,96802,1,8,0:0:0:0:
227,198,97118,5,12,0:0:0:0:
