osu file format v14

[General]
AudioFilename: audio.mp3
AudioLeadIn: 0
PreviewTime: 60328
Countdown: 0
SampleSet: Soft
StackLeniency: 0.7
Mode: 0
LetterboxInBreaks: 0
WidescreenStoryboard: 1

[Editor]
DistanceSpacing: 0.6
BeatDivisor: 4
GridSize: 4
TimelineZoom: 1.9

[Metadata]
Title:INFINITE SKY
TitleUnicode:INFINITE SKY
Artist:Faylan
ArtistUnicode:Faylan
Creator:Kawasaki Sakura
Version:Extra
Source:蒼の彼方のフォーリズム
Tags:-karupa- beyond NYAN_KOT_NYAN KoldNoodl cjstmdals op opening 2 aokana ao no kanata four rhythms across the blue sprite 2nd season rhythm into firmament video game female vocals visual novel vn bgm japanese pop jpop eroge j-pop
BeatmapID:4427194
BeatmapSetID:2109234

[Difficulty]
HPDrainRate:7
CircleSize:4
OverallDifficulty:9
ApproachRate:9.2
SliderMultiplier:1.8
SliderTickRate:1

[Events]
//Background and Video events
0,0,"wallpaperbetter.com_1920x1080 (6).jpg",0,0
//Break Periods
//Storyboard Layer 0 (Background)
//Storyboard Layer 1 (Fail)
//Storyboard Layer 2 (Pass)
//Storyboard Layer 3 (Foreground)
//Storyboard Layer 4 (Overlay)
//Storyboard Sound Samples

[TimingPoints]
1276,315.789473684211,4,2,1,100,1,0
2539,-117.647058823529,4,2,1,50,0,0
14223,-117.647058823529,4,2,1,70,0,0
15012,-111.111111111111,4,2,1,60,0,0
29065,-100,4,2,1,60,0,0
30328,-100,4,2,1,70,0,0
40749,-83.3333333333333,4,2,1,70,0,0
41065,-100,4,2,1,70,0,0
45802,-83.3333333333333,4,2,1,70,0,0
46118,-100,4,2,1,70,0,0
50539,-100,4,2,1,75,0,0
60486,-100,4,2,1,75,0,0
60644,-100,4,2,1,85,0,1
70276,-76.9230769230769,4,2,1,85,0,1
70749,-100,4,2,1,85,0,1
85907,-133.333333333333,4,2,1,60,0,0
96328,-133.333333333333,4,2,1,80,0,0
97118,-500,4,2,1,80,0,0

[Colours]
Combo1 : 128,255,255
Combo2 : 255,128,128
Combo3 : 255,255,128
Combo4 : 128,255,128

[HitObjects]
81,127,2539,5,2,0:0:0:0:
153,69,2697,1,2,0:0:0:0:
164,159,2854,1,2,0:0:0:0:
66,121,3012,1,2,0:0:0:0:
167,55,3170,2,0,P|158:131|155:207,1,153.000002918243,2|2,0:0|0:0,0:0:0:0:
390,29,3802,1,2,0:0:0:0:
485,118,4118,1,2,0:0:0:0:
448,189,4276,1,2,0:0:0:0:
239,169,4591,6,0,L|164:152,2,76.5000014591217,2|2|2,0:0|0:0|0:0,0:0:0:0:
305,113,5065,1,2,0:0:0:0:
230,79,5223,1,2,0:0:0:0:
318,15,5381,1,2,0:0:0:0:
341,197,5539,2,0,P|347:243|325:358,1,153.000002918243,2|2,0:0|0:0,0:0:0:0:
226,298,6012,2,0,P|155:287|137:282,1,76.5000014591217,2|2,0:0|0:0,0:0:0:0:
64,198,6328,2,0,P|97:158|210:182,1,153.000002918243,2|2,0:0|0:0,0:0:0:0:
350,130,6802,5,2,0:0:0:0:
303,227,6960,1,2,0:0:0:0:
336,111,7118,2,0,P|298:101|264:84,1,76.5000014591217,2|0,0:0|0:0,0:0:0:0:
191,162,7433,1,2,0:0:0:0:
80,35,7591,5,0,0:0:0:0:
134,108,7749,1,2,0:0:0:0:
108,196,7907,1,2,0:0:0:0:
25,236,8065,1,2,0:0:0:0:
36,153,8223,6,0,P|53:227|47:303,2,153.000002918243,2|2|2,0:0|0:0|0:0,0:0:0:0:
148,355,9170,1,2,0:0:0:0:
148,355,9328,2,0,L|299:335,1,153.000002918243,2|2,0:0|0:0,0:0:0:0:
374,268,9802,5,2,0:0:0:0:
283,189,9960,1,2,0:0:0:0:
412,134,10118,1,2,0:0:0:0:
161,222,10591,1,2,0:0:0:0:
161,222,10749,1,2,0:0:0:0:
130,0,11381,1,2,0:0:0:0:
308,124,11854,1,2,0:0:0:0:
308,124,12012,1,2,0:0:0:0:
80,253,12644,6,0,P|154:252|210:302,1,153.000002918243,2|0,0:0|0:0,0:0:0:0:
181,169,13118,1,2,0:0:0:0:
181,169,13276,2,0,P|173:94|196:22,1,153.000002918243,2|0,0:0|0:0,0:0:0:0:
256,241,14223,5,10,0:0:0:0:
147,163,14381,1,2,1:2:0:0:
371,135,14539,1,10,0:0:0:0:
300,362,14697,1,2,1:2:0:0:
103,262,15012,6,0,P|96:182|101:101,1,161.999995056153,6|0,1:2|1:2,0:0:0:0:
254,50,15486,2,0,P|245:89|230:127,1,80.9999975280763,2|2,1:2|0:0,0:0:0:0:
378,90,15802,2,0,P|417:81|455:66,1,80.9999975280763,2|2,0:0|0:0,0:0:0:0:
387,230,16118,5,2,0:0:0:0:
456,182,16276,1,0,0:0:0:0:
489,327,16433,1,2,1:2:0:0:
489,327,16591,1,0,0:0:0:0:
309,279,16749,1,2,0:0:0:0:
309,279,16907,1,2,1:2:0:0:
387,229,17065,2,0,P|350:246|310:251,1,80.9999975280763,2|2,0:0|0:0,0:0:0:0:
256,356,17381,2,0,P|218:342|186:317,1,80.9999975280763,2|0,0:0|0:0,0:0:0:0:
84,208,17697,6,0,P|64:285|80:364,1,161.999995056153,2|2,1:2|0:0,0:0:0:0:
167,178,18170,1,2,1:2:0:0:
100,113,18328,2,0,P|63:127|23:135,1,80.9999975280763,2|2,0:0|0:0,0:0:0:0:
167,0,18644,2,0,P|175:39|189:77,1,80.9999975280763,2|0,0:0|0:0,0:0:0:0:
403,105,18960,6,0,P|401:65|392:26,1,80.9999975280763,2|0,1:2|0:0,0:0:0:0:
291,75,19276,2,0,P|292:115|301:154,1,80.9999975280763,2|2,0:0|1:2,0:0:0:0:
373,214,19591,1,2,0:0:0:0:
260,247,19749,1,2,0:0:0:0:
375,320,19907,1,2,0:0:0:0:
381,187,20065,1,0,0:0:0:0:
256,330,20223,6,0,P|186:297|182:220,1,161.999995056153,0|2,1:2|0:0,0:0:0:0:
281,237,20697,1,2,1:2:0:0:
210,125,20854,2,0,P|171:133|131:137,1,80.9999975280763,2|0,0:0|0:0,0:0:0:0:
270,73,21170,2,0,P|262:112|258:152,1,80.9999975280763,2|0,0:0|0:0,0:0:0:0:
396,270,21486,6,0,P|469:249|471:173,1,161.999995056153,2|2,1:2|0:0,0:0:0:0:
332,212,21960,2,0,P|256:187|175:184,1,161.999995056153,2|0,1:2|0:0,0:0:0:0:
86,242,22433,1,2,0:0:0:0:
86,242,22749,6,0,L|69:81,1,161.999995056153,2|0,1:2|0:0,0:0:0:0:
183,17,23223,2,0,B|231:41|286:24|286:24|291:63|310:72,1,161.999995056153,0|0,1:2|0:0,0:0:0:0:
368,153,23697,1,2,0:0:0:0:
491,120,23854,1,2,0:0:0:0:
421,248,24012,2,0,P|397:302|405:362,1,121.499996292114,2|0,1:2|0:0,0:0:0:0:
434,373,24328,6,0,P|472:362|510:347,1,80.9999975280763,2|0,0:0|1:2,0:0:0:0:
447,175,24644,2,0,P|456:215|473:252,1,80.9999975280763,2|0,0:0|0:0,0:0:0:0:
321,225,24960,2,0,P|282:219|243:207,1,80.9999975280763,2|0,0:0|0:0,0:0:0:0:
176,139,25276,5,2,1:2:0:0:
8,204,25433,1,2,0:0:0:0:
34,76,25591,1,2,0:0:0:0:
94,143,25749,1,0,1:2:0:0:
84,282,25907,5,0,0:0:0:0:
170,227,26065,1,0,0:0:0:0:
196,350,26223,1,2,0:0:0:0:
0,286,26381,2,0,P|72:321|152:317,1,161.999995056153,2|0,0:0|0:0,0:0:0:0:
191,230,26854,1,2,0:0:0:0:
282,372,27012,2,0,P|296:293|298:212,1,161.999995056153,2|0,1:2|0:0,0:0:0:0:
399,208,27486,1,2,0:0:0:0:
262,131,27644,2,0,P|339:131|385:195,1,161.999995056153,2|0,0:0|0:0,0:0:0:0:
491,141,28118,5,2,0:0:0:0:
451,70,28276,1,2,1:2:0:0:
375,42,28433,1,2,0:0:0:0:
300,73,28591,1,2,0:0:0:0:
385,195,28749,2,0,P|382:235|373:275,1,80.9999975280763,2|0,0:0|0:0,0:0:0:0:
250,233,29065,5,0,1:2:0:0:
68,295,29223,1,0,1:2:0:0:
243,126,29381,1,10,0:0:0:0:
129,40,29539,1,8,0:0:0:0:
129,40,29618,1,8,0:0:0:0:
129,40,29697,1,8,0:0:0:0:
139,258,29854,6,0,L|181:240,1,45,6|2,3:0|0:0,0:0:0:0:
262,145,30012,2,0,L|304:160,1,45,2|2,0:0|0:0,0:0:0:0:
395,282,30170,2,0,L|435:261,1,45,6|2,3:0|0:0,0:0:0:0:
511,156,30328,6,0,P|467:146|424:134,1,90,4|0,1:2|1:2,0:0:0:0:
283,57,30644,1,10,0:0:0:0:
374,10,30802,1,2,0:0:0:0:
265,41,30960,1,2,1:2:0:0:
424,133,31118,1,0,1:2:0:0:
225,200,31276,2,0,P|146:162|58:174,1,180,10|2,0:0|1:2,0:0:0:0:
118,53,31749,5,0,1:2:0:0:
182,134,31907,1,8,0:0:0:0:
119,256,32065,2,0,P|104:299|101:344,1,90,2|0,1:2|0:0,0:0:0:0:
236,280,32381,1,0,1:2:0:0:
302,333,32539,2,0,P|259:322|214:316,1,90,10|0,0:0|0:0,0:0:0:0:
290,119,32854,6,0,P|291:163|287:208,2,90,2|0|8,1:2|1:2|0:0,0:0:0:0:
210,59,33328,1,0,0:0:0:0:
362,9,33486,1,0,1:2:0:0:
314,136,33644,1,0,1:2:0:0:
176,37,33802,2,0,L|133:52,1,45,10|0,0:0|0:0,0:0:0:0:
82,124,33960,2,0,L|39:108,1,45,2|0,0:0|0:0,0:0:0:0:
129,296,34118,6,0,P|176:223|163:136,2,180,2|10|2,1:2|0:0|0:0,0:0:0:0:
269,227,34907,1,0,1:2:0:0:
213,324,35065,1,10,0:0:0:0:
399,381,35223,1,8,0:0:0:0:
399,381,35302,1,8,0:0:0:0:
399,381,35381,1,2,1:2:0:0:
323,298,35539,5,2,1:2:0:0:
480,197,35697,2,0,P|438:210|393:217,1,90,10|0,0:0|0:0,0:0:0:0:
224,132,36012,2,0,P|266:145|311:152,1,90,0|0,1:2|1:2,0:0:0:0:
195,243,36328,1,10,0:0:0:0:
67,178,36486,1,2,0:0:0:0:
117,42,36644,6,0,P|120:132|95:218,1,180,2|8,1:2|0:0,0:0:0:0:
250,312,37118,1,8,0:0:0:0:
250,312,37197,1,8,0:0:0:0:
250,312,37276,1,10,0:0:0:0:
212,145,37433,1,4,3:0:0:0:
313,76,37591,2,0,P|253:104|193:78,1,135,6|0,3:0|0:0,0:0:0:0:
255,16,37907,6,0,P|335:54|424:53,1,180,6|0,1:2|0:0,0:0:0:0:
481,114,38381,1,0,0:0:0:0:
426,181,38539,2,0,P|404:268|424:355,1,180,8|2,0:0|0:0,0:0:0:0:
279,337,39012,5,2,1:2:0:0:
279,337,39091,1,0,1:2:0:0:
278,337,39170,2,0,P|271:292|257:250,1,90,2|0,1:2|0:0,0:0:0:0:
37,199,39486,2,0,P|82:191|124:177,1,90,10|0,0:0|0:0,0:0:0:0:
273,11,39802,2,0,P|264:56|250:98,1,90,10|0,0:0|0:0,0:0:0:0:
215,174,40118,5,8,0:0:0:0:
207,162,40433,2,0,L|249:176,1,45,10|8,0:0|0:0,0:0:0:0:
311,225,40591,2,0,L|353:210,1,45,0|0,1:2|1:2,0:0:0:0:
477,102,40749,6,0,B|464:175|464:175|480:246|480:246|464:313,1,215.999993408203,12|2,0:0|0:0,0:0:0:0:
332,180,41223,1,2,1:2:0:0:
376,59,41381,1,10,0:0:0:0:
188,189,41539,2,0,P|100:206|19:170,1,180,6|0,1:2|0:0,0:0:0:0:
113,97,42012,1,10,0:0:0:0:
276,153,42170,2,0,P|276:197|265:241,1,90,2|0,0:0|1:2,0:0:0:0:
89,262,42486,2,0,P|89:306|100:350,1,90,2|8,0:0|0:0,0:0:0:0:
351,333,42802,6,0,B|320:319|320:319|252:353|183:299,1,180,6|0,1:2|1:2,0:0:0:0:
1,187,43276,2,0,B|69:133|137:167|137:167|168:153,1,180,8|0,0:0|1:2,0:0:0:0:
315,67,43749,2,0,P|271:63|227:52,1,90,0|8,0:0|0:0,0:0:0:0:
296,225,44065,5,8,0:0:0:0:
302,251,44144,1,8,0:0:0:0:
308,277,44223,1,14,0:0:0:0:
206,246,44381,1,0,1:2:0:0:
157,357,44539,1,10,0:0:0:0:
67,197,44697,1,0,0:0:0:0:
228,97,44854,2,0,L|212:139,1,45,10|0,0:0|0:0,0:0:0:0:
115,220,45012,5,2,1:2:0:0:
94,202,45091,1,0,1:2:0:0:
67,197,45170,1,10,0:0:0:0:
39,196,45249,1,8,0:0:0:0:
12,201,45328,2,0,L|21:245,1,45,8|8,0:0|0:0,0:0:0:0:
147,360,45486,6,0,P|197:316|262:322,1,135,2|0,1:2|0:0,0:0:0:0:
279,335,45802,6,0,P|176:356|84:304,1,215.999993408203,12|2,0:0|1:2,0:0:0:0:
91,101,46276,1,0,1:2:0:0:
12,201,46433,1,10,0:0:0:0:
217,265,46591,2,0,P|246:180|235:91,1,180,6|0,1:2|0:0,0:0:0:0:
333,63,47065,5,10,0:0:0:0:
417,161,47223,1,2,0:0:0:0:
275,208,47381,1,0,1:2:0:0:
451,231,47539,2,0,P|459:182|454:118,1,90,2|8,0:0|0:0,0:0:0:0:
510,317,47854,2,0,P|437:338|361:252,1,180,6|0,1:2|1:2,0:0:0:0:
210,166,48328,6,0,B|224:226|224:226|215:301|215:301|231:369,1,180,8|0,0:0|1:2,0:0:0:0:
313,184,48802,1,0,0:0:0:0:
153,108,48960,2,0,P|210:127|248:130,1,90,8|0,0:0|0:0,0:0:0:0:
286,56,49276,5,14,0:0:0:0:
165,138,49433,1,0,1:2:0:0:
313,184,49591,1,10,0:0:0:0:
166,223,49749,1,0,1:2:0:0:
340,271,49907,1,10,0:0:0:0:
109,279,50065,1,0,0:0:0:0:
388,370,50223,1,10,0:0:0:0:
369,349,50539,5,6,1:2:0:0:
292,191,50697,1,2,0:0:0:0:
420,265,50854,1,10,0:0:0:0:
221,343,51012,1,2,0:0:0:0:
336,258,51170,1,2,1:2:0:0:
512,351,51328,1,2,1:2:0:0:
422,143,51486,1,10,0:0:0:0:
80,281,51802,5,2,1:2:0:0:
203,148,51960,1,2,0:0:0:0:
27,49,52118,1,10,0:0:0:0:
76,161,52276,1,2,0:0:0:0:
198,51,52433,1,2,1:2:0:0:
248,277,52591,1,2,1:2:0:0:
2,222,52749,1,10,0:0:0:0:
324,80,53065,5,2,1:2:0:0:
428,150,53223,1,2,0:0:0:0:
248,277,53381,1,10,0:0:0:0:
217,134,53539,1,2,0:0:0:0:
362,223,53697,1,2,1:2:0:0:
186,329,53854,1,2,1:2:0:0:
454,287,54012,1,10,0:0:0:0:
454,287,54328,6,0,P|466:245|468:200,1,90,2|0,1:2|0:0,0:0:0:0:
267,257,54644,1,10,0:0:0:0:
217,134,54802,2,0,P|259:147|304:152,1,90,2|0,0:0|1:2,0:0:0:0:
295,32,55118,1,2,1:2:0:0:
295,32,55197,1,0,1:2:0:0:
295,32,55276,1,10,0:0:0:0:
141,158,55433,1,2,0:0:0:0:
367,253,55591,5,14,0:0:0:0:
304,152,55749,1,0,1:2:0:0:
203,306,55907,1,0,1:2:0:0:
454,333,56065,5,14,0:0:0:0:
279,244,56223,1,2,1:2:0:0:
427,108,56381,1,0,1:2:0:0:
436,359,56539,5,12,0:0:0:0:
304,152,56697,1,0,1:2:0:0:
203,306,56854,1,0,1:2:0:0:
396,216,57012,5,12,0:0:0:0:
152,122,57170,1,0,1:2:0:0:
423,197,57328,1,0,1:2:0:0:
328,34,57486,6,0,P|318:79|315:123,1,90,14|0,0:0|1:2,0:0:0:0:
183,320,57802,2,0,P|192:275|195:231,1,90,0|0,1:2|1:2,0:0:0:0:
24,100,58118,5,10,3:0:0:0:
85,221,58276,1,8,0:0:0:0:
85,221,58354,1,8,0:0:0:0:
85,221,58433,1,8,0:0:0:0:
210,113,58591,1,4,3:0:0:0:
183,320,58749,1,4,3:0:0:0:
400,228,58907,1,8,3:0:0:0:
257,216,59065,6,0,P|234:130|254:43,1,180,8|0,0:0|1:2,0:0:0:0:
253,43,59539,1,0,1:2:0:0:
340,138,59697,5,8,0:0:0:0:
163,199,59854,1,8,0:0:0:0:
390,282,60012,1,8,0:0:0:0:
137,126,60170,1,8,0:0:0:0:
386,8,60328,1,8,0:0:0:0:
245,227,60486,2,0,L|259:288,1,45,10|8,0:0|0:0,0:0:0:0:
408,317,60644,5,6,1:2:0:0:
337,170,60802,1,2,0:0:0:0:
156,267,60960,1,10,0:0:0:0:
120,97,61118,1,2,0:0:0:0:
250,182,61276,2,0,P|245:226|255:270,1,90,2|2,1:2|1:2,0:0:0:0:
424,104,61591,1,10,0:0:0:0:
424,104,61907,6,0,P|364:40|277:45,1,180,2|10,1:2|0:0,0:0:0:0:
106,187,62381,2,0,P|194:164|283:156,1,180,2|0,1:2|1:2,0:0:0:0:
134,51,62854,1,10,0:0:0:0:
283,156,63012,1,2,0:0:0:0:
338,18,63170,5,6,1:2:0:0:
199,129,63328,1,2,0:0:0:0:
410,197,63486,1,10,0:0:0:0:
306,129,63644,1,2,0:0:0:0:
226,332,63802,1,2,1:2:0:0:
439,303,63960,1,2,1:2:0:0:
305,232,64118,2,0,P|309:276|320:320,1,90,10|2,0:0|0:0,0:0:0:0:
123,373,64433,6,0,P|40:352|21:268,1,180,2|10,1:2|0:0,0:0:0:0:
211,219,64907,2,0,P|169:234|125:243,2,90,2|8|0,1:2|3:0|0:0,0:0:0:0:
0,86,65381,2,0,P|42:101|86:110,1,90,8|0,0:0|0:0,0:0:0:0:
300,27,65697,6,0,P|304:72|313:116,1,90,6|0,1:2|0:0,0:0:0:0:
403,209,66012,2,0,P|398:254|389:298,1,90,10|0,0:0|0:0,0:0:0:0:
230,354,66328,6,0,L|217:310,1,45,2|0,1:2|0:0,0:0:0:0:
169,191,66486,2,0,L|209:210,1,45,0|0,1:2|0:0,0:0:0:0:
307,245,66644,1,10,0:0:0:0:
68,286,66802,1,0,0:0:0:0:
209,111,66960,5,2,1:2:0:0:
113,37,67118,1,0,0:0:0:0:
69,197,67276,1,10,0:0:0:0:
313,135,67433,1,0,1:2:0:0:
313,135,67512,1,0,1:2:0:0:
313,135,67591,2,0,L|322:90,1,45,2|0,1:2|0:0,0:0:0:0:
175,215,67749,2,0,L|184:259,1,45,0|0,1:2|0:0,0:0:0:0:
313,223,67907,1,10,0:0:0:0:
387,384,68065,1,0,0:0:0:0:
94,312,68223,6,0,P|171:353|254:325,1,180,6|8,1:2|0:0,0:0:0:0:
442,187,68697,1,0,1:2:0:0:
442,187,68776,1,0,1:2:0:0:
442,186,68854,2,0,P|441:231|433:276,1,90,10|0,0:0|1:2,0:0:0:0:
182,106,69170,2,0,P|182:61|190:16,1,90,8|0,0:0|1:2,0:0:0:0:
306,97,69486,5,14,0:0:0:0:
388,13,69644,1,0,1:2:0:0:
311,237,69802,1,10,0:0:0:0:
114,159,69960,1,2,1:2:0:0:
311,237,70118,1,4,1:2:0:0:
185,299,70276,6,0,P|193:270|199:242,1,58.4999973220826,8|8,0:0|0:0,0:0:0:0:
186,22,70433,2,0,P|199:47|216:71,1,58.4999973220826,0|0,1:2|1:2,0:0:0:0:
441,155,70591,2,0,P|413:159|385:167,1,58.4999973220826,8|8,3:0|3:0,0:0:0:0:
266,162,70749,5,6,1:2:0:0:
364,67,70907,1,2,0:0:0:0:
448,256,71065,1,10,0:0:0:0:
197,208,71223,1,2,0:0:0:0:
447,255,71381,2,0,P|439:300|430:344,1,90,2|2,1:2|1:2,0:0:0:0:
285,193,71697,1,10,0:0:0:0:
285,193,72012,6,0,B|264:193|243:186|243:186|209:192|209:192|164:148|117:155,1,180,2|10,1:2|0:0,0:0:0:0:
353,290,72486,2,0,P|400:215|384:128,1,180,2|0,1:2|1:2,0:0:0:0:
499,264,72960,5,10,0:0:0:0:
292,366,73118,1,2,0:0:0:0:
217,186,73276,2,0,P|260:195|305:196,1,90,6|0,1:2|0:0,0:0:0:0:
196,384,73591,2,0,P|186:340|187:295,1,90,8|0,0:0|0:0,0:0:0:0:
70,203,73907,1,2,1:2:0:0:
222,107,74065,1,0,1:2:0:0:
285,323,74223,1,8,0:0:0:0:
181,208,74381,1,0,0:0:0:0:
83,296,74539,5,6,1:2:0:0:
348,211,74697,1,10,3:0:0:0:
83,296,74854,1,6,3:0:0:0:
347,211,75012,2,0,P|383:130|358:45,1,180,6|8,1:2|0:0,0:0:0:0:
187,143,75486,1,0,1:2:0:0:
277,298,75644,1,8,0:0:0:0:
277,298,75723,1,8,0:0:0:0:
276,298,75802,6,0,P|353:253|442:259,1,180,6|8,1:2|0:0,0:0:0:0:
208,164,76276,2,0,P|131:208|43:202,1,180,6|8,1:2|0:0,0:0:0:0:
90,99,76670,5,8,0:0:0:0:
107,70,76749,2,0,P|133:201|115:334,1,270,6|0,1:2|1:2,0:0:0:0:
321,214,77381,1,10,0:0:0:0:
321,214,77697,5,10,3:0:0:0:
205,136,77854,2,0,L|217:179,1,45,2|0,1:2|1:2,0:0:0:0:
302,244,78012,2,0,L|344:229,1,45,4|4,3:0|3:0,0:0:0:0:
447,187,78170,2,0,L|489:201,1,45,4|4,3:0|3:0,0:0:0:0:
398,30,78328,6,0,B|311:21|311:21|228:63,1,180,6|8,1:2|0:0,0:0:0:0:
47,212,78802,2,0,B|134:221|134:221|216:178,1,180,6|8,1:2|0:0,0:0:0:0:
290,127,79197,5,8,0:0:0:0:
314,136,79276,2,0,B|325:196|325:196|302:240|302:240|313:308,1,180,6|8,1:2|0:0,0:0:0:0:
313,308,79670,1,8,0:0:0:0:
313,308,79749,1,8,0:0:0:0:
483,228,79907,2,0,P|472:271|465:315,1,90,10|4,3:0|3:0,0:0:0:0:
465,315,80144,1,4,3:0:0:0:
465,315,80223,1,6,3:0:0:0:
299,347,80381,2,0,P|232:292|146:305,1,180,2|4,0:0|3:0,0:0:0:0:
23,170,80854,6,0,P|29:126|38:82,2,90,14|0|0,0:0|1:2|1:2,0:0:0:0:
143,76,81328,1,14,0:0:0:0:
232,168,81486,1,0,1:2:0:0:
49,263,81644,1,0,1:2:0:0:
315,292,81802,5,14,0:0:0:0:
140,187,81960,1,0,1:2:0:0:
91,375,82118,1,0,1:2:0:0:
225,185,82276,6,0,P|235:228|232:273,1,90,14|0,0:0|1:2,0:0:0:0:
389,180,82591,1,0,1:2:0:0:
294,377,82749,6,0,P|309:335|314:291,1,90,14|0,0:0|0:0,0:0:0:0:
222,15,83065,2,0,P|207:57|202:101,1,90,14|0,0:0|0:0,0:0:0:0:
443,215,83381,6,0,P|401:202|356:197,1,90,6|4,1:2|3:0,0:0:0:0:
356,197,83618,1,4,3:0:0:0:
356,197,83697,1,4,3:0:0:0:
114,198,83854,2,0,P|156:211|201:216,1,90,4|4,3:0|3:0,0:0:0:0:
201,216,84091,1,4,3:0:0:0:
201,216,84170,1,4,3:0:0:0:
448,45,84328,6,0,P|472:130|443:214,1,180,0|2,1:2|1:2,0:0:0:0:
177,101,84802,1,0,1:2:0:0:
177,100,85907,6,0,P|176:168|191:234,1,135.000005149842,2|2,0:0|0:0,0:0:0:0:
293,199,86381,1,2,0:0:0:0:
359,307,86539,1,2,0:0:0:0:
256,192,86618,12,2,92223,0:0:0:0:
324,129,92539,5,2,0:0:0:0:
226,197,92697,2,0,P|205:261|220:326,1,135.000005149842,2|2,0:0|0:0,0:0:0:0:
305,283,93170,1,2,0:0:0:0:
370,359,93328,1,2,0:0:0:0:
474,322,93486,5,2,0:0:0:0:
263,202,93960,1,2,0:0:0:0:
263,202,94118,1,2,0:0:0:0:
441,21,94749,1,2,0:0:0:0:
361,245,95223,1,2,0:0:0:0:
361,245,95381,1,8,0:0:0:0:
120,205,95854,1,8,0:0:0:0:
120,205,95933,1,8,0:0:0:0:
120,205,96012,1,0,1:2:0:0:
120,205,96328,5,8,0:0:0:0:
64,72,96486,1,8,0:0:0:0:
0,295,96644,1,8,0:0:0:0:
297,205,96802,1,8,0:0:0:0:
297,205,97118,5,12,0:0:0:0:
256,192,97197,12,0,99802,0:0:0:0:
