osu file format v14

[General]
AudioFilename: optc.mp3
AudioLeadIn: 0
PreviewTime: 58581
Countdown: 0
SampleSet: Soft
StackLeniency: 0.3
Mode: 0
LetterboxInBreaks: 0
WidescreenStoryboard: 1

[Editor]
Bookmarks: 1646,11968,22291,24872,35194,45517,53017,53259,54388,59549,67452,69872,77775,82936
DistanceSpacing: 0.7
BeatDivisor: 4
GridSize: 16
TimelineZoom: 1.800006

[Metadata]
Title:Grimm
TitleUnicode:グリム
Artist:Faylan
ArtistUnicode:飛蘭
Creator:sahuang
Version:Extra
Source:グリザイアの迷宮
Tags:Grisaia no Meikyuu LE LABYRINTHE DE LA ending The Labyrinth of Frontwing xinely momochikun doormat left snownino_ lami Shad0w1and intoon
BeatmapID:1079055
BeatmapSetID:507292

[Difficulty]
HPDrainRate:6
CircleSize:4.1
OverallDifficulty:8.5
ApproachRate:9.1
SliderMultiplier:1.8
SliderTickRate:1

[Events]
//Background and Video events
0,0,"BG.jpg",0,0
//Break Periods
//Storyboard Layer 0 (Background)
//Storyboard Layer 1 (Fail)
//Storyboard Layer 2 (Pass)
//Storyboard Layer 3 (Foreground)
//Storyboard Sound Samples

[TimingPoints]
356,322.58064516129,4,2,1,30,1,0
1646,-200,4,2,1,30,0,0
6807,-142.857142857143,4,2,1,40,0,0
10678,-125,4,2,1,50,0,0
22291,-100,4,2,1,80,0,0
24872,-100,4,2,1,50,0,0
33904,-76.9230769230769,4,2,1,50,0,0
35194,-100,4,2,1,60,0,0
42936,-76.9230769230769,4,2,1,80,0,0
45517,-111.111111111111,4,2,1,70,0,0
50033,-100,4,2,1,70,0,0
54388,-90.9090909090909,4,2,1,80,0,0
54630,-90.9090909090909,4,2,1,30,0,0
54710,-90.9090909090909,4,2,1,80,0,0
55678,-80,4,2,1,90,0,0
55920,-80,4,2,1,30,0,0
56001,-80,4,2,1,90,0,0
56968,-71.4285714285714,4,2,1,100,0,0
57210,-71.4285714285714,4,2,1,30,0,0
57291,-71.4285714285714,4,2,1,100,0,0
59549,-90.9090909090909,4,2,1,100,0,1
64226,-90.9090909090909,4,2,1,100,0,1
76485,-100,4,2,1,100,0,0
77775,-111.111111111111,4,2,1,70,0,0
82936,-111.111111111111,4,2,1,80,0,0

[Colours]
Combo1 : 248,175,129
Combo2 : 143,247,99
Combo3 : 107,107,250
Combo4 : 255,125,190
SliderTrackOverride : 50,35,70
SliderBorder : 190,155,205

[HitObjects]
22,195,1646,5,2,0:0:0:0:
435,102,2936,1,0,0:0:0:0:
143,340,4226,5,2,0:0:0:0:
287,66,4872,2,0,L|291:113,1,45,2|0,0:0|0:0,0:0:0:0:
357,201,5194,2,0,L|353:248,1,45
306,348,5517,1,2,0:0:0:0:
60,44,6162,1,0,0:0:0:0:
413,171,6807,6,0,P|373:175|482:263,1,377.999988464356,2|0,0:0|0:0,0:0:0:0:
401,252,8097,2,0,B|308:219|302:289|212:249,2,188.999994232178,2|0|0,0:0|0:0|0:0,0:0:0:0:
256,192,9388,12,0,11807,0:0:0:0:
28,55,11968,5,6,0:0:0:0:
28,55,12130,2,0,L|190:58,1,144,2|0,0:0|0:0,0:0:0:0:
465,236,12775,2,0,L|286:231,1,144,2|0,0:0|0:0,0:0:0:0:
238,337,13259,6,0,P|179:237|220:139,1,216,2|0,0:0|0:0,0:0:0:0:
465,236,14065,2,0,L|472:337,2,72,0|0|0,0:0|0:0|0:0,0:0:0:0:
419,122,14549,6,0,P|364:152|275:112,2,144,2|0|0,0:0|0:0|0:0,0:0:0:0:
321,27,15355,2,0,B|285:11|247:26,2,72
227,214,15839,5,2,0:0:0:0:
126,76,16000,1,0,0:0:0:0:
77,329,16323,5,2,0:0:0:0:
126,76,16646,1,2,0:0:0:0:
227,214,17130,6,0,L|314:212,1,72,6|0,0:0|0:0,0:0:0:0:
396,43,17614,1,2,0:0:0:0:
157,138,17936,1,0,0:0:0:0:
403,318,18420,6,0,B|353:243|277:243|237:301|237:301|204:279|165:283|165:283|190:227|188:168|151:132,1,432,2|0,0:0|0:0,0:0:0:0:
67,102,19548,1,0,0:0:0:0:
275,119,19710,5,2,0:0:0:0:
256,192,19791,12,0,22130,0:0:0:0:
169,282,22291,5,2,0:0:0:0:
256,192,22372,12,0,24710,0:0:0:0:
164,140,24872,5,2,0:0:0:0:
164,140,25033,2,0,L|66:149,1,90,0|0,0:0|0:0,0:0:0:0:
0,290,25355,2,0,B|43:302|43:302|178:289,1,180,2|0,0:0|0:0,0:0:0:0:
295,221,25839,1,0,0:0:0:0:
311,214,25919,1,0,0:0:0:0:
329,211,26000,1,0,0:0:0:0:
347,211,26080,1,0,0:0:0:0:
365,214,26162,6,0,L|355:108,1,90,2|0,0:0|0:0,0:0:0:0:
512,245,26485,2,0,L|503:334,1,90,0|0,0:0|0:0,0:0:0:0:
453,176,26807,1,0,0:0:0:0:
353,331,26968,1,0,0:0:0:0:
365,214,27130,1,0,0:0:0:0:
469,344,27291,1,0,0:0:0:0:
333,212,27452,6,0,P|291:207|242:210,1,90,2|0,0:0|0:0,0:0:0:0:
79,321,27775,2,0,L|72:369,2,45,0|0|0,0:0|0:0|0:0,0:0:0:0:
18,147,28097,2,0,P|63:137|109:139,1,90,0|2,0:0|0:0,0:0:0:0:
288,277,28420,2,0,P|243:287|197:285,1,90,0|0,0:0|0:0,0:0:0:0:
280,144,28743,6,0,L|328:141,1,45,2|0,0:0|0:0,0:0:0:0:
388,191,28904,2,0,L|436:194,1,45,0|0,0:0|0:0,0:0:0:0:
494,246,29065,1,0,0:0:0:0:
501,289,29145,1,0,0:0:0:0:
485,331,29226,1,0,0:0:0:0:
450,359,29306,1,0,0:0:0:0:
406,365,29388,2,0,P|353:353|303:368,1,90,0|0,0:0|0:0,0:0:0:0:
141,238,29710,2,0,P|194:250|244:235,1,90,0|0,0:0|0:0,0:0:0:0:
56,111,30033,6,0,L|50:219,1,90,2|0,0:0|0:0,0:0:0:0:
228,243,30355,2,0,L|231:179,1,45,0|0,0:0|0:0,0:0:0:0:
298,136,30517,2,0,L|301:72,1,45,0|0,0:0|0:0,0:0:0:0:
220,109,30678,6,0,L|112:103,1,90,2|0,0:0|0:0,0:0:0:0:
88,281,31000,2,0,L|152:284,1,45,0|0,0:0|0:0,0:0:0:0:
195,351,31162,2,0,L|259:354,1,45,0|0,0:0|0:0,0:0:0:0:
330,293,31323,5,2,0:0:0:0:
316,264,31403,1,0,0:0:0:0:
311,233,31484,1,0,0:0:0:0:
315,202,31565,1,0,0:0:0:0:
327,173,31646,2,0,L|280:180,3,45,0|0|0|0,0:0|0:0|0:0|0:0,0:0:0:0:
203,253,31968,5,0,0:0:0:0:
180,231,32048,1,0,0:0:0:0:
167,202,32129,1,0,0:0:0:0:
166,171,32209,1,0,0:0:0:0:
178,142,32291,2,0,L|116:150,3,45,0|0|0|0,0:0|0:0|0:0|0:0,0:0:0:0:
76,53,32614,5,2,0:0:0:0:
100,33,32694,1,0,0:0:0:0:
128,19,32775,1,0,0:0:0:0:
159,11,32855,1,0,0:0:0:0:
190,10,32936,1,0,0:0:0:0:
221,15,33017,1,0,0:0:0:0:
250,27,33097,1,0,0:0:0:0:
276,45,33178,1,0,0:0:0:0:
297,68,33259,6,0,L|282:141,3,45,2|0|0|0,0:0|0:0|0:0|0:0,0:0:0:0:
361,135,33581,2,0,L|376:208,3,45
428,227,33904,6,0,L|428:285,1,58.4999973220826,2|0,0:0|0:0,0:0:0:0:
340,318,34065,2,0,L|340:376,1,58.4999973220826
249,349,34226,2,0,L|181:353,1,58.4999973220826,0|0,0:0|0:0,0:0:0:0:
130,278,34388,2,0,L|62:274,1,58.4999973220826,0|0,0:0|0:0,0:0:0:0:
18,197,34549,6,0,P|14:168|20:136,1,58.4999973220826,0|0,0:0|0:0,0:0:0:0:
118,40,34710,2,0,P|122:69|116:101,1,58.4999973220826,0|0,0:0|0:0,0:0:0:0:
4,185,34872,2,0,P|0:156|6:124,1,58.4999973220826,0|0,0:0|0:0,0:0:0:0:
104,28,35033,2,0,P|108:57|102:89,1,58.4999973220826,0|0,0:0|0:0,0:0:0:0:
155,180,35194,5,10,0:0:0:0:
264,38,35355,1,8,0:0:0:0:
297,265,35517,1,8,0:1:0:0:
413,121,35678,1,0,0:0:0:0:
413,121,35839,2,0,P|427:183|422:217,1,90,8|0,0:0|0:0,0:0:0:0:
308,352,36162,2,0,P|295:309|296:264,1,90,8|0,0:1|0:0,0:0:0:0:
308,245,36404,1,0,0:0:0:0:
308,245,36485,6,0,L|216:249,1,90,8|0,0:0|0:0,0:0:0:0:
62,141,36807,2,0,L|154:145,1,90,8|0,0:1|0:0,0:0:0:0:
79,252,37130,1,8,0:0:0:0:
123,63,37291,1,0,0:0:0:0:
270,213,37452,1,8,0:3:0:0:
62,141,37613,1,0,0:0:0:0:
218,84,37775,6,0,L|271:80,1,45,10|0,0:0|0:0,0:0:0:0:
363,140,37936,2,0,L|318:143,1,45,0|0,0:0|0:0,0:0:0:0:
406,70,38097,1,8,0:1:0:0:
311,241,38259,1,0,0:0:0:0:
262,80,38420,1,8,0:0:0:0:
410,309,38582,1,0,0:0:0:0:
289,236,38743,1,8,0:1:0:0:
267,230,38824,1,0,0:0:0:0:
245,224,38905,1,0,0:0:0:0:
227,219,38985,1,0,0:0:0:0:
209,215,39065,6,0,P|218:270|205:309,1,90,8|0,0:0|0:0,0:0:0:0:
39,185,39388,2,0,P|30:130|43:91,1,90,8|0,0:1|0:0,0:0:0:0:
124,257,39710,1,8,0:0:0:0:
124,257,39872,1,0,0:0:0:0:
168,69,40033,1,8,0:1:0:0:
168,69,40194,1,0,0:0:0:0:
307,227,40355,6,0,L|412:220,1,90,10|0,0:0|0:0,0:0:0:0:
331,42,40678,2,0,L|241:36,1,90,8|0,0:1|0:0,0:0:0:0:
338,139,41001,1,8,0:0:0:0:
153,34,41162,1,0,0:0:0:0:
231,238,41323,1,8,0:1:0:0:
91,144,41485,1,0,0:0:0:0:
91,144,41565,1,0,0:0:0:0:
91,144,41646,6,0,L|92:193,1,45.4999979171754,10|0,0:0|0:0,0:0:0:0:
45,265,41807,2,0,L|87:288,1,45.4999979171754,0|0,0:0|0:0,0:0:0:0:
135,360,41968,2,0,L|176:334,1,45.4999979171754,8|0,0:1|0:0,0:0:0:0:
263,339,42129,2,0,L|262:290,1,45.4999979171754,0|0,0:0|0:0,0:0:0:0:
322,226,42291,6,0,L|321:177,1,45.4999979171754,8|0,0:0|0:0,0:0:0:0:
368,105,42452,2,0,L|325:81,1,45.4999979171754,2|0,0:3|0:0,0:0:0:0:
278,10,42613,2,0,L|236:35,1,45.4999979171754,8|0,0:1|0:0,0:0:0:0:
150,31,42774,2,0,L|151:80,1,45.4999979171754,0|0,0:0|0:0,0:0:0:0:
150,176,42936,6,0,B|210:188|210:188|265:170|265:170|321:180,1,175.499991966248,14|0,0:0|0:0,0:0:0:0:
437,204,43259,1,8,0:1:0:0:
259,356,43420,2,0,P|204:375|129:344,1,116.999994644165,4|0,0:3|0:0,0:0:0:0:
254,86,43743,2,0,P|308:67|364:81,1,116.999994644165,8|2,0:0|0:3,0:0:0:0:
195,186,44065,1,14,0:1:0:0:
195,186,44226,1,0,0:0:0:0:
306,290,44388,5,2,0:3:0:0:
306,290,44468,1,2,0:3:0:0:
306,290,44549,2,0,L|371:282,1,58.4999973220826,8|0,0:0|0:0,0:0:0:0:
419,226,44710,1,8,0:1:0:0:
282,114,44872,5,2,0:3:0:0:
282,114,44952,1,2,0:3:0:0:
282,114,45033,2,0,L|217:106,1,58.4999973220826,8|0,0:0|0:0,0:0:0:0:
169,52,45194,1,8,0:1:0:0:
65,162,45355,1,8,0:1:0:0:
126,285,45517,6,0,P|207:255|300:289,1,161.999995056153,6|8,0:1|0:1,0:0:0:0:
360,338,46001,1,8,0:0:0:0:
438,267,46162,2,0,B|451:228|451:228|420:173|443:105,1,161.999995056153,4|8,0:3|0:1,0:0:0:0:
496,21,46646,1,8,0:0:0:0:
441,111,46807,6,0,L|351:107,1,80.9999975280763,0|4,0:0|0:3,0:0:0:0:
286,182,47130,1,8,0:0:0:0:
211,107,47291,1,8,0:0:0:0:
285,33,47452,1,4,0:3:0:0:
265,275,47775,1,2,0:3:0:0:
286,182,47936,1,8,0:0:0:0:
190,209,48097,6,0,P|183:285|189:372,2,161.999995056153,10|8|4,0:0|0:1|0:3,0:0:0:0:
190,209,49065,2,0,P|144:220|102:210,1,80.9999975280763,2|10,0:3|0:0,0:0:0:0:
52,126,49388,6,0,P|65:80|95:49,1,80.9999975280763,0|10,0:0|0:0,0:0:0:0:
191,51,49710,2,0,P|223:85|235:126,1,80.9999975280763,0|10,0:0|0:0,0:0:0:0:
190,209,50033,2,0,B|231:221|231:221|283:210,1,90,6|0,0:3|0:0,0:0:0:0:
409,135,50355,2,0,B|368:123|368:123|316:134,1,90,8|0,0:1|0:0,0:0:0:0:
447,221,50678,6,0,P|451:278|428:356,1,135,6|0,0:0|0:0,0:0:0:0:
391,377,51001,1,8,0:1:0:0:
258,300,51162,1,8,0:0:0:0:
89,345,51323,2,0,P|72:290|77:209,1,135,4|0,0:3|0:0,0:0:0:0:
108,180,51646,1,2,0:3:0:0:
255,225,51807,1,8,0:0:0:0:
173,95,51968,6,0,L|166:0,1,90,2|8,0:3|0:0,0:0:0:0:
345,5,52291,2,0,L|339:95,1,90,0|8,0:0|0:0,0:0:0:0:
255,225,52614,2,0,L|255:338,1,90,4|0,0:3|0:0,0:0:0:0:
163,377,52936,1,2,0:3:0:0:
349,377,53097,1,8,0:0:0:0:
183,151,53259,6,0,B|96:189|101:114|3:161,2,180,2|8|4,0:3|0:1|0:3,0:0:0:0:
137,61,54065,1,8,0:0:0:0:
59,247,54226,1,8,0:1:0:0:
183,151,54388,6,0,L|358:148,1,148.50000453186,8|0,0:3|0:0,0:0:0:0:
361,146,54710,1,4,0:3:0:0:
295,306,54872,1,8,0:1:0:0:
284,48,55033,1,8,0:1:0:0:
501,192,55194,1,8,0:0:0:0:
264,224,55355,1,8,0:1:0:0:
427,72,55517,1,8,0:1:0:0:
483,330,55678,6,0,B|436:350|436:350|291:327,1,168.75,14|0,0:1|0:0,0:0:0:0:
281,319,56001,1,8,0:0:0:0:
48,374,56162,1,4,0:3:0:0:
86,126,56323,1,8,0:1:0:0:
173,384,56485,1,8,0:0:0:0:
227,150,56646,1,8,0:1:0:0:
17,283,56807,1,8,0:1:0:0:
139,44,56968,6,0,B|237:1|241:75|326:39,1,188.999994232178,14|0,0:0|0:0,0:0:0:0:
364,11,57291,1,10,0:0:0:0:
354,253,57452,1,8,0:1:0:0:
505,88,57614,1,8,0:1:0:0:
242,144,57775,1,8,0:0:0:0:
512,217,57936,1,8,0:1:0:0:
306,346,58097,1,8,0:1:0:0:
273,7,58259,5,14,0:0:0:0:
46,121,59549,6,0,P|143:92|237:131,1,198.000006042481,14|8,0:0|0:0,0:0:0:0:
264,285,60033,1,8,0:1:0:0:
371,89,60194,1,2,0:3:0:0:
181,210,60355,2,0,L|83:211,1,99.0000030212403,2|8,0:1|0:0,0:0:0:0:
5,97,60678,1,8,0:1:0:0:
231,126,60839,6,0,P|281:215|232:296,1,198.000006042481,10|8,0:0|0:0,0:0:0:0:
317,189,61323,2,0,P|366:172|423:184,1,99.0000030212403,8|2,0:1|0:3,0:0:0:0:
334,318,61646,1,2,0:1:0:0:
473,125,61807,1,8,0:0:0:0:
495,294,61968,1,8,0:1:0:0:
338,87,62130,6,0,B|301:62|301:62|252:80|195:63|195:63|152:89,1,198.000006042481,10|8,0:0|0:0,0:0:0:0:
104,225,62614,2,0,P|99:278|110:331,1,99.0000030212403,8|0,0:1|0:0,0:0:0:0:
188,183,62936,1,2,0:1:0:0:
8,323,63097,1,8,0:0:0:0:
53,155,63259,1,8,0:1:0:0:
178,351,63420,6,0,B|228:370|228:370|378:342,1,198.000006042481,10|8,0:0|0:0,0:0:0:0:
477,175,63904,2,0,P|496:225|482:275,1,99.0000030212403,8|2,0:1|0:3,0:0:0:0:
329,127,64226,1,2,0:1:0:0:
370,343,64388,1,8,0:0:0:0:
477,175,64549,1,8,0:1:0:0:
297,252,64710,6,0,L|198:244,1,99.0000030212403,14|0,0:0|0:0,0:0:0:0:
11,93,65033,1,8,0:0:0:0:
11,93,65194,2,0,L|109:85,1,99.0000030212403,8|2,0:1|0:3,0:0:0:0:
27,215,65517,1,2,0:1:0:0:
172,21,65678,1,8,0:0:0:0:
205,230,65839,1,8,0:1:0:0:
350,31,66001,6,0,B|371:83|354:134,1,99.0000030212403,10|0,0:0|0:0,0:0:0:0:
307,230,66323,1,8,0:0:0:0:
473,314,66485,2,0,L|354:305,1,99.0000030212403,8|0,0:1|0:0,0:0:0:0:
39,314,66807,2,0,L|158:305,1,99.0000030212403,2|8,0:1|0:0,0:0:0:0:
256,48,67130,2,0,L|256:160,1,99.0000030212403,8|0,0:1|0:0,0:0:0:0:
256,368,67452,6,0,L|256:269,1,99.0000030212403,14|4,0:0|0:3,0:0:0:0:
422,282,67775,1,8,0:1:0:0:
256,147,67936,2,0,B|164:186|158:114|60:159,1,198.000006042481,14|8,0:0|0:0,0:0:0:0:
202,75,68420,1,8,0:1:0:0:
117,225,68581,6,0,B|93:286|116:356|116:356|190:315,1,198.000006042481,14|8,0:0|0:0,0:0:0:0:
290,164,69065,2,0,L|360:166,1,49.5000015106202,2|0,0:3|0:0,0:0:0:0:
386,264,69226,6,0,L|279:262,1,99.0000030212403,10|8,0:0|0:1,0:0:0:0:
402,76,69549,2,0,P|428:101|443:140,1,49.5000015106202,2|0,0:1|0:0,0:0:0:0:
339,165,69710,1,8,0:1:0:0:
339,165,69791,1,2,0:3:0:0:
339,165,69872,6,0,P|271:153|142:152,1,198.000006042481,14|8,0:0|0:0,0:0:0:0:
61,262,70355,1,8,0:1:0:0:
114,47,70517,1,2,0:3:0:0:
234,271,70678,1,2,0:1:0:0:
242,35,70840,1,8,0:0:0:0:
124,190,71001,1,8,0:1:0:0:
361,74,71162,6,0,P|435:78|425:200,1,198.000006042481,10|8,0:0|0:0,0:0:0:0:
269,269,71646,2,0,L|380:257,1,99.0000030212403,8|2,0:1|0:3,0:0:0:0:
270,377,71968,1,2,0:1:0:0:
284,153,72130,1,8,0:0:0:0:
180,348,72291,1,8,0:1:0:0:
381,226,72452,6,0,L|374:121,1,99.0000030212403,14|0,0:0|0:0,0:0:0:0:
272,13,72775,1,8,0:0:0:0:
124,167,72936,2,0,P|171:178|217:162,1,99.0000030212403,8|0,0:1|0:0,0:0:0:0:
272,13,73259,2,0,P|224:0|178:16,1,99.0000030212403,2|8,0:1|0:0,0:0:0:0:
124,167,73581,1,8,0:1:0:0:
374,127,73743,6,0,P|381:192|378:330,1,198.000006042481,14|8,0:0|0:0,0:0:0:0:
242,377,74226,1,8,0:1:0:0:
443,247,74388,1,2,0:3:0:0:
212,354,74549,1,2,0:1:0:0:
322,140,74711,1,8,0:0:0:0:
175,323,74872,1,8,0:1:0:0:
175,323,75194,6,0,L|163:192,1,99.0000030212403,14|8,0:2|0:0,0:0:0:0:
102,0,75517,1,8,0:1:0:0:
247,141,75678,1,2,0:3:0:0:
20,84,75839,1,2,0:1:0:0:
165,224,76001,1,8,0:0:0:0:
214,29,76162,1,8,0:1:0:0:
53,196,76323,1,8,0:0:0:0:
330,139,76485,5,6,0:1:0:0:
118,133,77775,6,0,P|174:120|209:129,1,80.9999975280763,2|0,0:1|0:0,0:0:0:0:
315,259,78097,2,0,P|355:263|394:251,1,80.9999975280763,8|2,0:1|0:3,0:0:0:0:
284,153,78420,1,0,0:0:0:0:
243,292,78581,1,8,0:0:0:0:
142,185,78743,1,0,0:0:0:0:
284,153,78904,6,0,B|326:134|326:134|383:159|457:140,1,161.999995056153,10|8,0:0|0:0,0:0:0:0:
334,246,79388,2,0,L|342:336,1,80.9999975280763,8|0,0:1|0:0,0:0:0:0:
225,238,79710,1,2,0:1:0:0:
164,371,79872,1,0,0:0:0:0:
71,258,80033,1,8,0:1:0:0:
225,238,80194,6,0,P|231:191|221:155,1,80.9999975280763,0|2,0:0|0:1,0:0:0:0:
118,34,80517,2,0,P|112:81|122:117,1,80.9999975280763,8|8,0:0|0:1,0:0:0:0:
241,4,80839,1,2,0:3:0:0:
222,158,81001,1,0,0:0:0:0:
120,113,81162,1,8,0:0:0:0:
302,57,81323,1,0,0:0:0:0:
221,191,81485,6,0,B|184:267|240:267|211:352,1,161.999995056153,10|8,0:0|0:0,0:0:0:0:
301,240,81968,1,8,0:1:0:0:
123,303,82130,1,0,0:0:0:0:
301,240,82291,2,0,L|391:239,1,80.9999975280763,2|0,0:1|0:0,0:0:0:0:
264,126,82614,2,0,L|183:126,1,80.9999975280763,8|0,0:1|0:0,0:0:0:0:
42,44,82936,5,6,0:1:0:0:
183,126,83097,1,8,0:1:0:0:
42,206,83259,1,8,0:1:0:0:
67,24,83420,5,4,0:3:0:0:
188,146,83581,1,8,0:0:0:0:
22,189,83743,1,8,0:0:0:0:
93,21,83904,5,8,0:3:0:0:
178,170,84065,1,8,0:1:0:0:
12,169,84227,1,8,0:1:0:0:
117,22,84388,5,8,0:0:0:0:
161,189,84549,1,2,0:3:0:0:
0,145,84711,1,2,0:3:0:0:
141,32,84872,6,0,P|183:30|236:32,1,80.9999975280763,10|8,0:0|0:1,0:0:0:0:
379,121,85194,1,8,0:1:0:0:
161,260,85355,1,6,0:1:0:0:
161,260,85678,5,2,0:0:0:0:
237,153,85839,1,0,0:0:0:0:
360,194,86001,1,0,0:0:0:0:
236,365,86162,5,2,0:0:0:0:
161,260,86323,1,0,0:0:0:0:
237,153,86485,1,0,0:0:0:0:
361,324,86646,5,6,0:1:0:0:
256,192,86726,12,0,88097,0:0:0:0:
