osu file format v14

[General]
AudioFilename: audio.mp3
AudioLeadIn: 0
PreviewTime: 144576
Countdown: 0
SampleSet: Soft
StackLeniency: 0.5
Mode: 0
LetterboxInBreaks: 0
WidescreenStoryboard: 1

[Editor]
Bookmarks: 20224,40224,55536,65224,90067,100224,105510,125536,167724,177724,190224,197255,206474,232567
DistanceSpacing: 2.3
BeatDivisor: 4
GridSize: 4
TimelineZoom: 1.74

[Metadata]
Title:Enrei Black Out
TitleUnicode:艶麗ブラックアウト
Artist:Faylan
ArtistUnicode:Faylan
Creator:gazimal
Version:Asa's Hard
Source:幕末尽忠報国烈士伝 -MIBURO-
Tags:Elements Garden 飛蘭 織田あすか 都丸椋太 Oda Asuka Tomaru Ryota Visual Novel too Kazato Asa shizuku- japanese j-rock jrock rock mind as rock! video game bakumatsu jinchuu houkoku resshiden miburo shikibe mayu
BeatmapID:2788312
BeatmapSetID:1340611

[Difficulty]
HPDrainRate:4.5
CircleSize:3.7
OverallDifficulty:6.5
ApproachRate:8.2
SliderMultiplier:1.44
SliderTickRate:1

[Events]
//Background and Video events
0,0,"miburo22.jpg",0,0
//Break Periods
2,100710,104633
2,190710,196791
//Storyboard Layer 0 (Background)
//Storyboard Layer 1 (Fail)
//Storyboard Layer 2 (Pass)
//Storyboard Layer 3 (Foreground)
//Storyboard Layer 4 (Overlay)
//Storyboard Sound Samples

[TimingPoints]
1760,312.5,4,2,1,60,1,0
12853,-100,4,2,2,60,0,0
13088,-100,4,2,1,60,0,0
17853,-100,4,2,2,60,0,0
18088,-100,4,2,1,60,0,0
20510,-111.111111111111,4,2,1,60,0,0
22853,-111.111111111111,4,2,2,60,0,0
23088,-111.111111111111,4,2,1,60,0,0
30510,-111.111111111111,4,2,2,60,0,0
30744,-111.111111111111,4,2,1,60,0,0
34885,-111.111111111111,4,2,2,60,0,0
35197,-111.111111111111,4,2,1,60,0,0
35353,-100,4,2,2,60,0,0
35666,-100,4,2,1,60,0,0
40197,-111.111111111111,4,2,1,60,0,0
40510,-125,4,2,2,60,0,0
40666,-125,4,2,1,60,0,0
45822,-100,4,2,2,60,0,0
46056,-100,4,2,1,60,0,0
53010,-125,4,2,2,60,0,0
53322,-125,4,2,1,60,0,0
55822,-100,4,2,2,60,0,0
56525,-100,4,2,1,60,0,0
64260,-125,4,2,1,60,0,0
64885,-166.666666666667,4,2,1,60,0,0
65510,-90.9090909090909,4,2,1,60,0,1
70353,-90.9090909090909,4,2,2,60,0,1
70666,-90.9090909090909,4,2,1,60,0,1
72853,-90.9090909090909,4,2,2,60,0,1
73088,-90.9090909090909,4,2,1,60,0,1
75197,-90.9090909090909,4,2,2,60,0,1
75510,-90.9090909090909,4,2,1,60,0,1
79103,-90.9090909090909,4,2,2,60,0,1
79416,-90.9090909090909,4,2,1,60,0,1
82853,-90.9090909090909,4,2,2,60,0,1
83166,-90.9090909090909,4,2,1,60,0,1
84885,-90.9090909090909,4,2,2,60,0,1
85510,-90.9090909090909,4,2,1,60,0,1
86447,-90.9090909090909,4,2,2,60,0,1
86760,-90.9090909090909,4,2,1,60,0,1
90353,-100,4,2,1,60,0,0
92853,-100,4,2,2,60,0,0
93088,-100,4,2,1,60,0,0
97853,-100,4,2,2,60,0,0
98166,-100,4,2,1,60,0,0
110510,-111.111111111111,4,2,2,60,0,0
110744,-111.111111111111,4,2,1,60,0,0
115353,-100,4,2,1,60,0,0
120510,-100,4,2,2,60,0,0
121916,-125,4,2,2,60,0,0
124885,-125,4,2,1,60,0,0
125822,-100,4,2,1,60,0,0
128010,-100,4,2,2,60,0,0
128635,-100,4,2,1,60,0,0
130510,-100,4,2,2,60,0,0
130744,-100,4,2,1,60,0,0
133010,-125,4,2,2,60,0,0
133322,-125,4,2,1,60,0,0
135822,-100,4,2,2,60,0,0
136135,-100,4,2,1,60,0,0
144260,-100,4,2,8,60,0,0
144572,-100,4,2,9,60,0,0
144885,-100,4,2,1,60,0,0
145510,-90.9090909090909,4,2,1,60,0,1
150353,-90.9090909090909,4,2,2,60,0,1
150666,-90.9090909090909,4,2,1,60,0,1
152853,-90.9090909090909,4,2,2,60,0,1
153088,-90.9090909090909,4,2,1,60,0,1
155197,-90.9090909090909,4,2,2,60,0,1
155510,-90.9090909090909,4,2,1,60,0,1
159103,-90.9090909090909,4,2,2,60,0,1
159416,-90.9090909090909,4,2,1,60,0,1
162853,-90.9090909090909,4,2,2,60,0,1
163166,-90.9090909090909,4,2,1,60,0,1
167072,-90.9090909090909,4,2,2,60,0,1
167385,-90.9090909090909,4,2,1,60,0,1
168010,-100,4,2,1,60,0,0
176760,-83.3333333333333,4,2,1,60,0,0
178010,-90.9090909090909,4,2,1,60,0,0
190510,-90.9090909090909,4,2,2,60,0,0
197541,-100,4,2,1,60,0,0
200197,-100,4,2,8,60,0,0
200510,-100,4,2,2,60,0,0
204885,-100,4,2,1,60,0,0
205666,-100,4,2,8,60,0,0
206135,-100,4,2,2,60,0,0
206369,-100,4,2,1,60,0,0
209103,-100,4,2,2,60,0,0
209338,-100,4,2,1,60,0,0
211135,-125,4,2,1,60,0,0
211603,-90.9090909090909,4,2,1,60,0,1
214103,-90.9090909090909,4,2,2,60,0,1
214338,-90.9090909090909,4,2,1,60,0,1
220353,-90.9090909090909,4,2,2,60,0,1
220666,-90.9090909090909,4,2,1,60,0,1
228010,-100,4,2,1,60,0,0

[Colours]
Combo1 : 242,24,57
Combo2 : 88,117,252
Combo3 : 160,130,253

[HitObjects]
422,99,9885,6,0,B|414:64|414:64|427:30,2,72,8|0|8,0:0|3:0|0:0,0:0:0:0:
480,174,10353,6,0,B|441:146|441:146|346:163,1,144,4|0,3:2|3:0,0:0:0:0:
279,226,10822,2,0,L|208:211,1,72,8|0,0:0|3:0,0:0:0:0:
323,305,11135,2,0,L|393:290,1,72,8|0,0:0|3:0,0:0:0:0:
268,384,11447,5,8,0:0:0:0:
183,361,11603,2,0,B|94:340|94:340|52:371,1,144,0|0,3:0|3:0,0:0:0:0:
114,315,12072,2,0,B|120:284|120:284|106:245,1,72,8|0,0:0|3:0,0:0:0:0:
20,203,12385,2,0,L|29:131,1,72,8|8,0:0|0:3,0:0:0:0:
102,73,12697,1,8,0:3:0:0:
48,5,12853,6,0,P|110:39|181:34,1,144,6|2,0:0|3:2,0:0:0:0:
179,126,13322,2,0,P|187:160|192:196,1,72,10|2,0:0|0:0,0:0:0:0:
268,249,13635,1,2,3:2:0:0:
268,249,13791,2,0,P|259:283|254:319,1,72,2|10,0:0|0:0,0:0:0:0:
186,377,14103,6,0,P|257:366|328:356,1,144,2|2,0:0|0:2,0:0:0:0:
456,288,14572,2,0,P|420:284|388:268,1,72,10|2,0:2|0:2,0:0:0:0:
344,191,14885,1,2,3:2:0:0:
344,191,15041,2,0,P|355:157|357:121,1,72,2|10,0:2|0:2,0:0:0:0:
274,24,15353,6,0,L|131:46,1,144,4|0,3:2|3:0,0:0:0:0:
208,149,15822,2,0,B|221:115|221:115|210:81,1,72,8|0,0:0|3:0,0:0:0:0:
261,221,16135,2,0,B|248:255|248:255|258:288,1,72,8|0,0:0|3:0,0:0:0:0:
344,336,16447,1,8,0:0:0:0:
280,384,16603,6,0,B|196:364|196:364|141:383,1,144,0|0,3:0|3:0,0:0:0:0:
141,382,17072,1,8,0:0:0:0:
56,280,17385,6,0,B|50:240|50:240|28:216,1,72,8|8,0:0|0:3,0:0:0:0:
88,151,17697,1,8,0:3:0:0:
2,103,17853,6,0,P|72:103|127:58,1,144,6|2,0:0|3:2,0:0:0:0:
188,145,18322,2,0,P|223:149|254:167,1,72,10|2,0:2|0:2,0:0:0:0:
300,252,18635,1,2,3:2:0:0:
300,252,18791,2,0,L|370:239,1,72,2|10,3:2|0:2,0:0:0:0:
448,224,19103,6,0,B|411:307|465:282|431:363,2,144,2|2|2,3:2|3:2|3:2,0:0:0:0:
485,43,20041,2,0,P|423:78|352:73,1,144,2|0,3:2|3:2,0:0:0:0:
271,38,20510,6,0,B|259:68|259:68|264:99,1,64.799998022461,8|2,3:2|0:0,0:0:0:0:
331,168,20822,2,0,B|322:226|322:226|318:229|318:229|309:294,1,129.599996044922,8|8,3:2|0:1,0:0:0:0:
336,384,21291,1,0,3:0:0:0:
240,360,21447,5,8,0:1:0:0:
240,360,21603,2,0,B|192:313|119:333,1,129.599996044922,0|0,3:0|3:0,0:0:0:0:
119,333,22072,2,0,L|128:269,1,64.799998022461,8|0,0:1|3:0,0:0:0:0:
56,226,22385,2,0,L|183:205,1,129.599996044922,8|8,0:1|3:2,0:0:0:0:
248,136,22853,6,0,B|294:147|294:147|312:174|312:174|360:183,1,129.599996044922,4|8,0:0|3:2,0:0:0:0:
448,154,23322,1,8,0:0:0:0:
448,154,23635,6,0,L|438:89,2,64.799998022461,8|0|8,0:1|3:0|0:1,0:0:0:0:
511,229,24103,2,0,P|450:244|409:293,1,129.599996044922,0|0,3:0|3:0,0:0:0:0:
364,358,24572,2,0,P|333:354|303:341,1,64.799998022461,8|0,0:1|3:0,0:0:0:0:
254,266,24885,1,8,0:3:0:0:
254,266,24963,1,8,0:3:0:0:
254,266,25041,2,0,L|222:271,2,32.3999990112305,8|8|8,0:3|0:3|0:3,0:0:0:0:
327,201,25353,6,0,B|342:156|342:156|324:75,1,129.599996044922,4|0,0:0|3:0,0:0:0:0:
259,15,25822,1,8,0:0:0:0:
259,15,26135,6,0,B|245:33|245:33|203:42,1,64.799998022461,0|0,3:0|3:0,0:0:0:0:
128,8,26447,1,8,0:2:0:0:
52,55,26603,6,0,B|34:141|34:141|60:173,1,129.599996044922,0|0,3:0|3:0,0:0:0:0:
45,261,27072,2,0,L|108:248,1,64.799998022461,8|0,0:0|0:0,0:0:0:0:
162,326,27385,1,0,3:0:0:0:
162,326,27541,2,0,L|98:338,1,64.799998022461,0|8,3:0|3:2,0:0:0:0:
234,384,27853,6,0,B|210:304|210:304|231:263,1,129.599996044922,0|0,3:0|3:0,0:0:0:0:
179,201,28322,2,0,L|167:137,1,64.799998022461,8|0,0:0|0:0,0:0:0:0:
246,85,28635,1,0,3:0:0:0:
246,85,28791,2,0,L|257:148,1,64.799998022461,0|8,3:0|0:2,0:0:0:0:
338,187,29103,1,0,0:0:0:0:
409,142,29260,6,0,L|440:149,3,32.3999990112305,8|8|8|8,0:1|0:1|0:1|0:1,0:0:0:0:
467,167,29572,2,0,L|474:198,3,32.3999990112305,8|8|8|8,0:1|0:1|0:1|0:1,0:0:0:0:
462,229,29885,1,8,3:1:0:0:
496,312,30041,2,0,B|480:348|480:348|390:360,1,129.599996044922,0|0,3:0|3:0,0:0:0:0:
303,328,30510,6,0,L|311:263,1,64.799998022461,4|0,0:0|0:0,0:0:0:0:
232,218,30822,2,0,L|223:282,1,64.799998022461,0|0,3:0|0:0,0:0:0:0:
211,362,31135,1,8,0:0:0:0:
127,384,31291,2,0,B|86:376|86:376|76:355,1,64.799998022461,0|0,3:0|0:0,0:0:0:0:
8,304,31603,6,0,P|32:246|18:184,1,129.599996044922,0|0,3:0|0:0,0:0:0:0:
17,182,32072,1,0,3:0:0:0:
56,44,32385,2,0,B|147:60|147:60|127:28,1,129.599996044922,8|0,0:0|3:0,0:0:0:0:
212,0,32853,6,0,B|240:49|240:49|224:120,1,129.599996044922,0|0,3:0|0:0,0:0:0:0:
223,120,33322,1,0,3:0:0:0:
160,304,33635,6,0,B|205:309|205:309|219:323,1,64.799998022461,8|0,0:0|3:0,0:0:0:0:
280,258,33948,1,0,0:0:0:0:
350,302,34103,2,0,B|439:313|439:313|471:289,1,129.599996044922,0|0,3:0|0:0,0:0:0:0:
415,228,34572,2,0,L|406:163,1,64.799998022461,0|0,3:0|0:0,0:0:0:0:
485,119,34885,1,8,0:3:0:0:
485,119,34963,1,8,0:3:0:0:
485,119,35041,2,0,L|489:86,2,32.3999990112305,8|8|8,0:3|0:3|0:0,0:0:0:0:
432,24,35353,6,0,B|384:30|384:30|357:69|357:69|309:77,1,144,4|0,3:2|3:0,0:0:0:0:
224,40,35822,1,8,0:0:0:0:
224,40,36135,2,0,B|212:80|212:80|220:108,1,72,0|0,3:0|3:0,0:0:0:0:
292,165,36448,1,8,0:2:0:0:
192,224,36604,6,0,B|100:211|100:211|55:236,1,144,0|0,3:0|3:0,0:0:0:0:
84,328,37072,2,0,L|157:316,1,72,8|0,0:0|0:0,0:0:0:0:
234,371,37385,1,0,3:0:0:0:
234,371,37541,2,0,B|246:341|246:341|238:301,1,72,0|8,3:0|0:0,0:0:0:0:
192,224,37853,6,0,B|168:164|168:164|182:85,1,144,0|0,3:0|3:0,0:0:0:0:
271,20,38322,2,0,B|306:35|306:35|338:24,1,72,8|0,0:0|0:0,0:0:0:0:
440,24,38635,2,0,B|383:37|383:37|363:120,1,144,0|8,3:0|0:0,0:0:0:0:
424,200,39103,5,0,3:0:0:0:
424,200,39260,2,0,L|459:193,2,36,8|8|8,0:1|0:1|0:1,0:0:0:0:
440,280,39572,2,0,L|475:273,2,36,8|8|8,3:1|0:1|0:1,0:0:0:0:
360,312,39885,2,0,B|313:304|313:304|300:283,1,72,8|0,3:1|3:0,0:0:0:0:
256,208,40197,2,0,L|263:143,1,64.799998022461,8|0,0:0|0:0,0:0:0:0:
192,88,40510,5,4,3:2:0:0:
192,88,40666,1,0,3:0:0:0:
32,120,40978,1,0,3:0:0:0:
32,120,41134,1,0,3:0:0:0:
64,280,41447,1,0,3:0:0:0:
64,280,41603,1,0,3:0:0:0:
224,248,41916,6,0,B|253:242|253:242|296:273|296:273|327:266,1,115.2,0|0,3:0|3:0,0:0:0:0:
327,266,42306,1,0,3:0:0:0:
327,266,42385,1,0,3:0:0:0:
416,320,42541,2,0,L|434:206,1,115.2,0|0,3:0|0:0,0:0:0:0:
506,149,43010,5,0,3:0:0:0:
506,149,43166,1,0,3:0:0:0:
448,32,43478,1,0,3:0:0:0:
448,32,43634,1,0,3:0:0:0:
297,19,43947,1,0,3:0:0:0:
297,19,44103,1,0,3:0:0:0:
183,113,44416,6,0,L|69:96,1,115.2,0|0,3:0|3:0,0:0:0:0:
65,100,44806,1,0,3:0:0:0:
61,104,44885,2,0,B|33:68|33:68|41:27,2,86.4,8|8|8,0:0|0:0|0:0,0:0:0:0:
0,320,45822,6,0,P|70:327|126:370,1,144,6|2,3:2|3:2,0:0:0:0:
211,384,46291,2,0,P|237:360|255:328,1,72,2|8,3:2|0:0,0:0:0:0:
164,258,46603,6,0,B|155:190|155:190|150:186|150:186|142:117,1,144,2|2,3:2|3:2,0:0:0:0:
198,55,47072,1,8,0:0:0:0:
198,55,47228,2,0,P|229:66|267:66,1,72,2|0,3:2|0:0,0:0:0:0:
350,25,47541,1,2,3:2:0:0:
398,99,47697,2,0,L|385:169,1,72,10|2,0:0|3:2,0:0:0:0:
328,268,48010,6,0,L|470:245,2,144,0|10|2,3:0|0:0|3:2,0:0:0:0:
263,207,48791,2,0,P|274:174|271:138,1,72,2|8,3:2|0:0,0:0:0:0:
198,55,49103,6,0,L|56:78,1,144,2|2,3:2|3:2,0:0:0:0:
5,156,49572,1,8,0:0:0:0:
71,207,49728,2,0,B|91:219|91:219|99:266,1,72,2|0,3:2|0:0,0:0:0:0:
82,359,50041,1,2,3:2:0:0:
163,334,50197,2,0,L|233:347,1,72,10|2,0:0|3:2,0:0:0:0:
314,322,50510,1,0,3:0:0:0:
314,322,50822,6,0,B|303:285|303:285|249:251|249:251|239:210,1,144,8|0,0:0|3:0,0:0:0:0:
169,166,51291,2,0,B|158:148|158:148|167:98,1,72,0|8,3:0|0:0,0:0:0:0:
106,27,51603,6,0,L|212:11,1,108,0|0,3:0|0:0,0:0:0:0:
218,15,51916,2,0,B|231:29|231:29|283:39,1,72,0|8,3:0|0:0,0:0:0:0:
341,113,52228,2,0,B|430:91|430:91|473:119,1,144,0|0,3:0|3:0,0:0:0:0:
455,204,52697,2,0,L|383:193,1,72,8|0,0:0|3:0,0:0:0:0:
288,288,53010,6,0,B|272:197|221:248|206:144,1,172.8,4|0,0:0|3:0,0:0:0:0:
205,143,53556,1,0,3:0:0:0:
205,143,53635,1,8,3:2:0:0:
254,78,53791,2,0,B|240:92|240:92|145:79,1,115.2,0|0,3:0|3:0,0:0:0:0:
7,79,54260,5,0,0:0:0:0:
26,161,54416,2,0,B|42:233|0:194|23:274,1,115.2,0|0,3:0|3:0,0:0:0:0:
26,276,54806,1,0,3:0:0:0:
30,280,54885,2,0,P|57:288|80:305,1,57.6,8|0,3:2|3:0,0:0:0:0:
143,377,55197,2,0,L|170:369,3,28.8,8|8|8|8,0:1|0:1|0:1|3:1,0:0:0:0:
205,143,55822,6,0,P|276:138|337:103,1,144,6|2,0:0|3:2,0:0:0:0:
385,24,56291,2,0,P|412:46|428:78,1,72,2|8,3:2|0:0,0:0:0:0:
502,132,56603,6,0,L|483:238,1,108,10|0,3:2|0:0,0:0:0:0:
489,248,56916,2,0,L|418:261,1,72,2|8,3:2|0:0,0:0:0:0:
372,337,57228,2,0,B|336:315|336:315|318:214,1,144,2|0,3:2|3:0,0:0:0:0:
373,149,57697,1,8,0:0:0:0:
373,149,57853,1,0,3:0:0:0:
307,76,58010,6,0,B|288:86|288:86|238:77,1,72,0|0,3:0|0:0,0:0:0:0:
179,20,58322,2,0,L|108:35,1,72,8|0,0:0|0:0,0:0:0:0:
22,15,58635,2,0,B|7:26|7:26|-1:85,1,72,0|0,3:0|3:0,0:0:0:0:
77,122,58947,2,0,L|89:192,1,72,8|0,0:0|0:0,0:0:0:0:
9,236,59260,6,0,B|111:251|111:251|130:286,1,144,2|8,0:0|0:0,0:0:0:0:
164,373,59728,1,0,3:0:0:0:
164,373,59806,1,8,0:0:0:0:
164,373,59885,2,0,B|230:382|230:382|264:358,2,108,8|8|8,3:0|0:3|0:3,0:0:0:0:
208,288,60510,5,2,0:0:0:0:
208,288,63010,5,8,3:0:0:0:
138,238,63166,1,0,3:0:0:0:
138,238,63322,2,0,L|147:166,1,72,8|0,3:0|3:0,0:0:0:0:
271,200,63635,5,8,3:2:0:0:
341,150,63791,1,0,3:0:0:0:
341,150,63947,2,0,L|331:78,1,72,8|0,3:0|3:0,0:0:0:0:
440,200,64260,6,0,L|463:371,1,172.8,8|0,3:0|3:0,0:0:0:0:
463,371,64885,6,0,P|426:350|384:356,1,86.3999973632813,2|2,0:0|0:0,0:0:0:0:
199,384,65510,6,0,B|169:323|169:323|183:274,1,118.800003625488,4|0,0:0|0:0,0:0:0:0:
186,262,65822,2,0,L|263:248,1,79.2000024169923,8|0,0:0|0:0,0:0:0:0:
345,297,66135,1,0,3:0:0:0:
423,258,66291,2,0,B|433:222|433:222|419:182,1,79.2000024169923,0|8,3:0|0:0,0:0:0:0:
512,127,66603,6,0,P|434:132|373:84,1,158.400004833985,0|0,3:0|3:0,0:0:0:0:
314,20,67072,2,0,L|236:34,1,79.2000024169923,8|0,0:0|0:0,0:0:0:0:
215,129,67385,1,0,3:0:0:0:
215,129,67541,2,0,L|292:143,1,79.2000024169923,0|8,3:0|0:0,0:0:0:0:
407,219,67853,6,0,P|329:230|274:284,1,158.400004833985,0|0,3:0|3:0,0:0:0:0:
225,365,68322,2,0,L|146:351,1,79.2000024169923,8|0,0:0|0:0,0:0:0:0:
112,266,68635,1,0,3:0:0:0:
112,266,68791,2,0,L|190:252,1,79.2000024169923,0|8,3:0|0:0,0:0:0:0:
261,175,69103,6,0,B|320:184|320:184|343:210|343:210|406:218,1,158.400004833985,0|0,0:0|3:0,0:0:0:0:
478,172,69572,2,0,L|463:94,1,79.2000024169923,8|0,0:0|3:0,0:0:0:0:
380,44,69885,1,8,0:3:0:0:
380,44,69963,1,8,0:3:0:0:
380,44,70041,2,0,L|372:5,2,39.6000012084961,8|8|8,0:3|0:3|0:0,0:0:0:0:
304,112,70353,6,0,B|194:86|194:86|214:126,1,158.400004833985,4|0,0:0|3:0,0:0:0:0:
256,200,70822,2,0,L|239:277,1,79.2000024169923,8|0,0:0|0:0,0:0:0:0:
318,349,71135,1,0,3:0:0:0:
318,349,71291,2,0,L|334:271,1,79.2000024169923,0|8,0:0|0:0,0:0:0:0:
205,355,71603,6,0,B|123:373|123:373|64:327,2,158.400004833985
145,284,72385,1,0,3:0:0:0:
145,284,72541,2,0,L|157:205,1,79.2000024169923,0|8,0:0|0:0,0:0:0:0:
67,161,72853,6,0,B|40:58|40:58|75:20,1,158.400004833985,4|0,0:0|3:0,0:0:0:0:
135,85,73322,1,8,0:0:0:0:
135,85,73635,6,0,B|173:92|173:92|211:78,1,79.2000024169923,8|0,0:0|3:0,0:0:0:0:
305,52,73947,2,0,L|287:129,1,79.2000024169923,8|0,0:0|3:0,0:0:0:0:
209,199,74260,6,0,L|226:276,1,79.2000024169923,8|0,0:0|3:0,0:0:0:0:
226,276,74494,1,0,3:0:0:0:
225,276,74572,2,0,P|265:278|300:296,1,79.2000024169923,8|0,0:0|3:0,0:0:0:0:
376,368,74885,1,8,0:1:0:0:
376,368,74963,1,8,0:1:0:0:
376,368,75041,2,0,L|419:360,2,39.6000012084961,8|8|8,0:1|0:1|0:3,0:0:0:0:
479,294,75353,5,8,0:3:0:0:
479,294,75431,1,8,0:3:0:0:
479,294,75510,2,0,B|451:212|451:212|461:181,1,118.800003625488,4|0,0:0|0:0,0:0:0:0:
465,170,75822,2,0,L|386:159,1,79.2000024169923,8|0,0:0|0:0,0:0:0:0:
328,104,76135,1,0,3:0:0:0:
248,128,76291,2,0,B|225:151|225:151|233:196,1,79.2000024169923,0|8,3:0|0:0,0:0:0:0:
310,246,76603,6,0,B|296:351|296:351|248:372,1,158.400004833985,0|0,3:0|3:0,0:0:0:0:
167,318,77072,2,0,L|88:331,1,79.2000024169923,8|0,0:0|0:0,0:0:0:0:
88,331,77306,1,0,3:0:0:0:
88,331,77385,1,0,3:0:0:0:
13,275,77541,2,0,P|17:235|22:196,1,79.2000024169923,0|8,3:0|0:0,0:0:0:0:
0,116,77853,6,0,B|36:149|36:149|142:123,1,158.400004833985,0|0,3:0|3:0,0:0:0:0:
209,73,78322,2,0,B|236:89|236:89|247:135,1,79.2000024169923,8|0,0:0|0:0,0:0:0:0:
203,215,78635,1,0,3:0:0:0:
280,260,78791,2,0,L|267:338,1,79.2000024169923,0|8,3:0|0:0,0:0:0:0:
194,384,79103,6,0,L|350:360,1,158.400004833985,4|0,3:2|3:0,0:0:0:0:
446,344,79572,1,8,0:0:0:0:
446,344,79884,6,0,B|435:308|435:308|452:270,1,79.2000024169923,0|0,0:0|3:0,0:0:0:0:
407,198,80197,1,8,0:0:0:0:
472,139,80353,2,0,L|316:167,1,158.400004833985,0|0,3:0|3:0,0:0:0:0:
316,167,80822,1,8,0:0:0:0:
170,30,81135,6,0,P|150:65|146:104,1,79.2000024169923,0|0,3:0|0:0,0:0:0:0:
179,179,81447,1,8,0:0:0:0:
143,251,81603,2,0,P|66:262|1:219,2,158.400004833985,2|2|2,0:0|0:0|0:0,0:0:0:0:
287,377,82541,5,2,0:0:0:0:
370,358,82697,1,8,0:0:0:0:
453,339,82853,2,0,L|472:181,1,158.400004833985,4|0,0:0|3:0,0:0:0:0:
419,117,83322,1,8,0:0:0:0:
419,117,83635,6,0,B|392:137|392:137|346:130,1,79.2000024169923,8|0,0:0|3:0,0:0:0:0:
255,111,83947,2,0,L|271:188,1,79.2000024169923,8|0,0:0|3:0,0:0:0:0:
196,246,84260,2,0,B|169:226|169:226|123:232,1,79.2000024169923,8|0,0:0|3:0,0:0:0:0:
32,252,84572,2,0,L|15:174,1,79.2000024169923,8|0,0:0|3:0,0:0:0:0:
80,64,84885,2,0,L|97:142,1,79.2000024169923,8|8,0:3|0:3,0:0:0:0:
96,141,85119,1,8,0:3:0:0:
96,141,85197,1,8,0:3:0:0:
123,231,85353,6,0,B|215:247|215:247|252:299,1,158.400004833985,4|8,0:0|0:1,0:0:0:0:
256,303,85744,1,8,0:1:0:0:
259,306,85822,2,0,L|298:299,2,39.6000012084961,8|8|8,0:1|0:1|0:1,0:0:0:0:
380,368,86135,2,0,L|340:374,2,39.6000012084961,8|8|8,0:3|0:3|0:3,0:0:0:0:
468,384,86447,2,0,L|478:305,1,79.2000024169923,8|8,0:3|0:3,0:0:0:0:
488,224,86760,1,8,0:0:0:0:
319,13,87619,6,0,L|287:23,2,19.8000006042481,0|0|8,3:0|3:0|3:1,0:0:0:0:
348,89,87853,6,0,B|291:80|291:80|272:53|272:53|205:42,1,158.400004833985,4|0,0:0|0:0,0:0:0:0:
131,5,88322,2,0,B|115:32|115:32|123:79,1,79.2000024169923,8|8,0:3|0:3,0:0:0:0:
43,121,88635,1,8,0:3:0:0:
43,121,88791,1,8,0:3:0:0:
115,172,88947,2,0,B|162:180|162:180|182:204,1,79.2000024169923,8|8,0:3|0:3,0:0:0:0:
232,284,89260,5,8,0:0:0:0:
320,267,89416,1,8,0:0:0:0:
320,267,89572,2,0,B|333:223|333:223|318:193,1,79.2000024169923,8|8,0:0|0:0,0:0:0:0:
334,101,89885,2,0,B|297:107|297:107|294:112|294:112|258:119,2,79.2000024169923,0|0|0,3:0|3:0|3:0,0:0:0:0:
368,19,90353,6,0,B|414:40|414:40|430:132,1,144,4|0,0:0|3:0,0:0:0:0:
388,206,90822,2,0,L|317:192,1,72,8|0,0:0|3:0,0:0:0:0:
413,288,91135,2,0,L|483:274,1,72,8|0,0:0|3:0,0:0:0:0:
364,362,91447,5,8,0:0:0:0:
295,308,91603,2,0,B|201:323|201:323|174:366,1,144,0|0,3:0|3:0,0:0:0:0:
91,380,92072,2,0,B|73:362|73:362|65:316,1,72,8|0,0:0|3:0,0:0:0:0:
88,240,92385,1,8,0:0:0:0:
88,240,92463,1,8,0:3:0:0:
88,240,92541,2,0,B|40:230|40:230|29:209,1,72,8|8,0:3|0:3,0:0:0:0:
48,128,92853,6,0,B|144:112|144:112|164:70,1,144,6|2,0:0|0:2,0:0:0:0:
242,38,93322,2,0,B|267:57|267:57|275:96,1,72,10|2,0:2|0:2,0:0:0:0:
228,168,93635,1,2,3:2:0:0:
228,168,93791,2,0,L|218:239,1,72,2|10,0:2|0:2,0:0:0:0:
174,331,94103,6,0,P|230:289|300:294,1,144,2|2,0:0|0:2,0:0:0:0:
358,371,94572,2,0,P|392:359|427:351,1,72,10|2,0:2|0:2,0:0:0:0:
488,273,94885,1,2,3:2:0:0:
488,273,95041,2,0,P|453:266|422:249,1,72,2|10,0:2|0:2,0:0:0:0:
320,184,95353,6,0,L|461:159,1,144,4|0,0:0|3:0,0:0:0:0:
504,56,95822,2,0,B|493:79|493:79|446:73,1,72,8|0,0:0|3:0,0:0:0:0:
376,24,96135,2,0,B|323:35|323:35|305:57|305:57|245:71,1,144,8|8,0:0|0:0,0:0:0:0:
163,56,96603,1,0,3:0:0:0:
197,142,96760,6,0,L|185:213,1,72,8|0,0:0|3:0,0:0:0:0:
243,273,97072,2,0,B|234:292|234:292|183:299,1,72,8|0,0:0|3:0,0:0:0:0:
78,358,97385,1,8,0:0:0:0:
78,358,97463,1,0,0:0:0:0:
78,358,97541,2,0,B|128:365|128:365|137:384,1,72,8|8,0:3|0:3,0:0:0:0:
243,273,97853,6,0,B|336:284|336:284|307:242,1,144,6|2,0:0|3:2,0:0:0:0:
233,190,98322,2,0,P|225:155|221:120,1,72,2|2,3:2|0:2,0:0:0:0:
280,63,98635,1,10,0:2:0:0:
352,98,98791,2,0,P|360:133|364:168,1,72,10|2,0:2|0:2,0:0:0:0:
432,252,99103,2,0,P|448:245|466:242,2,36,8|8|8,0:1|0:1|0:1,0:0:0:0:
393,361,99416,6,0,L|323:349,1,72,8|8,0:3|0:1,0:0:0:0:
322,348,99650,1,8,0:1:0:0:
322,348,99728,2,0,P|288:361|253:367,1,72,8|8,0:3|0:3,0:0:0:0:
160,320,100041,5,2,0:0:0:0:
178,233,100197,1,2,0:0:0:0:
138,157,100353,1,2,0:0:0:0:
56,126,100510,1,8,0:0:0:0:
256,192,105353,12,8,109103,0:0:0:0:
256,64,109885,5,8,0:0:0:0:
341,109,110041,1,8,0:1:0:0:
341,109,110119,1,8,0:1:0:0:
341,109,110197,2,0,L|376:101,3,36,8|8|8|8,0:1|0:1|0:1|0:1,0:0:0:0:
385,99,110510,5,4,0:0:0:0:
435,296,110822,1,0,3:0:0:0:
239,236,111135,1,8,0:0:0:0:
239,236,111291,2,0,L|175:247,1,64.799998022461,0|0,3:0|0:0,0:0:0:0:
142,323,111603,6,0,B|102:300|102:300|88:217,1,129.599996044922,0|0,3:0|0:0,0:0:0:0:
88,217,112072,1,0,3:0:0:0:
9,144,112385,2,0,L|17:79,1,64.799998022461,8|0,0:0|0:0,0:0:0:0:
30,0,112697,1,0,3:0:0:0:
120,63,112853,6,0,B|207:74|207:74|191:36,1,129.599996044922,0|0,3:0|0:0,0:0:0:0:
190,35,113322,1,0,3:0:0:0:
163,183,113635,2,0,L|174:246,1,64.799998022461,8|0,0:0|3:0,0:0:0:0:
136,320,113947,1,0,0:0:0:0:
200,368,114103,6,0,B|280:352|280:352|322:373,1,129.599996044922,0|0,3:0|0:0,0:0:0:0:
397,339,114572,2,0,L|403:274,1,64.799998022461,8|0,0:0|0:0,0:0:0:0:
344,216,114885,1,8,0:3:0:0:
344,216,114963,1,8,0:3:0:0:
344,216,115041,2,0,L|340:183,2,32.3999990112305,8|8|8,0:3|0:3|0:0,0:0:0:0:
464,136,115353,6,0,B|412:128|412:128|392:104|392:104|332:93,1,144,4|0,0:0|3:0,0:0:0:0:
274,29,115822,2,0,B|241:46|241:46|206:41,1,72,8|0,0:0|0:0,0:0:0:0:
118,117,116135,2,0,B|152:112|152:112|185:129,1,72,0|0,3:0|3:0,0:0:0:0:
281,174,116447,5,8,0:0:0:0:
269,256,116603,2,0,B|259:310|259:310|228:327|228:327|216:379,1,144,0|0,3:0|3:0,0:0:0:0:
215,379,117072,1,8,0:0:0:0:
146,262,117385,6,0,L|73:275,1,72,0|0,3:0|3:0,0:0:0:0:
3,329,117697,1,8,0:0:0:0:
3,329,117853,2,0,B|33:291|33:291|8:198,1,144,0|0,3:0|3:0,0:0:0:0:
49,121,118322,2,0,B|95:132|95:132|118:123,1,72,8|0,0:0|0:0,0:0:0:0:
151,41,118635,2,0,B|174:32|174:32|220:43,1,72,0|0,3:0|3:0,0:0:0:0:
270,104,118947,1,8,0:0:0:0:
248,180,119103,1,0,3:0:0:0:
224,256,119260,6,0,L|229:291,3,36,8|8|8|8,0:1|0:1|0:1|0:1,0:0:0:0:
254,307,119572,2,0,L|259:342,3,36,8|8|8|8,3:1|0:1|0:1|0:1,0:0:0:0:
284,358,119885,2,0,B|314:344|314:344|351:353,1,72,8|0,3:1|3:0,0:0:0:0:
434,378,120197,2,0,L|446:307,1,72,8|0,0:0|0:0,0:0:0:0:
504,224,120510,5,4,3:2:0:0:
504,224,120666,1,0,3:2:0:0:
479,76,120978,1,0,3:2:0:0:
479,76,121135,1,0,3:2:0:0:
331,101,121447,1,0,3:2:0:0:
331,101,121603,1,0,3:2:0:0:
356,249,121916,6,0,L|241:235,1,115.2,0|0,3:0|3:0,0:0:0:0:
241,235,122306,1,0,3:0:0:0:
241,235,122385,1,0,3:0:0:0:
167,283,122541,2,0,P|186:229|171:175,1,115.2,0|0,3:0|0:0,0:0:0:0:
74,106,123010,5,0,3:0:0:0:
74,106,123166,1,0,3:0:0:0:
231,81,123478,1,0,3:0:0:0:
231,81,123634,1,0,3:0:0:0:
320,240,123947,1,0,3:0:0:0:
320,240,124103,1,0,3:0:0:0:
477,215,124416,6,0,L|493:100,1,115.2,0|0,3:0|3:0,0:0:0:0:
490,103,124806,1,0,3:0:0:0:
487,106,124885,2,0,B|467:66|467:66|476:25,2,86.4,8|8|8,0:0|0:0|0:0,0:0:0:0:
256,32,125822,6,0,B|272:80|272:80|266:100,1,72,8|0,0:0|0:0,0:0:0:0:
208,164,126135,1,8,0:1:0:0:
208,164,126213,1,8,0:1:0:0:
208,164,126291,2,0,L|172:157,2,36,8|8|8,0:1|0:1|0:1,0:0:0:0:
281,223,126603,5,8,0:0:0:0:
186,367,126916,1,8,0:0:0:0:
42,272,127228,1,8,0:0:0:0:
137,128,127541,1,0,3:0:0:0:
115,44,127697,2,0,L|186:54,1,72,8|0,0:0|3:0,0:0:0:0:
186,54,127931,1,0,3:0:0:0:
186,54,128010,6,0,B|213:34|213:34|250:40,1,72,4|0,0:0|0:0,0:0:0:0:
296,120,128322,2,0,L|331:113,2,36,8|8|8,0:3|0:3|0:3,0:0:0:0:
232,216,128635,5,8,0:3:0:0:
232,216,128713,1,8,0:3:0:0:
232,216,128791,2,0,L|196:209,2,36,8|8|8,0:3|0:3|0:3,0:0:0:0:
137,128,129103,5,8,0:0:0:0:
42,272,129416,1,8,0:0:0:0:
186,367,129728,1,8,0:0:0:0:
281,223,130041,1,8,0:0:0:0:
353,270,130197,2,0,L|423:257,1,72,8|0,0:0|3:0,0:0:0:0:
512,300,130510,6,0,B|473:270|473:270|460:175,1,144,4|8,0:0|0:0,0:0:0:0:
502,97,130978,1,0,3:0:0:0:
502,97,131056,1,0,3:0:0:0:
502,97,131135,2,0,P|467:92|435:75,1,72,0|0,3:0|3:0,0:0:0:0:
385,5,131447,1,8,0:0:0:0:
285,22,131603,6,0,P|255:87|254:158,1,144,0|0,3:0|3:0,0:0:0:0:
302,230,132072,1,8,0:0:0:0:
289,315,132228,2,0,L|324:323,2,36,8|8|8,0:1|0:1|0:1,0:0:0:0:
216,361,132541,1,0,3:0:0:0:
135,329,132697,2,0,B|98:319|98:319|71:339,1,72,8|0,0:0|3:0,0:0:0:0:
6,384,133010,6,0,B|15:275|60:335|64:226,1,172.8,4|0,0:0|3:0,0:0:0:0:
64,227,133556,1,0,3:0:0:0:
64,227,133635,1,8,3:2:0:0:
0,174,133791,2,0,B|56:186|56:186|101:150,1,115.2,0|0,3:0|3:0,0:0:0:0:
222,88,134260,5,0,0:0:0:0:
240,168,134416,2,0,B|254:234|209:209|224:277,1,115.2,0|0,3:0|3:0,0:0:0:0:
228,281,134806,1,0,3:0:0:0:
232,285,134885,2,0,P|260:289|287:298,1,57.6,8|0,0:0|3:0,0:0:0:0:
365,366,135197,2,0,L|394:360,3,28.8,8|8|8|8,0:1|0:1|0:1|3:1,0:0:0:0:
505,226,135822,6,0,P|436:215|386:164,1,144,6|2,0:0|0:0,0:0:0:0:
323,111,136291,2,0,P|289:122|261:144,1,72,2|8,3:2|0:0,0:0:0:0:
190,229,136603,6,0,L|172:122,1,108,2|0,3:2|0:0,0:0:0:0:
171,111,136916,2,0,L|100:99,1,72,2|8,3:2|0:0,0:0:0:0:
0,76,137228,2,0,B|47:96|47:96|59:188,1,144,2|0,3:2|3:0,0:0:0:0:
6,260,137697,1,8,0:0:0:0:
52,347,137853,5,0,3:0:0:0:
52,347,138010,2,0,L|123:333,1,72,0|0,3:0|0:0,0:0:0:0:
168,256,138322,2,0,L|239:242,1,72,8|0,0:0|0:0,0:0:0:0:
311,161,138635,6,0,L|382:175,1,72,0|0,3:0|3:0,0:0:0:0:
415,265,138947,2,0,L|486:279,1,72,8|0,0:0|0:0,0:0:0:0:
512,133,139260,6,0,B|463:140|463:140|441:166|441:166|381:174,1,144,0|8,0:0|0:0,0:0:0:0:
331,104,139728,1,0,3:0:0:0:
331,104,139806,1,0,3:0:0:0:
331,104,139885,2,0,B|320:67|320:67|332:35,1,72,8|0,0:0|3:0,0:0:0:0:
256,164,140197,2,0,B|267:201|267:201|254:232,1,72,8|8,0:3|0:3,0:0:0:0:
320,296,140510,5,2,0:0:0:0:
319,295,143010,5,8,3:1:0:0:
247,341,143166,2,0,L|211:336,3,36,8|8|8|8,0:1|0:1|0:1|0:1,0:0:0:0:
178,347,143478,6,0,L|166:269,1,72,0|8,3:0|0:1,0:0:0:0:
167,276,143713,1,8,0:1:0:0:
167,276,143791,1,8,0:1:0:0:
88,216,143947,2,0,P|71:216|53:212,2,36,0|0|8,3:0|3:0|0:1,0:0:0:0:
120,112,144260,6,0,L|114:76,2,36,0|0|0,3:0|3:0|3:0,0:0:0:0:
216,128,144572,1,0,3:0:0:0:
272,48,144728,1,0,3:0:0:0:
272,48,144806,1,0,3:0:0:0:
272,48,144885,2,0,B|368:73|368:73|382:115,1,144,8|2,0:0|0:0,0:0:0:0:
500,280,145510,6,0,B|420:292|420:292|405:327,1,118.800003625488,4|0,0:0|0:0,0:0:0:0:
402,338,145822,2,0,L|323:328,1,79.2000024169923,8|0,0:0|0:0,0:0:0:0:
247,384,146135,1,0,3:0:0:0:
226,298,146291,2,0,B|215:258|215:258|228:222,1,79.2000024169923,0|8,3:0|0:0,0:0:0:0:
135,198,146603,6,0,B|190:187|190:187|223:152|223:152|276:142,1,158.400004833985,0|0,3:0|3:0,0:0:0:0:
359,182,147072,2,0,B|375:143|375:143|365:107,1,79.2000024169923,8|0,0:0|0:0,0:0:0:0:
291,42,147385,1,0,3:0:0:0:
291,42,147541,2,0,L|212:54,1,79.2000024169923,0|8,3:0|0:0,0:0:0:0:
98,19,147853,6,0,B|130:107|130:107|99:170,1,158.400004833985,0|0,3:0|3:0,0:0:0:0:
5,226,148322,2,0,L|18:304,1,79.2000024169923,8|0,0:0|0:0,0:0:0:0:
18,304,148556,1,0,0:0:0:0:
18,304,148635,1,0,3:0:0:0:
99,377,148791,2,0,B|109:318|109:318|126:308,1,79.2000024169923,0|8,3:0|0:0,0:0:0:0:
201,242,149103,6,0,B|190:195|190:195|136:167|136:167|126:118,1,158.400004833985,0|0,0:0|3:0,0:0:0:0:
178,45,149572,2,0,L|255:60,1,79.2000024169923,8|0,0:0|0:0,0:0:0:0:
336,19,149885,2,0,P|374:32|402:59,1,79.2000024169923,8|8,0:1|0:1,0:0:0:0:
402,59,150119,1,8,0:1:0:0:
402,59,150197,1,8,0:0:0:0:
503,104,150353,6,0,P|425:114|371:170,1,158.400004833985,4|0,0:0|3:0,0:0:0:0:
302,229,150822,2,0,P|263:225|230:203,1,79.2000024169923,8|0,0:0|0:0,0:0:0:0:
179,124,151135,1,0,3:0:0:0:
179,124,151291,2,0,L|101:140,1,79.2000024169923,0|8,3:0|0:0,0:0:0:0:
1,227,151603,6,0,B|79:242|79:242|92:279,1,118.800003625488
97,290,151916,1,0,0:0:0:0:
172,337,152072,2,0,P|185:299|180:260,1,79.2000024169923,8|0,0:0|0:0,0:0:0:0:
242,200,152385,2,0,P|229:162|234:123,1,79.2000024169923,0|0,3:0|0:0,0:0:0:0:
191,51,152697,1,0,3:0:0:0:
269,18,152853,6,0,P|347:19|406:70,1,158.400004833985,4|0,0:0|3:0,0:0:0:0:
480,137,153322,1,8,0:0:0:0:
480,137,153635,6,0,B|461:180|461:180|471:210,1,79.2000024169923,8|0,0:0|3:0,0:0:0:0:
496,295,153947,1,8,0:0:0:0:
433,351,154103,2,0,L|354:338,1,79.2000024169923,0|8,3:0|0:0,0:0:0:0:
269,372,154416,1,0,3:0:0:0:
269,372,154494,1,0,3:0:0:0:
269,372,154572,2,0,L|254:294,1,79.2000024169923,8|0,0:0|3:0,0:0:0:0:
279,215,154885,1,8,0:1:0:0:
279,215,154963,1,8,0:1:0:0:
279,215,155041,2,0,P|299:216|318:222,2,39.6000012084961,8|8|8,0:1|0:1|0:3,0:0:0:0:
256,128,155353,5,8,0:3:0:0:
256,128,155431,1,8,0:3:0:0:
256,128,155510,2,0,L|139:149,1,118.800003625488,4|0,0:0|0:0,0:0:0:0:
127,152,155822,2,0,B|88:160|88:160|52:143,1,79.2000024169923,8|0,0:0|0:0,0:0:0:0:
0,220,156135,2,0,L|13:300,1,79.2000024169923,0|0,3:0|3:0,0:0:0:0:
72,374,156447,1,8,0:0:0:0:
159,341,156603,6,0,B|176:232|176:232|222:218,1,158.400004833985,0|0,3:0|3:0,0:0:0:0:
306,195,157072,2,0,L|317:112,1,79.2000024169923,8|0,0:0|0:0,0:0:0:0:
316,116,157306,1,0,0:0:0:0:
316,116,157385,1,0,3:0:0:0:
336,32,157541,2,0,B|378:38|378:38|410:20,1,79.2000024169923,0|8,3:0|0:0,0:0:0:0:
473,137,157853,6,0,L|316:116,1,158.400004833985,0|0,3:0|3:0,0:0:0:0:
224,32,158322,2,0,B|200:48|200:48|192:97,1,79.2000024169923,8|0,0:0|0:0,0:0:0:0:
240,176,158635,1,0,3:0:0:0:
168,232,158791,2,0,L|89:218,1,79.2000024169923,0|8,3:0|0:0,0:0:0:0:
144,360,159103,6,0,B|201:351|201:351|230:323|230:323|289:313,1,158.400004833985,4|0,3:2|3:0,0:0:0:0:
372,360,159572,1,8,0:0:0:0:
372,360,159885,2,0,B|396:319|396:319|385:289,1,79.2000024169923,0|0,0:0|3:0,0:0:0:0:
448,224,160197,5,8,0:1:0:0:
448,224,160275,1,8,0:1:0:0:
448,224,160353,2,0,B|401:195|401:195|387:92,1,158.400004833985,8|0,0:1|3:0,0:0:0:0:
315,31,160822,2,0,B|284:53|284:53|243:45,1,79.2000024169923,8|0,0:0|0:0,0:0:0:0:
159,22,161135,5,0,3:0:0:0:
184,104,161291,2,0,L|173:182,1,79.2000024169923,0|8,0:0|0:0,0:0:0:0:
224,256,161603,2,0,B|326:236|326:236|353:189,2,158.400004833985,2|2|2,0:0|0:0|0:0,0:0:0:0:
0,320,162541,5,2,0:0:0:0:
10,240,162697,1,8,0:0:0:0:
16,160,162853,2,0,L|172:182,1,158.400004833985,4|0,0:0|3:0,0:0:0:0:
172,182,163322,1,8,0:0:0:0:
280,24,163635,6,0,B|322:19|322:19|354:36,1,79.2000024169923,8|0,0:0|3:0,0:0:0:0:
441,24,163947,2,0,L|432:102,1,79.2000024169923,8|0,0:0|3:0,0:0:0:0:
496,200,164260,6,0,B|454:195|454:195|421:212,1,79.2000024169923,8|0,0:0|3:0,0:0:0:0:
335,200,164572,2,0,L|343:278,1,79.2000024169923,8|0,0:0|3:0,0:0:0:0:
288,352,164885,6,0,B|246:357|246:357|213:340,1,79.2000024169923,8|8,0:3|0:3,0:0:0:0:
213,340,165119,1,8,0:3:0:0:
213,340,165197,2,0,L|135:354,1,79.2000024169923,8|4,0:0|0:0,0:0:0:0:
69,290,165510,6,0,L|30:297,2,39.6000012084961,8|8|8,0:1|0:1|0:1,0:0:0:0:
48,181,165822,2,0,L|9:188,2,39.6000012084961,8|8|8,0:1|0:1|0:1,0:0:0:0:
136,220,166135,2,0,B|208:206|208:206|244:232,1,118.800003625488,8|8,0:3|0:3,0:0:0:0:
244,232,166447,2,0,L|254:153,1,79.2000024169923,8|8,0:3|0:3,0:0:0:0:
176,77,166760,5,8,0:0:0:0:
239,16,166916,1,8,0:0:0:0:
319,38,167072,2,0,P|356:48|396:45,1,79.2000024169923,12|0,0:0|0:0,0:0:0:0:
499,31,167385,2,0,L|494:71,3,39.6000012084961,8|8|8|8,0:1|0:1|0:1|0:1,0:0:0:0:
491,82,167697,2,0,B|483:134|483:134|496:157,1,79.2000024169923,8|8,0:1|0:1,0:0:0:0:
464,240,168010,5,8,0:0:0:0:
464,240,168166,2,0,B|412:252|412:252|389:282|389:282|337:292,1,144,8|8,0:0|0:0,0:0:0:0:
212,331,168635,2,0,B|264:341|264:341|286:371|286:371|338:383,1,144,8|8,0:0|0:0,0:0:0:0:
403,242,169103,2,0,B|343:206|343:206|272:229,1,144,8|8,0:0|0:0,0:0:0:0:
212,331,169572,1,8,0:0:0:0:
40,264,169885,6,0,L|28:192,1,72,8|8,0:0|0:0,0:0:0:0:
84,121,170197,1,8,0:0:0:0:
84,121,170353,1,8,0:0:0:0:
40,45,170510,5,8,0:0:0:0:
40,45,170666,1,8,0:0:0:0:
176,88,170978,1,8,0:0:0:0:
176,88,171135,2,0,L|320:67,1,144,8|8,0:0|0:0,0:0:0:0:
318,67,171603,1,8,0:0:0:0:
440,208,171916,5,8,0:0:0:0:
336,184,172072,2,0,B|315:200|315:200|311:245,1,72,8|0,0:3|3:0,0:0:0:0:
319,251,172306,1,0,3:0:0:0:
319,251,172385,2,0,B|384:276|384:276|396:312,2,108,8|8|8,0:0|0:0|0:0,0:0:0:0:
230,304,173010,5,8,3:2:0:0:
230,304,173088,1,8,0:1:0:0:
230,304,173166,2,0,L|225:339,2,36,8|8|8,0:1|0:1|0:1,0:0:0:0:
132,372,173478,1,8,0:0:0:0:
132,372,173556,1,0,0:0:0:0:
132,372,173634,2,0,L|127:336,2,36,8|8|8,0:1|0:1|0:1,0:0:0:0:
35,295,173947,2,0,B|46:260|46:260|38:226,1,72,8|8,0:0|0:1,0:0:0:0:
37,225,174181,1,8,0:1:0:0:
37,225,174260,1,8,0:1:0:0:
0,146,174416,6,0,L|74:135,1,72,8|8,0:0|3:1,0:0:0:0:
144,200,174728,1,8,0:1:0:0:
144,200,174806,1,8,0:1:0:0:
144,200,174885,2,0,B|192:192|192:192|204:172,1,72,8|8,3:1|0:1,0:0:0:0:
248,96,175197,2,0,L|252:60,2,36,8|8|8,3:1|0:1|0:1,0:0:0:0:
279,220,175510,6,0,B|286:265|286:265|273:288,1,72,8|8,3:2|0:1,0:0:0:0:
273,288,175744,1,8,0:1:0:0:
273,288,175822,1,8,3:1:0:0:
352,360,175978,1,8,0:1:0:0:
352,360,176056,1,8,0:1:0:0:
352,360,176135,2,0,L|388:353,2,36,8|8|8,3:1|0:1|0:1,0:0:0:0:
456,280,176447,2,0,L|420:273,2,36,8|8|8,0:3|0:1|0:3,0:0:0:0:
368,200,176760,6,0,B|441:168|441:168|487:185,2,129.599996044922,8|8|8,0:0|0:0|0:0,0:0:0:0:
296,128,177385,2,0,L|318:0,2,129.599996044922,8|8|8,0:0|0:0|0:0,0:0:0:0:
216,184,178010,5,4,0:0:0:0:
216,184,178166,1,0,0:0:0:0:
280,240,178322,2,0,B|296:318|296:318|270:348,1,118.800003625488,8|0,0:0|0:0,0:0:0:0:
262,357,178635,1,0,3:0:0:0:
179,319,178791,2,0,L|101:336,1,79.2000024169923,0|8,0:0|0:0,0:0:0:0:
13,384,179103,6,0,P|61:323|49:247,1,158.400004833985,0|0,3:0|3:0,0:0:0:0:
104,182,179572,2,0,P|90:145|92:105,1,79.2000024169923,8|0,0:0|0:0,0:0:0:0:
168,32,179885,1,2,3:2:0:0:
168,32,179963,1,0,0:0:0:0:
168,32,180041,1,0,0:0:0:0:
244,84,180197,2,0,L|295:72,2,52.8000016113282,10|2|2,0:2|0:2|0:2,0:0:0:0:
235,112,180510,6,0,B|205:134|195:175|195:175|195:222|219:253,1,158.400004833985,2|8,3:2|0:0,0:0:0:0:
279,368,180978,1,2,0:2:0:0:
279,368,181056,1,2,0:2:0:0:
279,368,181135,2,0,L|318:361,3,39.6000012084961,2|2|2|2,3:2|0:2|3:2|0:2,0:0:0:0:
352,340,181447,2,0,L|391:346,3,39.6000012084961,10|2|2|2,0:2|0:2|0:2|0:2,0:0:0:0:
428,366,181760,6,0,L|440:287,1,79.2000024169923,2|2,3:2|3:2,0:0:0:0:
477,213,182072,1,10,0:2:0:0:
503,133,182228,1,2,0:2:0:0:
503,133,182306,1,2,0:2:0:0:
503,133,182385,2,0,B|465:128|465:128|438:141|438:141|393:149|353:118,1,158.400004833985,2|8,3:2|0:0,0:0:0:0:
296,56,182853,6,0,B|290:113|290:113|312:151|312:151|306:207,1,158.400004833985,4|2,0:0|3:2,0:0:0:0:
381,272,183322,2,0,P|343:282|314:309,1,79.2000024169923,8|0,0:2|0:2,0:0:0:0:
249,363,183635,2,0,P|211:352|182:325,1,79.2000024169923,2|2,3:2|3:2,0:0:0:0:
110,360,183947,5,8,0:2:0:0:
39,318,184103,2,0,B|50:240|50:240|47:237|47:237|57:162,1,158.400004833985,2|2,3:2|3:2,0:0:0:0:
15,91,184572,1,8,0:2:0:0:
15,91,184885,5,0,3:0:0:0:
82,35,185041,2,0,B|111:46|111:46|117:93,1,79.2000024169923,0|8,0:0|0:0,0:0:0:0:
168,160,185353,6,0,B|274:178|274:178|246:135,1,158.400004833985,2|2,0:0|3:2,0:0:0:0:
313,81,185822,2,0,P|308:41|302:2,2,79.2000024169923,10|2|2,0:2|0:2|3:2,0:0:0:0:
384,136,186291,1,2,3:2:0:0:
384,136,186447,2,0,P|379:175|373:214,1,79.2000024169923,10|2,0:2|0:2,0:0:0:0:
463,289,186760,5,2,3:2:0:0:
426,364,186916,1,2,3:2:0:0:
351,335,187072,2,0,B|312:327|312:327|279:349,1,79.2000024169923,10|2,0:2|3:2,0:0:0:0:
195,375,187385,2,0,L|207:296,1,79.2000024169923,2|8,0:2|0:1,0:0:0:0:
207,296,187619,1,8,0:1:0:0:
207,296,187697,1,8,0:1:0:0:
184,208,187853,1,8,0:1:0:0:
256,192,187931,12,4,190510,3:2:0:0:
80,352,197541,5,0,0:0:0:0:
164,324,197697,2,0,P|199:328|229:347,1,72,0|0,0:0|3:0,0:0:0:0:
229,347,197931,1,0,3:0:0:0:
229,347,198010,6,0,P|299:343|351:295,1,144,8|8,0:0|0:3,0:0:0:0:
360,216,198478,1,8,0:3:0:0:
288,168,198635,1,8,0:3:0:0:
288,168,198791,2,0,L|277:90,1,72,8|8,0:3|0:3,0:0:0:0:
263,15,199103,1,8,0:3:0:0:
183,69,199260,6,0,B|148:63|148:63|124:35,1,72,8|8,0:1|0:1,0:0:0:0:
124,35,199494,1,8,0:1:0:0:
124,35,199572,1,8,0:1:0:0:
37,51,199728,2,0,L|30:13,2,36,8|8|8,0:1|0:1|0:1,0:0:0:0:
3,129,200041,1,8,0:3:0:0:
70,172,200197,2,0,P|75:189|75:207,2,36,0|0|0,3:0|3:0|3:0,0:0:0:0:
42,284,200510,5,4,3:2:0:0:
42,284,200666,1,0,3:0:0:0:
219,325,200978,1,0,3:0:0:0:
219,325,201135,1,0,3:0:0:0:
260,148,201447,1,0,3:0:0:0:
260,148,201604,1,0,3:0:0:0:
83,107,201916,5,0,3:0:0:0:
83,107,202072,2,0,B|101:118|101:118|110:167,1,72,0|0,3:0|3:0,0:0:0:0:
109,178,202306,1,0,3:0:0:0:
103,187,202385,1,0,3:0:0:0:
160,248,202541,2,0,L|301:223,1,144,4|0,0:0|0:0,0:0:0:0:
280,312,203010,5,0,3:0:0:0:
280,312,203166,1,0,3:0:0:0:
332,138,203478,1,0,3:0:0:0:
332,138,203635,1,0,3:0:0:0:
506,191,203947,1,0,3:0:0:0:
506,191,204104,1,0,3:0:0:0:
453,364,204416,5,0,3:0:0:0:
453,364,204572,2,0,B|445:324|445:324|418:307,1,72,0|0,3:0|3:0,0:0:0:0:
410,300,204806,1,0,3:0:0:0:
400,295,204885,1,8,3:2:0:0:
370,218,205041,1,8,0:2:0:0:
399,136,205197,1,8,0:2:0:0:
483,118,205353,1,8,0:2:0:0:
333,37,205666,5,0,3:0:0:0:
333,37,205744,1,0,3:0:0:0:
333,37,205822,2,0,L|297:44,3,36,0|0|0|0,3:0|3:0|3:0|3:0,0:0:0:0:
275,34,206135,2,0,L|261:104,1,72,4|0,0:0|0:0,0:0:0:0:
336,200,206447,2,0,L|349:129,1,72,8|0,0:0|0:0,0:0:0:0:
181,66,206760,6,0,L|38:88,1,144,4|8,0:0|0:0,0:0:0:0:
38,88,207385,2,0,B|61:102|61:102|69:146,1,72,8|0,0:3|0:0,0:0:0:0:
113,210,207697,1,0,0:0:0:0:
45,278,207853,2,0,B|142:296|142:296|167:333,1,144,0|8,3:0|0:0,0:0:0:0:
167,333,208322,1,0,3:0:0:0:
256,240,208635,6,0,L|243:169,1,72,8|0,0:0|3:0,0:0:0:0:
224,88,208948,1,0,3:0:0:0:
296,32,209103,6,0,B|383:46|383:46|423:7,1,144,4|8,0:0|0:3,0:0:0:0:
508,61,209572,2,0,L|495:131,1,72,8|8,0:3|0:3,0:0:0:0:
413,180,209885,1,8,0:3:0:0:
413,180,210041,2,0,L|425:250,1,72,8|8,0:3|0:3,0:0:0:0:
494,309,210353,1,8,0:3:0:0:
434,377,210510,5,8,0:1:0:0:
434,377,210588,1,8,0:1:0:0:
434,377,210666,2,0,L|398:371,4,36,8|8|8|8|8,0:1|0:1|0:1|0:1|0:1,0:0:0:0:
312,384,211135,6,0,B|290:321|331:339|306:272,1,115.2,2|2,0:0|0:0,0:0:0:0:
224,240,211603,6,0,B|274:222|320:217|320:217|327:189|339:161,1,158.400004833985,4|0,0:0|3:0,0:0:0:0:
303,88,212072,2,0,L|224:80,1,79.2000024169923,8|0,0:0|0:0,0:0:0:0:
168,16,212385,1,0,3:0:0:0:
168,16,212541,2,0,B|132:32|132:32|93:23,1,79.2000024169923,0|8,3:0|0:0,0:0:0:0:
7,0,212853,6,0,P|37:50|33:108,1,118.800003625488
26,118,213166,2,0,L|38:196,1,79.2000024169923,0|8,0:0|0:0,0:0:0:0:
0,290,213478,6,0,B|89:313|89:313|139:270,1,158.400004833985
187,207,213947,1,8,0:0:0:0:
128,116,214103,2,0,L|285:134,1,158.400004833985,4|0,3:2|3:0,0:0:0:0:
348,76,214572,1,8,0:0:0:0:
348,76,214885,6,0,B|376:92|376:92|383:138,1,79.2000024169923,8|0,0:0|3:0,0:0:0:0:
480,184,215197,2,0,B|452:200|452:200|445:246,1,79.2000024169923,8|0,0:0|3:0,0:0:0:0:
480,336,215510,6,0,L|402:351,1,79.2000024169923,8|0,0:0|3:0,0:0:0:0:
402,351,215744,1,0,3:0:0:0:
402,351,215822,2,0,P|365:336|326:335,1,79.2000024169923,8|0,0:0|3:0,0:0:0:0:
248,304,216135,1,8,0:1:0:0:
248,304,216213,1,8,0:1:0:0:
248,304,216291,2,0,L|240:344,2,39.6000012084961,8|8|8,0:1|0:1|0:3,0:0:0:0:
304,236,216603,5,8,0:3:0:0:
304,236,216681,1,8,0:3:0:0:
304,236,216760,2,0,B|285:166|285:166|299:122,1,118.800003625488,4|0,0:0|0:0,0:0:0:0:
303,110,217072,2,0,L|224:122,1,79.2000024169923,8|0,0:0|0:0,0:0:0:0:
168,64,217385,1,0,3:0:0:0:
88,96,217541,2,0,B|68:108|68:108|61:163,1,79.2000024169923,0|8,3:0|0:0,0:0:0:0:
0,243,217853,6,0,B|102:256|102:256|127:305,1,158.400004833985,0|0,3:0|3:0,0:0:0:0:
187,377,218322,2,0,L|264:359,1,79.2000024169923,8|0,0:0|0:0,0:0:0:0:
264,359,218556,1,0,0:0:0:0:
264,359,218635,1,0,3:0:0:0:
224,280,218791,2,0,L|235:201,1,79.2000024169923,0|8,3:0|0:0,0:0:0:0:
160,128,219103,6,0,B|224:116|224:116|240:96|240:96|306:82,1,158.400004833985,0|0,3:0|3:0,0:0:0:0:
364,24,219572,2,0,B|396:40|396:40|403:82,1,79.2000024169923,8|0,0:0|0:0,0:0:0:0:
484,128,219885,1,0,3:0:0:0:
468,208,220041,2,0,B|436:224|436:224|428:266,1,79.2000024169923,0|8,3:0|0:0,0:0:0:0:
512,308,220353,6,0,L|355:330,1,158.400004833985,4|0,3:2|3:0,0:0:0:0:
288,384,220822,1,8,0:0:0:0:
288,384,221135,2,0,B|264:356|264:356|258:314,1,79.2000024169923,0|0,0:0|3:0,0:0:0:0:
304,240,221447,1,8,0:0:0:0:
304,240,221525,1,8,0:0:0:0:
304,240,221604,2,0,B|328:144|328:144|296:93,1,158.400004833985,8|0,3:2|3:0,0:0:0:0:
296,93,222072,1,8,0:0:0:0:
163,179,222385,6,0,P|124:169|85:171,1,79.2000024169923,0|0,3:0|3:0,0:0:0:0:
7,143,222698,1,8,0:0:0:0:
22,225,222854,2,0,P|-7:301|7:378,2,158.400004833985,2|2|2,0:0|0:0|0:0,0:0:0:0:
117,46,223791,5,2,0:0:0:0:
198,28,223947,1,8,0:0:0:0:
279,10,224103,2,0,L|258:166,1,158.400004833985,12|0,0:0|3:0,0:0:0:0:
186,231,224572,1,8,0:0:0:0:
186,231,224885,6,0,B|213:252|213:252|218:296,1,79.2000024169923,8|0,0:0|3:0,0:0:0:0:
192,384,225197,2,0,L|270:373,1,79.2000024169923,8|0,0:0|3:0,0:0:0:0:
384,384,225510,6,0,B|389:339|389:339|416:318,1,79.2000024169923,8|0,0:0|0:0,0:0:0:0:
472,240,225822,2,0,L|393:229,1,79.2000024169923,8|0,0:0|3:0,0:0:0:0:
304,216,226135,2,0,L|295:138,1,79.2000024169923,8|8,0:3|0:3,0:0:0:0:
294,137,226369,1,8,0:3:0:0:
294,137,226447,1,8,0:3:0:0:
375,103,226603,6,0,B|273:91|273:91|242:44,1,158.400004833985,8|8,0:0|0:1,0:0:0:0:
246,40,226994,1,8,0:1:0:0:
250,36,227072,2,0,L|288:27,2,39.6000012084961,8|8|8,0:1|0:1|0:1,0:0:0:0:
176,104,227385,2,0,L|97:90,1,79.2000024169923,8|8,0:3|0:3,0:0:0:0:
40,176,227697,2,0,L|118:189,1,79.2000024169923,8|0,0:3|3:0,0:0:0:0:
160,272,228010,5,8,3:2:0:0:
160,272,229103,5,4,0:0:0:0:
256,192,229181,12,0,230197,0:0:0:0:
352,96,230510,5,2,0:0:0:0:
473,116,230822,1,2,0:0:0:0:
453,237,231135,1,2,0:0:0:0:
332,217,231447,1,2,0:0:0:0:
312,338,231760,6,0,L|347:332,2,36,8|8|8,0:3|0:3|0:3,0:0:0:0:
232,312,232072,2,0,L|160:323,1,72,8|8,0:3|0:3,0:0:0:0:
160,323,232306,1,8,0:3:0:0:
160,323,232385,1,8,0:3:0:0:
173,237,232541,1,8,0:3:0:0:
120,168,232697,1,8,0:0:0:0:
34,154,232853,5,8,0:0:0:0:
