osu file format v14

[General]
AudioFilename: audio.mp3
AudioLeadIn: 0
PreviewTime: 224951
Countdown: 0
SampleSet: Soft
StackLeniency: 0.4
Mode: 0
LetterboxInBreaks: 0
WidescreenStoryboard: 1

[Editor]
Bookmarks: 54249,74443,99685,119879,142597,162791,182985,203179,224951,246091,272596,292790
DistanceSpacing: 1
BeatDivisor: 8
GridSize: 32
TimelineZoom: 1.6

[Metadata]
Title:Badge & Dagger
TitleUnicode:Badge & Dagger
Artist:Faylan
ArtistUnicode:Faylan
Creator:Kuro Fuyusaki
Version:Vendetta
Source:流星ワールドアクター Badge & Dagger
Tags:ryuusei world actor: and meteor Badge&Dagger actor japanese j-rock jrock rock original mini soundtrack ost video game galge galgame ed ending female vocals visual novel eroge heliodor lushifer Nakazawa Raishou
BeatmapID:3695465
BeatmapSetID:1802164

[Difficulty]
HPDrainRate:5
CircleSize:4.5
OverallDifficulty:8.5
ApproachRate:9.2
SliderMultiplier:1.17
SliderTickRate:1

[Events]
//Background and Video events
0,0,"BG.jpg",0,0
//Break Periods
//Storyboard Layer 0 (Background)
//Storyboard Layer 1 (Fail)
//Storyboard Layer 2 (Pass)
//Storyboard Layer 3 (Foreground)
//Storyboard Layer 4 (Overlay)
//Storyboard Sound Samples

[TimingPoints]
1240,315.530406613517,4,2,1,60,1,0
1240,-227.272727272727,4,2,1,60,0,0
1318,-227.272727272727,4,2,1,20,0,0
6288,-227.272727272727,4,2,1,38,0,0
6367,-227.272727272727,4,2,1,20,0,0
11336,-151.515151515152,4,2,1,44,0,0
11415,-151.515151515152,4,2,1,26,0,0
13861,-151.515151515152,4,2,1,44,0,0
13940,-151.515151515152,4,2,1,26,0,0
16385,-151.515151515152,4,2,1,44,0,0
16464,-151.515151515152,4,2,1,26,0,0
18909,-151.515151515152,4,2,1,44,0,0
19067,-151.515151515152,4,2,1,26,0,0
21433,-151.515151515152,4,2,1,52,0,0
23011,-129.87012987013,4,2,1,32,0,0
31530,-129.87012987013,4,2,1,38,0,0
41627,-113.636363636364,4,2,1,46,0,0
51251,-113.636363636364,4,2,1,49,0,0
51409,-113.636363636364,4,2,1,52,0,0
51567,-113.636363636364,4,2,1,58,0,0
51724,-454.545454545455,4,2,1,66,0,0
52986,-454.545454545455,4,2,1,36,0,0
54249,-83.3333333333333,4,2,1,85,0,1
98107,-100,4,2,0,5,0,0
99054,-500,4,2,1,80,0,0
99606,-500,4,2,0,5,0,0
99685,-166.666666666667,4,2,1,80,0,0
99764,-166.666666666667,4,2,1,46,0,0
104102,-76.9230769230769,4,2,1,60,0,0
104733,-76.9230769230769,4,2,1,72,0,0
105680,-100,4,2,1,80,0,0
106627,-76.9230769230769,4,2,1,80,0,0
107573,-111.111111111111,4,2,1,80,0,0
107731,-111.111111111111,4,2,1,56,0,0
109782,-100,4,2,1,80,0,0
109861,-100,4,2,1,58,0,0
123981,-250,4,2,1,58,0,0
124217,-250,4,2,1,5,0,0
124296,-100,4,2,1,58,0,0
128872,-100,4,2,1,66,0,0
129187,-100,4,1,6,66,0,0
129503,-100,4,1,6,60,0,0
129660,-100,4,1,6,54,0,0
129818,-100,4,1,6,40,0,0
129976,-90.9090909090909,4,2,1,66,0,0
132421,-90.9090909090909,4,2,1,5,0,0
132500,-90.9090909090909,4,2,1,66,0,0
133052,-90.9090909090909,4,2,1,5,0,0
133131,-90.9090909090909,4,2,1,66,0,0
134709,-142.857142857143,4,2,1,66,0,0
134946,-142.857142857143,4,2,1,5,0,0
135024,-90.9090909090909,4,2,1,66,0,0
140073,-90.9090909090909,4,1,6,60,0,0
140546,-90.9090909090909,4,1,6,54,0,0
141019,-90.9090909090909,4,1,6,48,0,0
141493,-90.9090909090909,4,1,6,40,0,0
141966,-90.9090909090909,4,1,6,50,0,0
142124,-90.9090909090909,4,1,6,60,0,0
142282,-90.9090909090909,4,1,6,70,0,0
142439,-90.9090909090909,4,1,6,80,0,0
142597,-83.3333333333333,4,2,1,85,0,1
182985,-83.3333333333333,4,2,1,80,0,0
183379,-83.3333333333333,4,2,1,5,0,0
183458,-83.3333333333333,4,2,1,80,0,0
184799,-83.3333333333333,4,2,1,5,0,0
184878,-83.3333333333333,4,2,1,80,0,0
185036,-83.3333333333333,4,2,1,5,0,0
185115,-83.3333333333333,4,2,1,80,0,0
185273,-83.3333333333333,4,2,1,5,0,0
185351,-83.3333333333333,4,2,1,80,0,0
185430,-83.3333333333333,4,2,1,5,0,0
185509,-83.3333333333333,4,2,1,80,0,0
185904,-83.3333333333333,4,2,1,5,0,0
185983,-83.3333333333333,4,2,1,80,0,0
190137,-83.3333333333333,4,2,1,5,0,0
190242,-83.3333333333333,4,2,1,80,0,0
191504,-83.3333333333333,4,2,1,5,0,0
191610,-83.3333333333333,4,2,1,80,0,0
196947,-83.3333333333333,4,2,1,5,0,0
197026,-83.3333333333333,4,2,1,80,0,0
203179,-142.857142857143,4,2,1,66,0,0
203258,-142.857142857143,4,2,1,38,0,0
213276,-142.857142857143,4,2,1,48,0,0
222111,-166.666666666667,4,2,1,60,0,0
222742,-166.666666666667,4,2,1,66,0,0
224635,-166.666666666667,4,2,1,5,0,0
225897,-83.3333333333333,4,2,1,85,0,1
246091,-71.4285714285714,4,2,1,85,0,1
268809,-71.4285714285714,4,2,1,100,0,1
269756,-100,4,2,1,80,0,0
271965,-100,4,2,1,56,0,0
272070,-100,4,2,1,60,0,0
272175,-100,4,2,1,66,0,0
272280,-100,4,2,1,72,0,0
272385,-100,4,2,1,78,0,0
272490,-100,4,2,1,84,0,0
272596,-83.3333333333333,4,2,1,92,0,1
292790,-166.666666666667,4,2,1,50,0,0
292868,-166.666666666667,4,2,1,50,0,0
294683,-166.666666666667,4,2,1,40,0,0
295314,-166.666666666667,4,2,1,30,0,0
296260,-166.666666666667,4,2,1,20,0,0
302887,-333.333333333333,4,2,1,20,0,0
303833,-333.333333333333,4,2,1,14,0,0
305411,-333.333333333333,4,2,1,10,0,0
306042,-333.333333333333,4,2,1,20,0,0
306673,-333.333333333333,4,2,1,36,0,0
307304,-333.333333333333,4,2,1,52,0,0
307580,-333.333333333333,4,2,1,24,0,0

[Colours]
Combo1 : 120,120,120
Combo2 : 102,174,255
Combo3 : 40,88,255
Combo4 : 243,86,90
Combo5 : 226,5,11
Combo6 : 214,214,214

[HitObjects]
177,348,1240,70,0,P|115:342|127:267,2,154.440004713135,6|2|0,1:2|3:2|0:0,0:0:0:0:
362,280,3764,2,0,P|382:212|402:166,1,102.96000314209,2|0,3:2|0:0,0:0:0:0:
435,125,4710,1,2,3:2:0:0:
435,125,5026,1,0,3:0:0:0:
460,313,5657,1,2,0:0:0:0:
287,240,5972,2,0,L|279:199,1,25.7400007855225,2|2,0:0|0:0,0:0:0:0:
417,183,6288,6,0,B|426:150|426:150|433:141|433:141|445:96,2,77.2200023565674,2|2|2,1:2|3:2|3:2,0:0:0:0:
206,42,7866,1,2,3:2:0:0:
206,42,8181,1,2,3:2:0:0:
28,164,8812,2,0,L|13:254,2,77.2200023565674,2|0|2,3:2|3:0|3:2,0:0:0:0:
90,124,10074,1,0,3:2:0:0:
180,200,10705,1,0,0:0:0:0:
0,384,11336,70,0,P|52:355|110:353,2,115.829999646515,2|2|2,1:2|3:2|3:2,3:2:0:0:
53,268,12599,1,0,0:0:0:0:
184,319,12914,1,0,3:2:0:0:
262,278,13230,2,0,L|279:222,1,38.6099998821716,0|0,0:0|3:2,0:0:0:0:
288,223,13545,2,0,L|268:167,1,38.6099998821716,0|0,0:0|3:2,0:0:0:0:
71,192,13861,6,0,L|47:292,1,77.2199997643433,2|0,1:2|0:0,0:0:0:0:
115,310,14334,2,0,P|149:290|187:285,1,77.2199997643433,2|0,3:2|0:0,0:0:0:0:
209,212,14807,2,0,P|196:197|178:189,1,38.6099998821716,2|0,3:2|0:0,0:0:0:0:
113,224,15123,69,0,3:2:0:0:
278,253,15438,2,0,L|305:100,1,154.439999528687,2|2,0:0|0:0,0:0:0:0:
305,101,16385,6,0,P|263:116|254:151,1,77.2199997643433,2|0,1:2|0:0,0:0:0:0:
341,235,16858,2,0,P|400:224|438:197,1,77.2199997643433,2|0,0:0|0:0,0:0:0:0:
452,150,17332,2,0,L|409:133,2,38.6099998821716,2|0|0,3:2|3:2|0:0,0:0:0:0:
512,237,17963,1,2,3:2:0:0:
331,306,18278,70,0,L|341:344,1,38.6099998821716,0|0,3:2|3:2,0:0:0:0:
237,233,18594,1,2,0:0:0:0:
234,245,18751,1,2,0:0:0:0:
383,201,18909,1,2,1:2:0:0:
256,192,19067,12,4,21433,1:2:0:0:
164,207,23011,21,2,3:2:0:0:
164,207,23327,2,0,P|147:248|137:299,1,90.0899982129364,2|2,0:0|0:0,0:0:0:0:
52,355,23958,2,0,B|28:356|15:380|15:380|15:352|1:340,1,90.0899982129364,2|0,0:0|0:0,0:0:0:0:
128,278,24431,2,0,B|165:281|191:303|185:309|213:331|248:333,1,135.134997319405,2|0,3:2|3:2,0:0:0:0:
350,381,25220,5,0,3:2:0:0:
392,254,25851,1,0,0:0:0:0:
262,292,26166,69,2,0:0:0:0:
257,304,26324,1,2,0:0:0:0:
127,229,26482,2,0,P|128:174|158:155,1,90.0899982129364,0|2,1:2|0:0,0:0:0:0:
225,128,26955,2,0,P|240:199|248:268,1,135.134997319405,2|0,0:0|3:2,0:0:0:0:
315,293,27744,1,0,0:0:0:0:
409,186,28060,6,0,P|399:142|385:98,2,90.0899982129364,2|2|2,3:2|0:0|3:2,0:0:0:0:
466,331,29006,2,0,P|423:342|388:316,1,90.0899982129364,2|2,0:0|0:0,0:0:0:0:
351,251,29479,2,0,L|244:228,1,90.0899982129364,2|0,3:2|0:0,0:0:0:0:
256,159,29953,2,0,P|288:148|312:144,1,45.0449991064682,0|0,3:2|0:0,0:0:0:0:
411,201,30268,69,2,3:2:0:0:
414,213,30899,1,2,0:0:0:0:
52,153,31530,6,0,P|36:86|14:6,2,135.134997319405,0|0|0,1:0|3:2|3:2,0:0:0:0:
169,187,32793,1,0,0:0:0:0:
39,162,33108,2,0,P|11:128|17:84,1,90.0899982129364,2|2,3:2|0:0,0:0:0:0:
83,0,33739,1,2,0:0:0:0:
243,87,34055,70,0,L|157:61,1,90.0899982129364,2|0,1:2|0:0,0:0:0:0:
103,108,34528,2,0,P|146:128|190:62,1,135.134997319405,2|0,3:2|3:2,0:0:0:0:
256,28,35317,1,0,3:2:0:0:
398,143,35948,1,0,0:0:0:0:
213,223,36263,5,2,0:0:0:0:
213,223,36421,1,2,0:0:0:0:
272,279,36579,2,0,L|381:261,1,90.0899982129364,2|2,1:2|0:0,0:0:0:0:
444,326,37052,2,0,P|439:282|360:265,1,135.134997319405,2|2,3:2|3:2,0:0:0:0:
322,194,37683,1,2,0:0:0:0:
398,176,37841,70,0,B|410:99|456:131|470:68,1,135.134997319405,0|0,0:0|0:0,0:3:0:0:
411,20,38472,1,0,3:2:0:0:
411,20,38788,2,0,L|361:31,1,45.0449991064682,2|0,0:0|3:2,0:0:0:0:
242,175,39103,6,0,P|206:151|160:144,1,90.0899982129364,2|0,1:2|0:0,0:0:0:0:
83,77,39576,2,0,B|73:58|45:45|45:45|148:40|167:171|131:241|97:254|56:252|34:240|19:225|22:202|41:188,1,405.404991958214,2|0,3:2|0:0,0:0:0:0:
111,173,41312,2,0,L|123:227,1,45.0449991064682,2|0,0:0|0:0,0:0:0:0:
187,340,41627,70,0,P|237:353|283:377,1,102.96000314209,6|2,0:0|0:0,0:0:0:0:
339,280,42101,2,0,P|388:267|434:243,1,102.96000314209,2|0,0:0|0:0,0:0:0:0:
480,301,42574,1,2,0:0:0:0:
339,280,42732,2,0,P|306:222|340:172,1,102.96000314209,2|0,0:0|0:0,0:0:0:0:
331,117,43205,2,0,P|355:122|374:139,1,51.480001571045,2|0,0:0|0:0,0:0:0:0:
404,31,43521,2,0,P|419:50|422:76,1,51.480001571045,2|0,0:0|0:0,0:0:0:0:
512,84,43836,2,0,P|502:107|482:122,1,51.480001571045,2|0,0:0|0:0,0:0:0:0:
358,151,44152,6,0,P|321:187|316:237,1,102.96000314209,2|0,0:0|0:0,0:0:0:0:
407,341,44625,2,0,P|419:284|373:263,1,102.96000314209,2|0,0:0|0:0,0:0:0:0:
316,236,45098,1,2,0:0:0:0:
268,326,45256,2,0,B|232:384|156:381|156:381|166:287|221:266,1,257.400007855225,2|0,0:0|0:0,0:0:0:0:
209,271,46360,2,0,L|266:282,1,51.480001571045,2|0,0:0|0:0,0:0:0:0:
274,153,46676,70,0,P|222:150|189:186,1,102.96000314209,2|2,0:0|0:0,0:0:0:0:
119,247,47149,2,0,P|87:200|106:147,1,102.96000314209,2|0,0:0|0:0,0:0:0:0:
162,94,47622,1,2,0:0:0:0:
75,161,47780,2,0,B|49:181|62:229|94:246|138:238|183:224|220:194|224:121,1,257.400007855225,2|0,0:0|0:0,0:0:0:0:
65,87,48885,2,0,P|57:62|53:36,1,51.480001571045,2|0,0:0|0:0,0:0:0:0:
223,138,49200,6,0,P|233:178|237:209,1,51.480001571045,2|0,0:0|0:0,0:0:0:0:
306,142,49516,1,2,0:0:0:0:
306,142,49673,1,2,0:0:0:0:
179,242,49831,2,0,L|130:226,1,51.480001571045
94,164,50147,1,2,0:0:0:0:
94,164,50304,1,2,0:0:0:0:
149,95,50462,69,0,0:0:0:0:
164,99,50620,1,0,0:0:0:0:
223,42,50778,5,0,0:0:0:0:
238,57,50936,1,0,0:0:0:0:
334,17,51093,5,2,0:0:0:0:
325,44,51251,1,2,0:0:0:0:
348,112,51409,1,2,0:0:0:0:
427,136,51567,1,2,0:0:0:0:
512,36,51724,22,0,B|508:17|497:1|497:1|499:40|473:69,1,102.96000314209,2|0,0:0|1:0,0:0:0:0:
288,192,54249,54,0,P|189:170|143:166,1,140.399995715332,6|0,3:2|3:1,0:0:0:0:
83,188,54722,1,0,3:1:0:0:
127,44,54880,2,0,P|63:57|42:140,1,140.399995715332,8|2,0:0|0:0,0:0:0:0:
152,262,55353,6,0,P|94:223|5:230,1,140.399995715332,8|8,0:0|0:0,0:0:0:0:
26,223,55826,1,2,0:0:0:0:
54,347,55984,1,0,3:1:0:0:
54,347,56063,1,0,3:1:0:0:
54,347,56142,1,10,0:0:0:0:
225,259,56300,2,0,B|262:218|242:174|242:174|203:191|220:227,1,140.399995715332,0|0,3:1|3:1,0:0:0:0:
307,384,56773,70,0,P|351:337|436:351,1,140.399995715332,2|0,3:2|3:1,0:0:0:0:
480,381,57246,1,0,3:1:0:0:
265,318,57404,6,0,P|260:240|295:170,1,140.399995715332,8|0,0:0|0:0,0:0:0:0:
476,235,57877,1,8,0:0:0:0:
396,373,58035,1,0,3:1:0:0:
348,316,58193,2,0,P|332:310|271:312,1,70.1999978576661,8|2,0:0|0:0,0:0:0:0:
417,193,58508,69,0,3:1:0:0:
417,193,58587,1,0,3:1:0:0:
417,193,58666,1,10,0:0:0:0:
394,116,58824,1,0,3:1:0:0:
343,170,58982,5,2,0:0:0:0:
487,206,59139,1,2,3:2:0:0:
333,65,59297,2,0,B|253:82|294:115|207:129,1,140.399995715332,2|0,3:2|3:1,0:0:0:0:
139,139,59770,69,0,3:1:0:0:
0,32,59928,2,0,P|53:17|115:82,1,140.399995715332,8|0,0:0|0:0,0:0:0:0:
243,241,60401,2,0,P|251:157|213:115,1,140.399995715332,8|8,0:0|0:0,0:0:0:0:
218,118,60875,2,0,P|191:132|151:144,1,70.1999978576661,2|0,0:0|3:1,0:0:0:0:
0,324,61190,6,0,P|80:351|144:384,1,140.399995715332,10|2,0:0|0:0,0:0:0:0:
203,376,61664,1,2,3:2:0:0:
305,236,61821,70,0,B|240:269|240:269|227:314|265:329,1,140.399995715332,2|2,3:2|3:2,0:0:0:0:
163,309,62295,1,0,3:1:0:0:
315,151,62452,2,0,B|401:181|355:207|444:240,1,140.399995715332,8|0,0:0|0:0,0:0:0:0:
494,184,62926,2,0,P|500:152|518:104,1,70.1999978576661,8|0,0:0|3:1,0:0:0:0:
441,98,63241,1,8,0:0:0:0:
292,245,63399,1,0,0:0:0:0:
207,212,63557,5,0,3:1:0:0:
207,212,63636,1,0,3:1:0:0:
207,212,63715,1,8,0:0:0:0:
354,100,63872,1,0,3:1:0:0:
277,149,64030,69,8,0:0:0:0:
384,256,64187,1,8,0:0:0:0:
272,72,64346,6,0,B|197:45|197:45|210:70|205:110,1,140.399995715332,6|0,3:2|3:2,0:0:0:0:
387,191,64819,69,0,3:1:0:0:
387,191,64977,2,0,B|440:176|440:176|454:155|454:155|525:138,1,140.399995715332,8|2,0:0|0:0,0:0:0:0:
289,253,65450,2,0,B|150:227,2,140.399995715332,8|8|0,0:0|0:0|3:1,0:0:0:0:
74,376,66239,6,0,P|40:384|23:392,1,35.099998928833,10|0,0:0|0:0,0:0:0:0:
128,328,66397,2,0,B|266:353,1,140.399995715332,0|0,3:2|3:1,0:0:0:0:
461,259,66870,70,0,P|386:250|353:321,1,140.399995715332,2|0,3:2|3:1,0:0:0:0:
338,367,67343,1,0,3:1:0:0:
468,281,67501,2,0,P|487:213|512:148,1,140.399995715332,8|0,0:0|0:0,0:0:0:0:
290,46,67974,2,0,B|368:21|368:21|341:32|326:64,1,140.399995715332,8|8,0:0|0:0,0:0:0:0:
402,93,68447,1,2,0:0:0:0:
216,34,68605,1,0,3:1:0:0:
216,34,68684,1,0,3:1:0:0:
216,34,68763,1,10,0:0:0:0:
260,196,68921,5,0,3:1:0:0:
402,93,69079,2,0,P|369:106|339:123,1,70.1999978576661,2|0,0:0|3:1,0:0:0:0:
201,240,69394,70,0,P|153:233|127:142,1,140.399995715332,2|2,3:2|3:2,0:0:0:0:
161,97,69867,1,2,3:2:0:0:
276,40,70025,2,0,B|365:43|315:90|426:94,1,140.399995715332,12|2,0:0|0:0,0:0:0:0:
201,240,70498,6,0,P|219:231|251:223,1,35.099998928833,10|0,0:0|0:0,0:0:0:0:
282,163,70656,1,0,3:1:0:0:
102,86,70814,2,0,B|76:64|36:56|36:56|66:31|80:-11,1,140.399995715332,8|2,0:0|3:2,0:0:0:0:
282,163,71287,2,0,P|294:192|311:248,1,70.1999978576661,12|0,0:0|3:1,0:0:0:0:
381,296,71603,69,2,0:0:0:0:
267,364,71761,1,2,3:2:0:0:
395,310,71918,2,0,P|422:260|400:170,1,140.399995715332,14|2,0:0|3:2,0:0:0:0:
340,33,72392,1,2,3:2:0:0:
407,180,72549,2,0,P|429:199|474:215,1,70.1999978576661,12|2,0:2|3:2,0:0:0:0:
447,110,72865,5,2,0:0:0:0:
320,224,73023,2,0,P|298:243|253:259,1,70.1999978576661,8|0,3:2|3:2,0:0:0:0:
447,110,73338,2,0,P|456:66|469:18,1,70.1999978576661,12|0,0:0|3:1,0:0:0:0:
340,33,73654,69,0,3:2:0:0:
340,33,73733,1,0,3:1:0:0:
340,33,73811,1,8,0:0:0:0:
447,110,73969,5,8,0:0:0:0:
260,257,74127,1,8,0:0:0:0:
340,154,74285,1,8,0:0:0:0:
208,373,74443,70,0,P|135:352|62:343,1,140.399995715332,6|0,3:2|3:1,0:0:0:0:
0,384,74916,1,0,3:1:0:0:
0,159,75074,6,0,P|-1:234|8:307,1,140.399995715332,8|2,0:0|0:0,0:0:0:0:
146,315,75547,69,8,0:0:0:0:
37,228,75705,1,0,3:1:0:0:
155,328,75862,1,8,0:0:0:0:
131,231,76020,2,0,P|165:214|211:208,1,70.1999978576661,2|0,0:0|3:1,0:0:0:0:
285,13,76336,1,10,0:0:0:0:
233,72,76494,2,0,B|153:53|153:53|182:57|211:37,1,140.399995715332,0|0,3:1|3:1,0:0:0:0:
512,93,76967,6,0,B|428:101|467:156|382:160,1,140.399995715332,2|0,3:2|3:1,0:0:0:0:
317,119,77440,1,0,3:1:0:0:
512,172,77598,2,0,P|492:201|475:312,1,140.399995715332,8|0,0:0|0:0,0:0:0:0:
299,384,78071,69,8,0:0:0:0:
406,240,78229,1,0,3:1:0:0:
292,371,78387,2,0,P|277:339|255:308,1,70.1999978576661,8|2,0:0|0:0,0:0:0:0:
390,158,78702,1,0,3:1:0:0:
390,158,78781,1,0,3:1:0:0:
390,158,78860,1,10,0:0:0:0:
323,214,79018,2,0,P|291:200|245:192,1,70.1999978576661,0|2,3:1|0:0,0:0:0:0:
75,152,79333,1,2,3:2:0:0:
213,20,79491,6,0,B|209:92|149:61|146:137,1,140.399995715332,2|0,3:2|3:1,0:0:0:0:
312,250,79964,1,0,3:1:0:0:
246,198,80122,2,0,P|212:204|180:218,1,70.1999978576661,8|0,0:0|0:0,0:0:0:0:
68,384,80438,1,0,3:1:0:0:
177,304,80595,1,8,0:0:0:0:
0,191,80753,1,0,3:1:0:0:
37,297,80911,70,0,P|56:267|70:234,1,70.1999978576661,10|0,0:0|0:0,0:0:0:0:
79,20,81226,1,0,3:1:0:0:
4,53,81384,2,0,P|39:97|134:82,1,140.399995715332,10|2,0:0|3:2,0:0:0:0:
283,47,81858,1,2,3:2:0:0:
258,125,82015,6,0,B|226:115|194:133|194:133|210:101|202:61,1,140.399995715332,2|2,3:2|3:2,0:0:0:0:
356,0,82489,1,0,3:1:0:0:
468,228,82646,2,0,B|403:195|403:195|390:150|428:135,1,140.399995715332,8|0,0:0|0:0,0:0:0:0:
500,150,83120,1,8,0:0:0:0:
439,308,83277,1,0,3:1:0:0:
506,136,83435,69,8,0:0:0:0:
390,246,83593,2,0,P|355:253|323:267,1,70.1999978576661,0|0,0:0|3:1,0:0:0:0:
149,384,83908,5,8,0:0:0:0:
182,275,84066,1,0,0:0:0:0:
48,298,84224,69,8,0:0:0:0:
284,368,84382,1,8,0:0:0:0:
103,222,84540,6,0,P|86:147|49:74,1,140.399995715332,6|0,3:2|3:1,0:0:0:0:
0,29,85013,1,0,3:1:0:0:
257,0,85171,2,0,P|193:29|124:43,1,140.399995715332,8|2,0:0|0:0,0:0:0:0:
11,164,85644,69,8,0:0:0:0:
177,196,85802,1,0,3:1:0:0:
0,162,85959,1,8,0:0:0:0:
150,118,86117,2,0,P|186:120|228:132,1,70.1999978576661,2|0,0:0|3:1,0:0:0:0:
286,371,86433,1,10,0:0:0:0:
227,311,86590,2,0,B|254:286|259:249|259:249|274:279|312:292,1,140.399995715332,0|0,3:1|3:1,0:0:0:0:
512,384,87064,6,0,P|454:369|450:287,1,140.399995715332,2|0,3:2|3:1,0:0:0:0:
512,244,87537,1,0,3:1:0:0:
353,179,87695,2,0,P|366:209|377:250,1,70.1999978576661,8|0,0:0|0:0,0:0:0:0:
295,237,88010,1,0,0:0:0:0:
480,136,88168,2,0,P|462:107|429:108,1,70.1999978576661,8|0,0:0|0:0,0:0:0:0:
255,0,88484,2,0,P|222:58|150:57,1,140.399995715332,8|0,0:0|3:1,0:0:0:0:
88,40,88878,1,0,3:1:0:0:
78,44,88957,70,0,P|79:81|115:116,1,70.1999978576661,10|0,0:0|3:1,0:0:0:0:
262,191,89272,2,0,P|281:162|282:128,1,70.1999978576661,2|0,0:0|3:1,0:0:0:0:
0,260,89588,6,0,B|73:289|73:289|75:261|99:229,1,140.399995715332,2|2,3:2|3:2,0:0:0:0:
96,232,90061,1,0,3:2:0:0:
274,356,90219,2,0,B|202:352|233:292|158:289,1,140.399995715332,12|2,0:0|0:0,0:0:0:0:
0,360,90692,1,10,0:0:0:0:
158,289,90850,1,0,3:2:0:0:
0,124,91008,2,0,P|16:157|30:208,1,70.1999978576661,8|2,0:0|0:0,0:0:0:0:
201,183,91323,1,2,3:2:0:0:
72,270,91481,2,0,P|92:239|129:202,1,70.1999978576661,12|0,0:0|3:2,0:0:0:0:
76,45,91797,2,0,P|39:42|-11:28,1,70.1999978576661,2|2,0:0|0:0,0:0:0:0:
136,125,92112,69,6,3:2:0:0:
220,66,92270,1,8,0:0:0:0:
376,177,92428,1,2,3:2:0:0:
436,104,92586,1,2,3:2:0:0:
512,191,92743,2,0,B|437:193|468:253|396:257,1,140.399995715332,12|2,0:0|0:0,0:0:0:0:
492,340,93217,2,0,P|499:305|521:258,1,70.1999978576661,8|0,0:0|3:1,0:0:0:0:
328,67,93532,2,0,P|321:125|393:179,1,140.399995715332,8|0,0:0|3:1,0:0:0:0:
390,183,93927,1,0,3:1:0:0:
390,183,94005,5,8,0:0:0:0:
329,384,94163,1,8,0:0:0:0:
147,268,94321,69,8,0:0:0:0:
249,242,94479,1,8,0:0:0:0:
75,339,94637,6,0,P|50:270|16:205,1,140.399995715332,4|2,3:2|3:2,0:2:0:0:
19,210,95110,1,2,3:2:0:0:
187,85,95268,2,0,P|139:141|100:203,1,140.399995715332,8|2,0:0|3:2,0:0:0:0:
103,197,95741,1,2,3:2:0:0:
7,73,95899,69,8,0:0:0:0:
131,34,96056,1,2,3:2:0:0:
249,133,96214,1,2,0:0:0:0:
313,70,96372,1,0,3:1:0:0:
383,104,96530,1,8,0:0:0:0:
432,41,96687,1,0,0:0:0:0:
362,11,96845,1,0,3:1:0:0:
451,148,97003,2,0,L|484:102,1,35.099998928833,0|0,3:0|3:0,0:0:0:0:
497,82,97161,5,8,3:2:0:0:
325,163,97319,1,8,3:2:0:0:
512,384,97634,1,8,3:2:0:0:
247,129,97950,1,8,0:0:0:0:
18,232,99054,22,0,L|11:190,1,40.95,8|0,0:0|0:0,0:0:0:0:
11,245,99685,6,0,P|49:217|108:219,1,105.299996786499,4|0,3:2|0:0,0:0:0:0:
186,298,100316,2,0,P|229:316|243:339,1,70.1999978576661,0|0,3:0|0:0,0:0:0:0:
245,343,100789,1,0,0:0:0:0:
112,380,100947,2,0,P|166:368|186:366,1,70.1999978576661,0|0,3:0|0:0,0:0:0:0:
254,342,101420,1,0,0:0:0:0:
322,379,101578,5,0,3:0:0:0:
324,384,101736,1,0,0:0:0:0:
434,284,101894,1,0,0:0:0:0:
318,305,102051,1,0,0:0:0:0:
257,264,102209,70,0,P|262:235|273:179,1,70.1999978576661,0|0,3:0|0:0,0:0:0:0:
239,99,102683,1,0,0:0:0:0:
233,92,102840,2,0,P|229:72|226:57,1,35.099998928833,0|0,3:0|0:0,0:0:0:0:
328,127,103156,2,0,P|324:147|321:161,1,35.099998928833
396,109,103471,6,0,P|362:107|304:61,1,105.299996786499,0|0,3:0|0:0,0:0:0:0:
402,114,104102,6,0,B|316:123|353:159|260:166,1,152.099993037415,0|8,3:0|0:0,0:0:0:0:
1,92,104733,5,4,3:2:0:0:
162,16,104891,1,8,0:0:0:0:
162,16,104970,1,8,0:0:0:0:
162,16,105049,1,8,0:0:0:0:
182,99,105207,2,0,P|172:146|165:183,1,76.0499965187074,8|0,0:0|3:1,0:0:0:0:
253,162,105522,1,8,2:3:0:0:
71,222,105680,38,0,P|116:210|169:254,1,117,4|0,0:0|0:0,0:0:0:0:
206,316,106153,2,0,P|201:343|198:353,2,29.25,2|2|2,0:0|0:0|0:0,0:0:0:0:
488,300,106627,21,4,3:2:0:0:
293,359,106784,1,8,0:0:0:0:
293,359,106863,1,8,0:0:0:0:
293,359,106942,1,8,0:0:0:0:
373,384,107100,6,0,P|377:367|382:348,1,38.0249982593537,8|0,0:0|0:0,0:0:0:0:
346,258,107258,1,0,3:0:0:0:
342,246,107336,1,0,3:0:0:0:
338,235,107415,1,8,2:3:0:0:
475,370,107573,6,0,B|373:365|289:327|289:327|243:349|243:349|159:315|69:323,1,421.199987145996,4|0,3:2|0:0,0:0:0:0:
55,335,108941,2,0,P|43:355|44:372,2,35.099998928833,2|2|2,0:0|0:0|0:0,0:0:0:0:
21,224,109782,22,0,P|14:184|-3:95,1,117,4|0,3:2|0:0,0:0:0:0:
48,53,110255,1,0,3:0:0:0:
165,129,110413,2,0,P|162:161|141:185,1,58.5,8|0,0:0|0:0,0:0:0:0:
134,189,110729,2,0,B|197:200|172:218|241:232,1,117,0|0,3:2|0:0,0:0:0:0:
437,208,111360,6,0,P|404:207|366:235,1,58.5,2|0,3:2|0:0,0:0:0:0:
423,329,111675,2,0,P|436:261|449:201,1,117,10|2,0:0|3:2,0:0:0:0:
371,207,112148,1,0,0:0:0:0:
512,169,112306,2,0,P|494:141|409:129,1,117,2|0,3:2|0:0,0:0:0:0:
335,134,112779,1,2,3:2:0:0:
191,70,112937,70,0,P|155:65|127:61,1,58.5,8|0,0:0|0:0,0:0:0:0:
70,25,113253,2,0,P|34:21|11:37,1,58.5,0|0,3:2|0:0,0:0:0:0:
26,162,113568,5,0,0:0:0:0:
27,167,113646,1,0,0:0:0:0:
28,173,113725,1,0,0:0:0:0:
29,179,113804,1,0,0:0:0:0:
30,184,113883,1,0,3:2:0:0:
23,204,114199,2,0,P|61:191|132:239,1,117,8|2,0:0|3:2,0:0:0:0:
134,301,114673,1,2,0:0:0:0:
244,345,114830,70,0,P|298:337|361:331,1,117,0|2,3:2|0:0,0:0:0:0:
392,252,115304,1,2,3:2:0:0:
512,333,115462,2,0,P|510:355|489:383,1,58.5,8|0,0:0|0:0,0:0:0:0:
480,384,115777,5,0,3:2:0:0:
327,313,116093,2,0,P|320:282|312:253,1,58.5
262,205,116408,2,0,P|269:174|277:145,1,58.5,2|0,3:2|0:0,0:0:0:0:
174,285,116724,2,0,P|132:292|71:255,1,117,10|2,0:0|3:2,0:0:0:0:
54,114,117197,69,0,0:0:0:0:
0,172,117355,2,0,B|108:165|44:125|169:114,1,175.5,2|2,3:2|3:2,0:0:0:0:
254,12,117986,6,0,L|261:70,1,58.5,8|0,0:0|0:0,0:0:0:0:
307,137,118301,2,0,P|336:152|373:148,1,58.5,0|0,3:2|0:0,0:0:0:0:
474,110,118617,69,0,0:0:0:0:
474,104,118695,1,0,0:0:0:0:
475,98,118774,1,8,0:0:0:0:
476,92,118853,1,0,0:0:0:0:
477,86,118932,1,0,3:2:0:0:
488,73,119248,2,0,P|444:75|384:24,1,117,8|8,0:0|0:0,0:0:0:0:
301,141,119721,1,8,0:0:0:0:
406,257,119879,6,0,P|429:195|460:146,1,117,4|0,3:2|0:0,0:0:0:0:
455,151,120352,1,0,3:2:0:0:
285,221,120510,2,0,P|316:246|326:268,1,58.5,8|0,0:0|0:0,0:0:0:0:
439,335,120826,2,0,P|463:319|479:295,2,58.5,0|0|0,3:2|0:0|0:0,0:0:0:0:
359,332,121299,69,0,0:0:0:0:
359,332,121378,1,0,0:0:0:0:
359,332,121457,1,2,3:2:0:0:
299,384,121614,1,0,0:0:0:0:
220,283,121772,2,0,P|212:247|199:213,1,58.5,10|0,0:0|0:0,0:0:0:0:
369,86,122088,2,0,P|359:113|348:188,1,87.75,2|0,3:2|0:0,0:0:0:0:
347,184,122403,6,0,P|311:167|277:159,1,58.5,2|0,3:2|0:0,0:0:0:0:
143,183,122719,2,0,P|115:191|89:205,1,58.5,0|2,0:0|3:2,0:0:0:0:
208,111,123034,2,0,L|196:43,1,58.5,8|0,0:0|0:0,0:0:0:0:
129,0,123350,1,0,3:2:0:0:
129,0,123508,1,0,0:0:0:0:
120,97,123665,69,0,0:0:0:0:
120,91,123743,1,0,0:0:0:0:
119,85,123822,1,8,0:0:0:0:
118,79,123901,1,0,0:0:0:0:
118,79,123981,2,0,L|113:120,1,35.1,0|0,3:2|0:0,0:0:0:0:
140,190,124296,6,0,P|183:196|262:218,1,117,8|2,0:0|0:0,3:0:0:0:
253,215,124770,1,2,3:2:0:0:
440,193,124927,1,2,3:2:0:0:
447,177,125085,1,0,0:0:0:0:
336,154,125243,2,0,P|351:196|360:231,1,58.5,2|2,0:0|3:2,0:0:0:0:
477,256,125558,2,0,P|491:199|512:144,1,117,8|2,0:0|3:2,0:0:0:0:
512,56,126032,1,2,0:0:0:0:
433,0,126190,1,0,0:0:0:0:
348,28,126347,69,0,0:0:0:0:
348,28,126426,1,0,0:0:0:0:
348,28,126505,2,0,P|330:72|323:102,1,58.5,0|0,3:2|0:0,0:0:0:0:
253,215,126821,2,0,B|183:218|217:255|147:256,1,117,8|2,0:0|3:2,0:0:0:0:
0,331,127294,5,0,0:0:0:0:
0,331,127373,1,0,0:0:0:0:
0,331,127452,2,0,P|61:326|86:382,1,117,2|2,3:2|0:0,0:0:0:0:
86,368,127925,1,2,3:2:0:0:
149,257,128083,2,0,P|131:219|127:186,1,58.5,8|0,0:0|0:0,0:0:0:0:
70,53,128398,2,0,P|12:69|5:134,1,117,0|0,3:2|0:0,0:0:0:0:
127,203,128872,69,8,0:0:0:0:
149,120,129029,1,0,3:2:0:0:
40,195,129187,21,0,0:0:0:0:
40,195,129266,1,0,0:0:0:0:
40,195,129345,1,0,0:0:0:0:
207,178,129503,1,0,3:0:0:0:
306,241,129660,1,8,3:0:0:0:
386,215,129818,1,0,3:0:0:0:
457,258,129976,54,0,B|463:247|461:229|461:229|495:281|433:329|379:332|361:271,1,193.050005891419,6|2,3:2|3:2,0:0:0:0:
286,158,130607,2,0,P|301:123|303:91,1,64.3500019638062,8|0,0:0|0:0,0:0:0:0:
422,4,130922,1,2,3:2:0:0:
512,70,131080,1,2,0:0:0:0:
512,69,131238,2,0,P|474:73|445:86,1,64.3500019638062
295,15,131554,6,0,P|243:3|147:12,2,128.700003927612,2|10|2,3:2|0:0|3:2,0:0:0:0:
379,89,132342,2,0,L|383:123,1,32.1750009819031
499,146,132500,2,0,P|443:164|417:230,1,128.700003927612,2|0,3:2|0:0,0:0:0:0:
337,272,132973,2,0,L|341:241,1,32.1750009819031,2|0,3:2|0:0,0:0:0:0:
221,298,133131,2,0,P|277:316|303:382,1,128.700003927612,8|2,0:0|3:2,0:0:0:0:
512,260,133605,2,0,P|481:298|405:296,1,128.700003927612,2|0,0:0|0:0,0:0:0:0:
342,242,134078,69,0,3:2:0:0:
261,224,134236,1,0,0:0:0:0:
225,378,134393,1,8,0:0:0:0:
144,360,134551,1,0,0:0:0:0:
65,384,134709,2,0,B|43:353|67:345|40:314,1,61.4249981254578,2|0,3:2|0:0,0:0:0:0:
0,186,135024,6,0,P|60:178|111:283,1,193.050005891419,6|2,3:2|3:2,0:0:0:0:
66,145,135655,2,0,P|62:108|56:75,1,64.3500019638062,8|0,0:0|0:0,0:0:0:0:
94,0,135971,1,2,3:2:0:0:
140,74,136129,2,0,P|182:63|222:61,1,64.3500019638062,2|0,0:0|0:0,0:0:0:0:
393,0,136444,1,0,0:0:0:0:
305,2,136602,2,0,P|293:43|275:79,1,64.3500019638062,0|0,3:2|0:0,3:0:0:0:
186,148,136918,1,8,0:0:0:0:
266,137,137075,1,0,0:0:0:0:
341,168,137233,2,0,P|352:209|370:245,1,64.3500019638062,2|0,3:2|0:0,3:0:0:0:
512,384,137549,69,2,3:2:0:0:
486,279,137706,1,0,0:0:0:0:
360,228,137864,1,2,0:0:0:0:
339,312,138021,1,2,3:2:0:0:
209,382,138180,2,0,P|246:363|283:358,1,64.3500019638062,10|0,0:0|0:0,0:0:0:0:
148,239,138495,2,0,P|115:275|138:322,1,96.5250029457093,2|0,3:2|0:0,0:0:0:0:
139,322,138811,1,2,0:0:0:0:
217,291,138969,2,0,P|225:246|235:216,1,64.3500019638062,8|0,0:0|3:2,0:0:0:0:
180,154,139284,5,0,0:0:0:0:
81,182,139442,1,8,0:0:0:0:
11,78,139600,1,0,3:2:0:0:
171,0,139757,1,0,0:0:0:0:
279,126,139915,2,0,L|269:162,1,32.1750009819031,8|0,0:0|3:0,0:0:0:0:
124,83,140073,5,4,0:2:0:0:
272,27,140231,1,0,3:0:0:0:
260,31,140388,1,0,3:0:0:0:
415,178,140546,5,0,0:0:0:0:
267,122,140704,1,0,3:0:0:0:
279,126,140861,1,0,3:0:0:0:
163,259,141019,37,8,3:0:0:0:
281,214,141177,1,0,3:0:0:0:
271,217,141334,1,0,3:0:0:0:
377,343,141493,5,8,3:0:0:0:
282,307,141651,1,0,3:0:0:0:
290,309,141808,1,0,3:0:0:0:
224,376,141966,37,0,0:0:0:0:
365,251,142124,1,0,0:0:0:0:
240,110,142282,1,0,0:0:0:0:
99,235,142439,1,0,0:0:0:0:
170,330,142597,54,0,P|157:256|142:181,1,140.399995715332,6|0,3:2|3:2,0:0:0:0:
92,113,143070,1,0,3:2:0:0:
267,221,143228,2,0,P|211:181|144:192,1,140.399995715332,8|2,0:0|0:0,0:0:0:0:
66,250,143701,1,8,0:0:0:0:
26,71,143859,5,0,3:2:0:0:
92,113,144017,2,0,P|78:181|66:251,1,140.399995715332,8|0,0:0|3:2,0:0:0:0:
101,373,144490,69,10,0:0:0:0:
19,331,144648,1,0,3:2:0:0:
391,310,144964,5,0,3:2:0:0:
480,263,145121,2,0,P|516:205|501:139,1,140.399995715332,2|0,3:2|3:2,0:0:0:0:
416,157,145595,1,0,3:2:0:0:
324,38,145752,2,0,B|243:17|273:75|186:52,1,140.399995715332,8|0,0:0|0:0,0:0:0:0:
115,14,146226,1,8,0:0:0:0:
278,153,146383,69,0,3:2:0:0:
335,107,146541,2,0,P|330:72|323:37,1,70.1999978576661,8|2,0:0|0:0,0:0:0:0:
115,14,146857,5,0,3:2:0:0:
115,14,146936,1,0,3:2:0:0:
115,14,147015,1,10,0:0:0:0:
80,89,147172,1,0,3:2:0:0:
325,265,147488,69,2,3:2:0:0:
395,210,147646,2,0,P|449:205|514:271,1,140.399995715332,2|0,3:2|3:2,0:0:0:0:
317,273,148119,1,0,3:2:0:0:
427,346,148277,2,0,P|416:292|394:206,1,140.399995715332,8|0,0:0|0:0,0:0:0:0:
329,143,148750,1,8,0:0:0:0:
256,202,148908,1,0,3:2:0:0:
409,130,149065,1,8,0:0:0:0:
225,35,149223,1,2,0:0:0:0:
43,248,149539,6,0,P|24:314|9:384,1,140.399995715332,10|2,0:0|0:0,0:0:0:0:
170,280,150012,1,2,3:2:0:0:
101,188,150170,2,0,P|64:183|31:177,1,70.1999978576661,0|2,3:2|0:0,0:0:0:0:
98,302,150485,1,2,3:2:0:0:
231,233,150643,1,0,3:2:0:0:
317,306,150801,70,0,P|335:252|288:186,1,140.399995715332,8|0,0:0|0:0,0:0:0:0:
231,131,151274,1,8,0:0:0:0:
101,188,151432,5,0,3:2:0:0:
0,105,151590,1,8,0:0:0:0:
204,37,151748,1,2,0:0:0:0:
137,5,151905,1,0,3:2:0:0:
184,196,152063,69,8,0:0:0:0:
371,90,152221,1,0,3:2:0:0:
428,215,152379,5,8,0:0:0:0:
258,165,152536,1,8,0:0:0:0:
454,108,152694,70,0,P|459:42|400:14,1,140.399995715332,6|0,3:2|3:2,0:0:0:0:
303,37,153167,1,0,3:2:0:0:
442,122,153325,2,0,P|456:197|470:265,1,140.399995715332,8|2,0:0|0:0,0:0:0:0:
400,287,153798,1,8,0:0:0:0:
512,198,153956,5,0,3:2:0:0:
425,361,154114,2,0,B|341:347|367:386|280:373,1,140.399995715332,8|0,0:0|3:2,0:0:0:0:
220,350,154508,1,0,3:2:0:0:
220,350,154587,2,0,P|212:308|202:274,1,70.1999978576661,10|0,0:0|3:2,0:0:0:0:
299,207,154903,2,0,P|307:165|317:131,1,70.1999978576661,0|0,0:0|3:2,0:0:0:0:
166,71,155218,70,0,B|85:60|121:104|20:90,1,140.399995715332,2|0,3:2|3:2,0:0:0:0:
0,12,155692,1,0,3:2:0:0:
137,144,155849,2,0,P|175:151|244:88,1,140.399995715332,8|0,0:0|0:0,0:0:0:0:
406,12,156323,1,8,0:0:0:0:
375,91,156480,2,0,P|367:125|362:160,1,70.1999978576661,0|8,3:2|0:0,0:0:0:0:
455,76,156796,1,2,0:0:0:0:
282,157,156954,5,0,3:2:0:0:
282,157,157033,1,0,3:2:0:0:
282,157,157112,1,10,0:0:0:0:
375,91,157269,2,0,P|389:159|401:229,1,140.399995715332,0|0,3:2|3:2,0:0:0:0:
512,378,157743,70,0,P|456:340|390:355,1,140.399995715332,2|2,3:2|0:0,0:0:0:0:
512,277,158216,1,2,3:2:0:0:
382,363,158374,2,0,B|305:348|327:398|245:382,1,140.399995715332,12|2,0:0|0:0,0:0:0:0:
112,297,158847,2,0,P|136:263|162:236,1,70.1999978576661,10|0,0:0|3:2,0:0:0:0:
175,380,159162,2,0,P|134:375|97:366,1,70.1999978576661,8|2,0:0|0:0,0:0:0:0:
225,291,159478,1,2,3:2:0:0:
74,154,159636,6,0,P|90:222|105:290,1,140.399995715332,12|2,0:0|0:0,0:0:0:0:
31,277,160109,1,2,3:2:0:0:
178,145,160267,1,6,3:2:0:0:
129,76,160425,69,8,0:0:0:0:
307,146,160582,2,0,P|315:112|327:78,1,70.1999978576661,2|2,3:2|3:2,0:0:0:0:
374,188,160898,6,0,P|306:172|248:209,1,140.399995715332,12|2,0:0|0:0,0:0:0:0:
200,321,161371,1,8,0:0:0:0:
344,376,161529,1,0,3:2:0:0:
382,309,161687,1,8,0:0:0:0:
183,146,162002,69,0,3:2:0:0:
183,146,162081,1,0,3:2:0:0:
183,146,162159,1,8,0:0:0:0:
186,58,162317,1,8,0:0:0:0:
44,7,162475,1,8,0:0:0:0:
1,167,162633,1,8,0:0:0:0:
211,68,162791,6,0,B|283:86|240:121|321:147,1,140.399995715332,6|0,3:2|3:2,0:0:0:0:
373,203,163264,1,0,3:2:0:0:
211,68,163422,2,0,P|259:20|327:34,1,140.399995715332,8|2,0:0|0:0,0:0:0:0:
374,94,163895,69,8,0:0:0:0:
261,219,164053,1,0,3:2:0:0:
381,340,164211,2,0,P|316:312|248:293,1,140.399995715332,8|0,0:0|3:2,0:0:0:0:
175,315,164684,1,10,0:0:0:0:
379,232,164842,2,0,P|389:198|407:168,1,70.1999978576661,0|0,3:2|0:0,0:0:0:0:
407,168,165158,1,0,3:2:0:0:
186,28,165315,6,0,P|170:94|221:136,1,140.399995715332,2|0,3:2|3:2,0:0:0:0:
288,101,165789,1,0,3:2:0:0:
164,230,165946,2,0,P|132:214|97:210,1,70.1999978576661,8|0,0:0|0:0,0:0:0:0:
36,254,166262,1,0,0:0:0:0:
165,371,166420,69,8,0:0:0:0:
316,281,166577,1,0,3:2:0:0:
153,368,166735,2,0,P|163:316|190:294,1,70.1999978576661,8|2,0:0|0:0,0:0:0:0:
342,357,167052,1,0,3:2:0:0:
342,357,167130,1,0,3:2:0:0:
342,357,167208,5,10,0:0:0:0:
262,376,167366,1,0,3:2:0:0:
376,236,167524,1,2,0:0:0:0:
455,321,167682,1,2,3:2:0:0:
258,241,167840,70,0,P|240:123|231:84,1,140.399995715332,2|0,3:2|3:2,0:0:0:0:
179,50,168313,1,0,3:2:0:0:
363,124,168471,2,0,P|370:206|316:248,1,140.399995715332,8|0,0:0|0:0,0:0:0:0:
194,200,168944,5,8,0:0:0:0:
361,311,169102,1,0,3:2:0:0:
363,124,169259,1,8,0:0:0:0:
258,241,169417,2,0,P|273:297|277:339,1,70.1999978576661,2|0,0:0|3:2,0:0:0:0:
428,164,169733,2,0,P|434:129|444:95,1,70.1999978576661,10|0,0:0|3:2,0:0:0:0:
305,68,170048,1,2,0:0:0:0:
427,178,170206,1,2,3:2:0:0:
512,0,170364,70,0,B|426:3|460:36|372:41,1,140.399995715332,2|2,3:2|3:2,0:0:0:0:
305,68,170837,1,0,3:2:0:0:
398,246,170995,2,0,P|408:178|361:129,1,140.399995715332,8|0,0:0|0:0,0:0:0:0:
292,165,171468,5,8,0:0:0:0:
363,310,171626,1,0,3:2:0:0:
210,194,171784,1,8,0:0:0:0:
305,68,171941,1,2,0:0:0:0:
217,201,172099,69,0,3:2:0:0:
217,201,172178,1,0,3:2:0:0:
217,201,172257,1,8,0:0:0:0:
37,144,172415,1,8,0:0:0:0:
172,24,172573,1,8,0:0:0:0:
42,121,172730,1,8,0:0:0:0:
262,267,172888,6,0,B|343:246|343:246|304:247|271:220,1,140.399995715332,6|0,3:2|3:2,0:0:0:0:
277,160,173361,1,0,3:2:0:0:
116,361,173519,2,0,P|168:315|235:337,1,140.399995715332,8|2,0:0|0:0,0:0:0:0:
286,384,173992,69,8,0:0:0:0:
44,338,174150,1,0,3:2:0:0:
199,225,174308,2,0,P|214:159|225:133,1,70.1999978576661,8|2,0:0|0:0,0:0:0:0:
246,87,174623,1,0,3:2:0:0:
74,189,174781,1,10,0:0:0:0:
246,87,174939,2,0,B|220:56|208:27|208:27|187:46|149:63,1,140.399995715332,0|0,3:2|3:2,0:0:0:0:
16,238,175412,6,0,L|170:209,1,140.399995715332,2|0,3:2|3:2,0:0:0:0:
351,65,175886,1,0,3:2:0:0:
471,135,176043,2,0,P|437:134|406:119,1,70.1999978576661,8|0,0:0|0:0,0:0:0:0:
243,304,176359,69,0,0:0:0:0:
363,233,176516,2,0,P|328:234|297:249,1,70.1999978576661,8|0,0:0|3:2,0:0:0:0:
433,357,176832,2,0,P|425:299|412:267,1,70.1999978576661,8|2,0:0|0:0,0:0:0:0:
308,163,177148,1,0,3:2:0:0:
308,163,177227,1,0,3:2:0:0:
308,163,177305,5,10,0:0:0:0:
154,267,177463,1,0,3:2:0:0:
231,299,177621,1,2,0:0:0:0:
47,198,177779,1,0,3:2:0:0:
162,46,177937,70,0,P|197:105|187:184,1,140.399995715332,2|2,3:2|3:2,0:0:0:0:
116,164,178410,1,2,3:2:0:0:
309,79,178568,2,0,B|375:61|375:61|417:86|441:130,1,140.399995715332,12|2,0:0|0:0,0:0:0:0:
495,217,179041,5,10,0:0:0:0:
346,289,179199,1,0,3:2:0:0:
465,366,179356,2,0,P|432:352|399:344,1,70.1999978576661,8|2,0:0|0:0,0:0:0:0:
508,239,179672,1,2,3:2:0:0:
293,384,179830,2,0,P|226:335|254:263,1,140.399995715332,12|2,0:0|0:0,0:0:0:0:
298,237,180303,1,2,3:2:0:0:
137,355,180461,69,2,3:2:0:0:
111,237,180619,1,12,0:0:0:0:
24,160,180776,1,2,3:2:0:0:
136,15,180934,1,2,3:2:0:0:
0,89,181092,1,12,0:0:0:0:
184,179,181250,1,2,3:2:0:0:
115,122,181407,5,2,0:0:0:0:
26,261,181565,1,8,0:0:0:0:
125,118,181723,1,0,3:2:0:0:
18,274,181881,2,0,P|77:287|144:240,1,140.399995715332,12|0,0:0|3:2,0:0:0:0:
140,245,182275,1,0,3:2:0:0:
140,245,182354,69,8,0:0:0:0:
346,315,182512,1,0,3:2:0:0:
293,194,182669,1,8,0:0:0:0:
193,335,182827,1,8,0:0:0:0:
453,384,182985,6,0,P|469:313|391:259,1,175.499994644165,4|0,3:2|0:0,0:0:0:0:
378,252,183458,2,0,B|344:258|345:272|313:281,1,70.1999978576661,2|10,3:2|0:0,0:0:0:0:
159,120,183774,69,2,0:0:0:0:
274,186,183932,1,0,0:0:0:0:
154,83,184089,1,10,0:0:0:0:
49,212,184247,2,0,P|83:209|111:188,1,70.1999978576661,2|10,3:2|0:0,0:0:0:0:
285,51,184563,2,0,B|339:59|310:88|372:102,1,105.299996786499,2|0,0:0|0:0,0:0:0:0:
373,102,184878,6,0,B|375:81|354:66|354:66|361:88|355:110,1,70.1999978576661,10|0,0:0|3:2,0:0:0:0:
301,163,185115,2,0,B|291:163|275:177|275:177|280:152|299:147,1,70.1999978576661,2|0,0:0|0:0,0:0:0:0:
447,123,185351,2,0,P|461:142|459:166,1,35.099998928833,2|0,3:2|0:0,0:0:0:0:
323,251,185509,70,0,B|230:264|279:314|174:337,1,175.499994644165,2|0,3:2|0:0,0:0:0:0:
176,336,185983,2,0,L|186:302,1,35.099998928833,2|2,3:2|0:0,0:0:0:0:
96,118,186140,2,0,B|0:101|-55:201|2:299|71:304|132:271|138:233|138:233|123:187|73:202,1,421.199987145996,10|0,0:0|0:0,0:0:0:0:
5,334,187245,5,2,3:2:0:0:
5,334,187324,1,2,3:2:0:0:
5,334,187402,1,10,0:0:0:0:
162,234,187560,2,0,P|246:250|311:269,1,140.399995715332,0|0,3:2|3:2,0:0:0:0:
447,188,188034,70,0,B|490:154|471:110|471:110|470:136|444:163,1,140.399995715332,2|0,3:2|3:3,3:3:0:0:
240,220,188507,1,0,3:2:0:0:
344,133,188665,2,0,P|365:198|383:267,1,140.399995715332,8|2,0:0|0:0,0:0:0:0:
189,324,189138,5,10,0:0:0:0:
365,374,189296,1,0,3:2:0:0:
298,264,189453,2,0,P|229:270|187:344,1,140.399995715332,8|0,0:0|3:2,0:0:0:0:
42,384,189927,2,0,P|62:315|67:291,1,93.5999971435548,8|0,0:0|0:0,0:0:0:0:
142,242,190242,69,2,0:0:0:0:
171,270,190347,1,2,0:0:0:0:
165,311,190453,1,2,0:0:0:0:
79,289,190558,2,0,B|66:204|21:249|0:153,1,140.399995715332,2|0,3:2|3:2,0:0:0:0:
64,120,190978,5,2,0:0:0:0:
72,82,191084,1,2,0:0:0:0:
0,161,191189,2,0,L|157:132,1,140.399995715332,10|0,0:0|0:0,0:0:0:0:
201,93,191610,69,2,0:0:0:0:
239,105,191715,1,2,0:0:0:0:
210,19,191820,2,0,P|164:26|145:41,1,70.1999978576661,2|8,3:2|0:0,0:0:0:0:
73,227,192135,1,2,0:0:0:0:
115,302,192293,1,0,3:2:0:0:
115,302,192372,1,0,3:2:0:0:
115,302,192451,5,8,0:0:0:0:
280,258,192609,1,0,3:2:0:0:
430,152,192766,69,8,0:0:0:0:
239,105,192924,1,8,0:0:0:0:
436,28,193082,6,0,B|454:35|463:64|463:64|427:162,1,140.399995715332,6|0,3:2|3:2,0:3:0:0:
280,258,193555,1,0,3:2:0:0:
431,152,193713,2,0,P|385:107|311:128,1,140.399995715332,10|2,0:0|0:0,0:0:0:0:
205,241,194186,70,0,P|184:213|177:179,1,70.1999978576661,10|0,0:0|3:2,0:0:0:0:
205,104,194502,1,10,0:0:0:0:
16,88,194660,2,0,P|36:59|66:42,1,70.1999978576661,2|0,0:0|3:2,0:0:0:0:
205,241,194975,2,0,P|171:231|114:221,1,70.1999978576661,8|0,0:0|3:2,0:0:0:0:
265,187,195291,1,2,0:0:0:0:
81,283,195448,1,2,3:2:0:0:
335,141,195606,6,0,P|374:184|342:283,1,140.399995715332,2|0,3:2|3:2,0:0:0:0:
492,185,196080,1,0,3:2:0:0:
354,259,196237,2,0,P|356:203|375:177,1,70.1999978576661,10|0,0:0|0:0,0:0:0:0:
434,134,196553,1,2,0:0:0:0:
260,21,196711,70,0,P|327:39|384:64,1,105.299996786499,10|0,0:0|0:0,0:0:0:0:
368,61,197026,1,10,0:0:0:0:
512,0,197184,2,0,P|473:18|464:50,1,70.1999978576661,2|0,0:0|3:2,0:0:0:0:
248,127,197499,2,0,P|253:169|280:188,1,70.1999978576661,8|0,0:0|3:2,0:0:0:0:
348,219,197815,1,2,0:0:0:0:
434,134,197973,1,2,3:2:0:0:
241,270,198130,6,0,B|186:278|215:307|153:320,1,105.299996786499,2|0,3:2|0:0,0:0:0:0:
152,321,198446,2,0,P|206:343|230:362,1,70.1999978576661,0|0,3:2|3:2,0:0:0:0:
424,239,198762,2,0,P|445:167|480:83,1,140.399995715332,12|2,0:0|0:0,0:0:0:0:
415,47,199235,69,10,0:0:0:0:
271,159,199393,1,0,3:2:0:0:
415,47,199550,2,0,P|380:14|353:16,1,70.1999978576661,8|0,0:0|0:0,0:0:0:0:
287,26,199866,1,0,3:2:0:0:
336,266,200024,2,0,P|386:273|423:238,1,105.299996786499,12|0,0:0|0:0,0:0:0:0:
423,237,200339,2,0,P|394:254|386:294,1,70.1999978576661,2|0,0:0|3:2,0:0:0:0:
141,365,200655,5,6,3:2:0:0:
216,384,200812,2,0,P|221:318|155:250,1,140.399995715332,8|2,0:0|0:0,0:0:0:0:
14,223,201286,69,8,0:0:0:0:
205,187,201444,1,0,3:2:0:0:
126,156,201601,1,0,0:0:0:0:
82,79,201759,5,8,0:0:0:0:
275,0,201917,1,0,3:2:0:0:
76,87,202075,1,8,0:0:0:0:
295,158,202232,2,0,P|308:102|317:73,1,70.1999978576661,0|0,0:0|3:2,0:0:0:0:
315,83,202469,1,0,3:2:0:0:
318,76,202548,69,8,0:0:0:0:
512,183,202706,1,0,0:0:0:0:
347,284,202863,5,8,0:0:0:0:
317,348,202969,69,8,0:0:0:0:
382,376,203074,5,8,0:0:0:0:
413,314,203179,6,0,P|335:244|206:283,1,245.699992501831,4|2,3:2|0:0,0:0:0:0:
84,312,204283,1,2,0:0:0:0:
76,304,204441,2,0,B|47:266|91:229|91:229|140:244|135:289,1,163.799995001221,2|0,0:0|0:0,0:0:0:0:
133,291,205388,1,2,0:0:0:0:
191,373,205545,1,2,0:0:0:0:
261,348,205703,6,0,P|302:343|346:339,1,81.8999975006104,2|2,0:0|0:0,0:0:0:0:
312,242,206176,69,2,0:0:0:0:
188,159,206492,1,2,0:0:0:0:
266,69,206807,1,2,0:0:0:0:
229,8,206965,6,0,P|182:3|137:-1,1,81.8999975006104,0|2,0:0|0:0,0:0:0:0:
312,125,207596,2,0,P|362:129|416:76,1,122.849996250916,2|0,0:0|0:0,0:0:0:0:
305,132,208227,70,0,P|341:103|483:196,1,245.699992501831,2|2,0:0|0:0,0:0:0:0:
512,285,209332,1,2,0:0:0:0:
501,291,209490,2,0,B|456:302|436:340|436:340|440:296|412:263,1,163.799995001221,2|0,0:0|0:0,0:0:0:0:
179,171,210594,1,2,0:0:0:0:
136,236,210752,6,0,P|142:280|150:320,1,81.8999975006104,2|2,0:0|0:0,0:0:0:0:
31,363,211225,69,2,0:0:0:0:
0,223,211541,1,2,0:0:0:0:
58,140,211856,1,2,0:0:0:0:
130,114,212014,6,0,P|175:119|216:125,1,81.8999975006104,0|2,0:0|0:0,0:0:0:0:
126,41,212487,1,2,0:0:0:0:
176,188,212645,2,0,P|219:202|277:157,1,122.849996250916,2|0,0:0|0:0,0:0:0:0:
211,124,213276,70,0,B|260:133|285:107|285:107|311:77|363:89|363:89|418:108|482:80|459:8|459:8|385:0|349:59|384:114,1,491.399985003663,0|0,1:0|0:0,0:0:0:0:
456,211,215485,1,0,0:0:0:0:
466,221,215642,1,0,0:0:0:0:
472,235,215800,2,0,B|485:288|440:312|396:297|374:259|374:259|346:211|284:204|284:204|314:223|318:253,1,327.599990002442,2|2,0:0|0:0,0:0:0:0:
238,276,217378,1,0,0:0:0:0:
238,276,217693,2,0,P|201:279|142:289,1,81.8999975006104,2|0,0:0|0:0,0:0:0:0:
86,340,218167,1,0,0:0:0:0:
79,351,218324,6,0,B|-26:308|-8:194|48:173|48:173|91:171|111:210|99:239,1,327.599990002442,0|2,1:0|0:0,0:0:0:0:
182,202,219902,1,0,0:0:0:0:
233,263,220218,1,2,0:0:0:0:
391,117,220849,70,0,B|419:102|412:70|412:70|372:23|315:53|323:62|260:92|260:92|285:65|282:32,1,286.649991252136,2|0,0:0|0:0,0:0:0:0:
204,37,222111,2,0,B|132:52|144:1|67:19,1,140.399995715332,2|2,0:0|0:0,0:0:0:0:
256,192,223057,12,2,224635,0:0:0:0:
0,0,225897,54,0,P|37:58|67:137,1,140.399995715332,6|0,3:2|3:2,0:0:0:0:
146,146,226370,1,0,3:2:0:0:
0,286,226528,2,0,P|58:249|137:219,1,140.399995715332,8|2,0:0|0:0,0:0:0:0:
124,222,227002,1,8,0:0:0:0:
169,66,227159,1,0,3:2:0:0:
123,241,227317,2,0,P|160:261|201:267,1,70.1999978576661,8|2,0:0|0:0,0:0:0:0:
372,147,227633,5,0,3:2:0:0:
352,76,227790,2,0,B|274:52|274:52|301:63|316:94,1,140.399995715332,10|0,0:0|0:0,0:0:0:0:
493,204,228264,1,0,3:2:0:0:
306,263,228421,2,0,B|309:190|364:229|372:145,1,140.399995715332,2|0,3:2|3:2,0:0:0:0:
189,78,228895,70,0,L|145:91,1,35.099998928833,0|0,3:2|0:0,0:0:0:0:
240,19,229052,2,0,P|282:73|292:142,1,140.399995715332,8|0,0:0|0:0,0:0:0:0:
458,300,229526,1,8,0:0:0:0:
498,183,229684,1,0,3:2:0:0:
506,365,229841,2,0,P|440:331|365:326,1,140.399995715332,8|0,0:0|3:2,0:0:0:0:
254,372,230236,1,0,3:2:0:0:
244,380,230315,1,10,0:0:0:0:
241,197,230472,6,0,P|301:233|291:303,1,140.399995715332,0|2,3:2|3:2,0:0:0:0:
122,384,230946,2,0,P|101:329|43:252,1,140.399995715332,2|0,3:2|3:2,0:0:0:0:
54,262,231419,1,0,3:2:0:0:
278,142,231577,2,0,P|261:183|227:200,1,70.1999978576661,8|0,0:0|0:0,0:0:0:0:
59,176,231892,69,0,0:0:0:0:
154,228,232050,1,8,0:0:0:0:
138,23,232208,1,0,3:2:0:0:
45,79,232366,2,0,P|72:99|107:101,1,70.1999978576661,8|2,0:0|0:0,0:0:0:0:
317,14,232681,1,0,3:2:0:0:
213,82,232839,1,10,0:0:0:0:
278,142,232997,2,0,B|357:123|357:123|328:127|299:107,1,140.399995715332,0|2,3:2|3:2,0:0:0:0:
154,228,233470,6,0,P|173:262|186:304,1,70.1999978576661,0|2,3:2|0:0,0:0:0:0:
314,384,233785,1,2,3:2:0:0:
276,296,233943,2,0,L|249:331,1,35.099998928833,0|0,3:2|0:0,0:0:0:0:
84,384,234101,2,0,P|70:330|108:298,1,105.299996786499,8|0,0:0|0:0,0:0:0:0:
183,291,234416,1,0,0:0:0:0:
367,306,234574,1,8,0:0:0:0:
174,292,234732,1,0,3:2:0:0:
332,220,234890,69,8,0:0:0:0:
457,320,235048,1,2,0:0:0:0:
482,162,235205,2,0,L|452:202,1,35.099998928833,0|0,3:2|3:2,0:0:0:0:
376,293,235363,5,10,0:0:0:0:
285,146,235521,1,0,3:2:0:0:
478,0,235679,1,10,0:0:0:0:
392,155,235836,1,8,0:0:0:0:
222,223,235994,70,0,B|214:140|159:179|156:106,1,140.399995715332,6|0,3:2|3:2,0:0:0:0:
333,0,236467,1,0,3:2:0:0:
267,61,236625,2,0,P|223:42|114:21,1,140.399995715332,8|2,0:0|0:0,0:0:0:0:
0,147,237098,1,8,0:0:0:0:
132,22,237256,1,0,3:2:0:0:
14,139,237414,2,0,P|34:180|46:214,1,70.1999978576661,8|2,0:0|0:0,0:0:0:0:
222,328,237730,5,0,3:2:0:0:
331,284,237887,2,0,B|253:260|253:260|280:271|295:303,1,140.399995715332,10|0,0:0|0:0,0:0:0:0:
350,357,238361,1,0,3:2:0:0:
99,379,238518,2,0,B|101:306|156:345|164:261,1,140.399995715332,2|0,3:2|3:2,0:0:0:0:
272,166,238992,70,0,L|285:122,1,35.099998928833,0|0,3:2|0:0,0:0:0:0:
328,224,239149,2,0,P|277:207|186:186,1,140.399995715332,8|0,0:0|0:0,0:0:0:0:
137,47,239623,2,0,P|155:81|167:111,1,70.1999978576661,8|0,0:0|3:2,0:0:0:0:
384,168,239938,2,0,P|429:138|512:110,1,140.399995715332,8|0,0:0|3:2,0:0:0:0:
512,184,240333,1,0,3:2:0:0:
507,190,240412,2,0,P|467:171|456:139,1,70.1999978576661,10|0,0:0|3:2,0:0:0:0:
276,3,240727,2,0,P|243:14|225:43,1,70.1999978576661,2|0,0:0|3:2,0:0:0:0:
384,336,241043,6,0,B|355:315|362:272|362:272|333:306|303:308,1,140.399995715332,2|2,3:2|3:2,3:0:0:0:
322,383,241516,1,2,3:2:0:0:
503,269,241674,2,0,P|455:266|435:281,1,70.1999978576661,12|0,0:0|0:0,0:0:0:0:
243,355,241989,1,2,0:0:0:0:
243,355,242147,2,0,P|209:361|178:345,1,70.1999978576661,10|0,0:0|3:2,0:0:0:0:
278,173,242462,2,0,P|265:209|260:254,1,70.1999978576661,8|2,0:0|0:0,0:0:0:0:
305,308,242778,1,2,3:2:0:0:
216,112,242936,2,0,P|169:85|175:4,1,140.399995715332,12|2,0:0|0:0,0:0:0:0:
172,6,243409,1,2,3:2:0:0:
361,174,243567,69,6,0:0:0:0:
165,185,243725,1,8,0:0:0:0:
101,243,243882,1,2,3:2:0:0:
183,268,244040,1,2,3:2:0:0:
1,78,244198,5,8,0:0:0:0:
54,167,244356,2,0,P|59:132|71:99,1,70.1999978576661,2|2,0:0|0:0,0:0:0:0:
257,41,244671,1,8,0:0:0:0:
60,16,244829,1,0,3:2:0:0:
270,43,244987,1,12,0:0:0:0:
304,124,245145,2,0,P|365:103|428:94,1,105.299996786499,2|0,0:0|3:2,0:0:0:0:
477,123,245460,69,8,0:0:0:0:
366,262,245618,1,8,0:0:0:0:
201,327,245776,1,8,0:0:0:0:
26,301,245933,2,0,L|11:267,1,35.099998928833,8|0,0:0|0:0,0:0:0:0:
97,384,246091,6,0,P|124:288|143:247,1,122.849996250916,6|0,3:2|0:0,0:0:0:0:
96,192,246407,2,0,P|91:173|71:137,1,40.9499987503052,0|0,3:2|0:0,0:0:0:0:
242,258,246564,2,0,P|223:249|203:244,1,40.9499987503052,0|0,3:2|0:0,0:0:0:0:
304,124,246722,70,0,B|351:105|395:155|385:160|379:174|393:204|434:210,1,163.799995001221,8|2,0:0|0:0,0:0:0:0:
503,234,247195,2,0,P|459:218|499:241,1,122.849996250916,8|0,0:0|0:0,0:0:0:0:
485,248,247511,1,8,0:0:0:0:
378,343,247669,1,2,0:0:0:0:
315,291,247827,5,0,3:2:0:0:
512,384,247984,1,10,0:0:0:0:
298,288,248142,2,0,B|257:245|287:198|287:198|321:184|332:135,1,163.799995001221,0|0,3:2|3:2,0:0:0:0:
512,69,248615,70,0,P|451:86|362:23,1,163.799995001221,2|0,3:2|3:2,0:0:0:0:
433,0,249089,1,2,3:2:0:0:
282,155,249246,6,0,B|179:141|213:109|111:103,1,163.799995001221,8|2,0:0|0:0,0:0:0:0:
0,264,249720,2,0,B|103:250|69:218|171:212,1,163.799995001221,8|10,0:0|0:0,0:0:0:0:
276,82,250193,1,0,0:0:0:0:
454,193,250351,69,0,3:2:0:0:
454,193,250430,1,0,3:2:0:0:
454,193,250509,1,10,0:0:0:0:
403,243,250666,1,0,3:2:0:0:
313,229,250824,1,2,0:0:0:0:
246,131,250982,1,0,3:2:0:0:
303,0,251140,6,0,B|347:15|396:20|396:20|352:37|350:72,1,163.799995001221,2|0,3:2|3:2,0:0:0:0:
350,66,251613,1,2,3:2:0:0:
164,159,251771,2,0,B|99:149|99:149|81:123|81:123|15:114,1,163.799995001221,8|2,0:0|0:0,0:0:0:0:
220,234,252244,2,0,P|256:194|238:122,1,122.849996250916,8|0,0:0|0:0,0:0:0:0:
187,95,252559,1,10,0:0:0:0:
311,277,252717,1,0,0:0:0:0:
85,316,252875,69,0,3:2:0:0:
85,316,252954,1,0,3:2:0:0:
85,316,253033,2,0,P|110:319|145:328,1,40.9499987503052,10|0,0:0|0:0,0:0:0:0:
220,234,253191,2,0,P|245:231|280:222,1,40.9499987503052,0|0,3:2|0:0,0:0:0:0:
235,379,253348,5,2,0:0:0:0:
142,249,253506,1,0,3:2:0:0:
258,382,253664,2,0,B|327:369|327:369|310:275,1,163.799995001221,2|0,3:2|3:2,0:0:0:0:
169,376,254137,1,2,3:2:0:0:
310,276,254295,2,0,B|402:266|362:223|478:210,1,163.799995001221,8|2,0:0|0:0,0:0:0:0:
201,161,254768,70,0,P|214:199|233:235,1,81.8999975006104,8|0,0:0|3:2,0:0:0:0:
310,276,255084,1,10,0:0:0:0:
142,249,255241,1,2,0:0:0:0:
327,279,255399,6,0,P|339:244|356:211,1,40.9499987503052,0|0,3:2|3:2,0:0:0:0:
311,179,255557,2,0,P|347:172|384:170,1,40.9499987503052,8|0,0:0|0:0,0:0:0:0:
404,81,255715,2,0,P|427:109|447:139,1,40.9499987503052,0|0,3:2|0:0,0:0:0:0:
512,170,255873,2,0,P|499:204|482:237,1,40.9499987503052,8|0,0:0|0:0,0:0:0:0:
486,331,256030,2,0,P|449:337|412:339,1,40.9499987503052,8|0,0:0|0:0,0:0:0:0:
288,192,256188,70,0,B|261:178|236:170|236:170|260:126|276:48,1,163.799995001221,6|0,3:2|3:2,0:0:0:0:
332,27,256661,1,0,3:2:0:0:
86,174,256819,2,0,B|27:186|-22:102|74:69|83:118,1,163.799995001221,8|2,0:0|0:0,0:0:0:0:
0,264,257292,2,0,P|54:249|90:244,1,81.8999975006104,8|0,0:0|3:2,0:0:0:0:
247,196,257608,1,8,0:0:0:0:
184,156,257766,1,2,0:0:0:0:
114,318,257923,5,0,3:2:0:0:
114,318,258002,1,0,3:2:0:0:
114,318,258081,1,10,0:0:0:0:
288,192,258239,2,0,B|320:201|354:207|354:207|396:257|336:297,1,163.799995001221,0|0,3:2|3:2,0:0:0:0:
197,384,258712,70,0,L|161:218,1,163.799995001221,2|0,3:2|3:2,0:0:0:0:
96,188,259186,1,0,3:2:0:0:
197,384,259343,2,0,B|228:361|273:360|273:360|316:324|277:280,1,163.799995001221,8|0,0:0|0:0,0:0:0:0:
234,139,259817,2,0,P|192:133|128:116,1,81.8999975006104,8|0,0:0|3:2,0:0:0:0:
104,179,260132,5,8,0:0:0:0:
241,64,260290,1,2,0:0:0:0:
407,216,260448,69,0,3:2:0:0:
407,216,260527,1,0,3:2:0:0:
407,216,260605,2,0,P|386:213|354:204,1,40.9499987503052,10|0,0:0|0:0,0:0:0:0:
300,242,260763,1,0,3:2:0:0:
449,159,260921,1,2,0:0:0:0:
384,336,261079,5,0,3:2:0:0:
224,192,261237,2,0,B|169:161|203:107|203:107|236:105|273:86,1,163.799995001221,2|2,3:2|3:2,0:0:0:0:
262,90,261710,1,2,3:2:0:0:
463,169,261868,70,0,P|487:116|467:6,1,163.799995001221,12|2,0:0|0:0,0:0:0:0:
355,30,262341,2,0,P|334:32|302:41,1,40.9499987503052,10|0,0:0|0:0,0:0:0:0:
262,90,262499,1,0,3:2:0:0:
117,214,262656,6,0,P|52:202|27:110,1,163.799995001221,8|2,0:0|3:2,0:0:0:0:
121,309,263130,2,0,P|127:268|144:205,1,81.8999975006104,12|0,0:0|3:2,0:0:0:0:
337,221,263445,69,2,0:0:0:0:
255,204,263603,1,2,3:2:0:0:
448,160,263761,1,6,3:2:0:0:
386,335,263919,2,0,B|360:326|333:324|333:324|326:300|326:300|285:300|237:283,1,163.799995001221,8|2,0:0|3:2,0:0:0:0:
433,238,264392,2,0,P|472:250|512:255,1,81.8999975006104,8|2,0:0|3:2,0:0:0:0:
371,151,264707,5,2,0:0:0:0:
186,327,264865,2,0,P|146:337|105:339,1,81.8999975006104,8|0,0:0|3:2,0:0:0:0:
292,373,265181,69,12,0:0:0:0:
167,257,265338,1,2,0:0:0:0:
319,384,265496,6,0,P|321:351|328:320,1,40.9499987503052,0|0,3:2|3:2,0:0:0:0:
352,314,265654,69,8,0:0:0:0:
431,271,265812,5,0,0:0:0:0:
485,161,265970,69,8,0:0:0:0:
401,43,266127,5,8,0:0:0:0:
248,12,266285,69,4,3:2:0:0:
248,12,266601,5,2,0:0:0:0:
396,124,266758,1,2,0:0:0:0:
401,43,266916,2,0,P|358:54|309:63,2,81.8999975006104,10|0|2,0:0|3:2|0:0,0:0:0:0:
401,43,267389,69,2,3:2:0:0:
221,198,267547,2,0,P|178:187|129:178,1,81.8999975006104,8|2,0:0|3:2,0:0:0:0:
69,209,267863,5,2,0:0:0:0:
133,161,268020,1,0,3:2:0:0:
275,331,268178,2,0,P|315:338|354:349,1,81.8999975006104,8|0,0:0|0:0,0:0:0:0:
451,249,268494,70,0,P|484:240|517:233,1,40.9499987503052,2|0,3:2|3:2,0:0:0:0:
512,235,268652,1,2,3:2:0:0:
440,150,268809,5,8,3:2:0:0:
335,367,268967,1,8,3:2:0:0:
163,219,269283,69,8,0:2:0:0:
510,374,269598,1,8,3:2:0:0:
327,191,271965,53,8,0:0:0:0:
264,158,272070,5,8,0:0:0:0:
211,204,272175,69,8,0:0:0:0:
181,267,272280,5,8,0:0:0:0:
134,319,272385,69,8,0:0:0:0:
63,322,272490,5,8,0:0:0:0:
15,269,272596,6,0,P|-1:202|6:115,1,140.399995715332,6|0,3:2|3:2,0:0:0:0:
65,100,273069,1,2,3:2:0:0:
167,237,273227,2,0,B|247:251|207:283|302:304,1,140.399995715332,8|2,0:0|0:0,0:0:0:0:
289,301,273700,2,0,P|254:305|217:315,1,70.1999978576661,8|0,0:0|3:2,0:0:0:0:
416,192,274016,5,10,0:0:0:0:
416,192,274173,2,0,P|380:188|343:178,1,70.1999978576661,0|0,0:0|3:2,0:0:0:0:
281,207,274489,1,10,0:0:0:0:
512,126,274647,2,0,P|510:58|451:26,1,140.399995715332,0|0,3:2|3:2,0:0:0:0:
452,26,275120,70,0,B|375:33|412:68|317:80,1,140.399995715332,2|0,3:2|3:2,0:0:0:0:
173,195,275593,1,2,3:2:0:0:
165,121,275751,2,0,P|224:141|241:231,1,140.399995715332,8|2,0:0|0:0,0:0:0:0:
144,384,276224,5,8,0:0:0:0:
319,343,276382,1,0,3:2:0:0:
144,384,276540,70,0,B|111:369|78:362|78:362|96:332|105:287,1,140.399995715332,10|0,0:0|3:2,0:0:0:0:
117,266,276934,1,0,3:2:0:0:
117,266,277013,1,10,0:0:0:0:
33,197,277171,1,0,3:2:0:0:
33,197,277486,5,0,3:2:0:0:
157,337,277644,2,0,B|234:334|214:303|297:302,1,140.399995715332,2|0,3:2|3:2,0:0:0:0:
391,180,278117,69,0,3:2:0:0:
491,354,278275,2,0,P|440:307|445:240,1,140.399995715332,8|2,0:0|0:0,0:0:0:0:
445,241,278748,2,0,P|414:252|363:257,1,70.1999978576661,8|0,0:0|3:2,0:0:0:0:
270,349,279064,5,10,0:0:0:0:
270,349,279222,2,0,P|238:338|187:333,1,70.1999978576661,0|0,0:0|3:2,0:0:0:0:
137,294,279537,69,10,0:0:0:0:
309,186,279695,2,0,B|348:171|376:206|376:206|387:243|427:250,1,140.399995715332,0|0,3:2|3:2,0:0:0:0:
287,194,280168,6,0,P|256:151|283:69,1,140.399995715332,2|0,3:2|3:2,0:0:0:0:
348,57,280642,1,2,3:2:0:0:
167,164,280799,2,0,B|135:177|102:183|102:183|120:217|124:256,1,140.399995715332,8|2,0:0|0:0,0:0:0:0:
264,286,281273,2,0,P|228:271|191:264,1,70.1999978576661,8|0,0:0|3:2,0:0:0:0:
349,371,281588,69,10,0:0:0:0:
506,270,281746,1,2,0:0:0:0:
344,277,281904,6,0,P|363:284|383:288,1,35.099998928833,2|0,3:2|3:2,0:0:0:0:
492,269,282062,1,10,0:0:0:0:
298,167,282219,69,2,3:2:0:0:
479,260,282377,1,10,0:0:0:0:
307,380,282535,1,8,0:0:0:0:
344,277,282693,6,0,B|308:258|271:285|271:285|256:320|225:327,1,140.399995715332,6|0,3:2|3:2,0:0:0:0:
266,254,283166,1,2,3:2:0:0:
62,307,283324,2,0,P|16:302|67:294,1,140.399995715332,8|2,0:0|0:0,0:0:0:0:
111,365,283797,2,0,P|145:372|194:392,1,70.1999978576661,8|0,0:0|3:2,0:0:0:0:
344,277,284113,69,10,0:0:0:0:
344,277,284270,2,0,P|356:244|363:209,1,70.1999978576661,0|0,0:0|3:2,0:0:0:0:
312,157,284586,5,10,0:0:0:0:
194,376,284744,2,0,B|180:285|152:325|138:238,1,140.399995715332,0|0,3:2|3:2,0:0:0:0:
51,116,285217,70,0,B|0:128|0:178|0:178|27:184|41:206,1,140.399995715332,2|0,3:2|3:2,0:0:0:0:
68,279,285690,1,2,3:2:0:0:
217,249,285848,2,0,P|249:208|222:103,1,140.399995715332,8|2,0:0|0:0,0:0:0:0:
135,2,286321,5,8,0:0:0:0:
2,103,286479,1,0,3:2:0:0:
177,178,286637,2,0,P|244:169|318:150,1,140.399995715332,10|0,0:0|3:2,0:0:0:0:
323,148,287031,1,0,3:2:0:0:
331,144,287110,1,10,0:0:0:0:
383,82,287268,69,0,3:2:0:0:
289,48,287426,1,2,0:0:0:0:
453,146,287583,5,0,3:2:0:0:
288,254,287741,2,0,B|283:279|279:310|279:310|258:330|258:330|255:353|247:395,1,140.399995715332,2|0,3:2|3:2,0:0:0:0:
400,313,288214,69,2,3:2:0:0:
241,198,288372,2,0,P|206:191|165:185,2,70.1999978576661,12|0|2,0:0|0:0|0:0,0:0:0:0:
373,102,288845,6,0,P|449:86|539:73,1,140.399995715332,8|10,0:0|0:0,0:0:0:0:
511,77,289477,1,0,3:2:0:0:
446,203,289634,2,0,P|436:156|428:101,1,70.1999978576661,14|0,0:0|3:2,0:0:0:0:
373,102,289950,69,2,0:0:0:0:
512,241,290108,2,0,P|465:231|410:223,1,70.1999978576661,0|4,3:2|3:2,0:0:0:0:
389,273,290423,5,10,0:0:0:0:
362,303,290581,1,2,3:2:0:0:
289,327,290739,1,2,3:2:0:0:
203,293,290896,1,10,0:0:0:0:
177,211,291054,1,2,3:2:0:0:
219,143,291212,1,2,0:0:0:0:
288,124,291370,1,10,0:0:0:0:
468,184,291527,69,6,3:2:0:0:
418,131,291685,1,10,0:0:0:0:
284,147,291843,5,0,0:0:0:0:
254,225,292001,1,0,3:2:0:0:
333,18,292158,69,8,0:0:0:0:
133,76,292316,1,8,0:0:0:0:
366,272,292474,5,8,0:0:0:0:
157,217,292632,1,8,0:0:0:0:
416,351,292790,6,0,B|445:306|503:312|503:312|452:274|451:220,2,210.599993572998,4|2|2,1:2|0:0|0:0,0:0:0:0:
215,226,295314,2,0,P|125:257|122:300,1,140.399995715332,2|0,0:0|0:0,0:0:0:0:
120,289,296260,2,0,P|154:298|189:327,1,70.1999978576661,2|0,0:0|3:0,0:0:0:0:
242,366,297207,1,2,0:0:0:0:
319,336,297523,2,0,L|330:295,1,35.099998928833,2|2,0:0|0:0,0:0:0:0:
155,190,297838,6,0,B|144:151|144:151|136:140|136:140|121:87,2,105.299996786499,4|2|2,1:2|0:0|0:0,0:0:0:0:
338,90,299416,1,2,0:0:0:0:
338,90,299731,1,2,0:0:0:0:
461,235,300362,70,0,B|506:226|516:166|458:140|403:158|367:224,2,210.599993572998,2|2|0,0:0|0:0|0:0,0:0:0:0:
233,322,302887,5,6,1:2:0:0:
282,249,303833,69,2,0:0:0:0:
210,202,304780,6,0,B|203:145|153:103|131:177|80:124|99:58|102:32|141:14|192:32|204:68|187:107|171:117|149:100|148:82,1,311.512490493393,2|0,0:0|1:0,0:0:0:0:
