osu file format v14

[General]
AudioFilename: audio.mp3
AudioLeadIn: 0
PreviewTime: 15069
Countdown: 1
SampleSet: None
StackLeniency: 0.7
Mode: 0
LetterboxInBreaks: 0
WidescreenStoryboard: 0

[Editor]
Bookmarks: 25226,35226,45226,55226,65226,75226,90226,95226,115226,125226,135226,145226,155226,174601
DistanceSpacing: 1.5
BeatDivisor: 16
GridSize: 4
TimelineZoom: 1

[Metadata]
Title:Tanz mit mir
TitleUnicode:Tanz mit mir
Artist:Faun
ArtistUnicode:Faun
Creator:kwk
Version:Cute Russian Song
Source:
Tags:german russian japanese
BeatmapID:1685542
BeatmapSetID:802989

[Difficulty]
HPDrainRate:8
CircleSize:3
OverallDifficulty:8
ApproachRate:8
SliderMultiplier:2.8
SliderTickRate:1

[Events]
//Background and Video events
0,0,"69065999_p0.png",0,0
//Break Periods
//Storyboard Layer 0 (Background)
//Storyboard Layer 1 (Fail)
//Storyboard Layer 2 (Pass)
//Storyboard Layer 3 (Foreground)
//Storyboard Sound Samples

[TimingPoints]
210,625,4,2,1,50,1,0
15210,-100,4,2,1,50,0,0
25210,-86.9565217391304,4,2,1,50,0,0
35210,-86.9565217391304,4,2,1,70,0,0
45210,-86.9565217391304,4,2,1,50,0,0
55210,-86.9565217391304,4,2,1,70,0,0
65210,-80,4,2,1,50,0,0
75210,-80,4,2,1,60,0,0
90210,-80,4,2,1,50,0,0
95210,-80,4,2,1,70,0,0
105210,-74.0740740740741,4,2,1,70,0,0
125210,-68.9655172413793,4,2,1,50,0,0
135210,-68.9655172413793,4,2,1,70,0,0
145210,-64.5161290322581,4,2,1,70,0,0
165210,-60.6060606060606,4,2,1,85,0,1
174585,-60.6060606060606,4,2,1,85,0,0

[Colours]
Combo1 : 255,255,166
Combo2 : 255,128,128
Combo3 : 0,255,255
Combo4 : 0,255,128

[HitObjects]
255,189,210,5,2,0:2:0:0:
255,189,1147,1,2,0:2:0:0:
255,189,1460,1,2,0:2:0:0:
255,189,2710,1,2,0:2:0:0:
255,189,3647,1,2,0:2:0:0:
255,189,3960,1,2,0:2:0:0:
255,189,4897,1,2,0:2:0:0:
42,349,5210,2,0,P|102:325|210:353,1,140,0|0,1:2|0:2,0:0:0:0:
378,365,5835,5,10,0:2:0:0:
449,320,5991,1,0,0:2:0:0:
467,238,6147,1,0,0:2:0:0:
437,159,6303,1,0,0:2:0:0:
510,373,6460,5,0,1:2:0:0:
478,75,6772,1,0,1:2:0:0:
363,255,7085,1,8,0:2:0:0:
148,65,7397,1,0,0:2:0:0:
226,34,7553,1,0,0:2:0:0:
306,59,7710,6,0,P|331:116|313:203,1,140,0|0,1:2|0:2,0:0:0:0:
60,173,8335,1,8,0:2:0:0:
148,317,8647,1,0,0:2:0:0:
226,348,8803,1,0,0:2:0:0:
306,323,8960,2,0,P|331:266|313:179,1,140,0|0,1:2|1:2,0:0:0:0:
91,380,9585,1,0,1:2:0:0:
164,141,9897,1,8,0:2:0:0:
511,268,10210,6,0,P|442:245|361:275,1,140,0|0,1:2|0:2,0:0:0:0:
139,372,10835,1,8,0:2:0:0:
176,295,10991,1,0,0:2:0:0:
258,281,11147,1,0,0:2:0:0:
308,349,11303,1,0,0:2:0:0:
90,304,11460,5,0,1:2:0:0:
336,180,11772,1,0,1:2:0:0:
48,99,12085,1,8,0:2:0:0:
220,36,12397,1,0,0:2:0:0:
280,94,12553,1,0,0:2:0:0:
242,169,12710,6,0,P|174:184|107:165,1,140,0|0,1:2|0:2,0:0:0:0:
295,13,13335,1,8,0:2:0:0:
250,263,13647,1,0,1:2:0:0:
42,30,13960,1,8,0:2:0:0:
512,127,14272,1,8,0:2:0:0:
73,357,14585,1,12,0:2:0:0:
179,194,14897,1,0,0:2:0:0:
393,370,15210,2,0,P|359:309|369:227,1,140,0|0,1:2|0:2,0:0:0:0:
473,48,15835,5,10,0:2:0:0:
423,115,15991,1,0,0:2:0:0:
340,129,16147,1,0,0:2:0:0:
260,100,16303,1,0,0:2:0:0:
413,0,16460,5,0,1:2:0:0:
431,216,16772,1,0,1:2:0:0:
138,113,17085,1,8,0:2:0:0:
19,308,17397,1,0,0:2:0:0:
71,373,17553,1,0,0:2:0:0:
147,337,17710,6,0,P|205:315|297:337,1,140,0|0,1:2|0:2,0:0:0:0:
512,384,18335,1,8,0:2:0:0:
459,156,18647,1,0,0:2:0:0:
398,214,18803,1,0,0:2:0:0:
315,197,18960,2,0,L|274:40,1,140,0|0,1:2|1:2,0:0:0:0:
478,241,19585,1,0,1:2:0:0:
234,379,19897,1,8,0:2:0:0:
17,226,20210,6,0,L|201:213,1,140,0|0,1:2|0:2,0:0:0:0:
330,130,20835,1,8,0:2:0:0:
270,188,20991,1,0,0:2:0:0:
275,271,21147,1,0,0:2:0:0:
345,315,21303,1,0,0:2:0:0:
244,103,21460,5,0,1:2:0:0:
178,329,21772,1,0,1:2:0:0:
73,52,22085,1,8,0:2:0:0:
161,260,22397,1,0,0:2:0:0:
93,310,22553,1,0,0:2:0:0:
16,274,22710,6,0,P|1:192|34:140,1,140,0|0,1:2|0:2,0:0:0:0:
237,203,23335,2,0,P|252:285|219:337,1,140,8|0,0:2|1:2,0:0:0:0:
16,368,23960,1,8,0:2:0:0:
226,24,24272,1,8,0:2:0:0:
428,330,24585,1,12,0:2:0:0:
361,210,24897,1,0,0:2:0:0:
19,368,25210,6,0,L|179:360,1,161.000003070831,6|0,1:2|0:2,0:0:0:0:
274,148,25835,1,10,0:2:0:0:
311,256,25991,1,2,0:2:0:0:
420,217,26147,1,2,0:2:0:0:
319,228,26303,1,2,0:2:0:0:
499,294,26460,6,0,P|517:245|499:173,1,80.5000015354157,2|0,1:2|0:2,0:0:0:0:
387,60,26772,2,0,L|369:150,1,80.5000015354157,0|0,0:2|0:2,0:0:0:0:
236,270,27085,1,8,0:2:0:0:
12,80,27397,1,2,0:2:0:0:
98,38,27553,1,2,0:2:0:0:
179,90,27710,6,0,P|223:103|286:82,1,80.5000015354157,2|0,1:2|0:2,0:0:0:0:
432,0,28022,2,0,P|398:31|385:96,1,80.5000015354157,2|0,0:2|0:2,0:0:0:0:
500,270,28335,2,0,L|490:97,1,161.000003070831,10|0,0:2|0:2,0:0:0:0:
393,160,28803,1,0,0:2:0:0:
305,53,28960,6,0,L|396:63,1,80.5000015354157,2|0,1:2|0:2,0:0:0:0:
277,277,29272,2,0,L|279:171,1,80.5000015354157,2|0,0:2|0:2,0:0:0:0:
179,90,29585,1,10,0:2:0:0:
277,371,29897,1,0,0:2:0:0:
4,251,30210,6,0,P|70:213|166:241,1,161.000003070831,2|0,1:2|0:2,0:0:0:0:
315,121,30835,1,10,0:2:0:0:
223,177,30991,1,2,0:2:0:0:
192,50,31147,1,2,0:2:0:0:
243,151,31303,1,2,0:2:0:0:
151,306,31460,6,0,P|142:260|164:204,1,80.5000015354157,2|0,1:2|0:2,0:0:0:0:
18,100,31772,2,0,P|64:91|120:113,1,80.5000015354157,2|0,0:2|0:2,0:0:0:0:
343,214,32085,2,0,P|358:126|301:53,1,161.000003070831,10|2,0:2|0:2,0:0:0:0:
238,153,32553,1,2,0:2:0:0:
343,233,32710,6,0,L|441:225,1,80.5000015354157,2|0,1:2|0:2,0:0:0:0:
264,351,33022,2,0,L|166:343,1,80.5000015354157,0|0,0:2|0:2,0:0:0:0:
41,189,33335,2,0,L|55:308,1,80.5000015354157,10|0,0:2|0:2,0:0:0:0:
200,152,33647,2,0,L|209:72,1,80.5000015354157,2|0,0:2|0:2,0:0:0:0:
52,11,33960,1,2,1:2:0:0:
439,177,34272,1,8,0:2:0:0:
49,366,34585,1,8,0:2:0:0:
149,222,34897,1,0,1:2:0:0:
511,320,35210,6,0,L|375:309,1,80.5000015354157,6|0,1:2|0:0,0:0:0:0:
336,349,35522,1,2,0:2:0:0:
256,254,35678,2,0,L|343:245,1,80.5000015354157,2|8,0:2|0:2,0:0:0:0:
500,216,35991,1,2,0:2:0:0:
430,313,36147,1,2,0:2:0:0:
400,152,36303,1,2,0:2:0:0:
256,254,36460,6,0,P|279:207|260:136,1,80.5000015354157,2|0,1:2|0:2,0:0:0:0:
184,56,36772,2,0,L|180:144,1,80.5000015354157,0|0,1:2|0:2,0:0:0:0:
0,268,37085,2,0,B|48:252|48:252|96:264|96:264|176:236,1,161.000003070831,8|2,0:2|0:2,0:0:0:0:
136,352,37553,1,2,0:2:0:0:
320,328,37710,6,0,L|204:312,1,80.5000015354157,2|0,1:2|0:2,0:0:0:0:
292,144,38022,2,0,P|280:181|291:220,1,80.5000015354157,2|0,0:2|0:2,0:0:0:0:
432,384,38335,2,0,P|436:296|388:244,1,161.000003070831,10|0,0:2|0:2,0:0:0:0:
320,324,38803,1,0,0:2:0:0:
204,227,38960,6,0,L|220:327,1,80.5000015354157,2|0,1:2|0:2,0:0:0:0:
17,384,39272,2,0,L|29:304,1,80.5000015354157,2|0,1:2|0:2,0:0:0:0:
52,141,39585,1,10,0:2:0:0:
52,141,39897,2,0,P|97:155|163:124,1,80.5000015354157,0|0,0:2|0:0,0:0:0:0:
233,111,40210,6,0,P|193:107|156:123,1,80.5000015354157,2|0,1:2|0:0,0:0:0:0:
151,352,40522,1,2,0:2:0:0:
247,284,40678,2,0,L|215:207,1,80.5000015354157,2|8,0:2|0:2,0:0:0:0:
139,28,40991,1,2,0:2:0:0:
232,106,41147,1,2,0:2:0:0:
48,92,41303,1,2,0:2:0:0:
246,0,41460,6,0,P|292:19|373:-5,1,80.5000015354157,2|0,1:2|0:2,0:0:0:0:
485,29,41772,2,0,P|452:51|430:85,1,80.5000015354157,2|0,1:2|0:2,0:0:0:0:
348,289,42085,2,0,P|355:190|319:131,1,161.000003070831,10|2,0:2|0:2,0:0:0:0:
242,186,42553,1,2,0:2:0:0:
73,104,42710,6,0,L|247:91,1,161.000003070831,2|0,1:2|0:2,0:0:0:0:
317,44,43178,1,0,0:2:0:0:
418,164,43335,2,0,L|410:61,1,80.5000015354157,10|0,0:2|0:2,0:0:0:0:
242,186,43647,2,0,L|235:266,1,80.5000015354157,2|0,0:2|0:2,0:0:0:0:
463,351,43960,1,2,1:2:0:0:
25,207,44272,1,8,0:2:0:0:
417,71,44585,1,8,0:2:0:0:
347,198,44897,1,0,1:2:0:0:
148,0,45210,6,0,L|147:138,1,80.5000015354157,6|0,1:2|0:0,0:0:0:0:
25,207,45522,1,2,0:2:0:0:
115,174,45678,1,2,0:2:0:0:
25,207,45835,1,10,0:2:0:0:
116,299,45991,1,2,0:2:0:0:
67,84,46303,1,2,0:2:0:0:
67,84,46460,6,0,L|218:77,1,80.5000015354157,2|0,1:2|0:2,0:0:0:0:
310,224,46772,1,2,0:2:0:0:
211,212,46928,1,2,0:2:0:0:
310,224,47085,2,0,P|409:184|394:115,1,161.000003070831,10|2,0:2|0:2,0:0:0:0:
326,97,47553,1,2,0:2:0:0:
488,40,47710,6,0,L|369:57,1,80.5000015354157,2|0,1:2|0:2,0:0:0:0:
224,132,48022,1,2,0:2:0:0:
140,80,48178,1,2,0:2:0:0:
224,132,48335,2,0,L|240:224,1,80.5000015354157,10|0,0:2|0:0,0:0:0:0:
8,322,48647,1,0,0:2:0:0:
95,230,48803,1,0,0:2:0:0:
191,319,48960,6,0,P|235:331|303:299,1,80.5000015354157,2|0,1:2|0:2,0:0:0:0:
389,174,49272,2,0,P|356:206|350:280,1,80.5000015354157,2|0,0:2|0:2,0:0:0:0:
362,384,49585,1,10,0:2:0:0:
224,132,49897,1,0,0:2:0:0:
89,363,50210,6,0,L|88:261,1,80.5000015354157,2|0,1:2|0:0,0:0:0:0:
105,82,50522,1,2,0:2:0:0:
33,146,50678,1,2,0:0:0:0:
105,82,50835,1,10,0:2:0:0:
165,206,50991,1,2,0:2:0:0:
358,36,51303,1,2,0:2:0:0:
358,36,51460,6,0,L|347:137,1,80.5000015354157,2|0,1:2|0:2,0:0:0:0:
299,271,51772,1,2,0:2:0:0:
257,184,51928,1,2,0:2:0:0:
299,271,52085,2,0,L|411:257,1,80.5000015354157,10|0,0:2|0:0,0:0:0:0:
501,82,52397,1,2,0:2:0:0:
358,36,52553,1,2,0:2:0:0:
210,109,52710,6,0,L|73:69,1,80.5000015354157,2|0,1:2|0:2,0:0:0:0:
0,145,53022,1,0,0:2:0:0:
260,337,53335,2,0,L|397:297,1,80.5000015354157,10|0,0:2|0:2,0:0:0:0:
445,216,53647,1,2,0:2:0:0:
398,384,53960,1,2,1:2:0:0:
257,27,54272,1,8,0:2:0:0:
95,384,54585,1,8,0:2:0:0:
172,231,54897,1,0,1:2:0:0:
448,300,55210,6,0,L|316:294,1,80.5000015354157,6|0,1:2|0:0,0:0:0:0:
268,368,55522,1,2,0:2:0:0:
112,136,55835,1,8,0:2:0:0:
132,16,55991,1,2,0:2:0:0:
32,216,56147,1,2,0:2:0:0:
4,100,56303,1,2,0:2:0:0:
132,244,56460,6,0,L|232:232,1,80.5000015354157,2|0,1:2|0:2,0:0:0:0:
424,132,56772,2,0,L|324:120,1,80.5000015354157,0|0,1:2|0:2,0:0:0:0:
200,336,57085,2,0,L|424:300,1,161.000003070831,8|2,0:2|0:2,0:0:0:0:
452,340,57553,1,2,0:2:0:0:
428,164,57710,6,0,P|421:204|430:244,1,80.5000015354157,2|0,1:2|0:2,0:0:0:0:
280,384,58022,2,0,P|286:344|277:303,1,80.5000015354157,2|0,0:2|0:2,0:0:0:0:
64,136,58335,2,0,P|40:264|92:308,1,161.000003070831,10|0,0:2|0:2,0:0:0:0:
144,248,58803,1,0,0:2:0:0:
60,376,58960,6,0,L|152:336,1,80.5000015354157,2|0,1:2|0:2,0:0:0:0:
304,200,59272,2,0,L|212:160,1,80.5000015354157,2|0,1:2|0:2,0:0:0:0:
24,68,59585,2,0,L|116:28,1,80.5000015354157,10|0,0:2|0:0,0:0:0:0:
248,28,59897,1,0,0:2:0:0:
504,184,60210,6,0,P|424:164|372:192,1,80.5000015354157,2|0,1:2|0:0,0:0:0:0:
348,232,60522,1,2,0:2:0:0:
112,108,60835,1,8,0:2:0:0:
232,88,60991,1,2,0:2:0:0:
32,188,61147,1,2,0:2:0:0:
148,216,61303,1,2,0:2:0:0:
122,33,61460,6,0,P|105:68|114:113,1,80.5000015354157,2|0,1:2|0:2,0:0:0:0:
260,201,61772,2,0,L|354:183,1,80.5000015354157,2|0,1:2|0:2,0:0:0:0:
149,347,62085,2,0,L|55:329,1,80.5000015354157,10|0,0:2|0:0,0:0:0:0:
0,134,62397,1,2,0:2:0:0:
122,33,62553,1,2,0:2:0:0:
264,112,62710,6,0,P|324:144|396:123,1,80.5000015354157,2|0,1:2|0:2,0:0:0:0:
442,102,63022,1,0,0:2:0:0:
290,262,63335,2,0,P|230:230|158:251,1,80.5000015354157,10|0,0:2|0:2,0:0:0:0:
112,272,63647,1,2,0:2:0:0:
325,376,63960,5,2,1:2:0:0:
162,20,64272,1,8,0:2:0:0:
11,384,64585,1,8,0:2:0:0:
214,338,64897,1,0,1:2:0:0:
67,256,65210,6,0,P|63:155|93:56,1,175,2|0,1:2|0:2,0:0:0:0:
173,34,65678,1,0,0:2:0:0:
245,172,65835,2,0,P|190:171|159:188,1,87.5,8|0,0:2|0:2,0:0:0:0:
155,351,66147,1,2,0:2:0:0:
254,384,66303,1,2,0:2:0:0:
351,343,66460,6,0,P|355:242|325:143,1,175,2|2,1:2|0:2,0:0:0:0:
368,72,66928,1,0,0:2:0:0:
400,212,67085,2,0,P|452:224|500:196,1,87.5,10|0,0:2|0:2,0:0:0:0:
328,360,67397,2,0,P|276:372|228:344,1,87.5,2|0,0:2|0:2,0:0:0:0:
0,268,67710,6,0,L|80:232,1,87.5,2|0,1:2|0:2,0:0:0:0:
180,256,68022,1,2,0:2:0:0:
264,16,68335,1,10,0:2:0:0:
264,16,68491,2,0,P|252:104|272:200,1,175,2|0,0:2|0:2,0:0:0:0:
0,148,68960,6,0,B|84:176|84:176|192:136,1,175,2|0,1:2|0:2,0:0:0:0:
80,76,69428,1,0,0:2:0:0:
136,264,69585,2,0,B|217:233|217:233|301:261,1,175,12|0,0:2|0:2,0:0:0:0:
348,356,70053,1,0,0:2:0:0:
512,296,70210,6,0,P|520:236|468:128,1,175,2|0,1:2|0:2,0:0:0:0:
376,104,70678,1,0,0:2:0:0:
360,284,70835,2,0,P|410:258|396:204,1,87.5,10|0,0:2|0:2,0:0:0:0:
248,160,71147,1,2,0:2:0:0:
184,244,71303,1,2,0:2:0:0:
84,208,71460,6,0,P|76:104|104:20,1,175,0|2,1:2|0:2,0:0:0:0:
196,12,71928,1,0,0:2:0:0:
252,160,72085,2,0,P|201:151|168:116,1,87.5,10|0,0:2|0:2,0:0:0:0:
0,16,72397,1,2,0:2:0:0:
84,168,72553,1,2,0:2:0:0:
0,292,72710,6,0,P|-4:320|28:368,1,87.5,2|0,1:2|0:2,0:0:0:0:
140,352,73022,1,2,0:2:0:0:
512,292,73335,2,0,P|516:320|484:368,1,87.5,10|0,0:2|0:2,0:0:0:0:
372,352,73647,1,2,0:2:0:0:
424,80,73960,5,0,3:2:0:0:
403,181,74116,1,0,3:2:0:0:
327,251,74272,1,0,3:2:0:0:
224,263,74428,1,0,3:2:0:0:
134,212,74585,1,0,3:2:0:0:
91,118,74741,1,0,3:2:0:0:
152,32,74897,2,0,P|180:72|184:160,1,87.5,8|0,1:2|0:2,0:0:0:0:
0,320,75210,6,0,P|88:280|192:304,1,175,0|0,1:2|0:2,0:0:0:0:
344,336,75835,1,10,0:2:0:0:
360,232,75991,1,0,0:2:0:0:
464,232,76147,1,0,0:2:0:0:
448,128,76303,1,0,0:2:0:0:
480,336,76460,5,0,1:2:0:0:
252,144,76772,1,0,1:2:0:0:
40,384,77085,1,8,0:2:0:0:
336,208,77397,5,0,0:2:0:0:
252,144,77553,1,0,0:2:0:0:
148,164,77710,2,0,P|100:252|144:372,1,175,0|0,1:2|0:2,0:0:0:0:
32,96,78335,1,8,0:2:0:0:
248,268,78647,5,0,0:2:0:0:
345,227,78803,1,0,0:2:0:0:
380,127,78960,2,0,P|327:41|201:19,1,175,0|0,1:2|1:2,0:0:0:0:
8,0,79585,1,0,1:2:0:0:
56,248,79897,1,8,0:2:0:0:
264,92,80210,6,0,P|336:72|448:116,1,175,0|0,1:2|0:2,0:0:0:0:
344,348,80835,1,8,0:2:0:0:
239,355,80991,1,0,0:2:0:0:
215,254,81147,1,0,0:2:0:0:
117,293,81303,1,0,0:2:0:0:
313,215,81460,5,0,1:2:0:0:
88,100,81772,1,0,1:2:0:0:
40,372,82085,1,8,0:2:0:0:
216,144,82397,1,0,0:2:0:0:
308,92,82553,1,0,0:2:0:0:
403,135,82710,6,0,P|424:172|427:227,1,87.5,0|0,1:2|0:0,0:0:0:0:
400,316,83022,1,0,0:2:0:0:
80,320,83335,2,0,P|58:282|55:227,1,87.5,8|0,0:2|0:0,0:0:0:0:
83,139,83647,1,0,1:2:0:0:
176,356,83960,5,8,0:2:0:0:
460,96,84272,1,8,0:2:0:0:
28,32,84585,1,12,0:2:0:0:
108,216,84897,1,0,0:2:0:0:
292,8,85210,6,0,L|332:204,1,175,4|0,0:0|0:2,0:0:0:0:
326,179,85835,1,0,0:2:0:0:
96,284,86147,1,2,0:2:0:0:
96,284,86303,1,0,0:2:0:0:
192,296,86460,6,0,L|-8:316,1,175,0|0,0:0|0:2,0:0:0:0:
17,313,87085,1,0,0:2:0:0:
128,112,87397,1,2,0:2:0:0:
128,112,87553,1,2,0:2:0:0:
112,24,87710,6,0,L|104:212,1,175,0|0,0:3|0:2,0:0:0:0:
104,198,88335,1,0,0:2:0:0:
400,260,88647,1,2,0:2:0:0:
296,284,88803,1,2,0:2:0:0:
364,364,88960,6,0,L|348:164,1,175,0|0,0:2|0:2,0:0:0:0:
336,168,89585,2,0,L|352:344,1,175,0|0,0:2|0:2,0:0:0:0:
0,236,90210,6,0,L|188:216,1,175,0|0,0:2|0:2,0:0:0:0:
172,216,90835,1,0,0:2:0:0:
424,84,91147,1,2,0:2:0:0:
424,84,91303,1,2,0:2:0:0:
356,8,91460,6,0,L|408:184,1,175,0|0,0:2|0:2,0:0:0:0:
405,175,92085,1,0,0:2:0:0:
64,316,92553,1,0,0:2:0:0:
0,232,92710,2,0,P|84:212|160:276,1,175,0|0,1:2|0:2,0:0:0:0:
396,376,93335,2,0,P|360:292|384:192,1,175,0|0,1:2|0:2,0:0:0:0:
424,16,93960,1,0,1:2:0:0:
232,340,94272,1,8,0:2:0:0:
84,36,94585,5,0,3:2:0:0:
8,108,94741,1,0,3:2:0:0:
0,212,94897,1,0,3:2:0:0:
52,304,95053,1,0,3:2:0:0:
156,320,95210,6,0,P|228:276|288:272,1,87.5,6|0,1:2|0:0,0:0:0:0:
336,288,95522,1,2,0:2:0:0:
292,36,95835,1,8,0:2:0:0:
352,124,95991,1,2,0:2:0:0:
144,200,96147,1,2,0:2:0:0:
204,112,96303,1,2,0:2:0:0:
356,240,96460,6,0,L|252:212,1,87.5,2|0,1:2|0:2,0:0:0:0:
120,16,96772,2,0,L|100:101,1,87.5,0|0,1:2|0:2,0:0:0:0:
0,320,97085,2,0,P|68:276|188:304,1,175,8|2,0:2|0:2,0:0:0:0:
216,356,97553,1,2,0:2:0:0:
380,332,97710,6,0,L|284:296,1,87.5,2|0,1:2|0:2,0:0:0:0:
168,124,98022,2,0,L|249:154,1,87.5,2|0,0:2|0:2,0:0:0:0:
416,44,98335,2,0,P|380:120|436:228,1,175,10|0,0:2|0:2,0:0:0:0:
476,124,98803,1,0,0:2:0:0:
512,308,98960,6,0,L|504:216,1,87.5,2|0,1:2|0:2,0:0:0:0:
257,67,99272,2,0,L|249:154,1,87.5,2|0,1:2|0:2,0:0:0:0:
208,364,99585,1,10,0:2:0:0:
84,136,99897,1,0,0:2:0:0:
28,328,100210,6,0,P|76:316|148:328,1,87.5,2|0,1:2|0:0,0:0:0:0:
208,364,100522,1,2,0:2:0:0:
492,188,100835,1,8,0:2:0:0:
434,278,100991,1,2,0:2:0:0:
283,116,101147,1,2,0:2:0:0:
387,137,101303,1,2,0:2:0:0:
329,327,101460,6,0,L|314:220,1,87.5,2|0,1:2|0:2,0:0:0:0:
168,56,101772,2,0,L|155:142,1,87.5,2|0,1:2|0:2,0:0:0:0:
0,316,102085,6,0,P|132:284|188:320,1,175,10|2,0:2|0:2,0:0:0:0:
244,364,102553,1,2,0:2:0:0:
348,344,102710,2,0,L|352:224,1,87.5,2|0,1:2|0:2,0:0:0:0:
356,152,103022,1,0,0:2:0:0:
184,0,103335,2,0,L|188:120,1,87.5,10|0,0:2|0:2,0:0:0:0:
192,192,103647,1,2,0:2:0:0:
448,36,103960,5,2,1:2:0:0:
32,104,104272,1,8,0:2:0:0:
452,228,104585,1,8,0:2:0:0:
160,360,104897,1,0,1:2:0:0:
160,360,105053,1,0,0:0:0:0:
160,360,105210,6,0,P|172:252|244:236,1,189.000000720978,6|2,1:2|0:2,0:0:0:0:
344,268,105678,1,2,0:2:0:0:
504,200,105835,6,0,P|492:92|420:76,1,189.000000720978,8|2,0:2|0:2,0:0:0:0:
320,112,106303,1,2,0:2:0:0:
232,36,106460,1,2,1:2:0:0:
72,216,106772,1,0,1:2:0:0:
168,160,106928,1,0,0:2:0:0:
136,312,107085,1,8,0:2:0:0:
96,48,107397,1,2,0:2:0:0:
308,184,107710,6,0,L|460:160,1,94.5000003604889,2|0,1:2|0:2,0:0:0:0:
500,220,108022,1,2,0:2:0:0:
200,312,108335,2,0,L|48:288,1,94.5000003604889,10|0,0:2|0:0,0:0:0:0:
8,128,108647,1,2,0:2:0:0:
120,104,108803,1,2,0:2:0:0:
32,176,108960,5,2,1:2:0:0:
36,0,109116,1,2,0:2:0:0:
136,224,109272,1,2,1:2:0:0:
140,48,109428,1,2,0:2:0:0:
32,176,109585,2,0,L|248:148,1,189.000000720978,10|0,0:2|0:2,0:0:0:0:
260,44,110053,1,0,0:0:0:0:
424,164,110210,6,0,P|352:132|281:156,1,94.5000003604889,2|0,1:2|0:0,0:0:0:0:
219,151,110522,1,2,0:2:0:0:
0,352,110835,1,8,0:2:0:0:
32,244,110991,1,2,0:2:0:0:
144,244,111147,1,2,0:2:0:0:
176,352,111303,1,2,0:2:0:0:
32,244,111460,5,2,1:2:0:0:
280,24,111772,1,2,1:2:0:0:
172,56,111928,1,0,0:2:0:0:
360,116,112085,1,10,0:2:0:0:
56,96,112397,1,2,0:2:0:0:
264,272,112710,2,0,L|248:124,1,94.5000003604889,2|0,1:2|0:2,0:0:0:0:
240,64,113022,1,0,0:2:0:0:
20,252,113335,5,10,0:2:0:0:
80,348,113491,1,2,0:2:0:0:
192,352,113647,1,2,0:2:0:0:
272,272,113803,1,2,0:2:0:0:
168,104,113960,5,2,3:2:0:0:
176,216,114116,1,0,3:0:0:0:
272,272,114272,1,8,3:2:0:0:
372,220,114428,1,0,3:0:0:0:
368,108,114585,2,0,L|130:174,1,189.000000720978,8|0,3:2|3:2,0:0:0:0:
70,209,115053,1,0,3:0:0:0:
184,363,115210,6,0,P|162:306|186:228,1,94.5000003604889,6|0,1:2|0:0,0:0:0:0:
197,48,115522,1,2,0:2:0:0:
93,93,115678,1,2,0:2:0:0:
197,48,115835,2,0,P|229:93|194:180,1,94.5000003604889,8|0,0:2|0:0,0:0:0:0:
294,313,116147,1,2,0:2:0:0:
328,205,116303,1,2,0:2:0:0:
294,313,116460,6,0,L|287:214,1,94.5000003604889,2|0,1:2|0:2,0:0:0:0:
397,57,116772,2,0,L|403:151,1,94.5000003604889,0|0,1:2|0:2,0:0:0:0:
242,368,117085,2,0,L|255:242,1,94.5000003604889,8|0,0:2|0:0,0:0:0:0:
437,119,117397,2,0,L|427:213,1,94.5000003604889,2|0,0:2|0:2,0:0:0:0:
512,384,117710,5,2,1:2:0:0:
282,81,118022,1,2,0:2:0:0:
0,384,118335,1,10,0:2:0:0:
160,87,118647,1,2,0:2:0:0:
186,197,118803,1,2,0:2:0:0:
106,314,118960,5,2,1:2:0:0:
146,178,119116,1,2,0:2:0:0:
306,173,119272,1,2,1:2:0:0:
346,309,119428,1,2,0:2:0:0:
146,383,119585,6,0,P|172:283|263:264,1,189.000000720978,10|0,0:2|0:2,0:0:0:0:
346,309,120053,1,0,0:0:0:0:
480,203,120210,2,0,L|334:206,1,94.5000003604889,2|0,1:2|0:0,0:0:0:0:
164,126,120522,1,2,0:2:0:0:
164,126,120678,1,0,0:0:0:0:
164,126,120835,5,8,0:2:0:0:
171,12,120991,1,2,0:2:0:0:
282,17,121147,1,2,0:2:0:0:
275,131,121303,1,2,0:2:0:0:
91,70,121460,5,2,1:2:0:0:
455,52,121772,1,2,1:2:0:0:
490,159,121928,1,0,0:2:0:0:
454,51,122085,2,0,L|360:64,1,94.5000003604889,10|0,0:2|0:0,0:0:0:0:
163,245,122397,2,0,L|256:258,1,94.5000003604889,2|2,0:2|0:2,0:0:0:0:
492,381,122710,5,2,1:2:0:0:
236,15,123022,1,0,0:2:0:0:
492,381,123335,5,10,0:2:0:0:
422,38,123647,1,2,0:2:0:0:
44,215,123960,1,2,3:2:0:0:
481,145,124272,1,8,3:2:0:0:
58,58,124585,1,8,3:2:0:0:
168,201,124897,1,0,3:2:0:0:
354,43,125210,6,0,L|349:264,1,203.000006195069,2|0,1:2|0:2,0:0:0:0:
249,315,125678,1,0,0:2:0:0:
269,161,125835,2,0,L|430:147,1,101.500003097534,8|0,0:2|0:2,0:0:0:0:
476,342,126147,1,2,0:2:0:0:
382,268,126303,1,2,0:2:0:0:
290,349,126460,6,0,P|231:370|144:320,1,101.500003097534,2|0,1:2|0:0,0:0:0:0:
0,169,126772,1,2,0:2:0:0:
106,110,126928,1,0,0:2:0:0:
209,175,127085,2,0,P|232:215|222:288,1,101.500003097534,10|0,0:2|0:2,0:0:0:0:
485,357,127397,2,0,P|462:317|472:244,1,101.500003097534,2|0,0:2|0:2,0:0:0:0:
428,19,127710,6,0,L|391:136,1,101.500003097534,2|0,1:2|0:2,0:0:0:0:
355,229,128022,1,2,0:2:0:0:
71,71,128335,1,10,0:2:0:0:
71,71,128491,2,0,P|227:122|218:165,1,203.000006195069,2|0,0:2|0:2,0:0:0:0:
509,186,128960,6,0,B|405:166|405:166|314:227,1,203.000006195069,2|0,1:2|0:2,0:0:0:0:
439,275,129428,1,0,0:2:0:0:
509,89,129585,2,0,B|428:30|428:30|278:59,1,203.000006195069,12|0,0:2|0:2,0:0:0:0:
59,329,130210,6,0,P|156:347|259:294,1,203.000006195069,2|0,1:2|0:2,0:0:0:0:
333,218,130678,1,0,0:2:0:0:
163,269,130835,2,0,P|151:305|177:369,1,101.500003097534,10|0,0:2|0:2,0:0:0:0:
435,362,131147,1,2,0:2:0:0:
478,248,131303,1,2,0:2:0:0:
436,132,131460,6,0,P|380:136|307:123,1,101.500003097534,0|0,1:2|0:0,0:0:0:0:
103,0,131772,2,0,P|135:48|159:116,1,101.500003097534,2|0,0:2|0:2,0:0:0:0:
234,336,132085,2,0,B|208:182,1,101.500003097534,10|0,0:2|0:2,0:0:0:0:
267,28,132397,1,2,0:2:0:0:
443,80,132553,1,2,0:2:0:0:
239,152,132710,6,0,L|55:128,1,101.500003097534,2|0,1:2|0:2,0:0:0:0:
2,12,133022,1,2,0:2:0:0:
71,278,133335,2,0,L|-42:130,1,101.500003097534,10|0,0:2|0:2,0:0:0:0:
2,12,133647,1,2,0:2:0:0:
19,365,133960,5,0,3:2:0:0:
107,281,134116,1,0,3:2:0:0:
228,276,134272,1,0,3:2:0:0:
302,372,134428,1,0,3:2:0:0:
204,297,134585,1,0,3:2:0:0:
200,175,134741,1,0,3:2:0:0:
267,73,134897,1,8,1:2:0:0:
388,63,135053,1,0,0:2:0:0:
492,126,135210,6,0,P|532:215|485:282,1,101.500003097534,6|0,1:2|0:0,0:0:0:0:
410,210,135522,1,2,0:2:0:0:
429,384,135678,2,0,P|461:345|469:296,1,101.500003097534,2|8,0:2|0:2,0:0:0:0:
319,74,135991,1,2,0:2:0:0:
215,138,136147,1,2,0:2:0:0:
397,200,136303,1,2,0:2:0:0:
308,311,136460,6,0,L|301:175,1,101.500003097534,2|0,1:2|0:2,0:0:0:0:
130,10,136772,2,0,L|127:185,1,101.500003097534,0|0,1:2|0:2,0:0:0:0:
17,264,137085,2,0,P|121:227|205:290,1,203.000006195069,8|2,0:2|0:2,0:0:0:0:
252,378,137553,1,2,0:2:0:0:
414,288,137710,6,0,P|346:299|295:265,1,101.500003097534,2|0,1:2|0:2,0:0:0:0:
242,70,138022,2,0,P|263:115|267:165,1,101.500003097534,2|0,0:2|0:2,0:0:0:0:
39,203,138335,2,0,B|98:184|98:184|163:216|163:216|167:131,1,203.000006195069,10|0,0:2|0:2,0:0:0:0:
65,80,138803,1,0,0:2:0:0:
0,312,138960,6,0,L|103:283,1,101.500003097534,2|0,1:2|0:2,0:0:0:0:
368,305,139272,2,0,L|270:332,1,101.500003097534,2|0,1:2|0:2,0:0:0:0:
160,160,139585,1,10,0:2:0:0:
160,160,139897,2,0,P|190:200|176:276,1,101.500003097534,0|0,0:2|0:0,0:0:0:0:
164,384,140210,6,0,L|210:293,1,101.500003097534,2|0,1:2|0:0,0:0:0:0:
416,208,140522,1,2,0:2:0:0:
443,345,140678,2,0,P|393:346|348:324,1,101.500003097534,2|8,0:2|0:2,0:0:0:0:
352,104,140991,1,2,0:2:0:0:
416,208,141147,1,2,0:2:0:0:
244,96,141303,1,2,0:2:0:0:
416,8,141460,6,0,P|452:60|444:132,1,101.500003097534,2|0,1:2|0:2,0:0:0:0:
248,264,141772,2,0,P|275:206|341:177,1,101.500003097534,2|0,1:2|0:2,0:0:0:0:
488,360,142085,2,0,B|393:310|393:310|300:380,1,203.000006195069,10|2,0:2|0:2,0:0:0:0:
196,376,142553,1,2,0:2:0:0:
181,110,142710,6,0,P|217:290|169:302,1,203.000006195069,2|0,1:2|0:2,0:0:0:0:
124,280,143178,1,0,0:2:0:0:
0,176,143335,2,0,L|122:172,1,101.500003097534,10|0,0:2|0:2,0:0:0:0:
304,0,143647,2,0,L|268:136,1,101.500003097534,2|0,0:2|0:2,0:0:0:0:
342,275,143960,2,0,P|298:252|250:265,1,101.500003097534,2|2,1:2|0:0,0:0:0:0:
40,296,144272,5,10,0:2:0:0:
156,340,144429,1,2,0:0:0:0:
116,96,144585,1,10,0:2:0:0:
24,176,144741,1,2,0:0:0:0:
236,120,144897,2,0,P|296:128|360:84,1,101.500003097534,2|2,1:2|0:0,0:0:0:0:
500,0,145210,6,0,P|468:100|516:184,1,108.500000827789,6|0,1:2|0:0,0:0:0:0:
454,304,145522,1,2,0:2:0:0:
271,279,145678,2,0,P|317:251|371:247,1,108.500000827789,2|8,0:2|0:2,0:0:0:0:
184,340,145991,1,2,0:2:0:0:
184,224,146147,1,2,0:2:0:0:
332,372,146303,1,2,0:2:0:0:
88,384,146460,6,0,P|80:320|136:240,1,108.500000827789,2|0,1:2|0:2,0:0:0:0:
268,176,146772,2,0,P|284:227|274:280,1,108.500000827789,0|0,1:2|0:2,0:0:0:0:
24,132,147085,2,0,L|248:72,1,217.000001655579,8|2,0:2|0:2,0:0:0:0:
268,176,147553,1,2,0:2:0:0:
400,24,147710,6,0,P|360:48|376:160,1,108.500000827789,2|0,1:2|0:2,0:0:0:0:
352,332,148022,2,0,P|328:292|216:308,1,108.500000827789,2|0,0:2|0:2,0:0:0:0:
104,116,148335,2,0,L|124:256,1,108.500000827789,10|0,0:2|0:0,0:0:0:0:
0,372,148647,1,0,0:2:0:0:
16,244,148803,1,0,0:2:0:0:
116,328,148960,6,0,P|176:348|296:312,1,108.500000827789,2|0,1:2|0:2,0:0:0:0:
423,383,149272,2,0,P|400:335|389:282,1,108.500000827789,2|0,1:2|0:2,0:0:0:0:
496,140,149585,1,10,0:2:0:0:
496,140,149897,2,0,P|440:124|340:128,1,108.500000827789,0|0,0:2|0:0,0:0:0:0:
250,140,150210,6,0,P|301:156|356:160,1,108.500000827789,2|0,1:2|0:0,0:0:0:0:
224,16,150522,1,2,0:2:0:0:
24,120,150678,2,0,P|75:104|129:100,1,108.500000827789,2|8,0:2|0:2,0:0:0:0:
152,316,150991,1,2,0:2:0:0:
176,204,151147,1,2,0:2:0:0:
60,368,151303,1,2,0:2:0:0:
292,220,151460,5,2,1:2:0:0:
0,224,151772,1,2,1:2:0:0:
400,336,152085,1,10,0:2:0:0:
212,24,152397,1,2,0:2:0:0:
188,152,152553,1,2,0:2:0:0:
304,216,152710,6,0,P|320:152|276:76,1,108.500000827789,2|0,1:2|0:2,0:0:0:0:
116,40,153022,1,0,0:2:0:0:
260,312,153335,2,0,P|226:255|141:232,1,108.500000827789,10|0,0:2|0:2,0:0:0:0:
3,320,153647,1,2,0:2:0:0:
392,64,153960,5,2,1:2:0:0:
464,172,154116,1,2,0:0:0:0:
300,188,154272,1,10,0:2:0:0:
428,188,154428,1,2,0:0:0:0:
500,336,154585,1,10,0:2:0:0:
468,212,154741,1,2,0:0:0:0:
344,384,154897,2,0,P|328:328|340:264,1,108.500000827789,2|2,1:2|0:0,0:0:0:0:
444,80,155210,6,0,L|308:100,1,108.500000827789,6|0,1:2|0:0,0:0:0:0:
64,132,155522,1,2,0:2:0:0:
188,164,155678,2,0,P|192:88|136:32,1,108.500000827789,2|8,0:2|0:2,0:0:0:0:
8,32,155991,1,2,0:2:0:0:
0,248,156147,1,2,0:2:0:0:
64,132,156303,1,2,0:2:0:0:
92,316,156460,5,2,1:2:0:0:
252,40,156772,1,0,1:2:0:0:
512,216,157085,2,0,P|340:216|292:280,1,217.000001655579,8|2,0:2|0:2,0:0:0:0:
260,356,157553,1,2,0:2:0:0:
132,228,157710,6,0,L|132:337,1,108.500000827789,2|0,1:2|0:2,0:0:0:0:
224,40,158022,2,0,L|252:184,1,108.500000827789,2|0,0:2|0:2,0:0:0:0:
372,376,158335,2,0,B|392:296|392:296|372:236|372:236|408:124,1,217.000001655579,10|0,0:2|0:2,0:0:0:0:
504,236,158803,1,0,0:2:0:0:
296,312,158960,6,0,L|100:280,1,108.500000827789,2|0,1:2|0:2,0:0:0:0:
0,200,159272,2,0,L|196:168,1,108.500000827789,2|0,1:2|0:2,0:0:0:0:
300,62,159585,2,0,P|248:170|296:222,1,108.500000827789,10|0,0:2|0:0,0:0:0:0:
92,352,159897,1,0,0:2:0:0:
496,232,160210,6,0,L|364:240,1,108.500000827789,2|0,1:2|0:0,0:0:0:0:
120,268,160522,1,2,0:2:0:0:
216,184,160678,2,0,P|248:236|236:300,1,108.500000827789,2|8,0:2|0:2,0:0:0:0:
0,348,160991,1,2,0:2:0:0:
24,132,161147,1,2,0:2:0:0:
116,268,161303,1,2,0:2:0:0:
160,48,161460,5,2,1:2:0:0:
332,364,161772,1,2,1:2:0:0:
488,112,162085,2,0,B|428:132|428:132|348:116|348:116|256:152,1,217.000001655579,10|2,0:2|0:2,0:0:0:0:
248,268,162553,1,2,0:2:0:0:
394,337,162710,6,0,P|403:285|376:240,1,108.500000827789,2|0,1:2|0:2,0:0:0:0:
140,136,163022,1,0,0:2:0:0:
368,8,163335,2,0,L|336:152,1,108.500000827789,10|0,0:2|0:2,0:0:0:0:
208,368,163647,1,2,0:2:0:0:
20,140,163960,5,2,1:2:0:0:
144,108,164116,1,2,0:0:0:0:
280,216,164272,1,10,0:2:0:0:
152,196,164428,1,2,0:0:0:0:
288,4,164585,5,10,0:2:0:0:
320,128,164741,1,2,0:0:0:0:
212,264,164897,1,2,1:2:0:0:
232,136,165053,1,2,0:0:0:0:
432,60,165210,6,0,L|456:276,1,115.500001101494,6|0,1:2|0:0,0:0:0:0:
452,312,165522,1,2,0:2:0:0:
212,264,165678,2,0,P|280:256|327:270,1,115.500001101494,2|8,0:2|0:2,0:0:0:0:
164,360,165991,1,2,0:2:0:0:
56,208,166147,1,2,0:2:0:0:
208,136,166303,1,2,0:2:0:0:
32,372,166460,5,2,1:2:0:0:
484,36,166772,1,0,1:2:0:0:
452,172,166928,1,0,0:2:0:0:
396,0,167085,1,8,0:2:0:0:
147,184,167397,1,2,0:2:0:0:
213,343,167553,1,2,0:2:0:0:
0,224,167710,5,2,1:2:0:0:
488,40,168022,1,2,0:2:0:0:
0,224,168335,1,10,0:2:0:0:
332,24,168647,1,0,0:2:0:0:
320,156,168803,1,0,0:2:0:0:
200,20,168960,5,2,1:2:0:0:
396,108,169116,1,0,0:2:0:0:
155,104,169272,1,2,1:2:0:0:
296,71,169428,1,0,0:2:0:0:
108,196,169585,2,0,P|66:156|53:94,1,115.500001101494,10|0,0:2|0:0,0:0:0:0:
114,310,169897,1,0,0:2:0:0:
444,224,170210,6,0,P|300:208|260:244,1,115.500001101494,2|0,1:2|0:0,0:0:0:0:
220,268,170522,1,2,0:2:0:0:
100,98,170678,2,0,P|150:125|207:127,1,115.500001101494,2|8,0:2|0:2,0:0:0:0:
432,48,170991,1,2,0:2:0:0:
340,192,171147,1,2,0:2:0:0:
476,376,171303,1,2,0:2:0:0:
188,372,171460,5,2,1:2:0:0:
136,28,171772,1,2,1:2:0:0:
164,200,171928,1,0,0:2:0:0:
0,4,172085,1,10,0:2:0:0:
384,36,172397,1,2,0:2:0:0:
28,288,172710,6,0,L|196:268,1,115.500001101494,2|0,1:2|0:2,0:0:0:0:
500,240,173022,1,0,0:2:0:0:
28,96,173335,6,0,L|196:116,1,115.500001101494,10|0,0:2|0:2,0:0:0:0:
500,144,173647,1,2,0:2:0:0:
52,384,173960,5,2,1:2:0:0:
240,0,174272,1,8,0:2:0:0:
504,380,174585,1,8,0:2:0:0:
