osu file format v14

[General]
AudioFilename: audio.mp3
AudioLeadIn: 0
PreviewTime: 9555
Countdown: 1
SampleSet: Normal
StackLeniency: 0.7
Mode: 0
LetterboxInBreaks: 0
WidescreenStoryboard: 0

[Editor]
Bookmarks: 20396
DistanceSpacing: 1.5
BeatDivisor: 4
GridSize: 4
TimelineZoom: 0.9

[Metadata]
Title:Skins Theme Tune
TitleUnicode:Skins Theme Tune
Artist:Fat Segal
ArtistUnicode:Fat Segal
Creator:TheKoala
Version:Extra
Source:Skins (UK)
Tags:
BeatmapID:1175075
BeatmapSetID:555160

[Difficulty]
HPDrainRate:7
CircleSize:4
OverallDifficulty:8
ApproachRate:9.4
SliderMultiplier:1.6
SliderTickRate:1

[Events]
//Background and Video events
0,0,"skins-wallpaper4.jpg",0,0
//Break Periods
//Storyboard Layer 0 (Background)
//Storyboard Layer 1 (Fail)
//Storyboard Layer 2 (Pass)
//Storyboard Layer 3 (Foreground)
//Storyboard Sound Samples

[TimingPoints]
50.4516966259732,594.059405940594,4,1,0,40,1,0
8664,-83.3333333333333,4,1,0,40,0,0
8961,-71.4285714285714,4,1,0,50,0,0
9258,-62.5,4,1,0,60,0,0
9555,-50,4,1,0,75,0,0
9703,-50,4,1,0,75,0,1
10743,-58.8235294117647,4,1,0,65,0,1
17129,-55.5555555555556,4,1,0,65,0,1
17575,-52.6315789473684,4,1,0,65,0,1
17872,-58.8235294117647,4,1,0,65,0,0
19060,-55.5555555555556,4,1,0,65,0,1
23812,-133.333333333333,4,1,0,30,0,0
24406,-133.333333333333,4,1,0,25,0,0
25000,-133.333333333333,4,1,0,15,0,0
25595,-133.333333333333,4,1,0,30,0,0

[HitObjects]
164,324,50,6,0,P|156:276|164:176,1,120,4|0,0:0|0:0,0:0:0:0:
208,112,644,2,0,P|180:80|92:76,1,120,2|0,0:0|0:0,0:0:0:0:
272,252,1238,2,0,L|404:240,1,120,2|0,0:0|0:0,0:0:0:0:
76,104,1832,1,2,0:0:0:0:
68,188,1981,1,0,0:0:0:0:
160,100,2129,1,0,0:0:0:0:
116,28,2278,1,0,0:0:0:0:
156,208,2426,6,0,P|184:248|280:240,1,120,2|0,0:0|0:0,0:0:0:0:
308,168,3020,2,0,P|300:128|320:48,1,120,2|0,0:0|0:0,0:0:0:0:
464,272,3614,2,0,L|328:252,1,120,2|0,0:0|0:0,0:0:0:0:
468,24,4208,2,0,P|476:68|452:148,1,120,2|0,0:0|0:0,0:0:0:0:
272,312,4802,5,12,0:0:0:0:
192,228,4951,1,0,0:0:0:0:
192,228,5025,1,0,0:0:0:0:
192,228,5099,2,0,P|180:192|184:156,1,40,8|0,0:0|0:0,0:0:0:0:
192,116,5322,1,0,0:0:0:0:
192,116,5396,2,0,P|192:88|188:64,1,40,10|0,0:0|0:0,0:0:0:0:
264,176,5694,1,8,0:0:0:0:
104,120,5842,1,0,0:0:0:0:
312,48,5991,6,0,L|272:51,1,40,10|0,0:0|0:0,0:0:0:0:
140,204,6288,2,0,L|188:208,1,40,8|0,0:0|0:0,0:0:0:0:
408,44,6585,6,0,P|400:64|408:108,1,40,10|0,0:0|0:0,0:0:0:0:
412,348,6882,2,0,P|410:328|403:309,1,40,10|0,0:0|0:0,0:0:0:0:
200,72,7179,6,0,P|192:32|196:4,1,40,12|0,0:0|0:0,0:0:0:0:
244,156,7476,1,8,0:0:0:0:
244,156,7624,2,0,P|252:196|248:224,1,40,0|8,0:0|0:0,0:0:0:0:
228,352,7921,1,0,0:0:0:0:
228,352,8070,2,0,P|220:312|224:284,1,40,8|0,0:0|0:0,0:0:0:0:
344,192,8367,2,0,P|352:232|348:260,1,40,8|0,0:0|0:0,0:0:0:0:
64,136,8664,6,0,L|68:44,1,47.9999985351563,8|0,3:0|0:0,0:0:0:0:
256,192,8961,2,0,L|260:88,1,55.9999982910157,8|0,3:0|0:0,0:0:0:0:
448,248,9258,2,0,L|452:136,1,64,8|0,3:0|0:0,0:0:0:0:
320,52,9555,5,2,3:1:0:0:
220,320,9703,2,0,P|156:272|148:168,1,160,6|0,3:1|3:1,3:1:0:0:
440,36,10149,2,0,B|392:16|344:44|344:44|304:20|304:20|256:48|200:32,1,240,6|0,3:1|3:1,3:1:0:0:
352,176,10743,6,0,P|416:156|500:268,1,204.000003890991,2|0,0:0|0:0,0:0:0:0:
468,336,11263,1,0,0:0:0:0:
468,336,11337,2,0,B|360:344|360:344|240:320,1,204.000003890991,2|0,0:0|0:0,0:0:0:0:
196,152,11931,5,2,0:0:0:0:
252,236,12080,1,0,0:0:0:0:
92,176,12228,1,0,0:0:0:0:
128,72,12377,1,0,0:0:0:0:
176,276,12525,5,10,0:0:0:0:
16,184,12674,1,0,0:0:0:0:
244,96,12822,1,0,0:0:0:0:
128,208,12971,1,0,0:0:0:0:
132,0,13119,5,10,0:0:0:0:
332,88,13268,1,0,0:0:0:0:
92,128,13416,1,10,0:0:0:0:
276,16,13565,1,8,0:0:0:0:
224,276,13713,5,10,0:0:0:0:
168,116,13862,2,0,P|164:96|168:72,1,34.0000006484985
224,276,14010,5,0,0:0:0:0:
308,164,14159,1,0,0:0:0:0:
512,328,14307,6,0,B|432:344|432:344|304:316,1,204.000003890991,6|0,0:0|0:0,0:0:0:0:
244,248,14901,1,2,0:0:0:0:
292,176,15050,1,0,0:0:0:0:
294,159,15124,1,0,0:0:0:0:
295,142,15198,1,0,0:0:0:0:
152,228,15347,1,0,0:0:0:0:
372,224,15495,5,10,0:0:0:0:
168,136,15644,1,8,0:0:0:0:
336,304,15793,1,8,0:0:0:0:
248,56,15941,2,0,P|244:80|244:96,1,34.0000006484985,8|0,3:0|3:0,3:0:0:0:
272,364,16090,5,2,0:0:0:0:
404,160,16238,1,8,3:0:0:0:
412,144,16312,1,0,3:0:0:0:
420,128,16387,5,10,0:0:0:0:
428,176,16461,1,0,3:0:0:0:
422,228,16535,1,8,3:0:0:0:
372,356,16684,1,6,0:0:0:0:
172,336,16832,6,0,L|296:344,1,68.0000012969971
76,156,17129,1,6,0:0:0:0:
304,88,17277,2,0,L|188:104,1,71.9999978027344
368,240,17575,1,6,0:0:0:0:
420,44,17723,1,0,0:0:0:0:
208,196,17872,5,0,0:0:0:0:
336,268,18020,1,2,3:0:0:0:
336,268,18169,2,0,P|344:216|340:180,1,68.0000012969971,0|0,3:0|3:0,3:0:0:0:
216,32,18466,1,2,0:0:0:0:
272,220,18614,1,0,3:0:0:0:
348,68,18763,2,0,L|304:76,1,34.0000006484985,8|0,3:0|3:0,3:0:0:0:
164,112,18911,2,0,L|204:116,1,34.0000006484985,8|0,3:0|3:0,3:0:0:0:
380,352,19060,6,0,B|400:300|368:228|368:228|364:248|356:256,1,143.999995605469,6|0,0:0|0:0,0:0:0:0:
128,340,19505,2,0,B|178:359|250:327|250:327|230:323|234:323,1,143.999995605469,2|0,0:0|0:0,0:0:0:0:
108,44,19951,2,0,B|88:96|120:168|120:168|124:148|132:140,1,143.999995605469,2|8,0:0|0:0,0:0:0:0:
424,44,20396,2,0,B|372:24|300:56|300:56|320:60|328:68,1,143.999995605469,2|0,0:0|0:0,0:0:0:0:
189,302,20842,5,8,3:0:0:0:
183,318,20916,1,0,3:0:0:0:
180,336,20990,1,0,3:0:0:0:
296,232,21139,1,8,3:0:0:0:
200,96,21288,1,8,3:0:0:0:
180,336,21436,6,0,B|220:340|220:340|280:332,1,71.9999978027344,6|0,0:0|0:0,0:0:0:0:
400,260,21733,1,8,0:0:0:0:
72,208,21882,5,10,0:0:0:0:
244,192,22030,1,8,0:0:0:0:
96,168,22179,1,8,0:0:0:0:
456,228,22327,5,10,0:0:0:0:
220,192,22476,1,0,0:0:0:0:
436,120,22624,1,8,0:0:0:0:
96,272,22773,5,2,0:0:0:0:
396,192,22921,1,0,0:0:0:0:
120,108,23070,1,8,0:0:0:0:
456,288,23218,5,10,0:0:0:0:
60,192,23367,1,10,0:0:0:0:
432,68,23515,1,10,0:0:0:0:
160,224,23664,1,10,0:0:0:0:
428,224,23812,6,0,P|432:204|432:176,1,30.0000011444092,6|0,2:0|2:0,2:0:0:0:
360,200,24109,2,0,P|358:179|351:152,1,30.0000011444092,0|0,2:0|2:0,2:0:0:0:
288,194,24406,2,0,P|281:174|267:150,1,30.0000011444092,0|0,2:0|2:0,2:0:0:0:
216,206,24703,2,0,P|204:189|184:169,1,30.0000011444092,0|0,2:0|2:0,2:0:0:0:
149,236,25000,2,0,P|133:222|109:208,1,30.0000011444092,0|0,2:0|2:0,2:0:0:0:
92,282,25297,2,0,P|73:272|46:265,1,30.0000011444092,0|0,2:0|2:0,2:0:0:0:
256,352,25595,5,2,2:0:0:0:
336,260,25892,1,2,2:0:0:0:
104,88,26189,5,2,2:0:0:0:
256,352,26634,1,2,2:0:0:0:
408,88,27080,1,2,2:0:0:0:
