osu file format v14

[General]
AudioFilename: audio.mp3
AudioLeadIn: 0
PreviewTime: 59728
Countdown: 1
SampleSet: Normal
StackLeniency: 0.7
Mode: 0
LetterboxInBreaks: 0
WidescreenStoryboard: 1

[Editor]
DistanceSpacing: 0.8
BeatDivisor: 2
GridSize: 8
TimelineZoom: 1.650001

[Metadata]
Title:Clutch
TitleUnicode:Clutch
Artist:Fat Segal
ArtistUnicode:Fat Segal
Creator:megamaaash
Version:2017
Source:Skins
Tags:
BeatmapID:1439099
BeatmapSetID:680617

[Difficulty]
HPDrainRate:6
CircleSize:4
OverallDifficulty:7
ApproachRate:10
SliderMultiplier:1.99999990463257
SliderTickRate:1

[Events]
//Background and Video events
0,0,"skins image.jpg",0,0
//Break Periods
//Storyboard Layer 0 (Background)
//Storyboard Layer 1 (Fail)
//Storyboard Layer 2 (Pass)
//Storyboard Layer 3 (Foreground)
//Storyboard Layer 4 (Overlay)
//Storyboard Sound Samples

[TimingPoints]
478,379.746835443038,4,1,0,100,1,0
8114,384.615384615385,4,1,0,100,1,0
8114,-66.6666666666667,4,1,0,100,0,0
11154,-100,4,1,0,100,0,0
11225,379.746835443038,4,1,0,100,1,0
15781,375,4,1,0,100,1,0
21802,379.746835443038,4,1,0,100,1,0
35472,382.165605095541,4,1,0,100,1,0
40067,379.746835443038,4,1,0,100,1,0
43066,379.746835443038,4,1,0,100,1,0
46058,379.746835443038,4,1,0,100,1,0
62859,379.746835443038,4,1,0,100,1,0
62859,-50,4,1,0,100,0,0
78001,379.746835443038,4,1,0,100,1,0
78001,-100,4,1,0,100,0,0
90152,-50,4,1,0,100,0,0

[HitObjects]
256,192,478,12,0,1870,2:3:0:0:
160,336,1996,6,0,L|264:301,1,99.9999952316284,0|0,2:3|2:3,2:3:0:0:
179,240,2250,6,0,L|238:152,1,99.9999952316284,0|0,2:3|2:3,2:3:0:0:
147,144,2503,6,0,L|187:41,1,99.9999952316284,0|0,2:3|2:3,2:3:0:0:
98,259,2756,1,4,2:3:0:0:
154,177,3515,6,0,L|184:288,1,99.9999952316285,0|0,2:3|2:3,2:3:0:0:
249,175,3769,6,0,L|333:271,1,99.9999952316285,0|0,2:3|2:3,2:3:0:0:
328,132,4022,6,0,L|443:152,1,99.9999952316285,0|0,2:3|2:3,2:3:0:0:
190,107,4275,1,4,2:3:0:0:
77,108,5034,6,0,L|194:110,1,99.9999952316285,0|0,2:3|2:3,2:3:0:0:
413,184,5288,6,0,L|286:197,1,99.9999952316285,0|0,2:3|2:3,2:3:0:0:
91,278,5541,6,0,L|206:289,1,99.9999952316285,0|0,2:3|2:3,2:3:0:0:
372,314,5794,1,4,2:3:0:0:
141,307,6553,6,0,L|149:184,1,99.9999952316285,0|0,2:3|2:3,2:3:0:0:
265,46,6807,6,0,L|267:169,1,99.9999952316285,0|0,2:3|2:3,2:3:0:0:
349,326,7060,6,0,L|361:204,1,99.9999952316285,0|0,2:3|2:3,2:3:0:0:
398,57,7313,2,0,L|449:27,11,33.3333317438762,8|0|0|0|0|0|0|0|0|0|0|0,2:3|2:3|2:3|2:3|2:3|2:3|2:3|2:3|2:3|2:3|2:3|2:3,2:3:0:0:
254,72,8114,6,0,P|123:162|170:229,1,249.999992052714,0|0,2:3|2:3,2:3:0:0:
168,292,8498,2,0,P|265:235|205:141,1,249.999997615814,0|0,2:3|2:3,2:3:0:0:
193,217,8883,2,0,P|96:274|156:368,1,249.999997615814,0|0,2:3|2:3,2:3:0:0:
168,292,9267,2,0,P|265:235|205:141,1,249.999997615814,0|0,2:3|2:3,2:3:0:0:
193,217,9652,6,0,P|289:281|217:364,1,249.999997615814,0|0,2:3|2:3,2:3:0:0:
213,288,10037,2,0,P|117:224|189:141,1,249.999997615814,0|0,2:3|2:3,2:3:0:0:
164,70,10421,2,0,P|260:134|188:217,1,249.999997615814,0|0,2:3|2:3,2:3:0:0:
184,141,10806,2,0,P|117:230|212:287,1,249.999997615814,0|0,2:3|2:3,2:3:0:0:
242,160,11218,6,0,L|368:167,1,99.9999952316285,0|0,2:3|2:3,2:3:0:0:
310,245,11472,6,0,L|418:199,1,99.9999952316285,0|0,2:3|2:3,2:3:0:0:
438,290,11725,6,0,L|484:196,1,99.9999952316285,0|0,2:3|2:3,2:3:0:0:
396,120,11978,1,4,2:3:0:0:
170,56,12737,6,0,L|96:142,1,99.9999952316285,0|0,2:3|2:3,2:3:0:0:
223,110,12991,6,0,L|284:193,1,99.9999952316285,0|0,2:3|2:3,2:3:0:0:
185,180,13244,6,0,L|138:271,1,99.9999952316285,0|0,2:3|2:3,2:3:0:0:
204,328,13497,5,4,2:3:0:0:
250,344,13591,1,0,2:3:0:0:
300,346,13686,1,0,2:3:0:0:
349,334,13781,1,0,2:3:0:0:
391,309,13876,1,4,2:3:0:0:
425,272,13971,1,0,2:3:0:0:
446,227,14066,1,0,2:3:0:0:
454,177,14161,1,0,2:3:0:0:
441,113,14256,6,0,L|360:26,1,99.9999952316285,0|0,2:3|2:3,2:3:0:0:
384,173,14510,6,0,L|305:88,1,99.9999952316285,0|0,2:3|2:3,2:3:0:0:
331,238,14763,6,0,L|256:156,1,99.9999952316285,0|0,2:3|2:3,2:3:0:0:
274,293,15016,1,4,2:3:0:0:
185,204,15781,6,0,L|118:298,1,99.9999952316285,0|0,2:3|2:3,2:3:0:0:
249,172,16031,6,0,L|260:279,1,99.9999952316285,0|0,2:3|2:3,2:3:0:0:
288,108,16281,6,0,L|345:203,1,99.9999952316285,0|0,2:3|2:3,2:3:0:0:
208,93,16531,5,4,2:3:0:0:
194,141,16624,1,0,2:3:0:0:
192,190,16718,1,0,2:3:0:0:
208,237,16812,1,0,2:3:0:0:
244,271,16906,1,4,2:3:0:0:
292,287,17009,1,0,2:3:0:0:
341,285,17093,1,0,2:3:0:0:
386,265,17187,1,0,2:3:0:0:
421,204,17281,6,0,L|308:173,1,99.9999952316285,0|0,2:3|2:3,2:3:0:0:
388,103,17531,6,0,L|276:115,1,99.9999952316285,0|0,2:3|2:3,2:3:0:0:
294,35,17781,6,0,L|186:82,1,99.9999952316285,0|0,2:3|2:3,2:3:0:0:
222,203,18031,1,4,2:3:0:0:
203,212,18781,6,0,L|196:91,1,99.9999952316285,0|0,2:3|2:3,2:3:0:0:
264,269,19031,6,0,L|261:155,1,99.9999952316285,0|0,2:3|2:3,2:3:0:0:
326,314,19281,6,0,L|325:195,1,99.9999952316285,0|0,2:3|2:3,2:3:0:0:
199,302,19531,5,4,2:3:0:0:
150,289,19624,1,0,2:3:0:0:
113,257,19718,1,0,2:3:0:0:
96,210,19812,1,0,2:3:0:0:
101,161,19906,1,4,2:3:0:0:
129,120,19999,1,0,2:3:0:0:
172,96,20093,1,0,2:3:0:0:
222,95,20187,1,0,2:3:0:0:
189,170,20281,6,0,L|303:170,1,99.9999952316285,0|0,2:3|2:3,2:3:0:0:
247,244,20531,6,0,L|354:283,1,99.9999952316285,0|0,2:3|2:3,2:3:0:0:
169,253,20781,6,0,L|224:351,1,99.9999952316285,0|0,2:3|2:3,2:3:0:0:
143,162,21031,5,4,2:3:0:0:
178,127,21124,1,0,2:3:0:0:
225,111,21218,1,0,2:3:0:0:
274,118,21312,1,0,2:3:0:0:
316,145,21406,1,4,2:3:0:0:
341,187,21499,1,0,2:3:0:0:
346,236,21593,1,0,2:3:0:0:
339,284,21687,1,0,0:0:0:0:
313,354,21802,5,4,2:3:0:0:
168,119,21991,5,0,2:3:0:0:
169,121,22086,1,0,2:3:0:0:
168,119,22181,2,0,L|278:116,1,99.9999952316285,0|0,2:3|2:3,2:3:0:0:
316,145,22466,1,0,2:3:0:0:
316,145,22561,5,4,2:3:0:0:
80,320,22751,1,0,2:3:0:0:
371,218,22941,1,0,2:3:0:0:
147,223,23131,1,0,2:3:0:0:
147,223,23226,1,0,2:3:0:0:
147,223,23320,6,0,L|251:157,1,99.9999952316285,0|0,2:3|2:3,2:3:0:0:
289,164,23605,1,0,2:3:0:0:
289,164,23700,1,0,2:3:0:0:
323,243,23890,6,0,B|261:282|261:282|366:337|428:317,1,199.999990463257,4|0,2:3|2:3,2:3:0:0:
60,167,24460,1,4,2:3:0:0:
400,144,24839,5,0,2:3:0:0:
176,88,25029,1,0,2:3:0:0:
176,88,25124,1,0,2:3:0:0:
176,88,25219,1,0,2:3:0:0:
320,288,25409,5,0,2:3:0:0:
256,72,25599,1,0,2:3:0:0:
256,72,25694,1,0,2:3:0:0:
256,72,25789,1,0,2:3:0:0:
192,272,25979,5,0,2:3:0:0:
360,80,26169,1,0,2:3:0:0:
353,108,26264,1,0,2:3:0:0:
335,165,26358,5,0,2:3:0:0:
147,197,26548,5,0,2:3:0:0:
135,165,26643,1,0,2:3:0:0:
121,135,26738,1,0,2:3:0:0:
365,296,26928,6,0,P|270:317|184:272,1,199.999990463257,4|0,2:3|2:3,2:3:0:0:
397,267,27403,1,0,2:3:0:0:
409,225,27498,1,4,2:3:0:0:
300,110,27688,1,0,2:3:0:0:
300,110,27783,1,0,2:3:0:0:
300,110,27877,6,0,P|244:86|189:91,1,99.9999952316285,0|0,2:3|2:3,2:3:0:0:
163,128,28162,1,0,2:3:0:0:
163,128,28257,1,0,2:3:0:0:
273,299,28447,6,0,P|326:289|358:251,1,99.9999952316285,0|0,2:3|2:3,2:3:0:0:
375,213,28732,1,0,2:3:0:0:
375,213,28827,1,0,2:3:0:0:
280,62,29017,6,0,P|226:59|176:74,1,99.9999952316285,0|0,2:3|2:3,2:3:0:0:
148,108,29302,1,0,2:3:0:0:
130,143,29396,1,0,2:3:0:0:
265,187,29586,5,0,2:3:0:0:
265,187,29681,1,0,2:3:0:0:
265,187,29776,2,0,P|343:178|386:189,1,99.9999952316285,0|0,2:3|2:3,2:3:0:0:
338,290,30156,1,0,2:3:0:0:
309,296,30251,1,0,2:3:0:0:
276,296,30346,1,0,2:3:0:0:
251,285,30441,1,0,2:3:0:0:
231,273,30536,1,0,2:3:0:0:
216,253,30631,1,0,2:3:0:0:
207,230,30726,1,0,2:3:0:0:
206,206,30820,1,0,2:3:0:0:
188,153,30915,6,0,L|274:102,1,99.9999952316285,0|0,2:3|2:3,2:3:0:0:
403,107,31169,6,0,L|311:160,1,99.9999952316285,0|0,2:3|2:3,2:3:0:0:
295,247,31422,6,0,L|384:197,1,99.9999952316285,0|0,2:3|2:3,2:3:0:0:
256,192,31675,12,0,32371,2:3:0:0:
153,94,32434,6,0,L|163:201,1,99.9999952316285,0|0,2:3|2:3,2:3:0:0:
262,274,32688,6,0,L|249:152,1,99.9999952316285,0|0,2:3|2:3,2:3:0:0:
344,75,32941,6,0,L|353:196,1,99.9999952316285,0|0,2:3|2:3,2:3:0:0:
256,192,33194,12,0,33890,2:3:0:0:
142,233,33953,6,0,L|246:273,1,99.9999952316285,0|0,2:3|2:3,2:3:0:0:
401,212,34207,6,0,L|281:196,1,99.9999952316285,0|0,2:3|2:3,2:3:0:0:
207,64,34460,6,0,L|304:127,1,99.9999952316285,0|0,2:3|2:3,2:3:0:0:
256,192,34713,12,0,35409,2:3:0:0:
213,60,35472,5,0,2:3:0:0:
107,127,35663,1,0,2:3:0:0:
301,146,35854,1,0,2:3:0:0:
342,48,36045,1,0,2:3:0:0:
456,95,36236,5,0,2:3:0:0:
407,192,36427,1,0,2:3:0:0:
301,146,36618,1,0,2:3:0:0:
342,48,36809,1,0,2:3:0:0:
491,231,37000,5,0,2:3:0:0:
377,305,37191,1,0,2:3:0:0:
486,373,37382,1,0,2:3:0:0:
288,370,37573,1,0,2:3:0:0:
288,233,37764,1,0,2:3:0:0:
154,233,37956,1,0,2:3:0:0:
91,348,38147,1,0,2:3:0:0:
67,136,38338,1,0,2:3:0:0:
265,204,38529,5,0,0:0:0:0:
172,53,38720,1,0,0:0:0:0:
363,359,38911,1,0,0:0:0:0:
470,359,39102,1,0,0:0:0:0:
256,17,39293,5,0,0:0:0:0:
369,193,39484,1,0,0:0:0:0:
470,359,39675,1,0,0:0:0:0:
255,192,39866,1,0,0:0:0:0:
166,275,40057,6,0,P|220:311|280:309,1,99.9999952316285,0|0,2:3|2:3,2:3:0:0:
302,301,40351,1,0,2:3:0:0:
349,277,40446,1,0,2:3:0:0:
291,69,40636,5,0,2:3:0:0:
263,82,40731,1,0,2:3:0:0:
237,99,40826,2,0,L|190:197,2,99.9999952316285,0|0|0,2:3|2:3|2:3,2:3:0:0:
373,162,41396,5,0,2:3:0:0:
368,194,41491,1,0,2:3:0:0:
357,214,41585,2,0,B|321:260|242:279,1,99.9999952316285,0|0,2:3|2:3,2:3:0:0:
205,252,41870,1,0,2:3:0:0:
182,230,41965,2,0,P|144:185|143:137,1,99.9999952316285,0|0,2:3|2:3,2:3:0:0:
170,115,42250,1,0,2:3:0:0:
200,94,42345,1,0,2:3:0:0:
401,56,42535,5,0,2:3:0:0:
142,321,42725,1,0,2:3:0:0:
257,153,43067,5,0,2:3:0:0:
289,155,43162,1,0,2:3:0:0:
323,166,43257,1,0,2:3:0:0:
351,183,43352,1,0,2:3:0:0:
375,209,43447,1,0,2:3:0:0:
323,308,43637,6,0,P|261:318|200:298,1,99.9999952316285,0|0,2:3|2:3,2:3:0:0:
130,182,44017,1,0,2:3:0:0:
151,152,44112,1,0,2:3:0:0:
181,132,44207,1,0,2:3:0:0:
208,117,44302,1,0,2:3:0:0:
244,107,44396,1,0,2:3:0:0:
279,105,44491,1,0,2:3:0:0:
314,111,44586,1,0,2:3:0:0:
407,292,44776,5,0,2:3:0:0:
105,58,44966,1,0,2:3:0:0:
154,212,45156,6,0,P|126:294|48:362,2,149.999992847443,0|0|0,2:3|2:3|2:3,2:3:0:0:
275,107,46058,5,0,2:3:0:0:
296,130,46153,1,0,2:3:0:0:
314,157,46248,1,0,2:3:0:0:
331,181,46343,1,0,2:3:0:0:
347,210,46438,1,0,2:3:0:0:
280,302,46628,5,0,2:3:0:0:
243,293,46723,1,0,2:3:0:0:
216,271,46818,1,0,2:3:0:0:
196,239,46913,1,0,2:3:0:0:
188,203,47008,1,0,2:3:0:0:
236,105,47198,6,0,L|195:7,2,99.9999952316285,0|0|0,2:3|2:3|2:3,2:3:0:0:
253,138,47672,1,0,2:3:0:0:
272,170,47767,1,0,2:3:0:0:
294,201,47862,1,0,2:3:0:0:
318,229,47957,1,0,2:3:0:0:
432,162,48147,5,0,2:3:0:0:
432,162,48242,1,0,2:3:0:0:
432,162,48337,2,0,L|494:251,2,99.9999952316285,0|0|0,2:3|2:3|2:3,2:3:0:0:
327,65,48811,5,0,2:3:0:0:
293,56,48906,1,0,2:3:0:0:
250,58,49001,1,0,2:3:0:0:
210,71,49095,1,0,2:3:0:0:
130,252,49285,1,0,2:3:0:0:
112,50,49475,1,0,2:3:0:0:
314,229,49665,5,0,2:3:0:0:
330,253,49760,1,0,2:3:0:0:
347,285,49855,1,0,2:3:0:0:
186,37,50045,1,0,2:3:0:0:
126,199,50235,6,0,P|122:259|161:301,1,99.9999952316285,0|0,2:3|2:3,2:3:0:0:
212,309,50519,1,0,2:3:0:0:
283,311,50614,6,0,L|308:333,6,24.9999988079071,0|0|0|0|0|0|0,2:3|2:3|2:3|2:3|2:3|2:3|2:3,2:3:0:0:
242,221,50994,1,0,2:3:0:0:
355,170,51184,6,0,L|384:161,6,24.9999988079071,0|0|0|0|0|0|0,2:3|2:3|2:3|2:3|2:3|2:3|2:3,2:3:0:0:
245,113,51564,1,0,2:3:0:0:
113,161,51754,5,0,2:3:0:0:
125,199,51848,1,0,2:3:0:0:
149,232,51943,1,0,2:3:0:0:
175,253,52038,1,0,2:3:0:0:
261,284,52133,6,0,L|261:318,6,24.9999988079071,0|0|0|0|0|0|0,2:3|2:3|2:3|2:3|2:3|2:3|2:3,2:3:0:0:
283,177,52513,1,0,2:3:0:0:
391,217,52703,6,0,L|429:232,6,24.9999988079071,0|0|0|0|0|0|0,2:3|2:3|2:3|2:3|2:3|2:3|2:3,2:3:0:0:
356,103,53083,1,0,2:3:0:0:
222,57,53273,5,0,2:3:0:0:
192,75,53368,1,0,2:3:0:0:
173,108,53463,1,0,2:3:0:0:
165,146,53558,1,0,2:3:0:0:
156,212,53652,6,0,L|112:217,6,24.9999988079071,0|0|0|0|0|0|0,2:3|2:3|2:3|2:3|2:3|2:3|2:3,2:3:0:0:
256,229,54032,1,0,2:3:0:0:
363,176,54222,6,0,L|402:170,5,24.9999988079071,0|0|0|0|0|0,2:3|2:3|2:3|2:3|2:3|2:3,2:3:0:0:
236,90,54602,1,0,2:3:0:0:
263,224,54792,5,0,2:3:0:0:
287,249,54887,1,0,2:3:0:0:
319,260,54982,1,0,2:3:0:0:
344,266,55076,1,0,2:3:0:0:
407,268,55171,6,0,L|411:301,6,24.9999988079071,0|0|0|0|0|0|0,2:3|2:3|2:3|2:3|2:3|2:3|2:3,2:3:0:0:
422,112,55551,1,0,2:3:0:0:
276,99,55741,6,0,L|232:94,6,24.9999988079071,0|0|0|0|0|0|0,2:3|2:3|2:3|2:3|2:3|2:3|2:3,2:3:0:0:
368,188,56121,1,0,2:3:0:0:
189,141,56311,5,0,2:3:0:0:
166,168,56406,1,0,2:3:0:0:
156,197,56501,1,0,2:3:0:0:
158,233,56595,1,0,2:3:0:0:
165,305,56690,6,0,L|137:318,6,24.9999988079071,0|0|0|0|0|0|0,2:3|2:3|2:3|2:3|2:3|2:3|2:3,2:3:0:0:
291,288,57070,1,0,2:3:0:0:
418,190,57450,5,0,2:3:0:0:
399,167,57545,1,0,2:3:0:0:
371,148,57640,1,0,2:3:0:0:
346,138,57735,1,0,2:3:0:0:
318,131,57830,1,0,2:3:0:0:
286,127,57925,1,0,2:3:0:0:
260,133,58020,1,0,2:3:0:0:
235,145,58114,1,0,2:3:0:0:
217,166,58209,1,0,2:3:0:0:
179,79,58969,5,0,2:3:0:0:
162,114,59064,1,0,2:3:0:0:
160,150,59159,1,0,2:3:0:0:
168,188,59254,1,0,2:3:0:0:
184,222,59349,1,0,2:3:0:0:
203,254,59444,1,0,2:3:0:0:
230,282,59539,1,0,2:3:0:0:
263,297,59633,1,0,2:3:0:0:
303,306,59728,1,0,2:3:0:0:
280,74,60488,5,0,2:3:0:0:
327,103,60583,1,0,2:3:0:0:
370,143,60678,1,0,2:3:0:0:
396,198,60773,1,0,2:3:0:0:
402,259,60868,1,0,2:3:0:0:
370,305,60963,1,0,2:3:0:0:
319,336,61058,1,0,2:3:0:0:
263,343,61152,1,0,2:3:0:0:
211,324,61247,1,0,2:3:0:0:
144,237,62007,5,0,2:3:0:0:
202,283,62102,1,0,2:3:0:0:
272,305,62197,1,0,2:3:0:0:
344,297,62292,1,0,2:3:0:0:
397,247,62387,1,0,2:3:0:0:
426,181,62481,1,0,2:3:0:0:
426,108,62576,1,0,2:3:0:0:
386,46,62671,1,0,2:3:0:0:
297,64,62859,6,0,P|245:112|312:228,1,199.999990463257,0|0,2:3|2:3,2:3:0:0:
163,114,63112,6,0,P|175:189|264:280,1,199.999990463257,0|0,2:3|2:3,2:3:0:0:
108,221,63365,6,0,P|153:293|263:366,1,199.999990463257,0|0,2:3|2:3,2:3:0:0:
256,192,63618,12,0,64314,2:3:0:0:
255,257,64377,6,0,B|150:243|159:114|277:115,1,199.999990463257,0|0,2:3|2:3,2:3:0:0:
333,228,64631,6,0,B|211:258|186:140|268:94,1,199.999990463257,0|0,2:3|2:3,2:3:0:0:
407,194,64884,6,0,P|277:172|234:117,1,199.999990463257,0|0,2:3|2:3,2:3:0:0:
256,192,65137,12,0,65833,2:3:0:0:
243,178,65896,6,0,P|242:254|291:367,1,199.999990463257,0|0,2:3|2:3,2:3:0:0:
306,98,66150,6,0,P|307:212|259:323,1,199.999990463257,0|0,2:3|2:3,2:3:0:0:
232,30,66403,6,0,P|236:106|303:241,1,199.999990463257,0|0,2:3|2:3,2:3:0:0:
256,192,66656,12,0,67352,2:3:0:0:
226,275,67415,6,0,P|241:202|250:217,1,199.999990463257,0|0,2:3|2:3,2:3:0:0:
299,244,67669,6,0,P|311:163|237:198,1,199.999990463257,0|0,2:3|2:3,2:3:0:0:
226,268,67922,6,0,P|283:326|297:246,1,199.999990463257,0|0,2:3|2:3,2:3:0:0:
256,192,68175,12,0,68871,2:3:0:0:
467,254,68934,6,0,L|299:135,1,199.999990463257,0|0,2:3|2:3,2:3:0:0:
83,45,69188,6,0,L|251:173,1,199.999990463257,0|0,2:3|2:3,2:3:0:0:
366,343,69441,6,0,L|173:198,1,199.999990463257,0|0,2:3|2:3,2:3:0:0:
256,192,69694,12,0,70390,2:3:0:0:
51,202,70453,6,0,L|208:51,1,199.999990463257,0|0,2:3|2:3,2:3:0:0:
311,50,70707,6,0,L|204:234,1,199.999990463257,0|0,2:3|2:3,2:3:0:0:
180,341,70960,6,0,L|373:217,1,199.999990463257,0|0,2:3|2:3,2:3:0:0:
256,192,71213,12,0,71909,2:3:0:0:
260,190,71972,6,0,B|287:51|287:51|208:35,1,199.999990463257,0|0,2:3|2:3,2:3:0:0:
328,225,72226,6,0,B|467:258|467:258|445:331,1,199.999990463257,0|0,2:3|2:3,2:3:0:0:
235,261,72479,6,0,B|94:212|94:212|117:145,1,199.999990463257,0|0,2:3|2:3,2:3:0:0:
256,192,72732,12,0,73428,2:3:0:0:
99,41,73491,6,0,L|323:42,1,199.999990463257,0|0,2:3|2:3,2:3:0:0:
448,314,73745,6,0,L|449:104,1,199.999990463257,0|0,2:3|2:3,2:3:0:0:
123,333,73998,6,0,L|337:336,1,199.999990463257,0|0,2:3|2:3,2:3:0:0:
384,279,74251,5,0,2:3:0:0:
408,215,74346,1,0,2:3:0:0:
399,147,74441,1,0,2:3:0:0:
359,90,74536,1,0,2:3:0:0:
291,73,74631,1,0,2:3:0:0:
225,92,74726,1,0,2:3:0:0:
180,145,74821,1,0,2:3:0:0:
192,214,74915,1,0,2:3:0:0:
268,205,75010,6,0,P|336:154|372:10,1,199.999990463257,0|0,2:3|2:3,2:3:0:0:
256,244,75264,6,0,L|454:202,1,199.999990463257,0|0,2:3|2:3,2:3:0:0:
253,279,75517,6,0,P|321:276|449:354,1,199.999990463257,0|0,2:3|2:3,2:3:0:0:
298,346,75770,5,0,2:3:0:0:
227,342,75865,1,0,2:3:0:0:
162,312,75960,1,0,2:3:0:0:
113,260,76055,1,0,2:3:0:0:
80,197,76150,1,0,2:3:0:0:
87,126,76245,1,0,2:3:0:0:
133,73,76340,1,0,2:3:0:0:
203,53,76434,1,0,2:3:0:0:
293,49,76529,6,0,P|364:49|484:98,1,199.999990463257,0|0,2:3|2:3,2:3:0:0:
274,84,76783,6,0,P|360:108|361:238,1,199.999990463257,0|0,2:3|2:3,2:3:0:0:
249,130,77036,6,0,P|311:163|232:221,1,199.999990463257,0|0,2:3|2:3,2:3:0:0:
156,157,77289,5,0,2:3:0:0:
156,157,77384,1,0,2:3:0:0:
156,157,77479,1,0,2:3:0:0:
154,173,77574,5,0,2:3:0:0:
151,196,77669,5,0,2:3:0:0:
141,180,77764,1,0,2:3:0:0:
127,157,77859,1,0,2:3:0:0:
118,128,77953,1,0,2:3:0:0:
81,119,78001,6,0,L|75:36,4,49.9999976158143,0|0|0|0|0,2:3|2:3|2:3|2:3|2:3,2:3:0:0:
78,163,78475,1,0,2:3:0:0:
80,208,78570,6,0,L|44:260,4,49.9999976158143,0|0|0|0|0,2:3|2:3|2:3|2:3|2:3,2:3:0:0:
127,192,79045,1,0,2:3:0:0:
176,200,79140,6,0,L|234:216,3,49.9999976158143,0|0|0|0,2:3|2:3|2:3|2:3,2:3:0:0:
262,216,79519,1,0,2:3:0:0:
304,215,79614,1,0,2:3:0:0:
337,200,79709,1,0,2:3:0:0:
357,167,79804,1,0,2:3:0:0:
376,121,79899,6,0,L|394:71,3,49.9999976158143,0|0|0|0,2:3|2:3|2:3|2:3,2:3:0:0:
432,44,80279,1,0,2:3:0:0:
159,73,80469,5,0,2:3:0:0:
159,73,80564,1,0,2:3:0:0:
159,73,80659,2,0,L|161:23,3,49.9999976158143,0|0|0|0,2:3|2:3|2:3|2:3,2:3:0:0:
209,161,81038,5,0,2:3:0:0:
229,185,81133,1,0,2:3:0:0:
261,202,81228,1,0,2:3:0:0:
299,204,81323,1,0,2:3:0:0:
334,196,81418,1,0,2:3:0:0:
306,52,81608,5,0,2:3:0:0:
343,51,81703,1,0,2:3:0:0:
380,63,81798,1,0,2:3:0:0:
407,89,81893,1,0,2:3:0:0:
430,126,81988,1,0,2:3:0:0:
410,258,82178,5,0,2:3:0:0:
382,287,82273,1,0,2:3:0:0:
346,302,82368,1,0,2:3:0:0:
304,304,82463,1,0,2:3:0:0:
241,305,82557,6,0,L|185:341,3,49.9999976158143,0|0|0|0,2:3|2:3|2:3|2:3,2:3:0:0:
121,216,82937,1,0,2:3:0:0:
360,109,83127,5,0,2:3:0:0:
380,137,83222,1,0,2:3:0:0:
387,176,83317,1,0,2:3:0:0:
198,256,83507,5,0,2:3:0:0:
287,59,83697,5,0,2:3:0:0:
313,38,83792,1,0,2:3:0:0:
349,32,83887,1,0,2:3:0:0:
388,34,83982,1,0,2:3:0:0:
436,62,84076,6,0,L|432:137,1,49.9999976158143,0|0,2:3|2:3,2:3:0:0:
218,129,84456,6,0,L|218:183,1,49.9999976158143,0|0,2:3|2:3,2:3:0:0:
435,193,84646,2,0,L|437:247,1,49.9999976158143,0|0,2:3|2:3,2:3:0:0:
153,217,85026,6,0,L|154:288,1,49.9999976158143,0|0,2:3|2:3,2:3:0:0:
376,266,85216,2,0,L|383:334,1,49.9999976158143,0|0,2:3|2:3,2:3:0:0:
281,204,85406,5,0,2:3:0:0:
281,204,85501,1,0,2:3:0:0:
281,204,85595,2,0,L|222:161,3,49.9999976158143,0|0|0|0,2:3|2:3|2:3|2:3,2:3:0:0:
321,217,85975,1,0,2:3:0:0:
385,208,86070,1,0,2:3:0:0:
427,155,86165,1,0,2:3:0:0:
424,92,86260,1,0,2:3:0:0:
386,41,86355,1,0,2:3:0:0:
97,181,86545,5,0,2:3:0:0:
125,240,86640,1,0,2:3:0:0:
169,288,86735,1,0,2:3:0:0:
231,315,86830,1,0,2:3:0:0:
296,321,86925,1,0,2:3:0:0:
363,307,87019,1,0,2:3:0:0:
428,285,87114,6,0,L|473:324,2,49.9999976158143,0|0|0,2:3|2:3|2:3,2:3:0:0:
230,190,87494,1,0,2:3:0:0:
386,114,87684,5,0,2:3:0:0:
408,101,87779,1,0,2:3:0:0:
430,86,87874,1,0,2:3:0:0:
301,241,88064,5,0,2:3:0:0:
234,87,88254,6,0,L|216:31,3,49.9999976158143,0|0|0|0,2:3|2:3|2:3|2:3,2:3:0:0:
143,92,88633,5,0,2:3:0:0:
126,110,88728,1,0,2:3:0:0:
113,147,88823,1,0,2:3:0:0:
111,177,88918,1,0,2:3:0:0:
133,213,89013,5,0,2:3:0:0:
160,243,89108,1,0,2:3:0:0:
191,262,89203,1,0,2:3:0:0:
228,271,89298,1,0,2:3:0:0:
275,270,89393,5,0,2:3:0:0:
321,266,89488,1,0,2:3:0:0:
362,246,89583,1,0,2:3:0:0:
394,212,89678,1,0,2:3:0:0:
404,141,89773,5,0,2:3:0:0:
376,75,89868,1,0,2:3:0:0:
306,60,89963,1,0,2:3:0:0:
250,105,90057,1,0,2:3:0:0:
309,148,90152,6,0,P|352:79|463:159,1,199.999990463257,0|0,2:3|2:3,2:3:0:0:
241,195,90406,6,0,P|247:96|340:7,1,199.999990463257,0|0,2:3|2:3,2:3:0:0:
182,245,90659,6,0,P|167:108|215:12,1,199.999990463257,0|0,2:3|2:3,2:3:0:0:
103,275,90912,5,0,2:3:0:0:
164,325,91007,1,0,2:3:0:0:
246,342,91102,1,0,2:3:0:0:
323,335,91197,1,0,2:3:0:0:
387,290,91292,1,0,2:3:0:0:
418,222,91387,1,0,2:3:0:0:
393,155,91482,1,0,2:3:0:0:
320,115,91576,1,0,2:3:0:0:
327,198,91671,6,0,P|365:269|240:325,1,199.999990463257,0|0,2:3|2:3,2:3:0:0:
320,115,91925,6,0,P|402:169|433:294,1,199.999990463257,0|0,2:3|2:3,2:3:0:0:
306,39,92178,6,0,P|432:94|491:184,1,199.999990463257,0|0,2:3|2:3,2:3:0:0:
232,55,92431,5,0,2:3:0:0:
157,73,92526,1,0,2:3:0:0:
92,115,92621,1,0,2:3:0:0:
73,193,92716,1,0,2:3:0:0:
106,268,92811,1,0,2:3:0:0:
180,299,92906,1,0,2:3:0:0:
262,286,93001,1,0,2:3:0:0:
325,213,93158,6,0,P|243:210|257:74,1,199.999990463257,0|0,2:3|2:3,2:3:0:0:
400,248,93412,6,0,P|311:292|187:256,1,199.999990463257,0|0,2:3|2:3,2:3:0:0:
473,274,93665,6,0,P|361:355|254:361,1,199.999990463257,0|0,2:3|2:3,2:3:0:0:
256,192,93950,12,0,95849,2:3:0:0:
