osu file format v14

[General]
AudioFilename: audio.mp3
AudioLeadIn: 0
PreviewTime: -1
Countdown: 1
SampleSet: Normal
StackLeniency: 0.7
Mode: 0
LetterboxInBreaks: 0
WidescreenStoryboard: 0

[Editor]
DistanceSpacing: 1.2
BeatDivisor: 4
GridSize: 4
TimelineZoom: 1

[Metadata]
Title:Go Beat Crazy
TitleUnicode:Go Beat Crazy
Artist:Fastway
ArtistUnicode:Fastway
Creator:ghost23
Version:Crazy
Source:Eurobeat Initial D Fastway
Tags:
BeatmapID:1015799
BeatmapSetID:475443

[Difficulty]
HPDrainRate:5
CircleSize:4.2
OverallDifficulty:6
ApproachRate:9.2
SliderMultiplier:1.7
SliderTickRate:1

[Events]
//Background and Video events
0,0,"speed.jpg",0,0
//Break Periods
//Storyboard Layer 0 (Background)
//Storyboard Layer 1 (Fail)
//Storyboard Layer 2 (Pass)
//Storyboard Layer 3 (Foreground)
//Storyboard Sound Samples

[TimingPoints]
6852.78082273065,387.221684414327,4,1,0,100,1,0
219011,387.221684414327,4,1,0,100,1,0

[HitObjects]
256,248,6854,6,0,B|324:276|328:196|388:152|416:244,1,170
192,68,7434,2,0,P|124:72|144:128,1,127.5
224,220,8015,1,0,0:0:0:0:
240,228,8112,1,0,0:0:0:0:
376,188,8403,2,0,P|404:136|320:96,1,170
152,112,8984,5,0,0:0:0:0:
128,136,9081,1,0,0:0:0:0:
116,168,9178,1,0,0:0:0:0:
116,208,9275,1,0,0:0:0:0:
136,240,9372,1,0,0:0:0:0:
168,264,9469,1,0,0:0:0:0:
208,272,9566,1,0,0:0:0:0:
248,260,9663,1,0,0:0:0:0:
280,232,9760,1,0,0:0:0:0:
296,196,9857,1,0,0:0:0:0:
368,56,9953,6,0,B|420:124|468:100|400:216,1,170
224,304,10535,2,0,P|160:252|172:172,1,170
296,64,11116,1,0,0:0:0:0:
320,60,11213,1,0,0:0:0:0:
360,264,11504,2,0,L|160:316,1,170
108,128,12086,2,0,L|196:68,1,85
364,84,12376,1,0,0:0:0:0:
376,120,12473,1,0,0:0:0:0:
384,160,12570,1,0,0:0:0:0:
384,200,12667,1,0,0:0:0:0:
384,240,12764,1,0,0:0:0:0:
372,276,12861,1,0,0:0:0:0:
360,312,12958,1,0,0:0:0:0:
392,56,13055,6,0,L|200:68,1,170
104,164,13636,2,0,P|96:244|180:236,1,170
312,172,14218,1,0,0:0:0:0:
340,168,14314,1,0,0:0:0:0:
392,44,14605,2,0,L|200:64,1,170
88,152,15187,1,0,0:0:0:0:
68,188,15284,1,0,0:0:0:0:
76,228,15381,1,0,0:0:0:0:
104,256,15477,1,0,0:0:0:0:
144,272,15574,1,0,0:0:0:0:
184,252,15671,1,0,0:0:0:0:
208,212,15768,1,0,0:0:0:0:
248,184,15865,1,0,0:0:0:0:
292,184,15962,1,0,0:0:0:0:
332,204,16059,1,0,0:0:0:0:
192,340,16156,6,0,L|376:308,1,170
184,144,16737,2,0,L|364:156,1,170
344,316,17319,1,0,0:0:0:0:
308,328,17416,1,0,0:0:0:0:
144,228,17513,2,0,L|124:324,1,85
216,188,17900,2,0,L|316:196,1,85
76,212,18288,2,0,L|96:108,1,85
168,68,18676,1,0,0:0:0:0:
256,40,18869,1,0,0:0:0:0:
104,256,19257,6,0,P|128:296|196:292,1,85
332,312,19646,2,0,P|384:300|392:252,1,85
200,216,20034,1,0,0:0:0:0:
140,148,20228,1,0,0:0:0:0:
368,60,20615,2,0,L|416:136,1,85
372,268,21003,2,0,L|312:184,1,85
220,88,21391,1,0,0:0:0:0:
120,136,21584,1,0,0:0:0:0:
224,200,21778,1,0,0:0:0:0:
400,60,22166,6,0,P|440:88|416:148,1,85
368,240,22553,1,0,0:0:0:0:
276,128,22747,1,0,0:0:0:0:
280,304,22941,1,0,0:0:0:0:
392,248,23135,1,0,0:0:0:0:
320,64,23523,1,0,0:0:0:0:
128,60,23910,1,0,0:0:0:0:
228,64,24298,1,0,0:0:0:0:
172,152,24686,2,0,L|264:156,1,85
416,84,25073,1,0,0:0:0:0:
324,324,25461,6,0,L|324:228,1,85
324,80,25848,2,0,L|324:204,1,85
220,248,26236,1,0,0:0:0:0:
196,152,26430,1,0,0:0:0:0:
404,312,26818,2,0,P|440:272|432:228,1,85
248,256,27205,2,0,P|248:208|288:176,1,85
400,312,27593,1,0,0:0:0:0:
272,208,27787,1,0,0:0:0:0:
444,248,27981,1,0,0:0:0:0:
312,144,28174,1,0,0:0:0:0:
80,240,28562,6,0,L|160:312,1,85
248,300,28950,1,0,0:0:0:0:
320,192,29143,1,0,0:0:0:0:
192,184,29337,1,0,0:0:0:0:
368,48,29725,1,0,0:0:0:0:
160,76,30113,1,0,0:0:0:0:
276,216,30500,1,0,0:0:0:0:
440,108,30888,2,0,L|432:216,1,85
392,272,31276,5,0,0:0:0:0:
320,312,31469,1,0,0:0:0:0:
240,300,31642,1,0,0:0:0:0:
116,200,31835,2,0,P|88:156|96:112,1,85
180,36,32223,1,0,0:0:0:0:
404,56,32611,2,0,P|428:108|404:144,1,85
268,180,32998,1,0,0:0:0:0:
376,272,33192,1,0,0:0:0:0:
417,139,33386,2,0,L|401:43,1,85
264,72,33774,1,0,0:0:0:0:
104,192,34161,1,0,0:0:0:0:
256,324,34549,6,0,P|316:332|336:308,1,85
408,224,34936,1,0,0:0:0:0:
276,188,35130,1,0,0:0:0:0:
408,120,35324,1,0,0:0:0:0:
128,76,35712,1,0,0:0:0:0:
88,216,36099,2,0,L|184:280,1,85
252,232,36487,1,0,0:0:0:0:
264,104,36681,1,0,0:0:0:0:
392,140,36875,1,0,0:0:0:0:
412,232,37069,5,0,0:0:0:0:
376,256,37165,1,0,0:0:0:0:
332,268,37262,1,0,0:0:0:0:
292,264,37359,1,0,0:0:0:0:
252,244,37456,1,0,0:0:0:0:
408,60,37844,2,0,L|312:84,1,85
156,140,38231,1,0,0:0:0:0:
325,80,38619,2,0,L|436:116,1,85
416,232,39007,1,0,0:0:0:0:
300,120,39201,1,0,0:0:0:0:
188,228,39394,1,0,0:0:0:0:
84,72,39588,2,0,L|68:180,1,85
136,272,39976,1,0,0:0:0:0:
272,308,40170,2,0,P|376:292|400:208,1,170
288,80,40945,5,0,0:0:0:0:
200,200,41139,1,0,0:0:0:0:
72,68,41333,2,0,L|92:168,1,85
176,268,41720,1,0,0:0:0:0:
308,212,41914,2,0,L|404:160,1,85
396,80,42302,1,0,0:0:0:0:
280,52,42496,1,0,0:0:0:0:
232,44,42593,1,0,0:0:0:0:
196,72,42689,1,0,0:0:0:0:
208,116,42786,1,0,0:0:0:0:
252,140,42883,1,0,0:0:0:0:
264,176,42980,1,0,0:0:0:0:
232,216,43077,1,0,0:0:0:0:
100,164,43271,1,0,0:0:0:0:
112,276,43465,1,0,0:0:0:0:
192,176,44020,6,0,L|252:80,1,85
388,56,44407,1,0,0:0:0:0:
392,208,44601,1,0,0:0:0:0:
268,304,44795,2,0,L|168:336,1,85
76,148,45182,1,0,0:0:0:0:
248,192,45376,1,0,0:0:0:0:
380,124,45570,2,0,L|436:56,1,85
444,224,45958,1,0,0:0:0:0:
340,320,46152,1,0,0:0:0:0:
276,180,46345,6,0,L|152:156,1,85
104,276,46733,1,0,0:0:0:0:
128,60,46927,1,0,0:0:0:0:
216,268,47121,1,0,0:0:0:0:
372,64,47508,2,0,P|400:140|308:176,1,170
152,280,48284,2,0,P|112:256|144:144,1,170
272,64,48865,1,0,0:0:0:0:
360,204,49059,2,0,L|420:140,1,85
432,308,49447,1,0,0:0:0:0:
472,88,49640,1,0,0:0:0:0:
264,184,49834,1,0,0:0:0:0:
144,316,50222,6,0,L|64:240,1,85
172,96,50609,1,0,0:0:0:0:
280,292,50803,1,0,0:0:0:0:
304,40,50997,2,0,L|380:104,1,85
412,252,51385,1,0,0:0:0:0:
228,140,51579,1,0,0:0:0:0:
204,344,51772,2,0,L|144:268,1,85
104,116,52160,1,0,0:0:0:0:
288,68,52354,1,0,0:0:0:0:
232,280,52548,1,0,0:0:0:0:
388,96,52935,5,0,0:0:0:0:
248,272,53323,6,0,B|192:316|232:352|128:224,1,170
208,52,53904,1,0,0:0:0:0:
388,128,54098,2,0,P|432:160|356:240,1,170
232,312,54680,1,0,0:0:0:0:
96,232,54874,2,0,L|72:112,1,85
192,36,55261,1,0,0:0:0:0:
288,180,55455,1,0,0:0:0:0:
56,108,55649,2,0,L|144:116,1,85
396,132,56037,1,0,0:0:0:0:
96,256,56424,6,0,L|168:348,1,85
352,336,56812,1,0,0:0:0:0:
436,116,57006,1,0,0:0:0:0:
224,48,57199,2,0,P|192:88|232:88,1,85
360,240,57587,1,0,0:0:0:0:
136,204,57781,1,0,0:0:0:0:
356,328,57975,2,0,L|412:244,1,85
152,164,58362,1,0,0:0:0:0:
392,132,58556,1,0,0:0:0:0:
180,324,58750,6,0,L|144:216,1,85
280,80,59138,1,0,0:0:0:0:
336,300,59332,1,0,0:0:0:0:
152,176,59525,2,0,L|192:84,1,85
368,120,59913,2,0,B|424:220|356:208|384:248|464:252,1,170
192,300,60494,1,0,0:0:0:0:
368,120,60688,2,0,B|304:92|288:152|248:128|272:32,1,170
124,248,61270,1,0,0:0:0:0:
320,296,61464,2,0,P|368:288|384:248,1,85
440,72,61851,1,0,0:0:0:0:
248,272,62045,1,0,0:0:0:0:
152,40,62239,1,0,0:0:0:0:
368,192,62627,6,0,L|444:260,1,85
152,116,63014,1,0,0:0:0:0:
408,64,63208,1,0,0:0:0:0:
280,308,63402,2,0,L|176:312,1,85
112,96,63789,1,0,0:0:0:0:
288,296,63983,1,0,0:0:0:0:
392,56,64177,2,0,L|416:168,1,85
320,324,64565,1,0,0:0:0:0:
248,96,64759,1,0,0:0:0:0:
64,212,64952,1,0,0:0:0:0:
244,316,65146,5,0,0:0:0:0:
232,120,65340,2,0,P|280:88|308:176,1,170
432,320,65922,1,0,0:0:0:0:
196,188,66115,2,0,P|132:196|164:272,1,170
424,216,66697,1,0,0:0:0:0:
236,76,66891,2,0,L|124:80,1,85
80,288,67278,1,0,0:0:0:0:
296,256,67666,2,0,L|416:216,1,85
420,80,68054,1,0,0:0:0:0:
264,88,68247,1,0,0:0:0:0:
140,76,68806,6,0,P|100:120|164:204,1,170
356,240,69387,2,0,P|400:252|332:300,1,170
168,256,69967,1,0,0:0:0:0:
160,228,70064,1,0,0:0:0:0:
376,172,70355,2,0,P|404:120|320:80,1,170
168,144,70936,5,0,0:0:0:0:
152,176,71033,1,0,0:0:0:0:
152,220,71130,1,0,0:0:0:0:
172,256,71227,1,0,0:0:0:0:
208,272,71324,1,0,0:0:0:0:
244,272,71421,1,0,0:0:0:0:
280,252,71518,1,0,0:0:0:0:
304,216,71615,1,0,0:0:0:0:
304,172,71712,1,0,0:0:0:0:
280,140,71809,1,0,0:0:0:0:
348,304,71907,6,0,P|412:240|412:132,1,170
184,152,72488,2,0,B|120:132|160:88|264:52,1,170
388,184,73068,1,0,0:0:0:0:
380,208,73165,1,0,0:0:0:0:
184,308,73456,2,0,L|116:152,1,170
312,56,74038,2,0,L|404:96,1,85
436,264,74328,1,0,0:0:0:0:
408,292,74425,1,0,0:0:0:0:
368,292,74522,1,0,0:0:0:0:
340,256,74619,1,0,0:0:0:0:
296,240,74716,1,0,0:0:0:0:
256,264,74813,1,0,0:0:0:0:
228,296,74910,1,0,0:0:0:0:
112,192,75008,6,0,P|96:116|192:60,1,170
392,124,75588,2,0,L|288:292,1,170
136,196,76170,1,0,0:0:0:0:
136,164,76266,1,0,0:0:0:0:
336,56,76558,2,0,P|400:104|368:208,1,170
236,280,77139,1,0,0:0:0:0:
188,268,77236,1,0,0:0:0:0:
136,252,77333,1,0,0:0:0:0:
152,208,77429,1,0,0:0:0:0:
168,168,77526,1,0,0:0:0:0:
184,128,77623,1,0,0:0:0:0:
204,88,77720,1,0,0:0:0:0:
248,100,77817,1,0,0:0:0:0:
296,108,77914,1,0,0:0:0:0:
344,112,78011,1,0,0:0:0:0:
292,312,78109,6,0,P|208:328|184:256,1,170
264,52,78689,2,0,L|444:64,1,170
368,264,79271,1,0,0:0:0:0:
328,268,79368,1,0,0:0:0:0:
144,236,79465,2,0,L|124:332,1,85
308,212,79852,2,0,L|416:228,1,85
164,136,80240,2,0,L|184:16,1,85
352,120,80628,1,0,0:0:0:0:
264,268,80821,1,0,0:0:0:0:
