osu file format v14

[General]
AudioFilename: audio.mp3
AudioLeadIn: 0
PreviewTime: 91984
Countdown: 0
SampleSet: Soft
StackLeniency: 0.5
Mode: 0
LetterboxInBreaks: 0
WidescreenStoryboard: 0

[Editor]
DistanceSpacing: 1
BeatDivisor: 4
GridSize: 32
TimelineZoom: 3.099999

[Metadata]
Title:Dandelion
TitleUnicode:Dandelion
Artist:Farhan feat. GUMI
ArtistUnicode:Farhan feat. GUMI
Creator:Stixy
Version:Extra
Source:Arcaea
Tags:rhythm video game vocaloid female japanese pop jpop j-pop crafTuner re:TUNED browiec pikaqours cut version ver edit グミ
BeatmapID:2461086
BeatmapSetID:1180255

[Difficulty]
HPDrainRate:5
CircleSize:3.8
OverallDifficulty:9
ApproachRate:9.3
SliderMultiplier:1.8
SliderTickRate:1

[Events]
//Background and Video events
0,0,"bg.jpg",0,0
//Break Periods
//Storyboard Layer 0 (Background)
//Storyboard Layer 1 (Fail)
//Storyboard Layer 2 (Pass)
//Storyboard Layer 3 (Foreground)
//Storyboard Layer 4 (Overlay)
//Storyboard Sound Samples

[TimingPoints]
5890,355.029585798817,4,2,1,50,1,0
5890,-125,4,2,1,50,0,0
10949,-125,4,2,1,5,0,0
11037,-125,4,2,1,50,0,0
11570,-111.111111111111,4,2,1,50,0,0
17605,-90.9090909090908,4,2,1,70,0,0
23197,-90.9090909090908,4,2,1,5,0,0
23286,-90.9090909090908,4,2,1,70,0,0
28434,-250.000000000001,4,2,1,70,0,0
29676,-111.111111111111,4,2,1,70,0,0
29943,-111.111111111111,4,2,1,5,0,0
30032,-111.111111111111,4,2,1,50,0,0
47073,-99.9999999999999,4,2,1,60,0,0
85505,-99.9999999999999,4,2,1,5,0,0
85594,-99.9999999999999,4,2,1,60,0,0
92517,-83.3333333333333,4,2,1,80,0,1
116481,-111.111111111111,4,2,1,80,0,0

[Colours]
Combo1 : 255,221,117
Combo2 : 255,179,217
Combo3 : 255,125,125
Combo4 : 255,198,140

[HitObjects]
46,69,5890,6,0,P|114:54|175:89,1,144,2|2,0:0|0:0,0:0:0:0:
207,185,6422,2,0,B|178:275|178:275|205:324,1,144,2|2,0:0|0:0,0:0:0:0:
415,214,7132,6,0,B|344:213|372:270|284:258,1,144,2|2,0:0|0:0,0:0:0:0:
207,185,7665,1,2,0:0:0:0:
274,28,7842,2,0,P|316:85|310:155,1,144,2|2,0:0|0:0,0:0:0:0:
284,258,8375,2,0,L|300:328,1,72,2|2,0:0|0:0,0:0:0:0:
207,185,8730,5,2,0:0:0:0:
189,213,9085,1,2,0:0:0:0:
197,313,9262,2,0,L|213:383,1,72,2|0,0:0|0:0,0:0:0:0:
104,270,9617,2,0,L|87:340,1,72,2|0,0:0|0:0,0:0:0:0:
61,176,9972,6,0,P|131:171|188:212,1,144,2|2,0:0|0:0,0:0:0:0:
296,373,10682,2,0,B|280:335|280:335|303:271,1,108,2|0,0:0|0:0,0:0:0:0:
337,247,11037,2,0,L|328:211,2,36,2|2|2,0:0|0:0|0:0,0:0:0:0:
328,211,11570,6,0,L|346:289,1,80.9999975280763,2|0,0:0|0:0,0:0:0:0:
404,142,11925,1,2,0:0:0:0:
511,256,12103,2,0,P|471:256|436:237,1,80.9999975280763,2|0,0:0|0:0,0:0:0:0:
384,66,12458,2,0,P|403:101|404:142,1,80.9999975280763,2|0,0:0|0:0,0:0:0:0:
150,134,12813,6,0,B|208:121|208:121|249:141|249:141|305:130,1,161.999995056153,2|2,0:0|0:0,0:0:0:0:
63,77,13523,2,0,P|48:114|50:155,1,80.9999975280763,2|0,0:0|0:0,0:0:0:0:
177,282,13878,2,0,P|153:250|118:232,1,80.9999975280763,2|0,0:0|0:0,0:0:0:0:
20,252,14233,1,0,0:0:0:0:
150,134,14410,6,0,B|252:107|252:107|302:132,1,161.999995056153,2|2,0:0|0:0,0:0:0:0:
351,225,14943,2,0,L|373:302,1,80.9999975280763,2|0,0:0|0:0,0:0:0:0:
402,135,15298,2,0,L|415:55,1,80.9999975280763,2|0,0:0|0:0,0:0:0:0:
250,218,15653,6,0,P|214:234|174:232,1,80.9999975280763,10|0,0:0|1:0,0:0:0:0:
52,98,16008,2,0,P|85:121|103:158,1,80.9999975280763,10|0,0:3|1:0,0:0:0:0:
48,330,16363,2,0,P|51:290|74:256,1,80.9999975280763,10|0,0:3|1:0,0:0:0:0:
198,132,16718,1,10,0:3:0:0:
227,337,16895,2,0,L|148:324,1,80.9999975280763,8|8,0:0|0:3,0:0:0:0:
127,317,17162,1,8,0:3:0:0:
127,317,17250,2,0,L|47:330,1,80.9999975280763,10|0,0:3|0:0,0:0:0:0:
237,37,17605,6,0,P|297:110|259:213,1,198.000006042481,6|0,1:2|1:2,0:0:0:0:
136,45,18138,1,2,1:2:0:0:
76,232,18316,1,10,0:2:0:0:
237,37,18493,6,0,L|334:51,1,99.0000030212403,6|0,1:2|0:0,0:0:0:0:
250,228,18848,1,2,1:2:0:0:
125,79,19026,1,8,0:2:0:0:
378,142,19203,2,0,L|476:127,1,99.0000030212403,2|0,0:0|0:0,0:0:0:0:
228,254,19558,1,2,1:2:0:0:
334,51,19736,1,8,0:2:0:0:
424,237,19913,1,2,0:0:0:0:
241,86,20091,6,0,B|120:59|120:59|86:79|81:128,1,198.000006042481,2|8,1:2|0:2,0:0:0:0:
187,253,20623,1,0,0:0:0:0:
54,87,20801,1,2,0:0:0:0:
23,343,20978,2,0,P|72:345|116:323,1,99.0000030212403,2|8,1:2|0:2,0:0:0:0:
241,86,21333,6,0,L|259:183,1,99.0000030212403,2|0,1:2|0:0,0:0:0:0:
316,353,21688,2,0,L|334:255,1,99.0000030212403,2|8,1:2|0:2,0:0:0:0:
337,59,22043,2,0,L|356:157,1,99.0000030212403,2|0,1:2|0:0,0:0:0:0:
214,378,22398,2,0,L|233:281,1,99.0000030212403,2|8,1:2|0:2,0:0:0:0:
439,229,22753,2,0,L|430:277,1,49.5000015106202,10|8,0:2|0:2,0:0:0:0:
189,151,22931,6,0,P|188:78|241:29,1,148.50000453186,6|0,1:2|0:0,0:0:0:0:
337,59,23286,2,0,L|434:41,1,99.0000030212403,8|0,0:2|0:0,0:0:0:0:
233,280,23641,1,2,0:0:0:0:
317,89,23818,1,2,1:2:0:0:
422,312,23996,1,10,0:2:0:0:
189,151,24174,6,0,L|211:33,1,99.0000030212403,6|0,1:2|0:0,0:0:0:0:
330,282,24529,1,2,1:2:0:0:
238,30,24706,1,8,0:2:0:0:
122,228,24884,2,0,P|165:251|214:248,1,99.0000030212403,2|0,0:0|0:0,0:0:0:0:
110,27,25239,1,2,1:2:0:0:
28,254,25416,1,8,0:2:0:0:
173,104,25594,1,2,1:2:0:0:
296,315,25771,6,0,B|316:244|316:244|301:196|301:196|319:119,1,198.000006042481,2|8,1:2|0:2,0:0:0:0:
238,29,26304,1,0,0:0:0:0:
396,216,26481,2,0,P|444:220|487:198,1,99.0000030212403,10|2,0:3|0:0,0:0:0:0:
397,27,26836,1,10,0:2:0:0:
221,126,27014,6,0,L|197:222,1,99.0000030212403,2|0,1:2|0:0,0:0:0:0:
98,53,27369,2,0,L|121:150,1,99.0000030212403,2|0,1:2|0:0,0:0:0:0:
235,316,27724,2,0,P|186:323|140:306,1,99.0000030212403,14|0,0:2|0:0,0:0:0:0:
300,232,28079,2,0,P|330:270|338:319,1,99.0000030212403,10|0,0:3|0:0,0:0:0:0:
196,222,28434,6,0,B|211:157|211:157|241:129|241:129|256:58,1,180,6|0,1:2|0:0,0:0:0:0:
351,13,29499,1,0,1:2:0:0:
340,115,29676,2,0,P|392:82|459:95,1,121.499996292114,8|0,0:2|0:0,0:0:0:0:
475,119,30032,6,0,B|431:221|431:221|465:292,1,161.999995056153,6|0,1:2|0:0,0:0:0:0:
507,356,30564,1,0,0:0:0:0:
400,355,30742,2,0,L|320:369,1,80.9999975280763
352,258,31097,1,2,0:0:0:0:
412,126,31274,6,0,P|461:188|452:266,1,161.999995056153,2|0,0:0|0:0,0:0:0:0:
364,216,31807,2,0,L|284:201,1,80.9999975280763
412,126,32162,2,0,L|490:107,1,80.9999975280763
330,69,32517,2,0,P|294:52|254:52,1,80.9999975280763,2|2,0:0|0:0,0:0:0:0:
125,144,32872,6,0,B|226:181|226:181|273:153,1,161.999995056153,2|2,0:0|0:0,0:0:0:0:
364,216,33404,2,0,L|349:295,1,80.9999975280763,2|0,0:0|0:0,0:0:0:0:
250,282,33759,2,0,L|235:361,1,80.9999975280763,2|0,0:0|0:0,0:0:0:0:
194,195,34114,6,0,P|230:178|271:179,1,80.9999975280763,2|0,0:0|0:0,0:0:0:0:
150,288,34469,2,0,P|117:265|97:230,1,80.9999975280763,2|0,0:0|0:0,0:0:0:0:
209,116,34824,2,0,L|194:195,1,80.9999975280763,2|0,0:0|0:0,0:0:0:0:
300,49,35179,2,0,L|315:128,1,80.9999975280763,2|0,0:0|0:0,0:0:0:0:
207,12,35534,1,2,0:0:0:0:
300,49,35712,5,0,0:0:0:0:
209,116,35890,1,0,0:0:0:0:
119,63,36067,1,0,0:0:0:0:
43,138,36245,2,0,L|58:217,1,80.9999975280763
391,116,36777,1,2,0:0:0:0:
299,48,36955,6,0,P|276:124|310:196,1,161.999995056153,2|0,0:0|0:0,0:0:0:0:
408,217,37487,1,0,0:0:0:0:
486,154,37665,2,0,L|503:61,1,80.9999975280763
391,116,38020,1,0,0:0:0:0:
408,217,38197,2,0,L|422:296,1,80.9999975280763
310,196,38552,5,0,0:0:0:0:
310,196,38907,2,0,P|305:235|320:273,1,80.9999975280763,2|0,0:0|0:0,0:0:0:0:
292,99,39262,2,0,P|259:75|220:69,1,80.9999975280763,2|0,0:0|0:0,0:0:0:0:
385,132,39617,2,0,P|421:116|446:84,1,80.9999975280763,2|0,0:0|0:0,0:0:0:0:
219,172,39972,6,0,B|129:161|161:223|67:210,1,161.999995056153,2|2,0:0|0:0,0:0:0:0:
214,286,40682,2,0,L|229:206,1,80.9999975280763,2|0,0:0|0:0,0:0:0:0:
119,311,41037,1,2,0:0:0:0:
194,380,41215,1,2,0:0:0:0:
356,255,41392,6,0,P|279:241|214:286,1,161.999995056153,2|0,0:0|0:0,0:0:0:0:
404,354,41925,2,0,P|454:293|448:214,1,161.999995056153
368,154,42458,1,2,0:0:0:0:
356,254,42635,1,2,0:0:0:0:
459,113,42813,6,0,L|442:19,1,80.9999975280763
368,154,43168,2,0,L|351:60,1,80.9999975280763,2|0,0:0|0:0,0:0:0:0:
267,189,43523,2,0,P|202:144|124:160,1,161.999995056153,2|2,0:0|0:0,0:0:0:0:
124,159,44233,5,2,0:0:0:0:
76,252,44410,1,0,0:0:0:0:
16,166,44588,1,0,0:0:0:0:
177,245,44765,2,0,B|267:234|235:296|329:283,1,161.999995056153
401,207,45298,1,2,0:0:0:0:
356,52,45475,6,0,P|297:103|303:180,1,161.999995056153,2|0,0:0|0:0,0:0:0:0:
401,207,46008,2,0,L|491:190,1,80.9999975280763
328,283,46363,1,0,1:0:0:0:
373,83,46540,1,8,0:0:0:0:
431,307,46718,1,10,0:0:0:0:
278,157,46895,1,10,0:3:0:0:
162,288,47073,6,0,B|276:318|276:318|328:283,1,180,4|8,1:2|0:2,0:0:0:0:
401,207,47605,2,0,L|418:100,1,90
301,189,47961,1,0,1:2:0:0:
431,307,48138,1,10,0:2:0:0:
321,154,48316,6,0,B|277:139|230:159|230:159|196:127|141:122,1,180,2|0,1:2|1:2,0:0:0:0:
75,14,48848,1,8,0:2:0:0:
53,115,49026,2,0,L|38:222,1,90
165,33,49381,1,0,1:2:0:0:
155,226,49558,1,10,0:2:0:0:
24,92,49736,1,2,0:0:0:0:
253,206,49913,6,0,L|341:191,1,90,2|0,0:0|1:2,0:0:0:0:
151,124,50268,1,10,0:2:0:0:
131,321,50446,2,0,P|175:322|214:301,1,90,2|0,0:0|1:2,0:0:0:0:
278,124,50801,2,0,P|253:161|253:206,1,90,2|8,0:0|0:2,0:0:0:0:
337,373,51156,6,0,L|318:286,1,90,2|0,1:2|0:0,0:0:0:0:
444,167,51511,2,0,L|425:255,1,90,2|8,1:2|0:2,0:0:0:0:
384,90,51866,2,0,P|423:68|467:70,1,90,2|0,1:2|1:2,0:0:0:0:
452,286,52221,1,2,0:0:0:0:
277,100,52398,1,8,0:2:0:0:
444,167,52576,1,2,0:0:0:0:
300,315,52753,6,0,L|202:295,1,90,0|0,1:2|0:0,0:0:0:0:
295,129,53108,1,8,0:2:0:0:
377,253,53286,1,0,1:2:0:0:
212,179,53463,2,0,P|194:138|203:94,1,90,0|0,1:0|0:0,0:0:0:0:
362,9,53818,1,8,0:2:0:0:
444,167,53996,6,0,B|336:141|336:141|306:156|300:197,1,180,0|0,0:0|1:2,0:0:0:0:
114,145,54529,2,0,L|202:127,1,90,8|0,0:2|0:0,0:0:0:0:
88,244,54884,2,0,L|0:226,1,90,2|0,0:0|1:2,0:0:0:0:
138,47,55239,1,8,0:2:0:0:
138,47,55594,6,0,L|49:29,1,90,2|0,0:0|1:2,0:0:0:0:
212,129,55949,1,10,0:2:0:0:
237,31,56126,1,2,1:2:0:0:
114,145,56304,1,0,1:2:0:0:
311,104,56481,2,0,L|399:86,1,90,2|8,0:0|0:2,0:0:0:0:
173,227,56836,6,0,B|75:217|106:288|3:263,1,180,2|2,0:0|1:2,0:0:0:0:
158,328,57369,1,8,0:2:0:0:
204,129,57546,2,0,L|184:17,1,90,2|0,1:2|1:2,0:0:0:0:
283,257,57901,1,2,0:0:0:0:
293,73,58079,1,8,0:2:0:0:
157,241,58256,1,2,0:0:0:0:
369,2,58434,6,0,P|393:86|347:161,1,180,4|8,1:2|0:2,0:0:0:0:
121,82,58966,2,0,B|223:50|223:50|301:75,1,180,0|0,0:0|1:2,0:0:0:0:
393,250,59499,1,10,0:2:0:0:
246,161,59676,1,2,0:0:0:0:
256,353,59854,6,0,P|301:356|341:337,1,90,2|0,0:0|1:2,0:0:0:0:
231,188,60209,1,8,0:2:0:0:
151,379,60387,2,0,L|170:286,1,90,0|0,1:2|1:2,0:0:0:0:
145,132,60742,1,0,0:0:0:0:
313,249,60919,1,10,0:2:0:0:
233,83,61097,1,2,0:0:0:0:
71,277,61274,6,0,L|52:188,1,90,2|0,1:2|0:0,0:0:0:0:
145,29,61629,1,10,0:2:0:0:
249,184,61807,2,0,P|205:183|166:157,1,90,2|0,0:0|0:0,0:0:0:0:
328,122,62162,2,0,P|349:160|346:208,1,90,2|8,1:2|0:2,0:0:0:0:
233,83,62517,1,2,0:0:0:0:
147,189,62694,6,0,L|165:277,1,90,0|2,1:2|0:0,0:0:0:0:
325,83,63049,1,8,0:2:0:0:
399,289,63227,2,0,P|358:307|314:301,1,90,2|0,0:0|0:0,0:0:0:0:
459,109,63582,2,0,L|440:197,1,90,2|8,1:2|0:2,0:0:0:0:
233,83,63937,1,2,0:0:0:0:
314,301,64114,5,4,1:2:0:0:
327,123,64292,1,0,1:2:0:0:
208,280,64469,2,0,L|226:368,1,90,8|0,0:2|0:0,0:0:0:0:
339,162,64824,1,0,1:2:0:0:
406,345,65002,1,0,1:2:0:0:
244,177,65179,1,8,0:2:0:0:
452,58,65357,6,0,L|434:146,1,90,2|0,0:0|1:2,0:0:0:0:
314,301,65712,1,0,1:2:0:0:
186,92,65890,2,0,P|226:75|270:80,1,90,8|0,0:2|0:0,0:0:0:0:
148,187,66245,1,0,1:2:0:0:
90,103,66422,1,0,1:2:0:0:
244,177,66600,2,0,L|226:265,1,90,8|0,0:2|1:2,0:0:0:0:
131,11,66955,5,14,0:2:0:0:
146,31,67310,5,8,0:2:0:0:
48,189,67487,1,0,1:2:0:0:
39,7,67665,5,8,0:2:0:0:
134,221,67842,1,0,1:2:0:0:
0,93,68020,5,8,0:2:0:0:
55,289,68197,1,2,1:2:0:0:
218,153,68375,6,0,L|210:109,3,45,8|8|8|8,0:2|0:2|0:2|0:2,0:0:0:0:
172,243,68730,1,10,0:2:0:0:
204,253,68818,1,8,0:2:0:0:
237,252,68907,1,8,0:2:0:0:
268,240,68996,1,8,0:2:0:0:
294,218,69085,2,0,L|272:332,1,90,10|8,0:2|0:2,0:0:0:0:
311,113,69440,1,10,0:2:0:0:
387,289,69617,1,8,0:2:0:0:
399,63,69795,6,0,P|328:12|244:34,1,180,6|8,1:2|0:2,0:0:0:0:
397,165,70327,1,2,0:0:0:0:
487,118,70505,2,0,L|505:19,1,90,2|0,0:0|1:2,0:0:0:0:
311,113,70860,1,10,0:2:0:0:
420,280,71037,6,0,L|404:192,1,90,2|0,1:2|0:0,0:0:0:0:
487,118,71392,1,2,1:2:0:0:
301,213,71570,2,0,B|203:190|238:267|132:245,1,180,10|0,0:2|0:0,0:0:0:0:
59,172,72103,1,2,1:2:0:0:
173,58,72280,2,0,L|157:147,1,90,10|2,0:2|1:2,0:0:0:0:
52,361,72635,6,0,L|36:273,1,90,2|0,1:2|0:0,0:0:0:0:
9,83,72990,1,10,0:2:0:0:
132,244,73168,2,0,P|177:246|217:225,1,90,2|0,0:0|0:0,0:0:0:0:
284,52,73523,2,0,P|261:90|259:135,1,90,2|8,1:2|0:2,0:0:0:0:
489,248,73878,6,0,B|419:226|419:226|375:236|375:236|318:216,1,180,2|0,1:2|1:2,0:0:0:0:
159,140,74410,1,8,0:2:0:0:
231,314,74588,2,0,L|215:225,1,90
262,48,74943,1,2,1:2:0:0:
132,162,75120,2,0,L|116:250,1,90,10|2,0:2|1:2,0:0:0:0:
106,71,75475,6,0,P|178:22|262:48,1,180,2|8,1:2|0:2,0:0:0:0:
281,72,76185,2,0,L|265:160,1,90,2|0,0:0|1:2,0:0:0:0:
365,11,76540,1,10,0:2:0:0:
328,241,76718,6,0,P|289:261|244:261,1,90,2|0,1:2|0:0,0:0:0:0:
364,145,77073,1,2,1:2:0:0:
470,304,77250,2,0,P|383:307|327:240,1,180,10|0,0:2|0:0,0:0:0:0:
274,352,77783,1,0,1:2:0:0:
426,216,77961,2,0,L|404:124,1,90,10|0,0:2|1:2,0:0:0:0:
231,274,78316,6,0,B|140:263|170:338|63:312,1,180,2|10,1:2|0:2,0:0:0:0:
16,219,78848,2,0,L|34:115,1,90,2|0,0:0|0:0,0:0:0:0:
219,91,79203,1,2,1:2:0:0:
48,242,79381,1,8,0:2:0:0:
167,0,79558,6,0,P|117:71|140:156,1,180,2|0,1:2|1:2,0:0:0:0:
333,49,80091,1,8,0:2:0:0:
311,224,80268,1,0,0:0:0:0:
219,91,80446,2,0,L|200:-12,1,90,2|0,0:0|1:2,0:0:0:0:
280,197,80801,2,0,L|264:285,1,90,10|0,0:2|0:0,0:0:0:0:
333,48,81156,6,0,P|377:44|419:60,1,90,6|0,1:2|0:0,0:0:0:0:
181,196,81511,1,10,0:2:0:0:
296,28,81688,1,2,0:0:0:0:
367,237,81866,1,2,0:0:0:0:
236,111,82043,1,2,1:2:0:0:
419,60,82221,1,10,0:2:0:0:
392,273,82398,6,0,L|301:259,1,90,2|0,1:2|0:0,0:0:0:0:
459,161,82753,1,2,1:2:0:0:
483,326,82931,2,0,P|414:380|327:365,1,180,10|0,3:2|0:0,0:0:0:0:
392,273,83463,1,2,1:2:0:0:
307,383,83641,1,10,0:2:0:0:
483,326,83818,1,2,1:2:0:0:
249,254,83996,6,0,B|174:243|174:243|141:265|141:265|56:252,1,180,2|10,1:2|0:2,0:0:0:0:
25,167,84529,2,0,P|25:121|50:75,1,90,2|0,0:0|0:0,0:0:0:0:
77,255,84884,2,0,P|77:299|58:339,1,90,2|8,1:2|0:2,0:0:0:0:
123,143,85239,6,0,B|165:116|165:116|249:131,1,135,2|0,1:2|0:0,0:0:0:0:
330,69,85594,2,0,P|349:109|348:153,1,90,2|8,1:2|0:2,0:0:0:0:
213,286,85949,2,0,P|239:250|278:228,1,90,2|0,0:0|0:0,0:0:0:0:
461,279,86304,2,0,P|416:275|378:252,1,90,2|8,1:2|0:2,0:0:0:0:
342,40,86659,6,0,B|443:24|413:100|510:79,1,180,6|2,1:2|1:2,0:0:0:0:
260,106,87191,2,0,P|240:65|241:21,1,90,10|0,0:2|0:0,0:0:0:0:
351,145,87546,1,0,1:2:0:0:
184,172,87724,1,0,1:2:0:0:
342,40,87901,1,8,0:2:0:0:
208,270,88079,6,0,L|88:246,1,90,2|0,1:2|0:0,0:0:0:0:
260,106,88434,1,2,1:2:0:0:
345,296,88611,2,0,L|374:381,1,90,10|0,0:2|0:0,0:0:0:0:
208,270,88966,1,2,1:2:0:0:
351,145,89144,1,2,1:2:0:0:
259,355,89321,1,10,0:2:0:0:
260,106,89499,5,6,1:2:0:0:
240,132,89854,1,10,0:2:0:0:
333,44,90032,1,8,0:2:0:0:
363,186,90209,1,10,0:2:0:0:
237,6,90387,1,8,0:2:0:0:
150,187,90564,1,10,0:2:0:0:
333,44,90742,1,8,0:2:0:0:
389,283,90919,5,10,0:2:0:0:
143,86,91097,1,8,0:2:0:0:
434,102,91274,1,10,0:2:0:0:
121,278,91452,1,8,0:2:0:0:
309,74,91629,1,10,0:3:0:0:
333,44,91718,1,8,0:3:0:0:
357,14,91807,1,8,0:3:0:0:
511,190,91984,1,10,0:3:0:0:
511,190,92517,6,0,L|489:84,1,107.999996704102,4|2,1:2|0:0,0:0:0:0:
327,246,92872,2,0,L|305:351,1,107.999996704102,10|0,0:2|0:0,0:0:0:0:
387,98,93227,1,2,0:0:0:0:
500,293,93404,1,2,1:2:0:0:
285,113,93582,1,10,0:2:0:0:
305,351,93759,6,0,P|358:355|405:332,1,107.999996704102,6|0,1:2|0:0,0:0:0:0:
385,137,94114,1,2,1:2:0:0:
233,283,94292,1,8,0:2:0:0:
285,113,94469,2,0,L|263:8,1,107.999996704102,2|0,0:0|0:0,0:0:0:0:
480,171,94824,1,0,1:2:0:0:
199,182,95002,1,8,0:2:0:0:
357,36,95179,1,0,1:2:0:0:
233,283,95357,6,0,L|97:259,1,107.999996704102,2|0,1:2|0:0,0:0:0:0:
285,113,95712,1,10,0:2:0:0:
353,273,95890,2,0,L|316:374,1,107.999996704102,2|0,0:0|0:0,0:0:0:0:
199,182,96245,2,0,L|162:80,1,107.999996704102,2|8,1:2|0:2,0:0:0:0:
435,195,96600,6,0,P|467:294|410:382,1,215.999993408203,2|0,1:2|1:2,0:0:0:0:
242,295,97132,2,0,L|135:314,1,107.999996704102,8|0,0:2|0:0,0:0:0:0:
285,113,97487,1,0,1:2:0:0:
353,273,97665,1,2,1:2:0:0:
188,86,97842,1,10,0:2:0:0:
122,282,98020,1,2,1:2:0:0:
261,12,98197,6,0,B|311:76|311:76|277:209,1,215.999993408203,4|8,1:2|0:2,0:0:0:0:
94,51,98730,1,2,0:0:0:0:
32,229,98907,1,2,0:0:0:0:
188,86,99085,1,2,1:2:0:0:
225,288,99262,1,10,0:2:0:0:
94,50,99440,6,0,P|87:103|111:152,1,107.999996704102,2|0,1:2|0:0,0:0:0:0:
301,222,99795,2,0,P|259:190|206:187,1,107.999996704102,2|8,1:2|0:2,0:0:0:0:
19,269,100150,2,0,L|126:251,1,107.999996704102,2|0,1:2|0:0,0:0:0:0:
289,113,100505,1,2,1:2:0:0:
331,325,100682,1,8,0:2:0:0:
189,89,100860,6,0,P|259:14|360:37,1,215.999993408203,6|0,1:2|1:2,0:0:0:0:
414,240,101392,2,0,L|307:222,1,107.999996704102,8|0,0:2|0:0,0:0:0:0:
458,71,101747,1,0,1:2:0:0:
498,289,101925,1,0,1:2:0:0:
340,70,102103,1,10,0:2:0:0:
499,183,102280,1,2,1:2:0:0:
271,242,102458,6,0,L|164:260,1,107.999996704102,2|0,0:0|1:2,0:0:0:0:
318,96,102813,1,10,0:2:0:0:
335,327,102990,2,0,P|286:348|233:341,1,107.999996704102,2|0,1:2|1:2,0:0:0:0:
113,66,103345,1,10,0:2:0:0:
62,302,103523,1,8,0:2:0:0:
211,94,103700,6,0,B|346:58|346:58|425:102,1,215.999993408203,6|0,1:2|1:2,0:0:0:0:
211,246,104233,5,14,0:2:0:0:
262,16,104410,1,0,1:2:0:0:
312,285,104588,5,10,0:2:0:0:
211,94,104765,1,0,1:2:0:0:
142,321,104943,5,10,0:2:0:0:
303,147,105120,1,0,1:2:0:0:
376,362,105298,6,0,P|327:386|260:371,1,107.999996704102,10|0,0:2|1:2,0:0:0:0:
120,197,105653,5,10,0:2:0:0:
390,206,105830,1,0,1:2:0:0:
109,336,106008,5,10,0:2:0:0:
286,194,106185,1,0,1:2:0:0:
36,257,106363,5,10,0:2:0:0:
325,293,106540,1,0,1:2:0:0:
89,165,106718,5,10,0:2:0:0:
256,102,106895,1,0,1:2:0:0:
19,95,107073,5,10,0:2:0:0:
216,272,107250,1,0,1:2:0:0:
0,242,107428,5,10,0:2:0:0:
286,194,107605,1,0,1:2:0:0:
51,130,107783,5,10,0:2:0:0:
286,67,107961,1,0,1:2:0:0:
73,271,108138,6,0,L|89:165,1,107.999996704102,10|0,0:2|1:2,0:0:0:0:
215,5,108493,5,10,0:2:0:0:
393,209,108671,2,0,L|376:271,1,53.9999983520508,0|0,1:2|1:2,0:0:0:0:
311,29,108848,5,10,0:2:0:0:
201,234,109026,1,0,1:2:0:0:
388,115,109203,5,10,0:2:0:0:
475,279,109381,1,0,1:2:0:0:
287,124,109558,5,8,0:2:0:0:
233,330,109736,1,0,1:2:0:0:
391,169,109913,5,10,0:2:0:0:
449,375,110091,1,0,1:2:0:0:
264,150,110268,5,10,0:2:0:0:
512,177,110446,1,0,1:2:0:0:
259,304,110623,1,10,0:2:0:0:
408,62,110801,6,0,L|386:190,1,107.999996704102,2|8,1:2|0:2,0:0:0:0:
176,226,111156,1,2,1:2:0:0:
219,43,111333,1,10,0:2:0:0:
299,277,111511,2,0,L|277:405,1,107.999996704102,2|8,1:2|0:2,0:0:0:0:
121,119,111866,1,2,1:2:0:0:
102,312,112043,1,10,0:2:0:0:
240,70,112221,6,0,B|359:45|326:139|442:107,1,215.999993408203,6|0,1:2|0:0,0:0:0:0:
215,192,112753,5,8,0:2:0:0:
335,57,112931,1,0,1:2:0:0:
376,268,113108,5,8,0:2:0:0:
240,70,113286,1,0,1:2:0:0:
175,309,113463,5,8,0:2:0:0:
351,154,113641,1,6,1:2:0:0:
328,174,113996,5,10,0:2:0:0:
240,70,114174,1,10,0:2:0:0:
213,215,114351,1,10,0:2:0:0:
335,56,114529,1,8,0:2:0:0:
364,277,114706,1,10,0:2:0:0:
217,104,114884,1,10,0:2:0:0:
438,196,115061,5,10,0:2:0:0:
174,235,115239,1,8,0:2:0:0:
348,28,115416,1,10,0:2:0:0:
369,315,115594,1,10,0:2:0:0:
240,69,115771,1,2,1:2:0:0:
124,323,115949,1,8,0:2:0:0:
427,96,116126,1,2,1:2:0:0:
102,144,116304,1,10,0:2:0:0:
370,349,116481,6,0,P|454:357|522:295,1,161.999995056153,4|0,1:2|0:0,0:0:0:0:
