osu file format v14

[General]
AudioFilename: audio.mp3
AudioLeadIn: 0
PreviewTime: 68676
Countdown: 0
SampleSet: Soft
StackLeniency: 0.3
Mode: 0
LetterboxInBreaks: 0
WidescreenStoryboard: 1

[Editor]
Bookmarks: 5836,10806,29977,47019,64060,68676,115007,120865,137906,154948,160628,206427,217256,228794,253114
DistanceSpacing: 1.2
BeatDivisor: 4
GridSize: 4
TimelineZoom: 1.3

[Metadata]
Title:Dandelion
TitleUnicode:Dandelion
Artist:Farhan feat. GUMI
ArtistUnicode:Farhan feat. GUMI
Creator:Astronic
Version:Insane
Source:Arcaea
Tags:novelty video Xandit megpoid メグッポイド rhythm game vocaloid female japanese crafTuner re:TUNED グミ pop jpop j-pop
BeatmapID:2150848
BeatmapSetID:1025776

[Difficulty]
HPDrainRate:5
CircleSize:3.8
OverallDifficulty:8
ApproachRate:9
SliderMultiplier:1.5
SliderTickRate:1

[Events]
//Background and Video events
0,0,"bg.jpg",0,0
//Break Periods
//Storyboard Layer 0 (Background)
//Storyboard Layer 1 (Fail)
//Storyboard Layer 2 (Pass)
//Storyboard Layer 3 (Foreground)
//Storyboard Layer 4 (Overlay)
//Storyboard Sound Samples

[TimingPoints]
156,355.029585798817,4,2,2,100,1,0
5836,-125,4,2,2,50,0,0
11428,-125,4,2,2,5,0,0
11516,-125,4,2,2,50,0,0
15156,-125,4,2,2,5,0,0
15244,-125,4,2,2,50,0,0
15599,-111.111111111111,4,2,1,50,0,0
15777,355.029585798817,5,2,1,50,1,0
17463,-111.111111111111,5,2,1,5,0,0
17552,355.029585798817,3,2,1,80,1,0
17552,-100,5,2,1,80,0,0
18617,355.029585798817,4,2,1,65,1,0
18705,-100,4,2,1,5,0,0
18794,-100,4,2,1,65,0,0
19415,-100,4,2,1,5,0,0
19504,-100,4,2,1,65,0,0
26427,-100,4,2,1,65,0,0
26782,-100,4,2,1,65,0,0
27048,-100,4,2,1,5,0,0
27315,-100,4,2,1,65,0,0
27403,-100,4,2,1,5,0,0
27670,-100,4,2,1,65,0,0
27759,-100,4,2,1,5,0,0
28025,-100,4,2,1,65,0,0
28114,-100,4,2,1,5,0,0
28380,-200,4,2,1,65,0,0
28735,-200,4,2,1,5,0,0
29445,-200,4,2,1,65,0,0
29977,-111.111111111111,4,2,1,75,0,0
30066,-111.111111111111,4,2,2,75,0,0
33084,-111.111111111111,4,2,2,75,0,0
33173,-111.111111111111,4,2,2,75,0,0
35125,-111.111111111111,4,2,1,75,0,0
35303,-111.111111111111,4,2,2,75,0,0
40806,-111.111111111111,4,2,1,75,0,0
40983,-111.111111111111,4,2,2,75,0,0
46309,-111.111111111111,4,2,3,75,0,0
47019,-100,4,2,3,75,0,0
52522,-100,4,2,1,75,0,0
52699,-100,4,2,3,75,0,0
63972,-100,4,2,3,5,0,0
64060,-90.9090909090909,4,2,3,75,0,0
68321,-142.857142857143,4,2,1,75,0,0
68676,-100,4,2,1,75,0,0
69741,-83.3333333333333,4,2,3,85,0,1
72847,-83.3333333333333,4,2,3,5,0,1
72936,-83.3333333333333,4,2,3,85,0,1
73114,-83.3333333333333,4,2,3,85,0,1
78528,-83.3333333333333,4,2,3,5,0,1
78617,-83.3333333333333,4,2,3,85,0,1
78794,-83.3333333333333,4,2,3,85,0,1
81013,-83.3333333333333,4,2,3,5,0,1
81102,-83.3333333333333,4,2,3,85,0,1
86605,-83.3333333333333,4,2,1,85,0,1
87137,-83.3333333333333,4,2,1,75,0,0
92463,-83.3333333333333,4,2,1,85,0,1
115007,-200,4,2,1,85,0,0
115185,-200,4,2,2,5,0,0
115362,-200,4,2,2,5,0,0
117315,-200,4,2,2,65,0,0
120865,-153.846153846153,4,2,2,65,0,0
126545,-200,4,2,2,65,0,0
129741,-153.846153846154,4,2,2,65,0,0
136309,-125,4,2,2,65,0,0
137818,-153.846153846154,4,2,2,5,0,0
137906,-125,4,2,3,65,0,0
146250,-125,4,2,1,65,0,0
146427,-125,4,2,3,65,0,0
152374,-125,4,2,3,5,0,0
152463,-125,4,2,3,65,0,0
154948,-100,4,2,1,65,0,0
160540,-100,4,2,1,5,0,0
160628,-83.3333333333333,4,2,3,85,0,1
163735,-83.3333333333333,4,2,3,5,0,1
163824,-83.3333333333333,4,2,3,85,0,1
164001,-83.3333333333333,4,2,3,85,0,1
169415,-83.3333333333333,4,2,3,5,0,1
169504,-83.3333333333333,4,2,3,85,0,1
169682,-83.3333333333333,4,2,3,85,0,1
171901,-83.3333333333333,4,2,3,5,0,1
171989,-83.3333333333333,4,2,3,85,0,1
177492,-83.3333333333333,4,2,1,85,0,1
178025,-83.3333333333333,4,2,1,75,0,0
180599,-83.3333333333333,4,2,1,5,0,0
180688,-83.3333333333333,4,2,1,75,0,0
181309,-83.3333333333333,4,2,1,5,0,0
181398,-83.3333333333333,4,2,1,75,0,0
183350,-83.3333333333333,4,2,1,85,0,1
206427,-95.2380952380952,4,2,1,75,0,0
210244,-95.2380952380952,4,2,1,5,0,0
210510,-95.2380952380952,4,2,1,75,0,0
210599,-95.2380952380952,4,2,1,5,0,0
210865,-95.2380952380952,4,2,1,75,0,0
210954,-95.2380952380952,4,2,1,5,0,0
211220,-95.2380952380952,4,2,1,75,0,0
211309,-95.2380952380952,4,2,1,5,0,0
211575,-95.2380952380952,4,2,1,75,0,0
217256,-74.0740740740741,4,2,3,75,0,0
218321,-74.0740740740741,4,2,3,75,0,0
218587,-74.0740740740741,4,2,3,5,0,0
218676,-74.0740740740741,4,2,3,75,0,0
219918,-74.0740740740741,4,2,3,75,0,0
220362,-74.0740740740741,4,2,3,5,0,0
221161,-74.0740740740741,4,2,3,75,0,0
221516,-68.9655172413794,4,2,3,75,0,0
221871,-68.9655172413794,4,2,3,75,0,0
222226,-64.5161290322581,4,2,3,75,0,0
222581,-64.5161290322581,4,2,3,75,0,0
222936,-60.6060606060607,4,2,3,75,0,0
223824,-60.6060606060607,4,2,3,75,0,0
224001,-100,4,2,3,75,0,0
224356,-57.1428571428572,4,2,3,75,0,0
225066,-54.0540540540541,4,2,3,75,0,0
225421,-100,4,2,3,75,0,0
225776,-111.111111111111,4,2,1,75,0,0
226220,-111.111111111111,4,2,1,5,0,0
226309,-111.111111111111,4,2,1,75,0,0
228794,-83.3333333333333,4,2,1,85,0,1
231901,-83.3333333333333,4,2,1,5,0,1
231989,-83.3333333333333,4,2,1,85,0,1
236693,-83.3333333333333,4,2,1,5,0,1
236782,-83.3333333333333,4,2,1,85,0,1
252759,-66.6666666666667,4,2,1,85,0,0
253114,-66.6666666666667,4,2,1,5,0,0

[Colours]
Combo1 : 128,255,128
Combo2 : 255,255,128
Combo3 : 128,255,255
Combo4 : 255,128,128

[HitObjects]
256,192,866,12,0,5658,0:0:0:0:
124,240,5836,6,0,P|172:264|244:240,1,120,2|2,0:0|0:0,0:0:0:0:
185,182,6369,1,2,0:0:0:0:
220,104,6724,1,2,0:0:0:0:
271,172,7079,2,0,L|392:180,1,120,2|0,0:0|0:0,0:0:0:0:
320,280,7611,1,2,0:0:0:0:
320,272,7789,2,0,P|316:218|260:168,1,120,2|2,0:0|0:0,0:0:0:0:
185,182,8321,2,0,L|125:178,1,60,2|2,0:0|0:0,0:0:0:0:
176,100,8676,6,0,L|295:90,1,120,2|2,0:0|0:0,0:0:0:0:
280,4,9209,2,0,L|399:14,1,120,2|2,0:0|0:0,0:0:0:0:
408,16,9919,2,0,P|428:80|408:136,2,120,2|2|2,0:0|0:0|0:0,0:0:0:0:
348,76,10984,2,0,L|316:80,1,30,10|8,0:0|0:0,0:0:0:0:
380,104,11161,2,0,L|280:112,1,90,10|0,0:0|0:0,0:0:0:0:
260,116,11516,6,0,P|272:176|240:232,1,120,10|10,1:0|0:3,0:0:0:0:
92,208,12049,2,0,P|137:167|202:167,2,120,2|2|2,0:0|0:0|0:0,0:0:0:0:
256,308,13114,2,0,P|197:289|165:233,2,120,2|2|2,0:0|0:0|0:0,0:0:0:0:
256,308,14357,6,0,L|264:184,1,120,10|10,0:1|0:1,0:0:0:0:
268,104,14889,2,0,P|316:116|364:88,1,90,2|0,0:0|0:0,0:0:0:0:
376,84,15244,1,2,0:0:0:0:
256,20,15599,6,0,L|188:28,1,67.4999979400635,2|0,3:0|1:0,0:0:0:0:
60,84,15954,2,0,L|140:96,1,75,10|0,1:0|1:0,0:0:0:0:
280,140,16309,2,0,L|204:152,1,75,10|0,1:0|1:0,0:0:0:0:
80,208,16664,2,0,L|156:220,1,75,10|0,1:0|3:0,0:0:0:0:
252,236,17019,1,8,1:0:0:0:
252,236,17108,1,8,1:0:0:0:
252,236,17197,2,0,L|368:228,1,112.5,8|0,1:0|0:0,0:0:0:0:
392,224,17552,6,0,P|364:152|408:88,1,150,6|0,1:0|1:0,0:0:0:0:
468,40,18084,1,2,0:0:0:0:
448,160,18262,1,2,3:0:0:0:
332,36,18439,2,0,L|220:44,1,112.5,6|0,1:0|0:0,0:0:0:0:
184,52,18794,1,2,1:0:0:0:
152,168,18972,1,8,3:0:0:0:
96,60,19149,2,0,P|84:116|44:156,1,112.5,2|0,0:0|0:0,0:0:0:0:
44,192,19504,1,2,1:0:0:0:
180,252,19682,1,8,3:0:0:0:
92,264,19859,1,2,0:0:0:0:
228,324,20037,6,0,P|264:252|224:180,1,150,4|8,1:0|3:0,0:0:0:0:
152,168,20569,1,0,0:0:0:0:
308,76,20747,2,0,L|316:152,1,75,10|2,1:3|1:0,0:0:0:0:
176,84,21102,1,8,3:0:0:0:
340,72,21279,2,0,L|348:148,1,75,6|8,1:0|0:0,0:0:0:0:
231,266,21634,2,0,L|238:191,1,75,2|8,1:0|3:0,0:0:0:0:
345,62,21989,2,0,L|354:145,1,75,2|8,1:0|0:0,0:0:0:0:
225,275,22344,2,0,L|234:193,1,75,2|8,1:0|3:0,0:0:0:0:
360,144,22699,1,10,1:0:0:0:
360,144,22788,1,8,1:0:0:0:
360,144,22877,6,0,L|376:296,1,150,4|8,1:0|3:0,0:0:0:0:
296,324,23409,1,0,0:0:0:0:
200,236,23587,1,10,1:2:0:0:
344,232,23764,1,2,1:0:0:0:
272,324,23942,1,8,3:0:0:0:
176,220,24119,2,0,P|164:184|168:144,1,75,6|8,1:0|0:0,0:0:0:0:
352,136,24474,2,0,P|354:173|342:208,1,75,2|10,1:0|3:0,0:0:0:0:
167,224,24830,2,0,P|154:184|158:140,1,75,2|8,1:0|0:0,0:0:0:0:
360,131,25185,2,0,P|363:172|350:211,1,75,2|8,1:0|3:0,0:0:0:0:
308,280,25540,1,0,1:0:0:0:
282,163,25717,6,0,B|240:136|208:160|172:184|138:165,1,150,6|8,1:0|3:0,0:0:0:0:
64,124,26250,1,0,0:0:0:0:
196,60,26427,2,0,L|204:84,6,18.75,10|0|0|0|2|0|0,1:0|0:0|0:0|0:0|3:0|0:0|3:0,0:0:0:0:
184,24,26782,1,0,3:0:0:0:
64,124,26960,6,0,L|72:84,1,37.5,10|0,1:2|0:0,0:0:0:0:
216,156,27315,2,0,L|208:192,1,37.5,10|0,1:2|0:0,0:0:0:0:
56,122,27670,2,0,L|65:78,1,37.5,6|0,1:2|0:0,0:0:0:0:
223,157,28025,2,0,L|215:198,1,37.5,10|0,1:2|0:0,0:0:0:0:
48,120,28380,6,0,P|96:188|84:100,1,225,6|0,1:2|1:0,0:0:0:0:
0,228,29622,1,0,3:0:0:0:
8,236,29977,6,0,P|60:268|136:264,2,134.999995880127,6|8|8,1:0|3:0|3:0,0:0:0:0:
200,220,31043,2,0,P|212:252|204:300,1,67.4999979400635,10|10,3:0|0:0,0:0:0:0:
312,312,31398,2,0,P|292:244|324:184,2,134.999995880127,8|10|8,3:0|3:0|3:0,0:0:0:0:
440,248,32463,2,0,L|372:256,1,67.4999979400635,10|10,3:0|0:0,0:0:0:0:
312,312,32818,2,0,L|212:304,1,101.249996910095,10|0,3:0|0:0,0:0:0:0:
176,300,33173,1,10,3:0:0:0:
128,228,33350,2,0,L|120:160,1,67.4999979400635,10|8,0:0|3:0,0:0:0:0:
218,236,33705,2,0,L|210:304,1,67.4999979400635,10|8,0:0|3:0,0:0:0:0:
123,227,34060,2,0,L|114:152,1,67.4999979400635,10|8,0:0|3:0,0:0:0:0:
222,236,34415,6,0,L|213:311,1,67.4999979400635,10|8,0:0|3:0,0:0:0:0:
280,356,34770,1,10,0:0:0:0:
340,291,34948,1,8,3:0:0:0:
416,328,35125,2,0,P|449:332|482:324,1,67.4999979400635,10|8,0:0|3:0,0:0:0:0:
472,240,35480,1,10,0:0:0:0:
460,152,35658,2,0,L|324:144,2,134.999995880127,10|8|8,3:0|3:0|3:0,0:0:0:0:
388,236,36723,2,0,L|320:232,1,67.4999979400635,10|10,3:0|0:0,0:0:0:0:
236,228,37078,6,0,P|168:240|112:200,2,134.999995880127,8|10|8,3:0|3:0|3:0,0:0:0:0:
188,160,38143,1,10,3:0:0:0:
40,172,38498,2,0,P|32:208|48:248,1,67.4999979400635,10|10,3:0|0:0,0:0:0:0:
96,296,38853,2,0,P|160:272|224:312,2,134.999995880127,10|10|10,3:0|3:0|3:0,0:0:0:0:
152,356,39918,2,0,L|220:348,1,67.4999979400635,10|8,3:0|0:0,0:0:0:0:
300,308,40273,2,0,L|436:316,2,134.999995880127,10|10|10,3:0|3:0|3:0,0:0:0:0:
276,224,41161,1,8,0:0:0:0:
300,224,41338,6,0,L|308:88,2,134.999995880127,10|10|8,3:0|3:0|3:0,0:0:0:0:
300,308,42403,1,10,3:0:0:0:
380,344,42581,1,10,0:0:0:0:
456,300,42759,2,0,L|464:164,2,134.999995880127,8|10|10,3:0|3:0|3:0,0:0:0:0:
376,260,43824,1,10,3:0:0:0:
300,224,44179,2,0,P|256:244|172:216,2,134.999995880127,10|8|8,3:0|3:0|3:0,0:0:0:0:
240,160,45244,1,10,3:0:0:0:
156,136,45421,2,0,L|120:132,1,33.7499989700318,10|0,0:0|0:0,0:0:0:0:
176,104,45599,6,0,L|36:88,2,134.999995880127,8|8|0,3:0|3:0|1:0,0:0:0:0:
104,176,46486,1,0,3:0:0:0:
240,160,46664,1,2,3:0:0:0:
132,256,46841,1,2,1:0:0:0:
308,104,47019,6,0,L|464:112,1,150,6|8,1:0|3:0,0:0:0:0:
504,180,47551,2,0,P|508:248|436:300,1,150,0|0,0:0|1:0,0:0:0:0:
284,272,48084,1,10,3:0:0:0:
432,216,48261,2,0,P|376:256|376:340,1,150,2|2,1:0|1:0,0:0:0:0:
316,192,48794,1,10,3:0:0:0:
292,360,48972,2,0,L|140:352,1,150,2|0,0:0|1:0,0:0:0:0:
204,252,49504,2,0,P|212:292|200:332,1,75,10|2,3:0|0:0,0:0:0:0:
56,332,49859,6,0,P|47:295|55:259,1,75,10|0,1:3|1:0,0:0:0:0:
203,324,50214,1,10,3:0:0:0:
36,364,50392,2,0,P|16:296|48:216,1,150,2|2,1:0|1:0,0:0:0:0:
188,168,50924,1,8,3:0:0:0:
44,136,51102,2,0,P|88:136|124:116,1,75,2|8,1:0|0:3,0:0:0:0:
212,0,51457,1,2,1:0:0:0:
64,52,51634,1,8,3:0:0:0:
200,84,51812,2,0,L|352:76,1,150,2|2,0:0|1:3,0:0:0:0:
476,72,52344,1,8,3:0:0:0:
408,16,52522,1,10,0:0:0:0:
416,132,52699,6,0,P|416:176|328:236,1,150,10|8,1:3|3:0,0:0:0:0:
336,152,53232,2,0,L|184:160,1,150,2|2,1:0|1:0,0:0:0:0:
168,312,53764,2,0,P|184:276|180:236,1,75,8|2,3:0|1:0,0:0:0:0:
48,216,54119,2,0,P|71:247|107:264,1,75,8|2,0:3|1:0,0:0:0:0:
186,159,54474,2,0,P|146:163|114:186,1,75,10|2,3:0|0:0,0:0:0:0:
168,312,54830,2,0,P|207:307|239:284,1,75,10|0,1:3|1:0,0:0:0:0:
232,132,55185,2,0,P|215:168|220:208,1,75,8|0,3:0|0:0,0:0:0:0:
204,88,55540,6,0,P|168:168|184:244,1,150,10|10,1:3|3:0,0:0:0:0:
310,296,56072,2,0,L|235:288,1,75,2|8,1:0|0:3,0:0:0:0:
144,236,56427,1,2,1:0:0:0:
256,176,56605,1,8,3:0:0:0:
156,124,56782,2,0,P|128:148|84:160,1,75,2|8,1:0|0:3,0:0:0:0:
12,132,57137,1,2,1:0:0:0:
152,36,57315,1,8,3:0:0:0:
163,198,57492,2,0,L|155:122,1,75,2|8,0:0|1:3,0:0:0:0:
244,157,57847,2,0,L|252:232,1,75,2|8,1:3|3:0,0:0:0:0:
228,72,58202,1,2,0:0:0:0:
400,112,58380,6,0,L|392:264,2,150,4|8|8,1:0|3:0|0:3,0:0:0:0:
404,28,59267,1,0,1:0:0:0:
480,196,59445,2,0,L|484:120,1,75,10|2,3:0|1:0,0:0:0:0:
400,112,59800,2,0,L|392:264,1,150,8|10,0:3|3:0,0:0:0:0:
352,336,60332,2,0,B|308:308|272:336|236:360|188:336,1,150,2|0,0:0|1:0,0:0:0:0:
72,300,60865,1,10,3:0:0:0:
156,276,61043,1,2,0:0:0:0:
24,228,61220,6,0,L|16:152,1,75,10|0,1:3|1:0,0:0:0:0:
128,64,61575,1,10,3:0:0:0:
171,139,61753,2,0,P|136:150|100:144,1,75,2|8,1:0|0:3,0:0:0:0:
44,72,62108,1,2,1:0:0:0:
216,64,62285,1,8,3:0:0:0:
163,213,62463,2,0,L|171:133,1,75,2|8,1:0|0:3,0:0:0:0:
296,96,62818,2,0,L|303:170,1,75,2|8,1:0|3:0,0:0:0:0:
408,308,63173,2,0,L|400:232,1,75,2|8,0:0|1:3,0:0:0:0:
320,304,63528,1,2,1:3:0:0:
492,320,63705,2,0,L|480:208,1,112.5,8|0,3:0|0:0,0:0:0:0:
472,168,64060,6,0,P|460:124|472:84,1,82.5000025177003,6|0,1:0|0:0,0:0:0:0:
380,148,64415,2,0,L|296:140,1,82.5000025177003,10|0,3:0|0:0,0:0:0:0:
136,128,64770,1,10,1:2:0:0:
136,128,64948,1,2,1:0:0:0:
290,58,65125,2,0,L|298:146,1,82.5000025177003,10|2,3:0|0:0,0:0:0:0:
208,248,65480,6,0,L|216:160,1,82.5000025177003,10|2,1:2|1:0,0:0:0:0:
296,264,65835,1,8,3:0:0:0:
188,336,66013,2,0,P|136:304|132:200,1,165.000005035401,2|2,0:0|1:0,0:0:0:0:
272,344,66545,2,0,P|316:348|356:320,1,82.5000025177003,10|2,3:0|1:0,0:0:0:0:
373,125,66901,6,0,P|332:120|296:139,1,82.5000025177003,6|0,3:0|1:0,0:0:0:0:
432,300,67256,1,8,3:0:0:0:
456,132,67433,1,0,1:0:0:0:
296,139,67611,1,8,3:0:0:0:
444,216,67788,1,0,1:0:0:0:
284,223,67966,1,8,3:0:0:0:
472,216,68143,1,2,1:0:0:0:
272,304,68321,1,8,3:0:0:0:
246,297,68409,1,0,3:0:0:0:
224,283,68498,1,0,1:0:0:0:
209,262,68587,1,0,3:0:0:0:
200,236,68676,6,0,L|192:196,3,37.5,2|0|0|0,3:0|3:0|3:0|3:0,0:0:0:0:
112,200,69031,2,0,P|124:156|152:128,1,75,2|0,3:0|1:0,0:0:0:0:
128,284,69386,1,2,3:0:0:0:
40,152,69563,1,0,3:0:0:0:
288,96,69741,6,0,L|276:276,1,179.999994506836,6|8,1:0|3:0,0:0:0:0:
192,199,70273,1,2,0:0:0:0:
368,192,70451,2,0,L|360:284,1,89.9999972534181,10|0,1:3|1:0,0:0:0:0:
268,364,70806,1,10,3:0:0:0:
284,184,70983,2,0,L|276:276,1,89.9999972534181,2|8,1:0|0:3,0:0:0:0:
200,316,71338,1,2,1:0:0:0:
200,172,71516,2,0,P|144:252|60:236,1,179.999994506836,10|8,3:0|1:3,0:0:0:0:
116,172,72048,1,2,1:0:0:0:
256,104,72226,1,10,3:0:0:0:
284,184,72403,1,2,0:0:0:0:
164,92,72581,6,0,P|200:32|272:16,1,134.999995880127,10|0,1:3|0:0,0:0:0:0:
304,24,72936,1,10,3:0:0:0:
344,116,73114,1,2,0:0:0:0:
344,140,73469,1,2,1:0:0:0:
432,56,73646,1,8,3:0:0:0:
428,168,73824,2,0,P|384:220|276:192,1,179.999994506836,2|2,1:0|1:0,0:0:0:0:
164,92,74356,1,10,3:0:0:0:
193,208,74534,2,0,L|285:200,1,89.9999972534181,2|8,0:0|1:3,0:0:0:0:
344,140,74889,1,2,1:0:0:0:
296,284,75066,1,10,3:0:0:0:
282,200,75244,1,2,0:0:0:0:
372,324,75421,6,0,P|464:320|496:240,1,179.999994506836,10|8,1:3|3:0,0:0:0:0:
460,172,75954,1,0,0:0:0:0:
324,240,76131,2,0,L|420:248,1,89.9999972534181,10|0,1:3|1:0,0:0:0:0:
420,96,76486,1,10,3:0:0:0:
292,160,76664,2,0,L|202:152,1,89.9999972534181,2|8,1:0|0:3,0:0:0:0:
160,72,77019,1,2,1:0:0:0:
332,84,77196,2,0,L|242:76,1,89.9999972534181,10|0,3:0|0:0,0:0:0:0:
116,148,77551,2,0,P|128:200|164:232,1,89.9999972534181,8|0,1:3|1:0,0:0:0:0:
296,248,77906,2,0,P|256:252|212:292,1,89.9999972534181,10|0,3:0|0:0,0:0:0:0:
376,344,78261,6,0,L|384:208,1,134.999995880127,10|0,1:3|0:0,0:0:0:0:
384,164,78617,1,10,3:0:0:0:
360,36,78794,1,2,0:0:0:0:
336,36,79149,1,2,1:0:0:0:
296,164,79327,1,8,3:0:0:0:
252,8,79504,2,0,P|240:92|156:148,1,179.999994506836,2|0,1:0|1:0,0:0:0:0:
24,208,80037,2,0,L|116:216,1,89.9999972534181,8|0,3:0|0:0,0:0:0:0:
256,138,80392,2,0,L|164:146,1,89.9999972534181,10|0,1:3|1:0,0:0:0:0:
112,300,80747,2,0,L|248:308,1,134.999995880127,10|0,3:0|0:0,0:0:0:0:
292,312,81102,6,0,P|344:312|384:280,1,89.9999972534181,6|0,1:0|0:0,0:0:0:0:
352,152,81457,1,10,3:0:0:0:
320,232,81634,1,2,0:0:0:0:
460,284,81812,1,10,1:3:0:0:
416,212,81989,1,2,1:0:0:0:
292,312,82167,1,10,3:0:0:0:
312,142,82344,2,0,L|320:234,1,89.9999972534181,2|8,1:0|0:3,0:0:0:0:
204,312,82699,1,2,1:0:0:0:
224,140,82877,2,0,L|232:232,1,89.9999972534181,10|0,3:0|0:0,0:0:0:0:
292,312,83232,1,8,1:3:0:0:
409,212,83409,1,2,1:0:0:0:
231,229,83587,1,10,3:0:0:0:
374,291,83764,1,2,0:0:0:0:
368,136,83942,6,0,P|336:160|272:164,1,89.9999972534181,10|0,1:3|0:0,0:0:0:0:
136,128,84297,1,10,3:0:0:0:
296,0,84474,2,0,L|304:92,1,89.9999972534181,2|8,0:0|1:3,0:0:0:0:
316,200,84830,1,2,1:0:0:0:
172,48,85007,1,8,3:0:0:0:
88,200,85185,2,0,P|128:216|188:204,1,89.9999972534181,2|8,1:0|0:3,0:0:0:0:
240,156,85540,1,2,1:0:0:0:
52,120,85717,1,8,3:0:0:0:
173,210,85895,2,0,P|177:262|152:304,1,89.9999972534181,2|8,0:0|1:3,0:0:0:0:
100,356,86250,1,2,1:0:0:0:
0,188,86427,1,8,3:0:0:0:
248,180,86605,2,0,P|260:268|212:364,1,179.999994506836,6|0,1:0|1:0,0:0:0:0:
96,240,87137,6,0,L|88:148,1,89.9999972534181,8|0,3:0|0:0,0:0:0:0:
247,66,87492,2,0,L|239:158,1,89.9999972534181,10|0,1:3|1:0,0:0:0:0:
168,28,87847,1,8,3:0:0:0:
196,228,88025,2,0,P|280:228|324:144,1,179.999994506836,2|0,1:0|1:0,0:0:0:0:
168,28,88557,2,0,L|160:120,1,89.9999972534181,8|0,3:0|0:0,0:0:0:0:
96,240,88912,1,10,1:3:0:0:
239,155,89090,1,2,1:0:0:0:
160,304,89267,1,10,3:0:0:0:
252,132,89445,2,0,L|344:124,1,89.9999972534181,6|0,1:0|0:0,0:0:0:0:
408,264,89800,6,0,L|316:256,1,89.9999972534181,2|0,1:0|3:0,0:0:0:0:
196,228,90155,1,2,3:0:0:0:
341,124,90332,1,0,3:0:0:0:
318,256,90510,1,2,3:0:0:0:
304,44,90688,1,0,3:0:0:0:
500,168,90865,2,0,L|408:176,1,89.9999972534181,2|0,3:0|3:0,0:0:0:0:
208,196,91220,1,2,3:0:0:0:
220,68,91398,2,0,L|228:112,1,44.999998626709,0|0,3:0|0:0,0:0:0:0:
132,156,91575,2,0,L|140:112,1,44.999998626709,10|8,1:0|1:0,0:0:0:0:
212,36,91753,1,8,1:0:0:0:
124,192,91930,2,0,L|28:200,2,89.9999972534181,6|2|2,1:0|0:0|0:0,0:0:0:0:
300,340,92463,6,0,L|210:332,1,89.9999972534181,6|2,1:0|1:0,0:0:0:0:
124,192,92818,2,0,L|213:199,1,89.9999972534181,10|2,3:0|0:0,0:0:0:0:
372,292,93173,1,10,1:3:0:0:
300,340,93350,1,2,1:0:0:0:
288,156,93528,1,10,3:0:0:0:
300,364,93705,2,0,P|292:312|260:276,1,89.9999972534181,6|0,1:2|0:0,0:0:0:0:
216,348,94060,1,2,1:2:0:0:
360,204,94238,1,8,3:0:0:0:
184,268,94415,2,0,P|100:272|60:192,1,179.999994506836,2|0,0:0|1:0,0:0:0:0:
261,193,94948,2,0,L|269:285,1,89.9999972534181,8|0,3:0|1:0,0:0:0:0:
144,196,95303,6,0,L|151:106,1,89.9999972534181,10|0,1:3|1:0,0:0:0:0:
164,16,95658,1,10,3:0:0:0:
60,176,95835,2,0,L|67:86,1,89.9999972534181,2|8,0:0|1:3,0:0:0:0:
76,0,96190,1,2,1:0:0:0:
144,196,96368,1,8,3:0:0:0:
248,28,96545,2,0,B|280:4|280:4|424:16,1,179.999994506836,2|0,1:0|1:0,0:0:0:0:
320,176,97078,2,0,L|228:184,1,89.9999972534181,8|2,3:0|0:0,0:0:0:0:
152,108,97433,1,8,1:3:0:0:
304,92,97611,1,2,1:0:0:0:
244,268,97788,1,10,3:0:0:0:
144,196,97966,1,2,1:0:0:0:
316,320,98143,6,0,P|244:288|172:360,1,179.999994506836,6|8,1:0|3:0,0:0:0:0:
252,372,98676,1,0,0:0:0:0:
388,268,98853,2,0,L|396:360,1,89.9999972534181,10|2,1:3|1:0,0:0:0:0:
316,220,99208,1,10,3:0:0:0:
476,256,99386,2,0,L|483:345,1,89.9999972534181,6|0,1:2|0:0,0:0:0:0:
395,357,99741,1,2,1:2:0:0:
464,172,99918,1,8,3:0:0:0:
312,308,100096,2,0,P|264:292|232:244,1,89.9999972534181,2|8,1:2|0:3,0:0:0:0:
244,176,100451,1,2,1:0:0:0:
184,332,100628,1,8,3:0:0:0:
156,140,100806,2,0,L|248:148,1,89.9999972534181,6|8,1:0|0:3,0:0:0:0:
332,156,101161,5,0,1:0:0:0:
168,228,101338,1,8,3:0:0:0:
68,132,101516,2,0,P|80:84|120:56,1,89.9999972534181,2|8,0:0|1:3,0:0:0:0:
196,60,101871,1,2,1:0:0:0:
80,220,102048,1,8,3:0:0:0:
245,147,102226,2,0,L|156:140,1,89.9999972534181,2|8,1:0|0:0,0:0:0:0:
168,228,102581,1,2,1:0:0:0:
68,132,102759,1,8,3:0:0:0:
0,252,102936,2,0,P|24:292|72:304,1,89.9999972534181,2|8,1:0|0:3,0:0:0:0:
176,236,103291,1,2,3:0:0:0:
176,236,103380,1,0,3:0:0:0:
176,236,103469,1,2,3:0:0:0:
80,220,103646,1,2,3:0:0:0:
256,332,103824,6,0,L|264:152,1,179.999994506836,4|8,1:0|3:0,0:0:0:0:
268,68,104356,1,0,0:0:0:0:
180,140,104534,1,10,1:3:0:0:
352,84,104711,1,2,1:0:0:0:
180,52,104889,1,10,3:0:0:0:
388,92,105066,2,0,L|396:184,1,89.9999972534181,6|0,1:2|0:0,0:0:0:0:
404,268,105421,1,2,1:2:0:0:
480,160,105599,1,8,3:0:0:0:
452,336,105776,2,0,P|360:340|320:252,1,179.999994506836,2|0,0:0|1:0,0:0:0:0:
256,132,106309,2,0,L|248:224,1,89.9999972534181,8|0,3:0|1:0,0:0:0:0:
172,336,106664,6,0,L|164:244,1,89.9999972534181,10|0,1:3|1:0,0:0:0:0:
68,152,107019,1,10,3:0:0:0:
84,328,107196,2,0,L|76:236,1,89.9999972534181,2|8,0:0|1:3,0:0:0:0:
156,160,107551,1,2,1:0:0:0:
172,336,107729,1,8,3:0:0:0:
152,128,107906,2,0,B|196:108|196:108|328:124,1,179.999994506836,2|2,1:0|1:0,0:0:0:0:
376,264,108439,1,10,3:0:0:0:
404,96,108617,2,0,P|408:148|376:188,1,89.9999972534181,2|8,0:0|1:3,0:0:0:0:
196,108,108972,1,2,1:0:0:0:
308,208,109149,1,10,3:0:0:0:
326,123,109327,1,2,1:0:0:0:
472,44,109504,6,0,P|496:136|464:220,2,179.999994506836,4|8|10,1:0|3:0|1:3,0:0:0:0:
336,40,110392,1,2,1:0:0:0:
308,208,110569,1,10,3:0:0:0:
172,104,110747,2,0,B|132:128|132:128|116:272,1,179.999994506836,6|2,1:2|1:2,0:0:0:0:
180,316,111279,1,8,3:0:0:0:
44,120,111457,2,0,L|24:300,1,179.999994506836,6|2,1:2|1:0,0:0:0:0:
96,344,111989,1,8,3:0:0:0:
308,208,112167,2,0,B|284:168|284:168|140:152,1,179.999994506836,6|0,1:0|1:0,0:0:0:0:
256,276,112699,6,0,P|300:296|352:284,1,89.9999972534181,8|0,3:0|0:0,0:0:0:0:
468,176,113054,2,0,P|428:156|383:161,1,89.9999972534181,10|2,1:3|1:0,0:0:0:0:
336,312,113409,1,8,3:0:0:0:
392,136,113587,1,6,1:0:0:0:
424,332,113764,2,0,L|416:240,1,89.9999972534181,2|0,0:0|3:0,0:0:0:0:
388,48,114119,1,2,3:0:0:0:
308,208,114297,1,2,3:0:0:0:
468,176,114474,1,0,3:0:0:0:
288,120,114652,1,0,3:0:0:0:
416,242,114830,1,2,3:0:0:0:
264,96,115007,6,0,B|216:124|168:104|168:104|212:180|144:220|152:272|160:296|192:304|216:288|232:264|208:232|176:244,1,375,6|2,1:0|0:0,0:0:0:0:
192,264,117315,6,0,L|80:256,2,112.5,10|2|10,0:2|0:0|0:2,0:0:0:0:
268,220,118912,6,0,L|380:212,2,112.5,2|10|2,0:0|0:2|0:0,0:0:0:0:
248,280,120865,6,0,P|284:280|204:224,1,292.499986610413,2|2,0:0|0:0,0:0:0:0:
168,272,122108,2,0,P|128:312|132:180,1,341.249984378815,2|2,0:0|0:0,0:0:0:0:
206,202,123528,1,2,0:0:0:0:
120,88,123705,2,0,P|168:80|204:44,1,97.4999955368044,2|2,0:0|0:0,0:0:0:0:
268,96,124238,2,0,P|316:88|368:116,3,97.4999955368044,2|2|2|2,0:0|0:0|0:0|0:0,0:0:0:0:
424,164,125658,2,0,P|404:212|416:260,1,97.4999955368044,2|2,0:0|0:0,0:0:0:0:
488,216,126368,1,2,0:0:0:0:
412,312,126545,2,0,P|372:296|464:280,1,300,2|2,0:0|0:0,0:0:0:0:
464,279,128676,2,0,P|392:308|356:256,1,150,2|2,0:0|0:0,0:0:0:0:
304,192,129741,6,0,L|240:200,1,48.7499977684022,2|0,0:0|0:0,0:0:0:0:
224,276,130096,2,0,L|176:272,1,48.7499977684022,2|0,0:0|0:0,0:0:0:0:
120,336,130451,2,0,P|100:316|92:288,1,48.7499977684022,2|0,0:0|0:0,0:0:0:0:
36,236,130806,2,0,P|64:188|56:140,1,97.4999955368044,2|2,0:0|0:0,0:0:0:0:
59,148,131516,2,0,P|96:112|156:112,1,97.4999955368044,2|2,0:0|0:0,0:0:0:0:
148,148,132226,2,0,P|240:120|128:84,1,292.499986610413,2|2,0:0|0:0,0:0:0:0:
192,176,133469,1,2,0:0:0:0:
268,80,133646,6,0,L|368:88,1,97.4999955368044,2|2,0:0|0:0,0:0:0:0:
456,168,134356,2,0,L|358:175,1,97.4999955368044,2|2,0:0|0:0,0:0:0:0:
319,237,135066,2,0,P|243:197|359:177,1,292.499986610413,2|2,0:0|0:0,0:0:0:0:
336,320,136309,2,0,P|236:312|176:248,1,180,2|2,0:0|0:0,0:0:0:0:
168,128,137196,1,2,0:0:0:0:
88,296,137374,2,0,L|92:258,1,30,10|8,0:0|0:0,0:0:0:0:
62,325,137551,2,0,L|76:228,1,90,10|0,0:0|0:0,0:0:0:0:
76,208,137906,6,0,L|68:84,1,120,6|8,1:0|3:0,0:0:0:0:
188,20,138439,2,0,L|180:80,1,60,0|8,0:0|0:3,0:0:0:0:
240,140,138794,1,0,1:0:0:0:
344,68,138972,1,10,3:0:0:0:
320,256,139149,2,0,P|308:200|344:152,1,120,2|2,1:0|1:0,0:0:0:0:
392,296,139682,1,10,3:0:0:0:
228,256,139859,2,0,B|196:232|172:252|148:272|108:244,1,120,2|0,0:0|1:0,0:0:0:0:
132,88,140392,1,10,3:0:0:0:
224,168,140569,1,2,0:0:0:0:
80,168,140747,6,0,P|48:188|32:224,1,60,10|0,1:3|1:0,0:0:0:0:
80,328,141102,1,10,3:0:0:0:
128,112,141279,2,0,L|120:236,1,120,2|2,1:0|1:0,0:0:0:0:
168,336,141812,1,8,3:0:0:0:
240,184,141989,2,0,L|248:304,1,120,2|2,1:0|1:0,0:0:0:0:
384,344,142522,1,8,3:0:0:0:
328,276,142699,2,0,P|360:260|400:260,1,60,2|8,0:0|1:3,0:0:0:0:
504,216,143054,2,0,P|472:216|440:196,1,60,2|8,1:3|3:0,0:0:0:0:
420,120,143409,1,10,0:0:0:0:
328,276,143587,6,0,P|360:220|344:160,1,120,10|8,1:3|3:0,0:0:0:0:
288,32,144119,2,0,B|252:16|224:32|200:48|156:20,1,120,2|2,1:0|1:0,0:0:0:0:
52,96,144652,2,0,P|88:84|124:92,1,60,8|2,3:0|1:0,0:0:0:0:
136,216,145007,2,0,P|107:190|96:155,1,60,8|2,0:3|1:0,0:0:0:0:
192,56,145362,1,10,3:0:0:0:
224,216,145540,2,0,P|204:276|136:300,1,120,2|0,0:0|1:0,0:0:0:0:
180,140,146072,2,0,L|240:132,1,60,8|8,3:0|0:0,0:0:0:0:
371,235,146427,6,0,L|311:227,1,60,10|0,1:3|1:0,0:0:0:0:
239,132,146782,1,10,3:0:0:0:
444,120,146960,2,0,L|324:128,1,120,2|2,1:0|1:0,0:0:0:0:
196,56,147492,1,8,3:0:0:0:
168,240,147670,2,0,P|180:184|148:124,1,120,2|2,1:0|1:0,0:0:0:0:
88,264,148202,1,8,3:0:0:0:
288,284,148380,2,0,B|256:268|232:280|204:292|168:264,1,120,2|2,0:0|1:3,0:0:0:0:
260,156,148912,1,8,3:0:0:0:
332,208,149090,1,2,0:0:0:0:
175,359,149267,6,0,L|167:239,2,120,4|8|8,1:0|3:0|0:3,0:0:0:0:
175,359,150332,2,0,L|235:367,1,60,10|2,3:0|1:0,0:0:0:0:
344,364,150688,2,0,B|376:348|376:348|388:260,1,120,8|10,0:3|3:0,0:0:0:0:
400,132,151220,2,0,P|340:124|288:172,1,120,2|0,0:0|1:0,0:0:0:0:
288,300,151753,2,0,L|280:236,1,60,10|2,3:0|0:0,0:0:0:0:
212,108,152108,6,0,L|204:200,1,90,10|0,1:3|0:0,0:0:0:0:
200,228,152463,1,10,3:0:0:0:
92,320,152640,2,0,B|64:292|64:292|56:208,1,120,2|2,1:0|1:0,0:0:0:0:
128,96,153173,1,8,3:0:0:0:
28,264,153350,2,0,L|20:144,1,120,2|2,1:0|1:0,0:0:0:0:
84,20,153883,1,8,3:0:0:0:
148,120,154060,2,0,P|180:132|216:124,1,60,2|8,0:0|1:3,0:0:0:0:
228,0,154415,2,0,P|201:21|190:56,1,60,2|8,1:3|3:0,0:0:0:0:
272,72,154770,1,2,0:0:0:0:
161,257,154948,6,0,B|197:237|197:237|205:121,2,150,6|10|10,1:0|3:0|1:2,0:0:0:0:
76,240,155835,1,2,1:0:0:0:
160,344,156013,1,10,3:0:0:0:
296,196,156190,2,0,P|240:236|256:332,1,150,2|2,0:0|1:0,0:0:0:0:
380,336,156723,1,8,3:0:0:0:
456,172,156901,2,0,L|304:164,1,150,2|2,0:0|1:0,0:0:0:0:
184,160,157433,1,10,3:0:0:0:
320,276,157611,1,2,1:0:0:0:
112,272,157788,6,0,L|104:196,1,75,6|0,3:0|1:0,0:0:0:0:
172,72,158143,1,8,3:0:0:0:
196,248,158321,1,0,1:0:0:0:
40,144,158498,1,8,3:0:0:0:
244,120,158676,2,0,L|284:128,2,37.5,0|0|8,1:0|1:0|3:0,0:0:0:0:
264,300,159031,2,0,L|340:292,1,75,6|0,1:0|0:0,0:0:0:0:
500,172,159386,2,0,L|420:164,1,75,0|2,1:0|3:0,0:0:0:0:
280,127,159741,1,0,3:0:0:0:
360,288,159918,1,2,3:0:0:0:
425,164,160096,1,0,1:0:0:0:
272,300,160273,2,0,L|160:308,1,112.5,10|0,1:0|0:0,0:0:0:0:
116,312,160628,6,0,P|124:224|44:176,1,179.999994506836,6|8,1:0|3:0,0:0:0:0:
48,260,161161,1,2,0:0:0:0:
164,208,161338,2,0,L|260:216,1,89.9999972534181,10|0,1:3|1:0,0:0:0:0:
316,316,161693,1,10,3:0:0:0:
392,140,161871,2,0,L|300:148,1,89.9999972534181,2|8,1:0|0:3,0:0:0:0:
344,232,162226,1,2,1:0:0:0:
476,156,162403,2,0,P|468:100|348:68,1,179.999994506836,10|8,3:0|1:3,0:0:0:0:
392,140,162936,1,2,1:0:0:0:
280,40,163114,2,0,L|272:132,1,89.9999972534181,10|2,3:0|0:0,0:0:0:0:
256,248,163469,6,0,P|216:264|140:224,1,134.999995880127,10|0,1:3|0:0,0:0:0:0:
128,180,163824,1,10,3:0:0:0:
152,52,164001,1,2,0:0:0:0:
160,28,164356,1,2,1:0:0:0:
272,129,164534,1,8,3:0:0:0:
72,80,164711,2,0,P|16:152|72:236,1,179.999994506836,2|2,1:0|1:0,0:0:0:0:
192,264,165244,1,10,3:0:0:0:
28,248,165421,2,0,L|36:340,1,89.9999972534181,2|8,0:0|1:3,0:0:0:0:
120,304,165776,1,2,1:0:0:0:
108,160,165954,1,10,3:0:0:0:
192,264,166131,1,2,0:0:0:0:
180,112,166309,6,0,B|224:84|224:84|352:100,1,179.999994506836,10|8,1:3|3:0,0:0:0:0:
436,116,166841,1,0,0:0:0:0:
280,264,167019,2,0,L|272:172,1,89.9999972534181,10|0,1:3|1:0,0:0:0:0:
260,0,167374,1,10,3:0:0:0:
436,116,167551,2,0,P|408:160|356:184,1,89.9999972534181,2|8,1:0|0:3,0:0:0:0:
264,88,167906,1,2,1:0:0:0:
280,264,168084,1,10,3:0:0:0:
192,140,168261,2,0,B|148:120|100:144|56:160|16:136,1,179.999994506836,0|0,0:0|1:0,0:0:0:0:
132,300,168794,2,0,P|152:260|140:200,1,89.9999972534181,10|0,3:0|0:0,0:0:0:0:
52,324,169149,6,0,L|188:332,1,134.999995880127,10|0,1:3|0:0,0:0:0:0:
232,332,169504,1,10,3:0:0:0:
356,292,169682,1,2,0:0:0:0:
384,284,170037,1,2,1:0:0:0:
248,240,170214,1,8,3:0:0:0:
396,200,170392,2,0,P|452:232|444:344,1,179.999994506836,2|0,1:0|1:0,0:0:0:0:
276,324,170924,2,0,L|268:232,1,89.9999972534181,8|0,3:0|0:0,0:0:0:0:
204,80,171279,2,0,L|196:172,1,89.9999972534181,10|0,1:3|1:0,0:0:0:0:
120,320,171634,2,0,L|112:184,1,134.999995880127,10|0,3:0|0:0,0:0:0:0:
108,140,171989,6,0,P|60:152|12:128,1,89.9999972534181,6|0,1:0|0:0,0:0:0:0:
208,52,172344,1,10,3:0:0:0:
196,169,172522,1,2,0:0:0:0:
72,64,172699,1,10,1:3:0:0:
136,4,172877,1,2,1:0:0:0:
108,140,173054,1,10,3:0:0:0:
264,116,173232,2,0,L|356:124,1,89.9999972534181,2|8,1:0|0:3,0:0:0:0:
396,196,173587,1,2,1:0:0:0:
228,204,173764,2,0,P|304:220|336:312,1,179.999994506836,10|8,3:0|1:3,0:0:0:0:
252,288,174297,1,2,1:0:0:0:
424,280,174474,1,10,3:0:0:0:
320,344,174652,1,2,0:0:0:0:
452,264,174830,6,0,L|460:168,1,89.9999972534181,10|0,1:3|0:0,0:0:0:0:
464,48,175185,1,10,3:0:0:0:
372,164,175362,2,0,B|320:128|280:148|244:172|192:148,1,179.999994506836,2|2,0:0|1:0,0:0:0:0:
76,68,175895,1,8,3:0:0:0:
248,36,176072,2,0,P|256:84|232:132,1,89.9999972534181,2|8,1:0|0:3,0:0:0:0:
188,192,176427,1,2,1:0:0:0:
104,56,176605,1,8,3:0:0:0:
24,200,176782,2,0,P|64:224|116:216,1,89.9999972534181,2|8,0:0|1:3,0:0:0:0:
84,140,177137,1,2,1:0:0:0:
136,300,177315,1,8,3:0:0:0:
241,121,177492,2,0,B|273:93|273:93|412:108,1,179.999994506836,6|0,1:0|1:0,0:0:0:0:
488,276,178025,6,0,L|396:284,1,89.9999972534181,8|0,3:0|0:0,0:0:0:0:
308,184,178380,2,0,L|400:196,1,89.9999972534181,10|0,1:3|1:0,0:0:0:0:
336,340,178735,1,8,3:0:0:0:
262,186,178912,2,0,P|258:130|298:190,1,179.999994506836,2|0,1:0|1:0,0:0:0:0:
212,344,179445,2,0,L|204:252,1,89.9999972534181,8|0,3:0|0:0,0:0:0:0:
156,92,179800,2,0,L|148:184,1,89.9999972534181,10|2,1:3|1:0,0:0:0:0:
24,88,180155,1,10,3:0:0:0:
204,16,180332,2,0,B|240:44|240:44|248:144,1,134.999995880127,6|0,1:0|0:0,0:0:0:0:
248,180,180688,6,0,P|288:208|336:204,1,89.9999972534181,2|0,1:0|3:0,0:0:0:0:
404,20,181043,2,0,L|396:156,1,134.999995880127,6|0,1:0|0:0,0:0:0:0:
412,196,181398,2,0,P|404:244|364:280,1,89.9999972534181,2|2,1:0|3:0,0:0:0:0:
248,180,181753,1,6,1:0:0:0:
264,352,181930,2,0,L|272:308,1,44.999998626709,0|0,3:0|3:0,0:0:0:0:
328,208,182108,2,0,L|336:252,1,44.999998626709,2|0,3:0|3:0,0:0:0:0:
368,348,182285,1,2,3:0:0:0:
368,348,182374,1,0,3:0:0:0:
368,348,182463,1,10,1:0:0:0:
368,348,182551,1,8,1:0:0:0:
368,348,182640,1,8,1:0:0:0:
200,260,182818,2,0,L|104:252,2,89.9999972534181,6|2|2,1:0|0:0|0:0,0:0:0:0:
68,324,183350,6,0,P|32:292|28:236,1,89.9999972534181,6|2,1:0|1:0,0:0:0:0:
149,176,183705,2,0,P|140:219|110:252,1,89.9999972534181,10|2,3:0|0:0,0:0:0:0:
64,180,184060,1,10,1:3:0:0:
200,260,184238,1,2,1:0:0:0:
104,104,184415,1,10,3:0:0:0:
216,288,184593,2,0,L|312:296,1,89.9999972534181,6|0,1:2|0:0,0:0:0:0:
380,248,184948,1,2,1:2:0:0:
276,96,185125,1,8,3:0:0:0:
176,264,185303,2,0,L|360:276,1,179.999994506836,2|0,0:0|1:0,0:0:0:0:
472,152,185835,2,0,L|380:160,1,89.9999972534181,8|0,3:0|1:0,0:0:0:0:
272,64,186190,6,0,L|364:72,1,89.9999972534181,10|0,1:3|1:0,0:0:0:0:
296,172,186545,1,10,3:0:0:0:
268,28,186723,2,0,B|216:12|180:28|136:52|72:20,1,179.999994506836,2|2,0:0|1:0,0:0:0:0:
24,168,187256,1,8,3:0:0:0:
172,220,187433,2,0,B|208:192|208:192|216:48,1,179.999994506836,2|0,1:0|1:0,0:0:0:0:
128,144,187966,1,8,3:0:0:0:
296,128,188143,2,0,L|288:224,1,89.9999972534181,2|8,0:0|1:3,0:0:0:0:
232,340,188498,1,2,1:0:0:0:
172,220,188676,1,10,3:0:0:0:
320,224,188853,1,2,1:0:0:0:
156,304,189031,6,0,P|96:256|120:152,2,179.999994506836,6|8|10,1:0|3:0|1:3,0:0:0:0:
316,312,189918,1,2,1:0:0:0:
172,220,190096,1,10,3:0:0:0:
320,224,190273,2,0,P|364:224|412:196,1,89.9999972534181,6|0,1:2|0:0,0:0:0:0:
400,48,190628,1,2,1:2:0:0:
432,216,190806,1,8,3:0:0:0:
396,24,190983,2,0,P|356:12|304:24,1,89.9999972534181,2|8,1:2|0:3,0:0:0:0:
268,156,191338,1,2,1:0:0:0:
448,124,191516,1,8,3:0:0:0:
240,76,191693,2,0,P|192:116|220:224,1,179.999994506836,6|0,1:0|1:0,0:0:0:0:
376,280,192226,5,8,3:0:0:0:
222,309,192403,2,0,L|214:217,1,89.9999972534181,2|8,0:0|1:3,0:0:0:0:
268,156,192759,1,2,1:0:0:0:
304,332,192936,1,8,3:0:0:0:
129,233,193114,2,0,P|181:213|233:229,1,89.9999972534181,2|8,1:0|0:0,0:0:0:0:
136,320,193469,1,2,1:0:0:0:
184,128,193646,1,8,3:0:0:0:
303,210,193824,2,0,L|211:218,1,89.9999972534181,2|8,1:0|0:3,0:0:0:0:
52,240,194179,1,2,3:0:0:0:
52,240,194267,1,0,3:0:0:0:
52,240,194356,1,2,3:0:0:0:
136,256,194534,1,2,3:0:0:0:
92,56,194711,6,0,B|56:76|56:76|48:220,1,179.999994506836,4|8,1:0|3:0,0:0:0:0:
44,300,195244,1,0,0:0:0:0:
213,217,195421,1,10,1:3:0:0:
88,96,195599,1,2,1:0:0:0:
48,214,195776,1,10,3:0:0:0:
232,132,195954,2,0,L|324:140,1,89.9999972534181,6|0,1:2|0:0,0:0:0:0:
404,152,196309,1,2,1:2:0:0:
280,272,196486,1,8,3:0:0:0:
440,288,196664,2,0,P|408:256|356:252,1,89.9999972534181,2|8,0:0|1:3,0:0:0:0:
272,356,197019,1,0,1:0:0:0:
287,182,197196,2,0,L|279:274,1,89.9999972534181,8|0,3:0|1:0,0:0:0:0:
116,212,197551,6,0,L|108:116,1,89.9999972534181,10|0,1:3|1:0,0:0:0:0:
260,64,197906,1,10,3:0:0:0:
200,204,198084,2,0,L|192:108,1,89.9999972534181,2|8,0:0|1:3,0:0:0:0:
184,28,198439,1,2,1:0:0:0:
80,168,198617,1,8,3:0:0:0:
204,240,198794,2,0,B|260:216|300:240|340:256|380:232,1,179.999994506836,2|2,1:0|1:0,0:0:0:0:
432,100,199327,1,10,3:0:0:0:
432,264,199504,2,0,P|408:224|412:176,1,89.9999972534181,2|8,0:0|1:3,0:0:0:0:
492,204,199859,1,2,1:0:0:0:
348,116,200037,1,10,3:0:0:0:
379,232,200214,1,2,1:0:0:0:
328,32,200392,6,0,L|140:20,2,179.999994506836,4|8|10,1:0|3:0|1:3,0:0:0:0:
412,40,201279,1,2,1:0:0:0:
379,232,201457,1,10,3:0:0:0:
236,56,201634,2,0,B|208:104|232:140|252:180|212:244,1,179.999994506836,6|2,1:2|1:2,0:0:0:0:
64,152,202167,1,8,3:0:0:0:
253,209,202344,2,0,P|219:159|229:229,1,179.999994506836,6|2,1:2|1:0,0:0:0:0:
208,352,202877,1,8,3:0:0:0:
300,100,203054,2,0,B|336:132|336:132|348:268,1,179.999994506836,6|0,1:0|1:0,0:0:0:0:
218,229,203587,6,0,L|226:137,1,89.9999972534181,8|0,3:0|0:0,0:0:0:0:
347,263,203942,2,0,L|354:352,1,89.9999972534181,10|2,1:3|1:0,0:0:0:0:
188,184,204297,1,8,3:0:0:0:
340,176,204474,1,6,1:0:0:0:
172,264,204652,2,0,P|128:244|104:200,1,89.9999972534181,2|0,0:0|3:0,0:0:0:0:
200,64,205007,2,0,L|192:156,1,89.9999972534181,2|2,3:0|3:0,0:0:0:0:
172,300,205362,1,0,3:0:0:0:
108,124,205540,1,0,3:0:0:0:
280,168,205717,1,2,3:0:0:0:
72,116,205895,6,0,L|56:296,1,179.999994506836,6|2,1:0|1:0,0:0:0:0:
192,153,206427,1,10,3:0:0:0:
248,312,206605,2,0,P|284:284|212:240,1,157.499995193482,2|2,0:0|1:0,0:0:0:0:
168,344,207137,1,10,3:0:0:0:
336,352,207315,2,0,P|368:292|348:200,1,157.499995193482,2|2,1:0|1:0,0:0:0:0:
284,60,207847,1,10,3:0:0:0:
264,220,208025,2,0,L|272:136,1,78.7499975967408,2|8,0:0|1:3,0:0:0:0:
368,40,208380,2,0,L|376:120,1,78.7499975967408,2|10,1:0|3:0,0:0:0:0:
196,44,208735,2,0,L|188:124,1,78.7499975967408,2|8,1:0|0:3,0:0:0:0:
176,236,209090,5,2,1:0:0:0:
76,116,209267,2,0,P|116:88|160:92,1,78.7499975967408,10|2,3:0|0:0,0:0:0:0:
92,208,209622,1,10,1:3:0:0:
92,208,209800,2,0,L|95:247,2,39.3749987983704,2|0|2,3:0|3:0|3:0,0:0:0:0:
224,124,210155,6,0,L|228:164,1,39.3749987983704,10|0,1:3|0:0,0:0:0:0:
76,116,210510,2,0,L|80:76,1,39.3749987983704,10|0,1:3|0:0,0:0:0:0:
231,124,210865,2,0,L|235:168,1,39.3749987983704,10|0,1:3|0:0,0:0:0:0:
68,115,211220,2,0,L|73:71,1,39.3749987983704,10|0,3:0|0:0,0:0:0:0:
308,84,211575,6,0,B|320:200|320:200|300:252,1,157.499995193482,6|0,1:0|1:0,0:0:0:0:
200,320,212108,2,0,L|192:236,1,78.7499975967408,10|0,3:0|0:0,0:0:0:0:
120,132,212463,2,0,L|112:216,1,78.7499975967408,10|2,1:3|1:0,0:0:0:0:
20,296,212818,1,10,3:0:0:0:
36,128,212995,2,0,P|48:84|156:52,1,157.499995193482,2|2,1:0|1:0,0:0:0:0:
192,241,213528,1,10,3:0:0:0:
264,16,213705,2,0,B|232:48|232:48|220:164,1,157.499995193482,2|2,0:0|1:0,0:0:0:0:
320,288,214238,1,10,3:0:0:0:
388,96,214415,2,0,P|348:80|300:92,1,78.7499975967408,6|8,1:0|0:3,0:0:0:0:
400,248,214770,5,2,1:0:0:0:
400,248,214859,1,0,0:0:0:0:
400,248,214948,2,0,L|480:240,1,78.7499975967408,10|2,3:0|0:0,0:0:0:0:
340,168,215303,2,0,L|256:160,1,78.7499975967408,10|2,1:3|1:0,0:0:0:0:
236,308,215658,1,10,3:0:0:0:
176,152,215835,2,0,P|180:200|168:232,1,78.7499975967408,6|2,3:0|0:0,0:0:0:0:
64,320,216190,2,0,L|56:364,2,39.3749987983704,10|8|10,1:0|1:0|1:0,0:0:0:0:
100,180,216545,1,10,1:0:0:0:
100,180,216634,1,8,1:0:0:0:
100,180,216723,1,10,1:0:0:0:
170,228,216901,2,0,P|181:190|175:151,1,78.7499975967408,10|10,1:0|1:0,0:0:0:0:
144,12,217256,1,6,1:0:0:0:
175,151,218321,6,0,P|231:159|284:88,1,151.875000579357,6|0,1:0|0:0,0:0:0:0:
292,40,218676,1,6,1:0:0:0:
392,76,219918,1,0,3:0:0:0:
392,76,220007,1,0,3:0:0:0:
392,76,220096,1,0,3:0:0:0:
392,76,220185,1,0,3:0:0:0:
392,76,220273,6,0,L|400:128,1,50.6250001931191,6|0,1:0|0:0,0:0:0:0:
344,336,221161,2,0,P|356:284|336:232,1,101.250000386238,2|0,3:0|1:0,0:0:0:0:
176,288,221516,1,6,1:0:0:0:
176,312,221871,6,0,L|64:304,1,108.750003318787,8|8,1:0|1:0,0:0:0:0:
128,132,222226,1,6,1:0:0:0:
128,104,222581,6,0,P|176:80|240:96,1,116.250000886917,10|10,1:0|1:0,0:0:0:0:
264,288,222936,1,6,1:0:0:0:
320,76,223824,1,2,3:0:0:0:
372,144,224001,6,0,L|380:192,2,37.5,10|8|10,1:0|1:0|1:0,0:0:0:0:
392,280,224356,1,6,1:0:0:0:
488,139,224711,6,0,P|432:115|369:147,1,131.250001251698,2|0,3:0|3:0,0:0:0:0:
264,288,225066,1,6,1:0:0:0:
235,92,225421,6,0,L|244:36,2,37.5,10|8|8,1:0|1:0|1:0,0:0:0:0:
220,280,225776,6,0,P|176:264|240:244,1,168.749994850159,6|0,1:0|0:0,0:0:0:0:
152,268,226309,6,0,P|148:228|164:196,1,67.4999979400635,0|0,3:0|3:0,0:0:0:0:
235,92,226664,1,0,3:0:0:0:
240,244,226841,1,0,3:0:0:0:
148,112,227019,1,0,3:0:0:0:
260,272,227196,2,0,P|300:288|340:284,1,67.4999979400635,0|0,3:0|3:0,0:0:0:0:
404,204,227551,1,8,1:0:0:0:
405,170,227640,1,8,1:0:0:0:
404,132,227729,2,0,L|396:96,3,33.7499989700318,0|8|8|8,3:0|1:0|1:0|1:0,0:0:0:0:
500,192,228084,1,0,3:0:0:0:
500,192,228173,1,0,0:0:0:0:
500,192,228261,2,0,L|507:159,3,33.7499989700318,8|8|8|8,1:0|1:0|1:0|1:0,0:0:0:0:
456,288,228617,1,8,1:0:0:0:
456,288,228705,1,8,1:0:0:0:
456,288,228794,6,0,B|428:332|428:332|300:340,1,179.999994506836,4|8,1:0|3:0,0:0:0:0:
216,312,229327,1,2,0:0:0:0:
388,224,229504,2,0,P|400:268|388:312,1,89.9999972534181,10|2,1:3|1:0,0:0:0:0:
208,224,229859,1,10,3:0:0:0:
420,224,230037,2,0,L|412:128,1,89.9999972534181,6|0,1:2|0:0,0:0:0:0:
404,52,230392,1,2,1:2:0:0:
328,164,230569,1,8,3:0:0:0:
324,20,230747,2,0,B|276:0|232:24|184:44|136:16,1,179.999994506836,2|0,0:0|1:0,0:0:0:0:
24,204,231279,2,0,L|116:212,1,89.9999972534181,8|0,3:0|1:0,0:0:0:0:
276,116,231634,6,0,B|180:112|180:112|144:136,1,134.999995880127,10|0,1:3|0:0,0:0:0:0:
132,176,231989,1,10,3:0:0:0:
288,292,232167,2,0,L|280:200,1,89.9999972534181,2|8,0:0|1:3,0:0:0:0:
276,116,232522,1,2,1:0:0:0:
200,256,232699,1,8,3:0:0:0:
352,348,232877,2,0,B|376:308|376:308|364:172,1,179.999994506836,2|2,1:0|1:0,0:0:0:0:
384,28,233409,1,10,3:0:0:0:
450,163,233587,2,0,P|402:179|346:167,1,89.9999972534181,2|8,0:0|1:3,0:0:0:0:
296,36,233942,1,2,1:0:0:0:
280,204,234119,2,0,L|272:112,1,89.9999972534181,10|2,3:0|1:0,0:0:0:0:
216,292,234474,6,0,B|244:252|244:252|232:116,1,179.999994506836,4|8,1:0|3:0,0:0:0:0:
168,60,235007,1,2,0:0:0:0:
72,236,235185,2,0,P|108:248|156:232,1,89.9999972534181,10|2,1:3|1:0,0:0:0:0:
232,121,235540,1,10,3:0:0:0:
163,321,235717,2,0,L|155:225,1,89.9999972534181,6|0,1:2|0:0,0:0:0:0:
112,160,236072,1,2,1:2:0:0:
248,296,236250,1,8,3:0:0:0:
316,144,236427,2,0,P|356:124|440:164,1,134.999995880127,6|0,1:2|0:0,0:0:0:0:
452,196,236782,1,2,1:0:0:0:
400,328,236960,1,8,3:0:0:0:
376,164,237137,2,0,L|196:172,1,179.999994506836,6|0,1:0|1:0,0:0:0:0:
72,236,237670,5,8,3:0:0:0:
104,88,237847,2,0,B|244:96|244:96|268:127,1,179.999994506836,0|2,0:0|1:0,0:0:0:0:
203,261,238380,2,0,L|195:165,1,89.9999972534181,10|6,3:0|1:0,0:0:0:0:
356,92,238735,2,0,L|348:184,1,89.9999972534181,2|0,0:0|3:0,0:0:0:0:
332,336,239090,1,2,3:0:0:0:
195,171,239267,2,0,P|240:180|272:216,1,89.9999972534181,2|0,3:0|3:0,0:0:0:0:
252,360,239622,1,2,3:0:0:0:
252,360,239800,1,2,3:0:0:0:
184,120,239977,6,0,B|148:156|148:156|140:288,1,179.999994506836,6|0,1:0|1:0,0:0:0:0:
348,181,240510,2,0,L|340:89,1,89.9999972534181,6|0,3:0|0:0,0:0:0:0:
260,164,240865,1,10,3:0:0:0:
144,44,241043,1,0,1:0:0:0:
144,216,241220,1,10,3:0:0:0:
233,68,241398,1,0,1:0:0:0:
132,244,241575,6,0,L|40:236,1,89.9999972534181,10|0,3:0|1:0,0:0:0:0:
144,76,241930,2,0,L|233:68,1,89.9999972534181,10|0,3:0|1:0,0:0:0:0:
348,181,242285,1,10,3:0:0:0:
216,248,242463,1,0,1:0:0:0:
268,68,242640,1,10,3:0:0:0:
304,256,242818,1,0,1:0:0:0:
260,32,242995,6,0,P|220:24|164:48,1,89.9999972534181,10|0,3:0|1:0,0:0:0:0:
130,240,243350,2,0,P|171:255|215:247,1,89.9999972534181,10|0,3:0|1:0,0:0:0:0:
356,96,243705,1,10,3:0:0:0:
184,168,243883,1,0,1:0:0:0:
364,92,244060,1,10,3:0:0:0:
175,171,244238,1,0,1:0:0:0:
428,236,244415,6,0,L|436:144,1,89.9999972534181,10|0,3:0|1:0,0:0:0:0:
215,247,244770,2,0,L|222:336,1,89.9999972534181,10|0,3:0|1:0,0:0:0:0:
224,368,245037,1,0,0:0:0:0:
224,368,245125,1,10,3:0:0:0:
288,192,245303,1,0,1:0:0:0:
312,360,245480,1,10,3:0:0:0:
208,160,245658,1,0,1:0:0:0:
104,320,245835,6,0,P|152:324|188:300,1,89.9999972534181,10|0,3:0|1:0,0:0:0:0:
236,80,246190,2,0,P|192:75|153:97,1,89.9999972534181,10|0,3:0|1:0,0:0:0:0:
132,240,246545,1,10,3:0:0:0:
72,60,246723,1,0,1:0:0:0:
104,320,246901,1,10,3:0:0:0:
208,160,247078,2,0,L|300:168,1,89.9999972534181,2|10,1:0|3:0,0:0:0:0:
380,308,247433,5,2,1:0:0:0:
251,191,247611,1,10,3:0:0:0:
420,144,247788,2,0,L|428:236,1,89.9999972534181,2|10,1:0|3:0,0:0:0:0:
376,72,248143,1,2,1:0:0:0:
308,256,248321,1,10,1:0:0:0:
392,32,248498,2,0,B|348:12|308:32|252:52|204:20,1,179.999994506836,6|0,1:0|0:0,0:0:0:0:
88,196,249031,6,0,P|132:224|184:216,1,89.9999972534181,8|0,3:0|1:0,0:0:0:0:
304,124,249386,1,8,3:0:0:0:
84,112,249563,1,2,1:0:0:0:
176,252,249741,1,10,3:0:0:0:
320,100,249918,2,0,P|328:52|312:8,1,89.9999972534181,6|0,1:0|0:0,0:0:0:0:
260,228,250273,5,2,3:0:0:0:
404,132,250451,1,2,3:0:0:0:
236,60,250628,1,2,3:0:0:0:
200,280,250806,6,0,P|236:308|300:300,1,89.9999972534181,2|2,3:0|3:0,0:0:0:0:
312,108,251161,1,2,3:0:0:0:
120,248,251338,1,2,3:0:0:0:
236,60,251516,5,2,3:0:0:0:
200,280,251693,1,2,3:0:0:0:
240,32,251871,1,2,3:0:0:0:
352,264,252048,1,2,1:0:0:0:
128,164,252226,5,2,3:0:0:0:
356,80,252403,1,2,1:0:0:0:
278,309,252581,1,2,3:0:0:0:
136,136,252759,2,0,P|208:168|128:156,1,225.000008583069,6|0,1:0|0:0,0:0:0:0:
