osu file format v14

[General]
AudioFilename: audio.mp3
AudioLeadIn: 0
PreviewTime: 68676
Countdown: 0
SampleSet: Soft
StackLeniency: 0.3
Mode: 0
LetterboxInBreaks: 0
WidescreenStoryboard: 0

[Editor]
Bookmarks: 5836,11516,29977,47019,64060,69741,115007,120865,137906,154948,160628,206427,217256,228794,253114
DistanceSpacing: 0.9
BeatDivisor: 4
GridSize: 4
TimelineZoom: 1.3

[Metadata]
Title:Dandelion
TitleUnicode:Dandelion
Artist:Farhan feat. GUMI
ArtistUnicode:Farhan feat. GUMI
Creator:Astronic
Version:Blossoming
Source:Arcaea
Tags:novelty video Xandit megpoid メグッポイド rhythm game vocaloid female japanese crafTuner re:TUNED グミ pop jpop j-pop
BeatmapID:2145283
BeatmapSetID:1025776

[Difficulty]
HPDrainRate:5.5
CircleSize:4
OverallDifficulty:8.8
ApproachRate:9.2
SliderMultiplier:1.7
SliderTickRate:1

[Events]
//Background and Video events
0,0,"bg.jpg",0,0
//Break Periods
//Storyboard Layer 0 (Background)
//Storyboard Layer 1 (Fail)
//Storyboard Layer 2 (Pass)
//Storyboard Layer 3 (Foreground)
//Storyboard Layer 4 (Overlay)
//Storyboard Sound Samples

[TimingPoints]
156,355.029585798817,4,2,2,100,1,0
5836,-125,4,2,2,50,0,0
11428,-125,4,2,2,5,0,0
11516,-125,4,2,2,50,0,0
15156,-125,4,2,2,5,0,0
15244,-125,4,2,2,50,0,0
15599,-111.111111111111,4,2,1,50,0,0
15777,355.029585798817,5,2,1,50,1,0
17463,-111.111111111111,5,2,1,5,0,0
17552,355.029585798817,3,2,1,65,1,0
17552,-100,5,2,1,65,0,0
18617,355.029585798817,4,2,1,65,1,0
18705,-100,4,2,1,5,0,0
18794,-100,4,2,1,65,0,0
19415,-100,4,2,1,5,0,0
19504,-100,4,2,1,65,0,0
26427,-100,4,2,1,65,0,0
26782,-100,4,2,1,65,0,0
27048,-100,4,2,1,5,0,0
27315,-100,4,2,1,65,0,0
27403,-100,4,2,1,5,0,0
27670,-100,4,2,1,65,0,0
27759,-100,4,2,1,5,0,0
28025,-100,4,2,1,65,0,0
28114,-100,4,2,1,5,0,0
28380,-200,4,2,1,65,0,0
28735,-200,4,2,1,5,0,0
29445,-200,4,2,1,65,0,0
29977,-111.111111111111,4,2,1,65,0,0
30066,-111.111111111111,4,2,2,65,0,0
33084,-111.111111111111,4,2,2,5,0,0
33173,-111.111111111111,4,2,2,65,0,0
35125,-111.111111111111,4,2,1,65,0,0
35303,-111.111111111111,4,2,2,65,0,0
40806,-111.111111111111,4,2,1,65,0,0
40983,-111.111111111111,4,2,2,65,0,0
46309,-111.111111111111,4,2,3,65,0,0
47019,-100,4,2,3,65,0,0
52522,-100,4,2,1,65,0,0
52699,-100,4,2,3,65,0,0
63972,-100,4,2,3,5,0,0
64060,-90.9090909090909,4,2,1,65,0,0
68321,-142.857142857143,4,2,1,65,0,0
68676,-100,4,2,1,65,0,0
69741,-83.3333333333333,4,2,3,85,0,1
72847,-83.3333333333333,4,2,3,5,0,1
72936,-83.3333333333333,4,2,3,85,0,1
73114,-83.3333333333333,4,2,3,85,0,1
78528,-83.3333333333333,4,2,3,5,0,1
78617,-83.3333333333333,4,2,3,85,0,1
78794,-83.3333333333333,4,2,3,85,0,1
81013,-83.3333333333333,4,2,3,5,0,1
81102,-83.3333333333333,4,2,3,85,0,1
86605,-83.3333333333333,4,2,1,85,0,1
87137,-83.3333333333333,4,2,1,75,0,0
92463,-83.3333333333333,4,2,1,85,0,1
115007,-200,4,2,1,75,0,0
115185,-200,4,2,2,5,0,0
115362,-200,4,2,2,5,0,0
117315,-200,4,2,2,65,0,0
120865,-153.846153846153,4,2,2,65,0,0
126545,-200,4,2,2,65,0,0
129741,-153.846153846154,4,2,2,65,0,0
136309,-125,4,2,2,65,0,0
137818,-153.846153846154,4,2,2,5,0,0
137906,-125,4,2,3,65,0,0
146250,-125,4,2,1,65,0,0
146427,-125,4,2,3,65,0,0
152374,-125,4,2,3,5,0,0
152463,-125,4,2,3,65,0,0
154948,-100,4,2,1,65,0,0
160540,-100,4,2,1,5,0,0
160628,-83.3333333333333,4,2,3,85,0,1
163735,-83.3333333333333,4,2,3,5,0,1
163824,-83.3333333333333,4,2,3,85,0,1
164001,-83.3333333333333,4,2,3,85,0,1
169415,-83.3333333333333,4,2,3,5,0,1
169504,-83.3333333333333,4,2,3,85,0,1
169682,-83.3333333333333,4,2,3,85,0,1
171901,-83.3333333333333,4,2,3,5,0,1
171989,-83.3333333333333,4,2,3,85,0,1
177492,-83.3333333333333,4,2,1,85,0,1
178025,-83.3333333333333,4,2,1,75,0,0
180599,-83.3333333333333,4,2,1,5,0,0
180688,-83.3333333333333,4,2,1,75,0,0
181309,-83.3333333333333,4,2,1,5,0,0
181398,-83.3333333333333,4,2,1,75,0,0
183350,-83.3333333333333,4,2,1,75,0,1
206427,-95.2380952380952,4,2,1,75,0,0
210244,-95.2380952380952,4,2,1,5,0,0
210510,-95.2380952380952,4,2,1,75,0,0
210599,-95.2380952380952,4,2,1,5,0,0
210865,-95.2380952380952,4,2,1,75,0,0
210954,-95.2380952380952,4,2,1,5,0,0
211220,-95.2380952380952,4,2,1,75,0,0
211309,-95.2380952380952,4,2,1,5,0,0
211575,-95.2380952380952,4,2,1,75,0,0
217256,-74.0740740740741,4,2,3,75,0,0
217344,-74.0740740740741,4,2,3,5,0,0
218321,-74.0740740740741,4,2,3,75,0,0
218587,-74.0740740740741,4,2,3,5,0,0
218676,-74.0740740740741,4,2,3,75,0,0
218764,-74.0740740740741,4,2,3,5,0,0
219918,-74.0740740740741,4,2,3,75,0,0
220362,-74.0740740740741,4,2,3,5,0,0
221161,-74.0740740740741,4,2,3,75,0,0
221516,-68.9655172413794,4,2,3,75,0,0
221605,-68.9655172413794,4,2,3,5,0,0
221871,-68.9655172413794,4,2,3,75,0,0
222226,-64.5161290322581,4,2,3,75,0,0
222315,-64.5161290322581,4,2,3,5,0,0
222581,-64.5161290322581,4,2,3,75,0,0
222936,-60.6060606060607,4,2,3,75,0,0
223025,-60.6060606060607,4,2,3,5,0,0
223824,-60.6060606060607,4,2,3,75,0,0
224356,-57.1428571428572,4,2,3,75,0,0
225066,-54.0540540540541,4,2,3,75,0,0
225776,-111.111111111111,4,2,1,75,0,0
226220,-111.111111111111,4,2,1,5,0,0
226309,-111.111111111111,4,2,1,75,0,0
228794,-83.3333333333333,4,2,1,85,0,1
231901,-83.3333333333333,4,2,1,5,0,1
231989,-83.3333333333333,4,2,1,85,0,1
236693,-83.3333333333333,4,2,1,5,0,1
236782,-83.3333333333333,4,2,1,85,0,1
252759,-66.6666666666667,4,2,1,85,0,0
253114,-66.6666666666667,4,2,1,5,0,0

[Colours]
Combo1 : 128,255,128
Combo2 : 255,255,128
Combo3 : 128,255,255
Combo4 : 255,128,128

[HitObjects]
256,192,866,12,0,5658,0:0:0:0:
320,256,5836,6,0,P|384:240|412:176,1,136,2|2,0:0|0:0,0:0:0:0:
312,56,6369,2,0,P|293:119|335:175,2,136,2|2|2,0:0|0:0|0:0,0:0:0:0:
488,156,7611,1,2,0:0:0:0:
487,148,7789,2,0,P|441:100|371:108,1,136,2|2,0:0|0:0,0:0:0:0:
331,173,8321,2,0,L|251:157,1,68,2|2,0:0|0:0,0:0:0:0:
376,105,8676,2,0,L|509:79,1,136,2|2,0:0|0:0,0:0:0:0:
360,208,9209,2,0,L|226:182,1,136,2|2,0:0|0:0,0:0:0:0:
226,182,9919,2,0,L|212:115,1,68,2|0,0:0|0:0,0:0:0:0:
192,32,10274,1,2,0:0:0:0:
96,240,10629,2,0,L|109:173,1,68,2|0,0:0|0:0,0:0:0:0:
124,88,10984,2,0,L|80:96,1,34,10|8,0:0|0:0,0:0:0:0:
152,52,11161,2,0,L|44:68,1,102,10|0,0:0|0:0,0:0:0:0:
24,148,11516,6,0,B|4:244|4:244|18:279,1,136,10|10,1:0|0:3,0:0:0:0:
206,310,12049,2,0,B|172:240|95:239,1,136,2|2,0:0|0:0,0:0:0:0:
8,228,12582,1,8,0:1:0:0:
98,239,12759,2,0,B|184:228|212:176,1,136,2|2,0:0|0:0,0:0:0:0:
232,92,13292,1,8,0:1:0:0:
212,175,13469,2,0,B|191:270|191:270|206:306,1,136,2|2,0:0|0:0,0:0:0:0:
348,256,14002,2,0,L|268:272,1,68,8|0,0:1|0:0,0:0:0:0:
368,176,14357,6,0,L|512:192,1,136,10|10,0:1|0:1,0:0:0:0:
336,144,14889,2,0,L|464:160,1,102,2|0,0:0|0:0,0:0:0:0:
484,164,15244,1,2,0:0:0:0:
320,60,15599,6,0,L|244:75,1,76.4999976654053,2|0,3:0|1:0,0:0:0:0:
104,128,15954,2,0,L|187:143,1,85,10|0,1:0|1:0,0:0:0:0:
344,172,16309,2,0,L|260:191,1,85,10|0,1:0|1:0,0:0:0:0:
120,240,16664,2,0,L|203:259,1,85,10|0,1:0|3:0,0:0:0:0:
340,288,17019,1,8,1:0:0:0:
356,288,17108,1,8,1:0:0:0:
372,288,17197,2,0,B|404:272|404:272|424:180,1,127.5,8|0,1:0|0:0,0:0:0:0:
491,135,17552,6,0,P|423:183|328:149,1,170,6|0,1:0|1:0,0:0:0:0:
272,112,18084,1,2,0:0:0:0:
256,304,18262,1,2,3:0:0:0:
200,64,18439,2,0,B|184:96|184:96|200:192,1,127.5,6|0,1:0|0:0,0:0:0:0:
212,228,18794,1,2,1:0:0:0:
335,175,18972,5,8,3:0:0:0:
160,128,19149,2,0,B|128:112|96:128|64:144|32:128,1,127.5,2|0,0:0|0:0,0:0:0:0:
16,96,19504,1,2,1:0:0:0:
128,208,19682,1,8,3:0:0:0:
88,52,19859,1,2,0:0:0:0:
64,264,20037,6,0,P|152:288|208:228,1,170,4|8,1:0|3:0,0:0:0:0:
244,164,20569,1,0,0:0:0:0:
172,44,20747,1,10,1:3:0:0:
160,128,20924,1,2,1:0:0:0:
336,64,21102,1,8,3:0:0:0:
340,228,21279,6,0,P|324:180|340:132,1,85,6|8,1:0|0:0,0:0:0:0:
424,244,21634,2,0,P|440:292|424:340,1,85,2|8,1:0|3:0,0:0:0:0:
284,180,21989,2,0,P|306:134|351:112,1,85,2|8,1:0|0:0,0:0:0:0:
480,292,22344,2,0,P|457:337|412:359,1,85,2|8,1:0|3:0,0:0:0:0:
224,240,22699,1,10,1:0:0:0:
182,246,22788,1,8,1:0:0:0:
140,256,22877,6,0,P|64:212|68:136,1,170,4|8,1:0|3:0,0:0:0:0:
124,76,23409,1,0,0:0:0:0:
44,228,23587,1,10,1:2:0:0:
40,56,23764,1,2,1:0:0:0:
133,179,23942,1,8,3:0:0:0:
256,16,24119,6,0,P|304:32|336:80,1,85,6|8,1:0|0:0,0:0:0:0:
204,220,24474,2,0,P|163:208|133:179,1,85,2|10,1:0|3:0,0:0:0:0:
328,4,24830,2,0,P|350:49|339:105,1,85,2|8,1:0|0:0,0:0:0:0:
131,231,25185,2,0,P|110:194|109:152,1,85,2|8,1:0|3:0,0:0:0:0:
144,72,25540,1,0,1:0:0:0:
344,216,25717,6,0,B|328:184|328:184|184:168,1,170,6|8,1:0|3:0,0:0:0:0:
212,252,26250,1,0,0:0:0:0:
408,272,26427,2,0,L|392:304,6,21.25,10|0|0|0|2|0|0,1:0|0:0|0:0|0:0|3:0|0:0|3:0,0:0:0:0:
428,232,26782,1,0,3:0:0:0:
304,320,26960,6,0,L|288:272,1,42.5,10|0,1:2|0:0,0:0:0:0:
220,124,27315,2,0,L|206:164,1,42.5,10|0,1:2|0:0,0:0:0:0:
224,352,27670,2,0,L|211:311,1,42.5,6|0,1:2|0:0,0:0:0:0:
304,140,28025,2,0,L|287:190,1,42.5,10|0,1:2|0:0,0:0:0:0:
112,224,28380,6,0,P|19:204|108:173,1,255,6|0,1:2|1:0,0:0:0:0:
352,240,29622,1,0,3:0:0:0:
192,144,29977,6,0,L|368:128,2,152.999995330811,6|8|8,1:0|3:0|3:0,0:0:0:0:
80,48,31043,2,0,L|160:64,1,76.4999976654053,10|10,3:0|0:0,0:0:0:0:
224,224,31398,6,0,L|71:237,2,152.999995330811,8|10|8,3:0|3:0|3:0,0:0:0:0:
320,320,32463,2,0,L|240:304,1,76.4999976654053,10|10,3:0|0:0,0:0:0:0:
380,160,32818,6,0,P|412:208|412:272,1,114.749996498108,10|0,3:0|0:0,0:0:0:0:
404,300,33173,1,10,3:0:0:0:
256,220,33350,2,0,L|336:236,1,76.4999976654053,10|8,0:0|3:0,0:0:0:0:
455,144,33705,2,0,L|379:159,1,76.4999976654053,10|8,0:0|3:0,0:0:0:0:
231,229,34060,6,0,L|331:249,1,76.4999976654053,10|8,0:0|3:0,0:0:0:0:
472,128,34415,2,0,L|379:147,1,76.4999976654053,10|8,0:0|3:0,0:0:0:0:
232,140,34770,2,0,P|256:104|300:84,1,76.4999976654053,10|8,0:0|3:0,0:0:0:0:
313,167,35125,2,0,L|305:247,2,76.4999976654053,10|8|10,0:0|3:0|0:0,0:0:0:0:
224,272,35658,6,0,P|148:296|76:272,2,152.999995330811,10|8|8,3:0|3:0|3:0,0:0:0:0:
112,204,36723,2,0,P|153:215|192:200,1,76.4999976654053,10|10,3:0|0:0,0:0:0:0:
232,140,37078,6,0,L|392:156,2,152.999995330811,8|10|8,3:0|3:0|3:0,0:0:0:0:
152,128,38143,1,10,3:0:0:0:
304,48,38498,6,0,L|320:128,1,76.4999976654053,10|10,3:0|0:0,0:0:0:0:
464,240,38853,2,0,L|479:164,1,76.4999976654053,10|8,3:0|0:0,0:0:0:0:
380,244,39208,2,0,P|320:288|240:264,1,152.999995330811,10|10,3:0|3:0,0:0:0:0:
320,128,39918,6,0,L|304:208,1,76.4999976654053,10|8,3:0|0:0,0:0:0:0:
176,320,40273,2,0,L|160:240,1,76.4999976654053,10|8,3:0|0:0,0:0:0:0:
128,96,40628,1,10,3:0:0:0:
64,192,40806,2,0,L|112:176,1,38.2499988327027,8|0,0:0|0:0,0:0:0:0:
56,232,40983,2,0,L|136:204,1,76.4999976654053,10|8,3:0|0:0,0:0:0:0:
280,111,41338,6,0,L|120:95,2,152.999995330811,10|10|8,3:0|3:0|3:0,0:0:0:0:
400,128,42403,1,10,3:0:0:0:
272,196,42581,1,10,0:0:0:0:
400,212,42759,6,0,P|388:256|356:292,1,76.4999976654053,8|8,3:0|0:0,0:0:0:0:
236,220,43114,2,0,P|280:208|327:218,1,76.4999976654053,10|8,3:0|0:0,0:0:0:0:
328,356,43469,2,0,P|295:323|284:280,1,76.4999976654053,10|8,3:0|0:0,0:0:0:0:
232,160,43824,2,0,P|217:195|189:220,1,76.4999976654053,10|8,3:0|0:0,0:0:0:0:
160,304,44179,6,0,L|144:144,2,152.999995330811,10|8|8,3:0|3:0|3:0,0:0:0:0:
76,288,45244,1,10,3:0:0:0:
189,220,45421,1,10,0:0:0:0:
60,176,45599,6,0,L|76:16,2,152.999995330811,8|8|0,3:0|3:0|1:0,0:0:0:0:
160,304,46486,1,0,3:0:0:0:
144,160,46664,1,2,3:0:0:0:
0,238,46841,1,2,1:0:0:0:
200,312,47019,6,0,B|232:296|232:296|248:152,1,170,6|8,1:0|3:0,0:0:0:0:
256,80,47551,2,0,P|300:100|328:152,1,85,0|8,0:0|0:3,0:0:0:0:
356,220,47906,1,0,1:0:0:0:
400,88,48084,1,10,3:0:0:0:
436,264,48261,6,0,B|420:296|420:296|276:312,1,170,2|2,1:0|1:0,0:0:0:0:
160,224,48794,2,0,L|256:240,1,85,10|2,3:0|0:0,0:0:0:0:
200,312,49149,1,8,1:3:0:0:
148,196,49327,1,0,1:0:0:0:
96,336,49504,2,0,L|80:244,1,85,10|2,3:0|0:0,0:0:0:0:
162,112,49859,6,0,L|147:195,1,85,10|0,1:3|1:0,0:0:0:0:
80,80,50214,1,10,3:0:0:0:
236,48,50392,2,0,L|252:144,1,85,2|8,1:0|0:3,0:0:0:0:
268,212,50747,1,2,1:0:0:0:
320,64,50924,1,8,3:0:0:0:
348,233,51102,6,0,P|336:165|244:133,1,170,2|2,1:0|1:0,0:0:0:0:
112,240,51634,1,8,3:0:0:0:
281,295,51812,2,0,L|265:199,1,85,2|8,0:0|1:3,0:0:0:0:
244,96,52167,1,2,1:3:0:0:
192,268,52344,1,8,3:0:0:0:
180,184,52522,1,10,0:0:0:0:
304,32,52699,6,0,B|336:48|336:48|352:192,1,170,10|8,1:3|3:0,0:0:0:0:
368,320,53232,1,2,1:0:0:0:
448,128,53409,2,0,L|432:224,1,85,8|2,1:3|1:0,0:0:0:0:
284,300,53764,2,0,L|270:216,1,85,8|2,3:0|1:0,0:0:0:0:
256,128,54119,5,8,0:3:0:0:
350,181,54297,1,2,1:0:0:0:
192,256,54474,2,0,L|96:240,1,85,10|2,3:0|0:0,0:0:0:0:
0,176,54830,2,0,L|83:162,1,85,10|0,1:3|1:0,0:0:0:0:
256,128,55185,1,8,3:0:0:0:
200,64,55362,1,0,0:0:0:0:
156,228,55540,6,0,L|172:132,1,85,10|0,1:3|1:0,0:0:0:0:
240,240,55895,1,10,3:0:0:0:
80,304,56072,2,0,L|66:220,1,85,2|8,1:0|0:3,0:0:0:0:
48,136,56427,1,2,1:0:0:0:
156,228,56605,1,8,3:0:0:0:
112,32,56782,6,0,P|192:0|256:64,1,170,2|2,1:0|1:0,0:0:0:0:
308,188,57315,1,8,3:0:0:0:
316,104,57492,1,2,0:0:0:0:
176,80,57670,1,8,1:3:0:0:
240,136,57847,1,2,1:3:0:0:
392,64,58025,2,0,L|488:80,1,85,8|2,3:0|0:0,0:0:0:0:
336,208,58380,6,0,L|164:236,2,170,4|8|8,1:0|3:0|0:3,0:0:0:0:
420,188,59267,1,0,1:0:0:0:
292,336,59445,2,0,P|276:288|292:240,1,85,10|2,3:0|1:0,0:0:0:0:
496,224,59800,6,0,B|480:272|480:272|352:288,1,170,8|10,0:3|3:0,0:0:0:0:
282,255,60332,1,2,0:0:0:0:
352,204,60510,2,0,P|384:172|388:128,1,85,8|0,1:3|1:0,0:0:0:0:
224,80,60865,1,10,3:0:0:0:
204,220,61043,1,2,0:0:0:0:
416,176,61220,6,0,B|390:134|390:134|271:156,1,170,10|10,1:3|3:0,0:0:0:0:
156,288,61753,2,0,P|200:304|252:288,1,85,2|8,1:0|0:3,0:0:0:0:
352,176,62108,1,2,1:0:0:0:
320,320,62285,1,8,3:0:0:0:
124,237,62463,6,0,L|208:224,1,85,2|8,1:0|0:3,0:0:0:0:
128,127,62818,1,2,1:0:0:0:
24,216,62995,2,0,P|48:180|52:136,1,85,8|2,3:0|0:0,0:0:0:0:
64,292,63350,1,8,1:3:0:0:
124,237,63528,1,2,1:3:0:0:
16,112,63705,2,0,P|64:144|128:128,1,127.5,8|0,3:0|0:0,0:0:0:0:
160,96,64060,6,0,L|256:112,1,93.5000028533936,6|0,1:0|0:0,0:0:0:0:
192,256,64415,2,0,L|99:271,1,93.5000028533936,10|0,3:0|0:0,0:0:0:0:
264,192,64770,1,10,1:2:0:0:
264,208,64948,1,2,1:0:0:0:
352,352,65125,2,0,L|336:256,1,93.5000028533936,10|2,3:0|0:0,0:0:0:0:
279,99,65480,6,0,L|263:191,1,93.5000028533936,10|2,1:2|1:0,0:0:0:0:
416,232,65835,2,0,P|392:196|344:176,1,93.5000028533936,8|2,3:0|0:0,0:0:0:0:
256,292,66190,1,8,1:2:0:0:
256,308,66368,1,2,1:0:0:0:
448,304,66545,2,0,L|464:208,1,93.5000028533936,10|2,3:0|1:0,0:0:0:0:
416,32,66901,5,6,3:0:0:0:
347,176,67078,1,0,1:0:0:0:
220,60,67256,5,8,3:0:0:0:
273,214,67433,1,0,1:0:0:0:
144,96,67611,5,8,3:0:0:0:
356,92,67788,1,0,1:0:0:0:
188,228,67966,5,8,3:0:0:0:
300,28,68143,1,2,1:0:0:0:
273,214,68321,5,8,3:0:0:0:
270,243,68409,1,0,3:0:0:0:
258,270,68498,1,0,1:0:0:0:
239,292,68587,1,0,3:0:0:0:
212,308,68676,1,2,3:0:0:0:
185,275,68764,1,0,3:0:0:0:
148,256,68853,1,0,3:0:0:0:
105,254,68942,1,0,3:0:0:0:
66,270,69031,1,2,3:0:0:0:
124,352,69208,1,0,1:0:0:0:
16,200,69386,1,2,3:0:0:0:
40,352,69563,1,0,3:0:0:0:
204,84,69741,6,0,B|352:100|352:100|384:148,1,203.999993774414,6|8,1:0|3:0,0:0:0:0:
412,280,70273,1,2,0:0:0:0:
452,104,70451,2,0,P|464:156|436:212,1,101.999996887207,10|0,1:3|1:0,0:0:0:0:
304,176,70806,1,10,3:0:0:0:
480,304,70983,2,0,L|368:288,1,101.999996887207,2|8,1:0|0:3,0:0:0:0:
272,272,71338,5,2,1:0:0:0:
488,160,71516,2,0,L|376:176,1,101.999996887207,10|0,3:0|0:0,0:0:0:0:
304,192,71871,1,8,1:3:0:0:
432,256,72048,1,2,1:0:0:0:
332,112,72226,1,10,3:0:0:0:
272,272,72403,1,2,0:0:0:0:
160,112,72581,6,0,B|128:80|128:80|16:96,1,152.999995330811,10|0,1:3|0:0,0:0:0:0:
0,128,72936,1,10,3:0:0:0:
36,260,73114,1,2,0:0:0:0:
52,260,73469,1,2,1:0:0:0:
112,112,73646,1,8,3:0:0:0:
176,304,73824,6,0,P|244:212|188:144,1,203.999993774414,2|2,1:0|1:0,0:0:0:0:
32,128,74356,1,10,3:0:0:0:
160,220,74534,1,2,0:0:0:0:
201,150,74711,1,8,1:3:0:0:
96,276,74889,1,2,1:0:0:0:
272,240,75066,1,10,3:0:0:0:
192,128,75244,1,2,0:0:0:0:
156,336,75421,6,0,L|364:368,1,203.999993774414,10|8,1:3|3:0,0:0:0:0:
440,344,75954,1,0,0:0:0:0:
256,224,76131,2,0,P|240:272|256:320,1,101.999996887207,10|0,1:3|1:0,0:0:0:0:
432,256,76486,1,10,3:0:0:0:
240,144,76664,6,0,P|194:166|172:211,1,101.999996887207,2|8,1:0|0:3,0:0:0:0:
428,172,77019,1,2,1:0:0:0:
288,76,77196,2,0,P|240:60|192:75,1,101.999996887207,10|0,3:0|0:0,0:0:0:0:
225,244,77551,2,0,L|241:132,1,101.999996887207,8|0,1:3|1:0,0:0:0:0:
96,240,77906,1,10,3:0:0:0:
144,352,78084,1,0,0:0:0:0:
220,148,78261,6,0,B|172:132|140:148|108:164|60:148,1,152.999995330811,10|0,1:3|0:0,0:0:0:0:
32,144,78617,1,10,3:0:0:0:
80,16,78794,1,2,0:0:0:0:
96,16,79149,1,2,1:0:0:0:
144,176,79327,1,8,3:0:0:0:
212,0,79504,6,0,B|244:32|244:32|228:192,1,203.999993774414,2|0,1:0|1:0,0:0:0:0:
276,332,80037,1,8,3:0:0:0:
310,233,80214,1,0,0:0:0:0:
160,336,80392,2,0,L|272:352,1,101.999996887207,10|0,1:3|1:0,0:0:0:0:
448,240,80747,2,0,P|384:208|304:240,1,152.999995330811,10|0,3:0|0:0,0:0:0:0:
272,256,81102,6,0,L|256:144,1,101.999996887207,6|0,1:0|0:0,0:0:0:0:
336,12,81457,1,10,3:0:0:0:
384,176,81634,1,2,0:0:0:0:
272,72,81812,1,10,1:3:0:0:
356,96,81989,1,2,1:0:0:0:
240,152,82167,1,10,3:0:0:0:
392,80,82344,6,0,L|504:96,1,101.999996887207,2|8,1:0|0:3,0:0:0:0:
384,192,82699,1,2,1:0:0:0:
224,160,82877,2,0,L|112:176,1,101.999996887207,10|0,3:0|0:0,0:0:0:0:
40,192,83232,1,8,1:3:0:0:
164,84,83409,1,2,1:0:0:0:
184,248,83587,1,10,3:0:0:0:
123,174,83764,1,2,0:0:0:0:
160,332,83942,6,0,P|208:328|256:288,1,101.999996887207,10|0,1:3|0:0,0:0:0:0:
280,168,84297,1,10,3:0:0:0:
304,352,84474,2,0,L|288:240,1,101.999996887207,2|8,0:0|1:3,0:0:0:0:
276,136,84830,1,2,1:0:0:0:
372,240,85007,1,8,3:0:0:0:
192,144,85185,6,0,P|208:88|252:56,1,101.999996887207,2|8,1:0|0:3,0:0:0:0:
324,64,85540,1,2,1:0:0:0:
384,240,85717,1,8,3:0:0:0:
276,136,85895,1,2,0:0:0:0:
408,60,86072,1,8,1:3:0:0:
476,112,86250,1,2,1:0:0:0:
264,136,86427,1,8,3:0:0:0:
474,283,86605,6,0,P|386:323|318:243,1,203.999993774414,6|0,1:0|1:0,0:0:0:0:
256,64,87137,2,0,L|240:176,1,101.999996887207,8|0,3:0|0:0,0:0:0:0:
224,304,87492,1,10,1:3:0:0:
224,320,87670,1,0,1:0:0:0:
160,192,87847,1,8,3:0:0:0:
320,256,88025,6,0,L|334:356,1,101.999996887207,2|8,1:0|0:3,0:0:0:0:
256,192,88380,1,0,1:0:0:0:
460,192,88557,2,0,P|444:240|396:272,1,101.999996887207,8|0,3:0|0:0,0:0:0:0:
256,108,88912,1,10,1:3:0:0:
256,92,89090,1,2,1:0:0:0:
380,188,89267,1,10,3:0:0:0:
122,272,89445,2,0,L|223:287,1,101.999996887207,6|0,1:0|0:0,0:0:0:0:
96,192,89800,1,2,1:0:0:0:
123,273,89977,5,0,3:0:0:0:
168,144,90155,1,2,3:0:0:0:
128,288,90332,5,0,3:0:0:0:
12,176,90510,1,2,3:0:0:0:
196,224,90688,5,0,3:0:0:0:
0,260,90865,1,2,3:0:0:0:
180,140,91043,5,0,3:0:0:0:
48,332,91220,1,2,3:0:0:0:
272,184,91398,6,0,L|296:248,1,50.9999984436036,0|0,3:0|0:0,0:0:0:0:
336,352,91575,2,0,L|353:304,1,50.9999984436036,10|8,1:0|1:0,0:0:0:0:
376,224,91753,1,8,1:0:0:0:
192,208,91930,5,6,1:0:0:0:
224,288,92108,1,2,0:0:0:0:
260,368,92285,1,2,0:0:0:0:
308,138,92463,5,6,1:0:0:0:
208,304,92640,1,2,1:0:0:0:
208,124,92818,2,0,L|320:140,1,101.999996887207,10|2,3:0|0:0,0:0:0:0:
160,192,93173,1,10,1:3:0:0:
180,44,93350,1,2,1:0:0:0:
336,144,93528,1,10,3:0:0:0:
148,276,93705,6,0,P|103:252|78:208,1,101.999996887207,6|0,1:2|0:0,0:0:0:0:
324,236,94060,1,2,1:2:0:0:
78,208,94238,1,8,3:0:0:0:
274,160,94415,2,0,P|333:146|381:166,1,101.999996887207,2|8,0:0|1:3,0:0:0:0:
112,352,94770,1,0,1:0:0:0:
173,145,94948,2,0,L|285:161,1,101.999996887207,8|0,3:0|1:0,0:0:0:0:
400,344,95303,6,0,L|288:360,1,101.999996887207,10|0,1:3|1:0,0:0:0:0:
344,220,95658,1,10,3:0:0:0:
500,236,95835,2,0,L|484:348,1,101.999996887207,2|8,0:0|1:3,0:0:0:0:
336,304,96190,1,2,1:0:0:0:
492,152,96368,1,8,3:0:0:0:
315,112,96545,6,0,B|283:96|283:96|107:112,1,203.999993774414,2|0,1:0|1:0,0:0:0:0:
48,256,97078,2,0,L|160:272,1,101.999996887207,8|2,3:0|0:0,0:0:0:0:
232,288,97433,1,8,1:3:0:0:
276,132,97611,1,2,1:0:0:0:
116,112,97788,1,10,3:0:0:0:
256,212,97966,1,2,1:0:0:0:
48,64,98143,6,0,B|76:20|76:20|236:8,1,203.999993774414,6|8,1:0|3:0,0:0:0:0:
364,52,98676,1,0,0:0:0:0:
272,208,98853,1,10,1:3:0:0:
227,8,99031,1,2,1:0:0:0:
384,132,99208,1,10,3:0:0:0:
192,104,99386,6,0,L|80:120,1,101.999996887207,6|0,1:2|0:0,0:0:0:0:
16,256,99741,1,2,1:2:0:0:
256,208,99918,1,8,3:0:0:0:
16,160,100096,2,0,L|32:272,1,101.999996887207,2|8,1:2|0:3,0:0:0:0:
120,328,100451,1,2,1:0:0:0:
96,128,100628,1,8,3:0:0:0:
272,224,100806,6,0,P|384:208|384:128,1,203.999993774414,6|0,1:0|1:0,0:0:0:0:
240,64,101338,1,8,3:0:0:0:
192,240,101516,2,0,L|208:352,1,101.999996887207,2|8,0:0|1:3,0:0:0:0:
384,256,101871,1,2,1:0:0:0:
176,240,102048,1,8,3:0:0:0:
388,135,102226,6,0,B|420:183|420:183|404:343,1,203.999993774414,2|2,1:0|1:0,0:0:0:0:
272,224,102759,1,8,3:0:0:0:
500,208,102936,2,0,L|488:320,1,101.999996887207,2|8,1:0|0:3,0:0:0:0:
304,144,103291,1,2,3:0:0:0:
298,93,103380,1,0,3:0:0:0:
293,42,103469,1,2,3:0:0:0:
472,116,103646,1,2,3:0:0:0:
256,224,103824,6,0,B|208:192|160:224|112:256|48:224,1,203.999993774414,4|8,1:0|3:0,0:0:0:0:
16,152,104356,1,0,0:0:0:0:
196,128,104534,1,10,1:3:0:0:
208,296,104711,1,2,1:0:0:0:
128,76,104889,1,10,3:0:0:0:
32,304,105066,6,0,P|80:324|128:312,1,101.999996887207,6|0,1:2|0:0,0:0:0:0:
288,272,105421,1,2,1:2:0:0:
144,192,105599,1,8,3:0:0:0:
336,144,105776,2,0,P|416:160|432:272,1,203.999993774414,2|0,0:0|1:0,0:0:0:0:
228,324,106309,2,0,L|116:308,1,101.999996887207,8|0,3:0|1:0,0:0:0:0:
235,158,106664,6,0,L|335:143,1,101.999996887207,10|0,1:3|1:0,0:0:0:0:
432,288,107019,1,10,3:0:0:0:
512,80,107196,2,0,L|411:65,1,101.999996887207,2|8,0:0|1:3,0:0:0:0:
246,84,107551,1,2,1:0:0:0:
360,224,107729,1,8,3:0:0:0:
320,32,107906,6,0,B|272:0|272:0|112:16,1,203.999993774414,2|2,1:0|1:0,0:0:0:0:
232,188,108439,2,0,L|246:87,1,101.999996887207,10|2,3:0|0:0,0:0:0:0:
256,0,108794,1,8,1:3:0:0:
128,100,108972,1,2,1:0:0:0:
315,159,109149,1,10,3:0:0:0:
144,184,109327,1,2,1:0:0:0:
300,76,109504,6,0,P|368:92|376:220,1,203.999993774414,4|8,1:0|3:0,0:0:0:0:
336,280,110037,1,0,0:0:0:0:
215,145,110214,2,0,L|327:161,1,101.999996887207,10|2,1:3|1:0,0:0:0:0:
484,184,110569,1,10,3:0:0:0:
232,332,110747,6,0,L|216:208,1,101.999996887207,6|0,1:2|0:0,0:0:0:0:
214,144,111102,1,2,1:2:0:0:
384,209,111279,1,8,3:0:0:0:
144,320,111457,2,0,L|130:218,1,101.999996887207,6|8,1:2|0:3,0:0:0:0:
120,132,111812,1,2,1:0:0:0:
315,159,111989,1,8,3:0:0:0:
60,312,112167,6,0,L|34:102,1,203.999993774414,6|0,1:0|1:0,0:0:0:0:
229,44,112699,2,0,L|213:156,1,101.999996887207,8|0,3:0|0:0,0:0:0:0:
32,256,113054,2,0,L|20:152,1,101.999996887207,10|2,1:3|1:0,0:0:0:0:
144,320,113409,1,8,3:0:0:0:
214,144,113587,1,6,1:0:0:0:
20,154,113764,5,2,0:0:0:0:
216,168,113942,1,0,3:0:0:0:
64,80,114119,1,2,3:0:0:0:
32,256,114297,1,2,3:0:0:0:
148,84,114474,5,0,3:0:0:0:
218,304,114652,1,0,3:0:0:0:
276,84,114830,1,2,3:0:0:0:
359,321,115007,6,0,B|376:274|353:256|345:228|290:178|334:141|359:110|410:91|453:112|539:127|497:238|471:265|440:267|415:295|390:264|319:230|272:248,1,552.5,6|10,1:0|0:2,0:0:0:0:
200,220,117847,5,2,0:0:0:0:
116,236,118380,5,10,0:2:0:0:
72,168,118912,5,2,0:0:0:0:
132,104,119445,5,10,0:2:0:0:
208,140,119977,5,2,0:0:0:0:
80,176,120865,6,0,B|160:256|240:192|304:144|400:224,1,331.499984825135,2|2,0:0|0:0,0:0:0:0:
432,288,122108,2,0,P|452:160|328:160,1,276.249987354279,2|0,0:0|0:0,0:0:0:0:
336,151,123350,2,0,L|320:215,1,55.2499974708558,2|2,0:0|0:0,0:0:0:0:
300,288,123705,6,0,P|260:328|192:320,1,110.499994941712,2|2,0:0|0:0,0:0:0:0:
144,272,124238,2,0,L|128:160,1,110.499994941712,2|2,0:0|0:0,0:0:0:0:
128,162,124948,2,0,L|144:34,1,110.499994941712,2|2,0:0|0:0,0:0:0:0:
141,52,125658,2,0,P|189:36|253:68,2,110.499994941712,2|2|2,0:0|0:0|0:0,0:0:0:0:
80,116,126545,6,0,B|140:152|184:124|184:124|204:156|204:156|300:92|380:188,1,340,2|2,0:0|0:0,0:0:0:0:
424,252,128676,5,2,0:0:0:0:
360,308,129386,5,2,0:0:0:0:
444,336,129741,2,0,L|508:320,1,55.2499974708558,2|0,0:0|0:0,0:0:0:0:
360,308,130096,2,0,L|306:294,1,55.2499974708558,2|0,0:0|0:0,0:0:0:0:
424,252,130451,2,0,L|488:236,1,55.2499974708558,2|0,0:0|0:0,0:0:0:0:
368,192,130806,6,0,L|248:162,1,110.499994941712,2|2,0:0|0:0,0:0:0:0:
260,165,131516,2,0,L|152:191,1,110.499994941712,2|2,0:0|0:0,0:0:0:0:
90,274,132226,6,0,P|122:322|138:194,1,331.499984825135,2|2,0:0|0:0,0:0:0:0:
161,262,133469,2,0,P|215:297|294:245,1,165.749992412568,2|2,0:0|0:0,0:0:0:0:
292,248,134356,2,0,P|276:200|292:136,1,110.499994941712,2|2,0:0|0:0,0:0:0:0:
382,144,135066,6,0,P|446:208|316:186,1,331.499984825135,2|2,0:0|0:0,0:0:0:0:
379,211,136309,2,0,B|330:259|330:259|286:205|324:152|328:152|332:152|352:96|324:52,1,272,2|2,0:0|0:0,0:0:0:0:
244,52,137196,1,2,0:0:0:0:
244,60,137374,2,0,L|212:72,1,34,10|8,0:0|0:0,0:0:0:0:
156,120,137551,2,0,L|56:100,1,102,10|0,0:0|0:0,0:0:0:0:
48,128,137906,6,0,B|64:240|64:240|96:224,1,136,6|8,1:0|3:0,0:0:0:0:
168,204,138439,1,0,0:0:0:0:
120,308,138617,2,0,L|200:324,1,68,8|0,0:3|1:0,0:0:0:0:
348,348,138972,1,10,3:0:0:0:
240,256,139149,6,0,P|304:256|352:192,1,136,2|2,1:0|1:0,0:0:0:0:
204,64,139682,1,10,3:0:0:0:
272,184,139859,2,0,L|288:40,1,136,2|0,0:0|1:0,0:0:0:0:
192,148,140392,1,10,3:0:0:0:
316,124,140569,1,2,0:0:0:0:
112,112,140747,6,0,L|96:256,1,136,10|10,1:3|3:0,0:0:0:0:
240,320,141279,2,0,L|224:240,1,68,2|8,1:0|0:3,0:0:0:0:
156,308,141634,1,2,1:0:0:0:
324,332,141812,1,8,3:0:0:0:
226,253,141989,6,0,L|241:117,1,136,2|2,1:0|1:0,0:0:0:0:
352,32,142522,1,8,3:0:0:0:
336,212,142699,2,0,P|304:212|256:180,1,68,2|8,0:0|1:3,0:0:0:0:
241,117,143054,1,2,1:3:0:0:
352,16,143232,1,8,3:0:0:0:
412,176,143409,6,0,P|416:232|364:292,1,136,10|0,0:0|0:0,0:0:0:0:
192,320,143942,1,8,3:0:0:0:
351,347,144119,2,0,L|335:203,1,136,2|2,1:0|1:0,0:0:0:0:
208,144,144652,2,0,L|192:224,1,68,8|2,3:0|1:0,0:0:0:0:
324,129,145007,6,0,L|310:62,1,68,8|2,0:3|1:0,0:0:0:0:
192,0,145362,1,10,3:0:0:0:
74,141,145540,2,0,B|112:160|138:141|160:128|208:144,1,136,2|0,0:0|1:0,0:0:0:0:
335,211,146072,1,8,3:0:0:0:
180,224,146250,1,8,0:0:0:0:
368,208,146427,6,0,L|352:288,1,68,10|0,1:3|1:0,0:0:0:0:
208,224,146782,1,10,3:0:0:0:
380,124,146960,2,0,P|436:156|448:240,1,136,2|2,1:0|1:0,0:0:0:0:
336,356,147492,1,8,3:0:0:0:
196,287,147670,6,0,P|180:255|180:223,1,68,2|8,1:0|0:3,0:0:0:0:
296,112,148025,1,2,1:0:0:0:
264,236,148202,1,8,3:0:0:0:
96,224,148380,2,0,L|80:80,1,136,2|2,0:0|1:3,0:0:0:0:
232,56,148912,1,8,3:0:0:0:
68,4,149090,1,2,0:0:0:0:
48,192,149267,6,0,P|80:240|160:240,1,136,4|8,1:0|3:0,0:0:0:0:
288,176,149800,2,0,L|432:192,1,136,0|0,0:0|1:0,0:0:0:0:
488,324,150332,2,0,L|408:340,1,68,10|2,3:0|1:0,0:0:0:0:
284,200,150688,6,0,L|428:216,1,136,8|10,0:3|3:0,0:0:0:0:
336,348,151220,2,0,L|200:363,1,136,2|0,0:0|1:0,0:0:0:0:
84,304,151753,1,10,3:0:0:0:
168,292,151930,1,2,0:0:0:0:
64,224,152108,6,0,P|112:208|144:160,1,102,10|0,1:3|0:0,0:0:0:0:
160,128,152463,1,10,3:0:0:0:
272,240,152640,2,0,P|240:176|256:112,1,136,2|2,1:0|1:0,0:0:0:0:
376,96,153173,1,8,3:0:0:0:
184,64,153350,6,0,P|248:32|312:56,1,136,2|2,1:0|1:0,0:0:0:0:
324,168,153883,1,8,3:0:0:0:
448,48,154060,2,0,L|464:192,1,136,2|2,0:0|1:3,0:0:0:0:
480,336,154593,1,8,3:0:0:0:
432,264,154770,1,2,0:0:0:0:
288,352,154948,6,0,P|224:368|160:288,1,170,6|10,1:0|3:0,0:0:0:0:
144,112,155480,1,0,0:0:0:0:
256,204,155658,2,0,L|240:300,1,85,10|2,1:2|1:0,0:0:0:0:
80,184,156013,1,10,3:0:0:0:
80,168,156190,1,2,0:0:0:0:
288,144,156368,6,0,L|304:240,1,85,10|2,1:2|1:0,0:0:0:0:
156,280,156723,2,0,L|169:196,1,85,8|2,3:0|0:0,0:0:0:0:
236,76,157078,2,0,P|284:60|332:76,1,85,8|2,1:2|1:0,0:0:0:0:
448,128,157433,1,10,3:0:0:0:
448,144,157611,1,2,1:0:0:0:
301,227,157788,5,6,3:0:0:0:
492,216,157966,1,0,1:0:0:0:
400,60,158143,5,8,3:0:0:0:
376,272,158321,1,0,1:0:0:0:
316,66,158498,1,8,3:0:0:0:
288,240,158676,1,0,1:0:0:0:
294,281,158764,1,0,1:0:0:0:
301,323,158853,1,8,3:0:0:0:
460,256,159031,2,0,L|476:160,1,85,6|0,1:0|0:0,0:0:0:0:
296,152,159386,5,0,1:0:0:0:
432,208,159563,1,2,3:0:0:0:
220,188,159741,5,0,3:0:0:0:
420,124,159918,1,2,3:0:0:0:
224,104,160096,1,0,1:0:0:0:
432,224,160273,2,0,P|368:196|304:212,1,127.5,10|0,1:0|0:0,0:0:0:0:
304,240,160628,6,0,B|288:288|288:288|128:304,1,203.999993774414,6|8,1:0|3:0,0:0:0:0:
48,304,161161,1,2,0:0:0:0:
240,160,161338,2,0,L|256:272,1,101.999996887207,10|0,1:3|1:0,0:0:0:0:
160,132,161693,1,10,3:0:0:0:
240,344,161871,6,0,P|296:332|332:292,1,101.999996887207,2|8,1:0|0:3,0:0:0:0:
356,168,162226,1,2,1:0:0:0:
384,352,162403,2,0,L|368:240,1,101.999996887207,10|0,3:0|0:0,0:0:0:0:
436,192,162759,1,8,1:3:0:0:
460,312,162936,1,2,1:0:0:0:
284,256,163114,1,10,3:0:0:0:
460,180,163291,1,2,0:0:0:0:
288,112,163469,6,0,P|224:96|144:128,1,152.999995330811,10|0,1:3|0:0,0:0:0:0:
128,160,163824,1,10,3:0:0:0:
176,288,164001,1,2,0:0:0:0:
192,288,164356,1,2,1:0:0:0:
56,224,164534,1,8,3:0:0:0:
224,184,164711,6,0,B|272:152|336:184|368:216|432:184,1,203.999993774414,2|2,1:0|1:0,0:0:0:0:
480,88,165244,1,10,3:0:0:0:
464,256,165421,2,0,P|496:224|496:160,1,101.999996887207,2|8,0:0|1:3,0:0:0:0:
336,96,165776,1,2,1:0:0:0:
352,272,165954,1,10,3:0:0:0:
496,160,166131,1,2,0:0:0:0:
336,284,166309,6,0,P|264:252|276:136,1,203.999993774414,10|8,1:3|3:0,0:0:0:0:
328,200,166841,1,0,0:0:0:0:
192,288,167019,2,0,P|144:304|96:288,1,101.999996887207,10|0,1:3|1:0,0:0:0:0:
140,132,167374,1,10,3:0:0:0:
112,336,167551,6,0,P|66:313|44:268,1,101.999996887207,2|8,1:0|0:3,0:0:0:0:
144,216,167906,1,2,1:0:0:0:
16,320,168084,2,0,P|0:272|16:224,1,101.999996887207,10|0,3:0|0:0,0:0:0:0:
56,148,168439,2,0,P|71:100|56:52,1,101.999996887207,8|0,1:3|1:0,0:0:0:0:
80,160,168794,2,0,L|192:176,1,101.999996887207,10|0,3:0|0:0,0:0:0:0:
320,16,169149,6,0,L|160:32,1,152.999995330811,10|0,1:3|0:0,0:0:0:0:
128,32,169504,1,10,3:0:0:0:
96,160,169682,1,2,0:0:0:0:
112,160,170037,1,2,1:0:0:0:
240,64,170214,1,8,3:0:0:0:
204,248,170392,6,0,P|268:248|284:120,1,203.999993774414,2|0,1:0|1:0,0:0:0:0:
368,16,170924,2,0,L|384:128,1,101.999996887207,8|0,3:0|0:0,0:0:0:0:
496,256,171279,2,0,L|510:155,1,101.999996887207,10|0,1:3|1:0,0:0:0:0:
400,256,171634,2,0,P|368:320|288:352,1,152.999995330811,10|0,3:0|0:0,0:0:0:0:
256,336,171989,6,0,L|240:224,1,101.999996887207,6|0,1:0|0:0,0:0:0:0:
208,64,172344,1,10,3:0:0:0:
160,240,172522,1,2,0:0:0:0:
304,176,172699,1,10,1:3:0:0:
224,148,172877,1,2,1:0:0:0:
172,324,173054,1,10,3:0:0:0:
400,208,173232,6,0,L|288:192,1,101.999996887207,2|8,1:0|0:3,0:0:0:0:
384,352,173587,1,2,1:0:0:0:
464,132,173764,2,0,L|256:104,1,203.999993774414,10|8,3:0|1:3,0:0:0:0:
80,192,174297,1,2,1:0:0:0:
288,224,174474,1,10,3:0:0:0:
176,88,174652,1,2,0:0:0:0:
144,312,174830,6,0,L|256:296,1,101.999996887207,10|0,1:3|0:0,0:0:0:0:
372,236,175185,1,10,3:0:0:0:
187,209,175362,2,0,L|287:223,1,101.999996887207,2|8,0:0|1:3,0:0:0:0:
404,124,175717,1,2,1:0:0:0:
304,32,175895,1,8,3:0:0:0:
236,192,176072,6,0,P|264:144|252:88,1,101.999996887207,2|8,1:0|0:3,0:0:0:0:
220,20,176427,1,2,1:0:0:0:
152,196,176605,1,8,3:0:0:0:
328,214,176782,2,0,P|280:186|224:198,1,101.999996887207,2|8,0:0|1:3,0:0:0:0:
160,280,177137,1,2,1:0:0:0:
336,300,177315,1,8,3:0:0:0:
115,349,177492,6,0,P|80:260|152:196,1,203.999993774414,6|0,1:0|1:0,0:0:0:0:
336,300,178025,2,0,L|224:284,1,101.999996887207,8|0,3:0|0:0,0:0:0:0:
152,196,178380,1,10,1:3:0:0:
312,144,178557,1,0,1:0:0:0:
288,320,178735,1,8,3:0:0:0:
232,168,178912,6,0,P|280:68|376:92,1,203.999993774414,2|0,1:0|1:0,0:0:0:0:
436,285,179445,2,0,L|324:301,1,101.999996887207,8|0,3:0|0:0,0:0:0:0:
200,280,179800,1,10,1:3:0:0:
284,196,179977,1,2,1:0:0:0:
116,168,180155,1,10,3:0:0:0:
388,212,180332,6,0,B|388:100|388:100|356:68,1,152.999995330811,6|0,1:0|0:0,0:0:0:0:
332,48,180688,1,2,1:0:0:0:
202,167,180865,1,0,3:0:0:0:
476,136,181043,2,0,B|476:248|476:248|444:280,1,152.999995330811,6|0,1:0|0:0,0:0:0:0:
420,300,181398,1,2,1:0:0:0:
344,132,181575,1,2,3:0:0:0:
264,324,181753,6,0,P|232:356|168:356,1,101.999996887207,6|0,1:0|3:0,0:0:0:0:
112,256,182108,1,2,3:0:0:0:
112,240,182196,1,0,3:0:0:0:
112,224,182285,1,2,3:0:0:0:
127,176,182374,1,0,3:0:0:0:
170,150,182463,1,10,1:0:0:0:
219,157,182551,1,8,1:0:0:0:
252,195,182640,1,8,1:0:0:0:
177,359,182818,2,0,L|65:343,1,101.999996887207,6|2,1:0|0:0,0:0:0:0:
28,272,183173,1,2,0:0:0:0:
128,96,183350,5,6,1:0:0:0:
264,324,183528,1,2,1:0:0:0:
344,132,183705,2,0,P|376:180|376:228,1,101.999996887207,10|2,3:0|0:0,0:0:0:0:
361,311,184060,1,10,1:3:0:0:
296,204,184238,1,2,1:0:0:0:
459,246,184415,1,10,3:0:0:0:
256,128,184593,6,0,L|144:144,1,101.999996887207,6|0,1:2|0:0,0:0:0:0:
16,160,184948,1,2,1:2:0:0:
128,256,185125,1,8,3:0:0:0:
224,48,185303,2,0,L|12:80,1,203.999993774414,2|0,0:0|1:0,0:0:0:0:
128,256,185835,2,0,L|240:272,1,101.999996887207,8|0,3:0|1:0,0:0:0:0:
256,128,186190,6,0,L|155:142,1,101.999996887207,10|0,1:3|1:0,0:0:0:0:
288,208,186545,1,10,3:0:0:0:
312,64,186723,2,0,L|412:78,1,101.999996887207,2|8,0:0|1:3,0:0:0:0:
512,208,187078,1,2,1:0:0:0:
432,80,187256,1,8,3:0:0:0:
440,252,187433,6,0,P|392:316|272:288,1,203.999993774414,2|0,1:0|1:0,0:0:0:0:
240,156,187966,2,0,P|288:140|336:156,1,101.999996887207,8|2,3:0|0:0,0:0:0:0:
352,236,188321,1,8,1:3:0:0:
176,208,188498,1,2,1:0:0:0:
328,68,188676,1,10,3:0:0:0:
335,155,188853,1,2,1:0:0:0:
160,32,189031,6,0,P|64:32|32:128,1,203.999993774414,6|8,1:0|3:0,0:0:0:0:
48,204,189563,1,0,0:0:0:0:
240,156,189741,1,10,1:3:0:0:
112,104,189918,1,2,1:0:0:0:
108,264,190096,1,10,3:0:0:0:
256,156,190273,6,0,L|368:172,1,101.999996887207,6|0,1:2|0:0,0:0:0:0:
436,188,190628,1,2,1:2:0:0:
320,312,190806,1,8,3:0:0:0:
512,344,190983,2,0,L|496:232,1,101.999996887207,2|8,1:2|0:3,0:0:0:0:
480,116,191338,1,2,1:0:0:0:
380,252,191516,1,8,3:0:0:0:
352,64,191693,6,0,P|312:-8|204:20,1,203.999993774414,6|0,1:0|1:0,0:0:0:0:
176,208,192226,1,8,3:0:0:0:
272,64,192403,2,0,L|160:48,1,101.999996887207,2|8,0:0|1:3,0:0:0:0:
32,80,192759,1,2,1:0:0:0:
228,140,192936,1,8,3:0:0:0:
32,168,193114,6,0,B|0:216|0:216|16:392,1,203.999993774414,2|2,1:0|1:0,0:0:0:0:
213,240,193646,2,0,L|229:128,1,101.999996887207,8|2,3:0|1:0,0:0:0:0:
240,56,194001,1,8,0:3:0:0:
140,172,194179,1,2,3:0:0:0:
308,108,194356,1,2,3:0:0:0:
160,88,194534,1,2,3:0:0:0:
393,121,194711,6,0,B|409:281|409:281|377:313,1,203.999993774414,4|8,1:0|3:0,0:0:0:0:
252,352,195244,1,0,0:0:0:0:
304,192,195421,1,10,1:3:0:0:
378,311,195599,1,2,1:0:0:0:
434,151,195776,1,10,3:0:0:0:
232,144,195954,6,0,P|216:176|232:240,1,101.999996887207,6|0,1:2|0:0,0:0:0:0:
352,272,196309,1,2,1:2:0:0:
392,128,196486,1,8,3:0:0:0:
232,96,196664,2,0,P|184:192|228:284,1,203.999993774414,2|0,0:0|1:0,0:0:0:0:
384,336,197196,2,0,P|416:288|416:240,1,101.999996887207,8|0,3:0|1:0,0:0:0:0:
332,81,197551,6,0,L|220:97,1,101.999996887207,10|0,1:3|1:0,0:0:0:0:
92,112,197906,1,10,3:0:0:0:
336,208,198084,2,0,L|235:193,1,101.999996887207,2|8,0:0|1:3,0:0:0:0:
148,176,198439,1,2,1:0:0:0:
288,120,198617,1,8,3:0:0:0:
328,292,198794,6,0,L|119:262,1,203.999993774414,2|2,1:0|1:0,0:0:0:0:
92,112,199327,2,0,L|204:96,1,101.999996887207,10|2,3:0|0:0,0:0:0:0:
280,88,199682,1,8,1:3:0:0:
192,184,199859,1,2,1:0:0:0:
232,20,200037,1,10,3:0:0:0:
280,176,200214,1,2,1:0:0:0:
499,51,200392,6,0,B|476:16|476:16|316:0,1,203.999993774414,4|8,1:0|3:0,0:0:0:0:
280,88,200924,1,0,0:0:0:0:
512,136,201102,1,10,1:3:0:0:
464,48,201279,1,2,1:0:0:0:
388,232,201457,1,10,3:0:0:0:
200,76,201634,6,0,L|184:188,1,101.999996887207,6|0,1:2|0:0,0:0:0:0:
176,264,201989,1,2,1:2:0:0:
324,144,202167,1,8,3:0:0:0:
116,60,202344,2,0,L|100:172,1,101.999996887207,6|8,1:2|0:3,0:0:0:0:
92,244,202699,1,2,1:0:0:0:
185,176,202877,1,8,3:0:0:0:
32,40,203054,6,0,L|0:260,1,203.999993774414,6|0,1:0|1:0,0:0:0:0:
290,275,203587,2,0,L|274:163,1,101.999996887207,8|0,3:0|0:0,0:0:0:0:
172,64,203942,2,0,L|157:164,1,101.999996887207,10|2,1:3|1:0,0:0:0:0:
136,332,204297,1,8,3:0:0:0:
275,174,204474,1,6,1:0:0:0:
72,164,204652,6,0,L|88:276,1,101.999996887207,2|0,0:0|3:0,0:0:0:0:
290,275,205007,1,2,3:0:0:0:
157,164,205185,1,2,3:0:0:0:
136,332,205362,1,0,3:0:0:0:
240,152,205540,1,0,3:0:0:0:
86,264,205717,1,2,3:0:0:0:
324,144,205895,6,0,P|424:164|404:256,1,203.999993774414,6|2,1:0|1:0,0:0:0:0:
240,152,206427,1,10,3:0:0:0:
344,288,206605,2,0,P|408:328|492:272,1,178.499994552612,2|2,0:0|1:0,0:0:0:0:
432,128,207137,1,10,3:0:0:0:
280,232,207315,6,0,L|88:216,1,178.499994552612,2|2,1:0|1:0,0:0:0:0:
192,80,207847,1,10,3:0:0:0:
224,256,208025,2,0,L|32:240,1,178.499994552612,2|2,0:0|1:0,0:0:0:0:
108,96,208557,1,10,3:0:0:0:
238,167,208735,6,0,L|222:263,1,89.2499972763062,2|8,1:0|0:3,0:0:0:0:
208,368,209090,1,2,1:0:0:0:
312,260,209267,1,10,3:0:0:0:
152,304,209445,1,2,0:0:0:0:
292,356,209622,2,0,L|340:340,1,44.6249986381531,10|0,1:3|0:0,0:0:0:0:
452,320,209800,2,0,L|409:305,1,44.6249986381531,2|0,3:0|3:0,0:0:0:0:
312,260,209977,1,2,3:0:0:0:
480,240,210155,6,0,L|464:192,1,44.6249986381531,10|0,1:3|0:0,0:0:0:0:
326,217,210510,2,0,L|311:259,1,44.6249986381531,10|0,1:3|0:0,0:0:0:0:
496,192,210865,2,0,L|480:144,1,44.6249986381531,10|0,1:3|0:0,0:0:0:0:
296,164,211220,2,0,L|281:206,1,44.6249986381531,10|0,3:0|0:0,0:0:0:0:
296,164,211575,6,0,P|216:196|152:132,1,178.499994552612,6|0,1:0|1:0,0:0:0:0:
144,0,212108,1,10,3:0:0:0:
232,116,212285,1,0,0:0:0:0:
76,52,212463,1,10,1:3:0:0:
224,32,212640,1,2,1:0:0:0:
56,56,212818,1,10,3:0:0:0:
154,140,212995,6,0,L|170:236,1,89.2499972763062,2|8,1:0|0:3,0:0:0:0:
192,336,213350,1,2,1:0:0:0:
336,304,213528,1,10,3:0:0:0:
168,340,213705,2,0,P|120:336|76:296,1,89.2499972763062,2|8,0:0|1:3,0:0:0:0:
154,140,214060,1,2,1:0:0:0:
256,280,214238,1,10,3:0:0:0:
72,132,214415,6,0,P|92:84|136:60,1,89.2499972763062,6|8,1:0|0:3,0:0:0:0:
240,128,214770,1,2,1:0:0:0:
256,128,214859,1,0,0:0:0:0:
272,128,214948,1,10,3:0:0:0:
336,64,215125,1,2,0:0:0:0:
388,224,215303,2,0,L|292:208,1,89.2499972763062,10|2,1:3|1:0,0:0:0:0:
154,140,215658,1,10,3:0:0:0:
352,64,215835,1,6,3:0:0:0:
336,256,216013,5,2,0:0:0:0:
240,128,216190,1,10,1:0:0:0:
232,172,216279,1,8,1:0:0:0:
224,216,216368,2,0,L|208:272,1,44.6249986381531,10|0,1:0|0:0,0:0:0:0:
160,356,216545,2,0,L|147:313,1,44.6249986381531,10|8,1:0|1:0,0:0:0:0:
124,228,216723,1,10,1:0:0:0:
56,352,216901,1,10,1:0:0:0:
24,192,217078,1,10,1:0:0:0:
244,336,217256,6,0,L|300:324,1,57.3750002188683,6|0,1:0|0:0,0:0:0:0:
500,338,218321,2,0,P|436:290|356:322,1,172.125000656605,6|0,1:0|0:0,0:0:0:0:
336,352,218676,6,0,L|324:292,1,57.3750002188683,6|0,1:0|0:0,0:0:0:0:
240,208,219918,1,0,3:0:0:0:
240,192,220007,1,0,3:0:0:0:
240,176,220096,1,0,3:0:0:0:
240,160,220185,1,0,3:0:0:0:
240,144,220273,6,0,L|184:152,1,57.3750002188683,6|0,1:0|0:0,0:0:0:0:
40,168,221161,1,2,3:0:0:0:
120,72,221338,1,0,1:0:0:0:
208,232,221516,6,0,L|144:240,1,61.6250018806458,6|0,1:0|0:0,0:0:0:0:
0,248,221871,1,8,1:0:0:0:
112,120,222048,1,8,1:0:0:0:
192,328,222226,6,0,L|120:336,1,65.8750005025864,6|0,1:0|0:0,0:0:0:0:
40,168,222581,1,10,1:0:0:0:
224,352,222759,1,10,1:0:0:0:
224,132,222936,6,0,L|296:140,1,70.1250006687641,6|0,1:0|0:0,0:0:0:0:
448,149,223824,2,0,L|378:159,1,70.1250006687641,2|0,3:0|0:0,0:0:0:0:
272,224,224001,2,0,L|352:236,1,70.1250006687641,10|8,1:0|1:0,0:0:0:0:
428,248,224179,1,10,1:0:0:0:
464,64,224356,6,0,L|304:48,1,148.750001418591,6|0,1:0|0:0,0:0:0:0:
160,32,224711,1,2,3:0:0:0:
296,132,224889,1,0,3:0:0:0:
40,132,225066,6,0,L|196:116,1,157.249999400139,6|0,1:0|0:0,0:0:0:0:
272,224,225421,1,10,1:0:0:0:
256,224,225510,1,8,1:0:0:0:
240,224,225599,1,8,1:0:0:0:
48,288,225776,6,0,L|244:308,1,191.249994163513,6|0,1:0|0:0,0:0:0:0:
284,312,226309,1,0,3:0:0:0:
384,160,226486,1,0,3:0:0:0:
368,272,226664,1,0,3:0:0:0:
308,164,226841,1,0,3:0:0:0:
156,216,227019,1,0,3:0:0:0:
284,80,227196,1,0,3:0:0:0:
256,232,227374,5,0,3:0:0:0:
204,47,227551,2,0,L|192:84,1,38.2499988327027,8|8,1:0|1:0,0:0:0:0:
172,200,227729,2,0,L|160:164,1,38.2499988327027,0|8,3:0|1:0,0:0:0:0:
199,35,227906,2,0,L|188:72,1,38.2499988327027,8|8,1:0|1:0,0:0:0:0:
159,208,228084,2,0,L|147:172,1,38.2499988327027,0|0,3:0|0:0,0:0:0:0:
104,64,228261,1,8,1:0:0:0:
88,64,228350,1,8,1:0:0:0:
72,64,228439,1,8,1:0:0:0:
40,84,228528,1,8,1:0:0:0:
22,118,228617,1,8,1:0:0:0:
21,155,228705,1,8,1:0:0:0:
40,192,228794,6,0,B|68:236|68:236|224:244,1,203.999993774414,4|8,1:0|3:0,0:0:0:0:
352,176,229327,1,2,0:0:0:0:
264,320,229504,1,10,1:3:0:0:
268,176,229682,1,2,1:0:0:0:
352,324,229859,1,10,3:0:0:0:
228,104,230037,6,0,L|244:-8,1,101.999996887207,6|0,1:2|0:0,0:0:0:0:
400,48,230392,1,2,1:2:0:0:
432,224,230569,1,8,3:0:0:0:
248,244,230747,2,0,B|200:212|152:244|104:276|40:228,1,203.999993774414,2|0,0:0|1:0,0:0:0:0:
168,152,231279,1,8,3:0:0:0:
144,332,231457,1,0,1:0:0:0:
32,224,231634,6,0,B|48:112|48:112|80:80,1,152.999995330811,10|0,1:3|0:0,0:0:0:0:
116,60,231989,1,10,3:0:0:0:
260,180,232167,2,0,P|212:180|164:148,1,101.999996887207,2|8,0:0|1:3,0:0:0:0:
256,32,232522,1,2,1:0:0:0:
344,204,232699,1,8,3:0:0:0:
420,60,232877,6,0,P|516:88|508:180,1,203.999993774414,2|2,1:0|1:0,0:0:0:0:
329,304,233409,2,0,L|345:192,1,101.999996887207,10|2,3:0|0:0,0:0:0:0:
492,260,233764,1,8,1:3:0:0:
400,352,233942,1,2,1:0:0:0:
256,240,234119,2,0,L|240:128,1,101.999996887207,10|2,3:0|1:0,0:0:0:0:
456,20,234474,6,0,L|424:221,1,203.999993774414,4|8,1:0|3:0,0:0:0:0:
324,120,235007,1,2,0:0:0:0:
256,256,235185,1,10,1:3:0:0:
424,221,235362,1,2,1:0:0:0:
241,139,235540,1,10,3:0:0:0:
204,324,235717,6,0,P|256:344|308:328,1,101.999996887207,6|0,1:2|0:0,0:0:0:0:
224,128,236072,2,0,P|174:117|128:137,1,101.999996887207,2|8,1:2|3:0,0:0:0:0:
96,352,236427,2,0,B|112:240|112:240|80:208,1,152.999995330811,6|0,1:2|0:0,0:0:0:0:
48,192,236782,1,2,1:0:0:0:
241,139,236960,1,8,3:0:0:0:
32,108,237137,6,0,P|128:104|224:32,1,203.999993774414,6|0,1:0|1:0,0:0:0:0:
352,112,237670,1,8,3:0:0:0:
245,246,237847,2,0,L|213:38,1,203.999993774414,0|2,0:0|1:0,0:0:0:0:
384,32,238380,1,10,3:0:0:0:
320,192,238557,1,6,1:0:0:0:
512,176,238735,6,0,L|496:288,1,101.999996887207,2|0,0:0|3:0,0:0:0:0:
436,336,239090,1,2,3:0:0:0:
400,152,239267,2,0,L|414:252,1,101.999996887207,2|0,3:0|3:0,0:0:0:0:
356,360,239622,1,2,3:0:0:0:
316,144,239800,1,2,3:0:0:0:
265,144,239889,1,0,0:0:0:0:
224,172,239977,6,0,P|140:208|64:132,1,203.999993774414,6|0,1:0|1:0,0:0:0:0:
200,52,240510,1,6,3:0:0:0:
248,256,240688,1,0,0:0:0:0:
152,124,240865,5,10,3:0:0:0:
371,89,241043,1,0,1:0:0:0:
226,172,241220,1,10,3:0:0:0:
439,134,241398,1,0,1:0:0:0:
246,286,241575,5,10,3:0:0:0:
288,48,241753,1,0,1:0:0:0:
413,203,241930,1,10,3:0:0:0:
163,262,242108,1,0,1:0:0:0:
409,291,242285,5,10,3:0:0:0:
146,173,242463,1,0,1:0:0:0:
372,82,242640,1,10,3:0:0:0:
325,324,242818,1,0,1:0:0:0:
187,95,242995,5,10,3:0:0:0:
142,337,243173,1,0,1:0:0:0:
271,132,243350,1,10,3:0:0:0:
29,199,243528,1,0,1:0:0:0:
238,253,243705,5,10,3:0:0:0:
108,53,243883,1,0,1:0:0:0:
79,274,244060,1,10,3:0:0:0:
112,28,244238,1,0,1:0:0:0:
300,132,244415,6,0,P|246:128|200:152,1,101.999996887207,10|0,3:0|1:0,0:0:0:0:
175,357,244770,1,10,3:0:0:0:
388,178,244948,1,0,1:0:0:0:
388,178,245037,1,0,0:0:0:0:
388,178,245125,1,10,3:0:0:0:
200,40,245303,1,0,1:0:0:0:
438,249,245480,2,0,P|471:203|471:145,1,101.999996887207,10|0,3:0|1:0,0:0:0:0:
292,307,245835,5,10,3:0:0:0:
467,65,246013,1,0,1:0:0:0:
246,107,246190,1,10,3:0:0:0:
455,236,246368,1,0,1:0:0:0:
238,86,246545,5,10,3:0:0:0:
204,307,246723,1,0,1:0:0:0:
384,182,246901,1,10,3:0:0:0:
356,368,247078,1,2,1:0:0:0:
300,152,247256,5,10,3:0:0:0:
440,344,247433,1,2,1:0:0:0:
388,145,247611,1,10,3:0:0:0:
221,328,247788,1,2,1:0:0:0:
142,115,247966,5,10,3:0:0:0:
408,148,248143,1,2,1:0:0:0:
154,203,248321,1,10,1:0:0:0:
420,232,248498,6,0,P|492:160|440:72,1,203.999993774414,6|0,1:0|0:0,0:0:0:0:
424,264,249031,5,8,3:0:0:0:
372,48,249208,1,0,1:0:0:0:
242,121,249386,5,8,3:0:0:0:
408,148,249563,1,2,1:0:0:0:
208,44,249741,5,10,3:0:0:0:
314,248,249918,2,0,P|280:280|212:284,1,101.999996887207,6|0,1:0|0:0,0:0:0:0:
242,121,250273,5,2,3:0:0:0:
241,207,250451,1,2,3:0:0:0:
167,163,250628,1,2,3:0:0:0:
226,287,250806,5,2,3:0:0:0:
320,84,250983,1,2,3:0:0:0:
220,312,251161,1,2,3:0:0:0:
144,80,251338,1,2,3:0:0:0:
340,164,251516,5,2,3:0:0:0:
84,136,251693,1,2,3:0:0:0:
344,80,251871,1,2,3:0:0:0:
376,308,252048,1,2,1:0:0:0:
242,121,252226,5,2,3:0:0:0:
144,352,252403,1,2,1:0:0:0:
252,36,252581,1,2,3:0:0:0:
432,284,252759,2,0,P|391:360|415:277,1,255.000009727478,6|0,1:0|0:0,0:0:0:0:
