osu file format v14

[General]
AudioFilename: audio.mp3
AudioLeadIn: 0
PreviewTime: -1
Countdown: 0
SampleSet: Soft
StackLeniency: 1
Mode: 0
LetterboxInBreaks: 0
WidescreenStoryboard: 1

[Editor]
DistanceSpacing: 1
BeatDivisor: 8
GridSize: 32
TimelineZoom: 1

[Metadata]
Title:scent
TitleUnicode:scent
Artist:Farhan Sarasin
ArtistUnicode:Farhan Sarasin
Creator:F4UZ4N
Version:Normal
Source:VOEZ
Tags:voez farhan piano
BeatmapID:2009591
BeatmapSetID:959823

[Difficulty]
HPDrainRate:3
CircleSize:3
OverallDifficulty:4
ApproachRate:5
SliderMultiplier:2
SliderTickRate:2

[Events]
//Background and Video events
0,0,"thumb-1920-839328.png",0,0
//Break Periods
//Storyboard Layer 0 (Background)
//Storyboard Layer 1 (Fail)
//Storyboard Layer 2 (Pass)
//Storyboard Layer 3 (Foreground)
//Storyboard Sound Samples

[TimingPoints]
757,714.285714285714,3,2,0,68,1,0
5042,-90.9090909090909,3,2,0,68,0,0
18256,-100,3,2,0,68,0,0
22185,-90.9090909090909,3,2,0,68,0,0

[Colours]
Combo1 : 0,157,0
Combo2 : 192,192,192
Combo3 : 180,180,180
Combo4 : 148,148,148
Combo5 : 28,255,28
Combo6 : 218,239,143
Combo7 : 240,189,15

[HitObjects]
71,233,757,6,0,L|176:213,2,100
123,318,1828,2,0,L|228:339,2,100
30,355,2900,1,0,0:0:0:0:
50,192,3971,1,0,0:0:0:0:
123,124,4328,2,0,P|148:109|188:108,1,50
218,104,4685,2,0,P|247:125|280:120,1,50
313,110,5042,5,0,0:0:0:0:
419,83,5399,1,0,0:0:0:0:
495,161,5756,1,0,0:0:0:0:
465,265,6114,2,0,L|401:283,1,55.0000016784668
357,287,6471,2,0,P|298:253|270:190,1,110.000003356934
314,115,7185,5,0,0:0:0:0:
227,57,7542,1,0,0:0:0:0:
227,57,7721,2,0,P|172:44|110:70,1,110.000003356934
90,104,8256,2,0,L|101:227,1,110.000003356934
108,323,8971,2,0,P|145:337|180:341,1,55.0000016784668
215,342,9328,6,0,B|262:311|262:311|322:318,1,110.000003356934
415,362,10042,1,0,0:0:0:0:
501,294,10399,1,0,0:0:0:0:
460,191,10756,1,0,0:0:0:0:
502,89,11114,1,0,0:0:0:0:
409,30,11471,5,0,0:0:0:0:
302,58,11828,1,0,0:0:0:0:
302,58,12006,2,0,B|282:113|282:113|294:167,1,110.000003356934
315,213,12542,1,0,0:0:0:0:
177,304,13078,2,0,L|190:240,2,55.0000016784668
128,329,13614,6,0,P|81:338|57:331,1,55.0000016784668
28,306,13971,2,0,P|27:278|35:252,1,55.0000016784668
71,210,14328,1,0,0:0:0:0:
43,103,14685,2,0,L|106:91,1,55.0000016784668
149,111,15042,2,0,L|212:123,1,55.0000016784668
248,151,15399,1,0,0:0:0:0:
306,58,15756,6,0,P|301:131|294:181,2,110.000003356934
394,123,16828,2,0,P|399:196|406:246,1,110.000003356934
475,315,17542,1,0,0:0:0:0:
370,348,17899,5,0,0:0:0:0:
283,298,18256,2,0,L|224:287,1,50
196,254,18614,2,0,L|146:263,1,50
105,291,18971,1,0,0:0:0:0:
23,233,19328,1,0,0:0:0:0:
31,133,19685,1,0,0:0:0:0:
116,81,20042,5,0,0:0:0:0:
213,104,20399,2,0,P|253:98|279:100,1,50
308,117,20756,2,0,P|348:123|374:121,1,50
403,102,21114,1,0,0:0:0:0:
428,198,21471,1,0,0:0:0:0:
452,294,21828,1,0,0:0:0:0:
452,294,22185,22,0,P|374:284|329:284,1,110.000003356934
238,317,22899,1,0,0:0:0:0:
285,217,23256,2,0,B|300:163|300:163|279:102,1,110.000003356934
215,24,23971,1,0,0:0:0:0:
185,130,24328,5,0,0:0:0:0:
118,42,24685,1,0,0:0:0:0:
118,42,24864,2,0,P|85:92|82:144,1,110.000003356934
109,187,25399,2,0,B|242:176|177:266|305:264,1,220.000006713867
400,212,26471,5,0,0:0:0:0:
319,136,26828,1,0,0:0:0:0:
418,88,27185,2,0,P|374:49|312:27,1,110.000003356934
231,84,27899,1,0,0:0:0:0:
291,175,28256,1,0,0:0:0:0:
241,273,28614,6,0,B|132:251|132:251|69:268,2,165.000005035401
410,291,30221,1,0,0:0:0:0:
410,291,30399,2,0,L|475:282,1,55.0000016784668
503,244,30756,6,0,P|504:186|483:61,1,165.000005035401
459,32,31471,1,0,0:0:0:0:
374,102,31828,2,0,B|270:78|270:163|158:122,1,220.000006713867
80,49,32899,5,0,0:0:0:0:
38,150,33256,1,0,0:0:0:0:
94,244,33614,1,0,0:0:0:0:
2,305,33971,2,0,P|43:289|225:276,1,220.000006713867
306,338,35042,6,0,P|333:261|243:172,1,220.000006713867
158,105,36114,2,0,B|218:63|218:63|378:84,1,220.000006713867
468,116,37185,5,0,0:0:0:0:
384,187,37542,2,0,P|336:178|313:177,1,55.0000016784668
277,193,37899,2,0,P|228:200|206:207,1,55.0000016784668
180,237,38256,1,0,0:0:0:0:
114,148,38614,1,0,0:0:0:0:
114,148,38792,2,0,L|177:135,1,55.0000016784668
255,69,39328,6,0,P|217:36|199:27,2,55.0000016784668
266,122,39864,2,0,L|260:181,1,55.0000016784668
295,219,40221,1,0,0:0:0:0:
305,272,40399,1,0,0:0:0:0:
512,162,41471,6,0,P|435:146|329:149,1,165.000005035401
296,162,42185,2,0,P|254:191|242:210,1,55.0000016784668
243,248,42542,1,0,0:0:0:0:
189,344,42899,1,0,0:0:0:0:
118,259,43256,1,0,0:0:0:0:
118,259,43435,1,0,0:0:0:0:
118,259,43614,6,0,B|116:175|116:175|107:130|107:130|106:34,1,220.000006713867
203,91,44685,2,0,P|272:59|413:84,1,220.000006713867
446,123,45578,1,0,0:0:0:0:
461,175,45756,5,0,0:0:0:0:
441,283,46114,1,0,0:0:0:0:
350,345,46471,1,0,0:0:0:0:
241,324,46828,1,0,0:0:0:0:
176,225,47185,2,0,B|243:183|243:183|333:222,1,165.000005035401
367,185,47899,5,0,0:0:0:0:
313,88,48256,1,0,0:0:0:0:
208,59,48613,1,0,0:0:0:0:
113,112,48971,1,0,0:0:0:0:
