osu file format v14

[General]
AudioFilename: audio.mp3
AudioLeadIn: 0
PreviewTime: 71720
Countdown: 0
SampleSet: Soft
StackLeniency: 0.4
Mode: 0
LetterboxInBreaks: 0
WidescreenStoryboard: 1

[Editor]
Bookmarks: 19828,37125,54422,89048,106345,123642,132291,149588,166886,184202,201499,218796,236093,253391
DistanceSpacing: 0.9
BeatDivisor: 12
GridSize: 32
TimelineZoom: 2.999999

[Metadata]
Title:Unknown Mother-Goose
TitleUnicode:アンノウン・マザーグース
Artist:FantasticYouth
ArtistUnicode:FantasticYouth
Creator:waefwerf
Version:Expert
Source:
Tags:vocaloid utaite japanese wowaka hatsune miku lowfat onyu おん湯(♨) hot water cover ふぁんゆ fanyu announ mazaa guusu novelty
BeatmapID:2116770
BeatmapSetID:992892

[Difficulty]
HPDrainRate:5.5
CircleSize:4
OverallDifficulty:8
ApproachRate:9.2
SliderMultiplier:1.9
SliderTickRate:1

[Events]
//Background and Video events
0,0,"bg.png",0,0
//Break Periods
2,123852,131731
//Storyboard Layer 0 (Background)
//Storyboard Layer 1 (Fail)
//Storyboard Layer 2 (Pass)
//Storyboard Layer 3 (Foreground)
//Storyboard Layer 4 (Overlay)
//Storyboard Sound Samples

[TimingPoints]
1460,270.27027027027,4,2,1,80,1,0
2135,-125,4,2,1,50,0,0
2541,-100,4,2,1,70,0,0
8757,-125,4,2,1,70,0,0
9027,-100,4,2,1,70,0,0
12946,-125,4,2,1,70,0,0
13351,-100,4,2,1,70,0,0
17135,-125,4,2,1,70,0,0
17676,-100,4,2,1,70,0,0
18757,-83.3333333333333,4,2,2,70,0,0
19838,-90.9090909090909,4,2,1,70,0,0
37135,-1000,4,2,1,70,0,0
39297,-100,4,2,1,70,0,0
53351,-83.3333333333333,4,2,1,70,0,0
54072,-333.333333333333,4,2,1,70,0,0
54973,-200,4,2,2,70,0,0
56595,-133.333333333333,4,2,2,70,0,0
58487,-177.935943060498,4,2,2,70,0,0
60919,-133.333333333333,4,2,2,70,0,0
62743,-200,4,2,2,70,0,0
63261,-83.3333333333333,4,3,2,70,0,0
69838,-66.6666666666667,4,2,1,80,0,1
71189,-1000,4,2,3,90,0,0
71234,-1000,4,2,3,40,0,0
71761,270.27027027027,4,2,2,40,1,0
71761,-166.666666666667,4,2,2,40,0,0
72301,-200,4,2,2,40,0,0
75004,-133.333333333333,4,2,2,40,0,0
76085,-200,4,2,2,40,0,0
76625,-83.3333333333333,4,2,2,60,0,1
77031,-66.6666666666667,4,2,2,20,0,0
77166,-200.000000000001,4,2,2,40,0,0
79869,-133.333333333333,4,2,2,40,0,0
80409,-166.666666666667,4,2,2,40,0,0
80950,-200,4,2,2,40,0,0
83112,-153.846153846154,4,2,2,40,0,0
83652,-133.333333333333,4,2,2,50,0,0
84733,-200,4,2,2,40,0,0
85274,-83.3333333333333,4,2,2,60,0,1
85544,-200,4,2,2,60,0,0
85679,-200,4,2,2,40,0,0
88517,-133.333333333333,4,2,2,40,0,0
89058,-125,4,2,2,60,0,0
95544,-100,4,2,2,60,0,0
96085,-125,4,2,2,60,0,0
97301,-100,4,2,2,60,0,0
97706,-125,4,2,2,60,0,0
104193,-100,4,2,2,60,0,0
106355,-111.111111111111,4,2,2,70,0,0
112842,-100,4,2,2,70,0,0
113382,-111.111111111111,4,2,2,70,0,0
121490,-100,4,2,2,70,0,0
122031,-111.111111111111,4,2,2,70,0,0
132301,-100,4,2,1,70,0,0
147436,-83.3333333333333,4,2,1,70,0,0
149598,-90.9090909090909,4,2,1,70,0,0
165815,-78.125,4,2,1,70,0,0
166896,-200,4,2,2,70,0,0
169058,-133.333333333333,4,2,2,70,0,0
170860,-166.666666666667,4,2,2,70,0,0
175815,-83.3333333333334,4,3,2,70,0,0
182301,-66.6666666666667,4,2,1,80,0,1
183652,-1000,4,2,3,90,0,0
184212,270.27027027027,4,2,2,40,1,0
184212,-166.666666666667,4,2,2,40,0,0
184752,-200,4,2,2,40,0,0
187455,-133.333333333333,4,2,2,40,0,0
188536,-200,4,2,2,40,0,0
189076,-83.3333333333333,4,2,2,60,0,1
189617,-250,4,2,2,40,0,0
192320,-133.333333333333,4,2,2,40,0,0
192860,-166.666666666667,4,2,2,40,0,0
193401,-200,4,2,2,40,0,0
196103,-100,4,2,2,60,0,0
197184,-200,4,2,2,40,0,0
197725,-66.6666666666667,4,2,2,60,0,1
198266,-200,4,2,2,40,0,0
200968,-133.333333333333,4,2,2,40,0,0
201509,-125,4,2,2,60,0,0
209617,-100,4,2,2,60,0,0
210157,-125,4,2,2,60,0,0
216644,-100,4,2,2,60,0,0
218806,-117.647058823529,4,2,2,60,0,0
225293,-105.263157894737,4,2,2,60,0,0
226374,-117.647058823529,4,2,2,60,0,0
233941,-105.263157894737,4,2,2,60,0,0
235022,-117.64705882353,4,2,2,60,0,0
236103,-111.111111111111,4,2,2,60,0,0
242590,-100,4,2,2,60,0,0
243130,-111.111111111111,4,2,2,60,0,0
252320,-100,4,2,2,60,0,0
253401,-111.111111111111,4,2,1,60,0,0
270698,-526.315789473684,4,2,1,20,0,0

[Colours]
Combo1 : 199,193,175
Combo2 : 179,97,25
Combo3 : 255,128,0
Combo4 : 245,198,117
Combo5 : 250,160,108
Combo6 : 254,1,1
Combo7 : 191,10,10
Combo8 : 182,170,165

[HitObjects]
197,207,2135,69,0,0:0:0:0:
197,207,2270,2,0,L|209:121,1,76,0|0,0:0|0:0,0:0:0:0:
48,91,2541,86,0,B|59:160|59:160|94:196|94:196|107:268,1,190,6|8,1:2|0:0,0:0:0:0:
36,355,2946,2,0,B|61:375|61:375|129:358,1,95,2|0,1:2|0:0,0:0:0:0:
197,340,3216,1,2,1:2:0:0:
265,261,3351,1,8,0:0:0:0:
334,367,3487,1,2,0:0:0:0:
428,237,3622,6,0,L|419:337,1,95,0|0,1:0|0:0,0:0:0:0:
265,261,3892,1,8,0:0:0:0:
265,261,4027,2,0,L|274:161,1,95,2|0,1:2|0:0,0:0:0:0:
501,89,4297,1,0,1:0:0:0:
501,89,4365,1,0,0:0:0:0:
501,89,4432,2,0,B|407:73|432:142|330:121,1,142.5,8|0,0:0|0:0,0:0:0:0:
353,120,4703,102,0,L|339:16,1,95,2|0,1:2|0:0,0:0:0:0:
430,15,4973,1,10,0:0:0:0:
370,208,5108,2,0,B|305:213|305:213|258:173|258:173|192:179,1,190,2|2,1:2|1:2,0:0:0:0:
120,241,5514,1,8,0:0:0:0:
25,131,5649,1,2,0:0:0:0:
25,131,5716,1,2,0:0:0:0:
25,131,5784,6,0,P|22:67|39:26,1,95,0|2,1:0|0:0,0:0:0:0:
126,110,6054,1,8,0:0:0:0:
183,160,6189,2,0,B|254:148|216:182|293:175,1,95,2|0,0:0|1:0,0:0:0:0:
334,100,6459,5,2,1:2:0:0:
221,242,6594,1,10,0:0:0:0:
155,68,6730,1,2,0:0:0:0:
155,68,6865,86,0,B|218:31|218:31|178:174,1,190,0|8,1:2|0:0,0:0:0:0:
88,224,7270,2,0,B|150:218|150:218|198:258|198:258|262:252,1,190,2|2,1:2|1:2,0:0:0:0:
345,216,7676,1,8,0:0:0:0:
230,336,7811,1,2,0:0:0:0:
417,377,7946,6,0,L|526:363,1,95,0|0,1:0|0:0,0:0:0:0:
351,207,8216,1,10,0:0:0:0:
281,276,8351,2,0,L|265:384,1,95,2|0,1:2|0:0,0:0:0:0:
470,144,8622,37,2,1:0:0:0:
470,144,8757,2,0,P|490:113|463:79,1,76,10|0,0:1|0:0,0:0:0:0:
392,30,9027,54,0,B|336:49|336:49|318:95|318:95|231:117,1,190,0|8,1:0|0:0,0:0:0:0:
117,178,9432,2,0,L|334:224,1,190,2|2,1:2|1:2,0:0:0:0:
241,115,9838,1,8,0:0:0:0:
133,271,9973,1,0,0:0:0:0:
14,114,10108,6,0,B|1:63|1:63|19:6,1,95,0|0,1:0|0:0,0:0:0:0:
175,27,10378,2,0,B|188:78|188:78|170:135,1,95,8|2,0:0|0:0,0:0:0:0:
99,209,10649,1,0,1:0:0:0:
159,129,10784,21,2,1:2:0:0:
253,255,10919,1,10,0:0:0:0:
160,365,11054,1,2,0:0:0:0:
160,365,11189,70,0,B|249:386|226:313|325:354,1,142.5,4|0,1:0|0:0,0:0:0:0:
321,355,11459,1,8,0:0:0:0:
512,161,11595,2,0,P|452:158|409:272,1,190,2|2,1:2|1:2,0:0:0:0:
486,271,12000,1,8,0:0:0:0:
412,376,12135,1,0,0:0:0:0:
266,155,12270,6,0,L|278:279,1,95,0|2,1:0|0:0,0:0:0:0:
446,182,12541,1,8,0:0:0:0:
437,94,12676,2,0,L|425:-30,1,95,2|0,1:2|0:0,0:0:0:0:
326,59,12946,53,2,1:0:0:0:
326,59,13081,2,0,P|277:47|252:68,1,76,10|0,0:1|0:0,0:0:0:0:
165,17,13351,38,0,B|144:47|144:47|164:144,1,95,2|0,1:2|0:0,0:0:0:0:
141,275,13622,1,8,0:0:0:0:
2,210,13757,2,0,B|66:221|66:221|116:185|116:185|181:196,1,190,2|2,1:2|1:2,0:0:0:0:
266,209,14162,1,8,0:0:0:0:
311,346,14297,1,2,0:0:0:0:
311,346,14365,1,2,0:0:0:0:
311,346,14432,6,0,B|193:357,1,95,0|2,1:0|0:0,0:0:0:0:
178,195,14703,1,8,0:0:0:0:
333,171,14838,2,0,B|358:211|358:211|331:274,1,95,2|0,0:0|1:0,0:0:0:0:
178,195,15108,5,2,1:2:0:0:
320,88,15243,1,10,0:0:0:0:
447,296,15378,1,2,0:0:0:0:
492,219,15514,86,0,B|426:224|426:224|379:184|379:184|314:190,1,190,2|8,1:2|0:0,0:0:0:0:
246,142,15919,2,0,B|207:187|207:187|232:316,1,190,2|2,1:2|1:2,0:0:0:0:
316,361,16324,2,0,L|411:348,1,95,8|0,0:0|0:0,0:0:0:0:
330,155,16595,6,0,L|314:285,1,95,0|2,1:2|0:0,0:0:0:0:
150,367,16865,1,10,0:0:0:0:
36,216,17000,1,0,1:0:0:0:
167,273,17135,38,0,L|180:180,1,76,2|2,0:1|1:0,0:0:0:0:
50,17,17405,2,0,L|37:110,1,76,10|0,0:1|0:0,0:0:0:0:
131,63,17676,54,0,B|197:55|197:55|233:78|233:78|320:67,1,190,2|8,1:2|0:0,0:0:0:0:
437,162,18081,2,0,B|371:154|371:154|335:177|335:177|248:166,1,190,2|2,1:2|1:2,0:0:0:0:
501,28,18487,1,12,0:0:0:0:
438,297,18757,70,0,L|425:378,2,75.9999976806641,2|0|2,1:2|3:2|3:2,0:0:0:0:
354,235,19027,2,0,L|341:154,2,75.9999976806641,2|2|0,3:3|3:2|3:2,0:0:0:0:
270,297,19297,1,2,3:0:0:0:
270,297,19387,2,0,L|257:378,1,75.9999976806641,2|0,3:0|3:2,0:0:0:0:
186,235,19568,1,2,3:0:0:0:
186,235,19658,2,0,L|173:154,1,75.9999976806641,2|2,3:0|3:0,0:0:0:0:
116,312,19838,6,0,B|88:365|88:365|55:206,1,209.000006378174,6|8,1:0|0:0,0:0:0:0:
203,131,20243,2,0,L|183:251,1,104.500003189087,0|0,1:0|0:0,0:0:0:0:
0,143,20514,1,2,1:2:0:0:
31,71,20649,2,0,B|74:55|74:55|148:73,1,104.500003189087,10|2,0:2|0:2,0:0:0:0:
216,25,20919,5,0,1:2:0:0:
316,123,21054,1,2,1:2:0:0:
459,14,21189,2,0,L|439:134,1,104.500003189087,10|0,0:1|0:0,0:0:0:0:
262,209,21459,1,2,1:2:0:0:
379,226,21595,1,0,0:0:0:0:
262,209,21730,2,0,B|302:193|302:193|388:217,1,104.500003189087,2|0,1:2|0:0,0:0:0:0:
502,362,22000,102,0,B|442:378|442:378|402:362,1,104.500003189087,2|0,1:0|0:0,0:0:0:0:
298,281,22270,2,0,L|283:385,2,104.500003189087,8|2|0,0:2|1:2|0:2,0:0:0:0:
402,104,22676,1,2,1:2:0:0:
463,182,22811,2,0,L|448:286,1,104.500003189087,8|0,0:0|0:0,0:0:0:0:
507,103,23081,5,2,1:2:0:0:
366,190,23216,1,2,1:2:0:0:
296,102,23351,2,0,L|317:-1,1,104.500003189087,8|2,0:0|0:0,0:0:0:0:
108,58,23622,2,0,B|60:13|60:13|86:187,1,209.000006378174,2|0,1:0|1:0,0:0:0:0:
32,239,24027,1,0,0:0:0:0:
32,239,24162,102,0,B|102:251|102:251|157:211|157:211|229:224,1,209.000006378174,2|10,1:0|0:2,0:0:0:0:
285,155,24568,1,2,1:2:0:0:
399,275,24703,2,0,P|399:347|390:387,1,104.500003189087,2|0,0:2|1:0,0:0:0:0:
277,146,24973,2,0,P|277:74|286:34,1,104.500003189087,8|2,0:0|0:0,0:0:0:0:
400,106,25243,5,2,0:0:0:0:
274,223,25378,1,0,1:0:0:0:
444,303,25514,2,0,L|315:318,1,104.500003189087,8|0,0:0|0:0,0:0:0:0:
204,367,25784,102,0,B|216:286|216:286|189:252|189:252|201:160,2,209.000006378174,2|2|2,1:0|1:0|1:0,0:0:0:0:
204,367,26595,6,0,B|171:324|171:324|10:354,1,209.000006378174,10|0,0:2|0:0,0:0:0:0:
1,215,27000,1,0,1:0:0:0:
1,215,27135,2,0,L|106:233,1,104.500003189087,8|0,0:0|0:0,0:0:0:0:
375,376,27405,102,0,B|415:341|415:341|391:168,1,209.000006378174,2|8,1:0|0:0,0:0:0:0:
367,100,27811,1,0,0:0:0:0:
219,251,27946,2,0,B|203:200|203:200|216:150,1,104.500003189087,2|0,1:0|0:0,0:0:0:0:
364,0,28216,2,0,B|379:50|379:50|367:101,1,104.500003189087,2|0,1:0|0:0,0:0:0:0:
481,185,28487,54,0,P|398:172|336:196,1,139.333337585449,2|0,1:0|0:0,0:0:0:0:
284,263,28757,2,0,P|291:313|288:341,2,69.6666687927247,10|0|0,0:1|0:3|0:0,0:0:0:0:
219,199,29027,2,0,P|212:149|215:121,2,69.6666687927247,2|0|0,1:1|0:3|0:0,0:0:0:0:
66,323,29297,2,0,P|108:283|206:299,1,139.333337585449,10|0,0:1|0:0,0:0:0:0:
276,342,29568,5,2,1:1:0:0:
276,342,29658,2,0,L|351:334,1,69.6666687927247,0|0,0:1|0:0,0:0:0:0:
418,369,29838,2,0,P|471:360|503:274,1,139.333337585449,10|0,1:1|0:0,0:0:0:0:
441,182,30108,1,0,1:0:0:0:
441,182,30198,2,0,L|435:257,1,69.6666687927247,0|0,0:0|0:0,0:0:0:0:
511,94,30378,2,0,P|469:54|371:70,1,139.333337585449,2|0,1:0|0:0,0:0:0:0:
316,16,30649,101,2,1:0:0:0:
303,181,30829,2,0,L|295:259,1,69.6666687927247,0|8,0:0|0:0,0:0:0:0:
224,124,31009,2,0,L|232:46,1,69.6666687927247,0|0,0:0|0:0,0:0:0:0:
172,212,31189,2,0,P|126:227|102:226,2,69.6666687927247,2|0|0,1:0|0:0|0:0,0:0:0:0:
114,3,31459,2,0,P|124:56|109:163,1,139.333337585449,10|0,0:1|0:0,0:0:0:0:
21,174,31730,6,0,P|21:133|28:85,2,69.6666687927247,0|0|0,1:0|0:0|0:0,0:0:0:0:
186,218,32000,2,0,P|186:259|179:307,2,69.6666687927247,8|0|0,0:0|0:0|0:0,0:0:0:0:
15,288,32270,2,0,P|62:257|101:253,1,69.6666687927247,2|0,1:1|0:0,0:0:0:0:
196,376,32450,1,0,0:0:0:0:
196,376,32541,2,0,B|307:387|291:315|396:337,1,209.000006378174,2|2,1:1|1:0,0:0:0:0:
395,336,33081,37,8,0:0:0:0:
458,171,33216,2,0,B|497:215|497:215|470:279,1,104.500003189087,2|0,1:2|0:0,0:0:0:0:
298,229,33487,1,0,1:0:0:0:
355,118,33622,5,8,0:0:0:0:
250,133,33757,1,0,0:0:0:0:
362,128,33892,1,2,0:0:0:0:
257,143,34027,1,0,1:0:0:0:
339,18,34162,2,0,B|362:72|362:72|353:126,1,104.500003189087,8|0,0:0|1:0,0:0:0:0:
216,242,34432,1,2,1:2:0:0:
272,305,34568,2,0,B|350:311|350:311|406:263|406:263|485:270,1,209.000006378174,2|0,0:0|0:0,0:0:0:0:
496,367,34973,102,0,P|468:302|463:250,1,104.500003189087,0|0,1:0|0:0,0:0:0:0:
467,0,35243,2,0,P|495:65|500:117,1,104.500003189087,8|0,0:0|1:2,0:0:0:0:
395,68,35514,2,0,B|271:60|331:129|193:114,1,209.000006378174,2|8,0:0|0:0,0:0:0:0:
123,32,35919,1,2,0:0:0:0:
123,32,36054,6,0,L|112:143,1,104.500003189087,0|2,1:0|0:0,0:0:0:0:
268,307,36324,2,0,L|279:196,1,104.500003189087,8|0,0:0|0:0,0:0:0:0:
284,114,36595,1,0,1:0:0:0:
105,371,36730,37,2,0:2:0:0:
36,323,36865,2,0,P|22:261|51:196,1,104.500003189087,2|2,1:2|0:2,0:0:0:0:
256,32,37135,1,6,1:2:0:0:
37,325,39297,86,0,B|109:317|109:317|149:353|149:353|240:343,1,190,4|8,1:0|0:0,0:0:0:0:
333,305,39703,2,0,B|320:253|320:253|279:410,1,190,2|2,1:2|1:2,0:0:0:0:
175,278,40108,2,0,L|148:163,1,95,8|0,0:0|0:0,0:0:0:0:
6,121,40378,5,2,1:2:0:0:
145,42,40514,1,2,0:0:0:0:
92,246,40649,1,8,0:0:0:0:
92,246,40784,2,0,L|0:224,1,95,2|0,0:0|1:0,0:0:0:0:
132,159,41054,5,2,1:2:0:0:
276,102,41189,1,10,0:0:0:0:
385,218,41324,1,2,0:0:0:0:
439,132,41459,86,0,L|424:14,1,95,2|0,1:2|0:0,0:0:0:0:
402,206,41730,1,8,0:0:0:0:
507,303,41865,2,0,B|471:271|471:271|311:312,1,190,2|0,1:2|1:2,0:0:0:0:
247,277,42270,2,0,L|266:381,1,95,8|0,0:0|0:0,0:0:0:0:
195,177,42541,6,0,B|147:159|147:159|81:180,1,95,2|2,1:2|0:0,0:0:0:0:
143,255,42811,1,8,0:0:0:0:
288,132,42946,2,0,L|295:28,1,95,2|0,0:0|1:0,0:0:0:0:
374,95,43216,1,2,1:2:0:0:
211,46,43351,2,0,L|103:62,1,95,8|0,0:0|0:0,0:0:0:0:
45,3,43622,102,0,B|-5:47|-5:47|41:186,1,190,2|8,1:2|0:0,0:0:0:0:
1,253,44027,2,0,B|45:203|45:203|184:249,1,190,2|2,1:2|1:2,0:0:0:0:
242,185,44432,2,0,L|252:90,1,95,8|0,0:0|0:0,0:0:0:0:
320,285,44703,1,0,1:0:0:0:
259,349,44838,53,2,0:1:0:0:
106,318,44973,1,10,0:1:0:0:
106,318,45243,102,0,B|91:282|91:282|103:207,1,95,0|2,1:0|1:2,0:0:0:0:
262,133,45514,1,10,0:2:0:0:
192,257,45649,1,2,0:2:0:0:
67,45,45784,86,0,B|130:53|130:53|172:27|172:27|252:38,1,190,4|8,1:0|0:0,0:0:0:0:
369,55,46189,2,0,B|347:16|347:16|298:187,1,190,2|2,1:2|1:2,0:0:0:0:
364,243,46595,2,0,B|414:265|414:265|478:240,1,95,8|0,0:0|0:0,0:0:0:0:
418,175,46865,101,2,1:2:0:0:
311,342,47000,2,0,L|210:321,1,95,2|8,0:0|0:0,0:0:0:0:
65,229,47270,2,0,L|166:208,1,95,2|0,0:0|1:0,0:0:0:0:
236,157,47541,1,2,1:0:0:0:
217,322,47676,1,8,0:0:0:0:
217,322,47946,6,0,B|264:284|264:284|237:158,1,190,2|8,1:2|0:0,0:0:0:0:
261,41,48351,2,0,B|195:35|195:35|148:75|148:75|83:69,1,190,2|2,1:2|1:2,0:0:0:0:
6,23,48757,2,0,L|14:152,1,95,8|0,0:0|0:0,0:0:0:0:
134,357,49027,101,2,1:2:0:0:
206,281,49162,2,0,L|211:186,1,95,2|8,0:0|0:0,0:0:0:0:
6,133,49432,2,0,B|-7:183|-7:183|4:244,1,95,2|0,0:0|1:0,0:0:0:0:
111,77,49703,21,2,1:2:0:0:
210,186,49838,1,10,0:2:0:0:
352,42,49973,1,2,0:2:0:0:
352,42,50108,102,0,B|405:16|405:16|367:151,1,190,2|8,1:2|0:0,0:0:0:0:
326,219,50514,2,0,L|423:233,1,95,2|0,1:2|0:0,0:0:0:0:
455,156,50784,1,2,1:2:0:0:
510,311,50919,2,0,L|413:325,1,95,8|0,0:0|0:0,0:0:0:0:
326,372,51189,101,2,1:2:0:0:
202,303,51324,1,2,0:0:0:0:
101,366,51459,1,8,0:0:0:0:
27,278,51595,2,0,L|15:380,1,95,2|0,0:0|1:0,0:0:0:0:
202,303,51865,1,0,1:0:0:0:
6,140,52000,2,0,B|48:172|48:172|175:140,1,142.5,8|0,0:0|0:0,0:0:0:0:
165,134,52270,6,0,B|179:181|179:181|165:236,1,95,2|0,1:2|0:0,0:0:0:0:
90,293,52541,1,8,0:0:0:0:
0,61,52676,2,0,B|33:25|33:25|88:10,1,95,2|0,1:2|0:0,0:0:0:0:
367,88,52946,1,0,1:0:0:0:
186,152,53081,1,12,0:0:0:0:
186,152,53351,6,0,P|125:148|88:171,1,75.9999976806641,8|0,0:0|0:0,0:0:0:0:
334,183,53532,2,0,P|385:148|402:109,1,75.9999976806641,8|0,0:0|0:0,0:0:0:0:
196,244,53712,2,0,P|174:302|185:344,1,75.9999976806641,8|0,0:0|0:0,0:0:0:0:
270,114,53892,2,0,P|262:69|234:34,1,75.9999976806641,8|0,0:0|0:0,0:0:0:0:
286,262,54072,22,0,P|318:293|355:305,1,75.9999976806641,4|4,1:0|1:0,0:0:0:0:
346,303,54973,6,0,B|447:290|406:377|521:358,2,190,0|0|0,0:0|1:0|0:0,0:0:0:0:
264,267,56234,2,0,P|259:303|258:341,1,63.3333333333333,0|0,0:0|0:0,0:0:0:0:
340,206,56595,38,0,L|450:217,2,106.875004076958,0|0|0,1:0|0:0|0:0,0:0:0:0:
258,159,57135,2,0,L|146:170,2,106.875004076958,0|0|0,0:0|0:0|0:0,0:0:0:0:
385,40,57676,54,0,P|371:99|340:130,1,106.875004076958,0|0,1:0|0:0,0:0:0:0:
186,50,58081,2,0,P|236:33|288:45,1,106.875004076958,0|0,0:0|0:0,0:0:0:0:
295,218,58487,6,0,P|250:176|239:134,1,106.779999674133,0|0,0:0|1:0,0:0:0:0:
239,133,59297,102,0,P|205:99|148:85,1,106.779999674133,0|0,0:0|0:0,0:0:0:0:
71,28,59838,2,0,P|70:106|48:186,1,160.1699995112,0|0,1:0|0:0,0:0:0:0:
8,263,60378,2,0,L|17:348,2,80.0849997556,0|0|0,0:0|0:0|0:0,0:0:0:0:
311,171,60919,54,0,P|250:124|172:142,1,142.500005435944,0|0,1:0|0:0,0:0:0:0:
133,209,61392,1,0,0:0:0:0:
133,209,61550,2,0,L|141:298,2,83.1250031709672
266,356,62000,54,0,L|376:342,2,106.875004076958,0|0|0,1:0|0:0|0:0,0:0:0:0:
478,294,62541,1,0,0:0:0:0:
461,379,62743,2,0,P|449:357|435:259,1,118.75,0|4,0:0|1:0,0:0:0:0:
449,100,63261,21,0,0:0:0:0:
449,100,63351,2,0,P|453:60|445:11,2,75.9999976806641,0|0|0,0:0|0:0|0:0,0:0:0:0:
367,132,63622,2,0,P|441:140|505:181,2,151.999995361328,0|0|0,1:0|0:0|0:0,0:0:0:0:
289,94,64072,1,0,0:0:0:0:
289,94,64162,2,0,L|298:0,1,75.9999976806641,4|0,1:0|0:0,0:0:0:0:
189,195,64342,1,0,0:0:0:0:
189,195,64432,1,0,0:0:0:0:
189,195,64523,2,0,L|198:289,1,75.9999976806641,0|0,0:0|0:0,0:0:0:0:
309,384,64703,2,0,L|318:290,1,75.9999976806641,0|0,1:0|0:0,0:0:0:0:
133,366,64883,2,0,L|227:357,1,75.9999976806641,0|0,0:0|0:0,0:0:0:0:
386,191,65063,2,0,L|310:179,1,75.9999976806641,0|0,0:0|0:0,0:0:0:0:
233,233,65243,1,4,1:0:0:0:
39,120,65423,5,0,0:0:0:0:
26,75,65514,1,0,0:0:0:0:
49,35,65604,2,0,P|61:86|53:131,1,75.9999976806641,0|0,0:0|0:0,0:0:0:0:
10,301,65784,2,0,P|-2:249|6:205,1,75.9999976806641,0|0,1:0|0:0,0:0:0:0:
88,253,65964,1,0,0:0:0:0:
88,253,66054,2,0,B|173:235|150:299|235:288,1,151.999995361328,0|0,0:0|0:0,0:0:0:0:
303,235,66324,2,0,P|312:277|316:322,1,75.9999976806641,4|0,1:0|0:0,0:0:0:0:
222,167,66505,2,0,P|226:129|234:92,2,75.9999976806641,0|0|0,0:0|0:0|0:0,0:0:0:0:
375,118,66775,1,0,0:0:0:0:
375,118,66865,2,0,L|284:147,1,75.9999976806641,0|0,1:0|0:0,0:0:0:0:
203,305,67045,2,0,L|222:218,1,75.9999976806641,0|0,0:0|0:0,0:0:0:0:
120,63,67225,2,0,L|186:122,1,75.9999976806641,0|0,0:0|0:0,0:0:0:0:
232,159,67405,1,4,1:0:0:0:
462,33,67586,102,0,P|476:72|482:128,1,75.9999976806641,0|0,0:0|0:0,0:0:0:0:
346,203,67766,2,0,P|352:165|365:129,1,75.9999976806641,0|0,0:0|0:0,0:0:0:0:
478,295,67946,1,0,1:0:0:0:
512,307,68036,1,0,0:0:0:0:
469,308,68126,2,0,B|392:309|413:376|316:368,1,151.999995361328,0|0,0:0|0:0,0:0:0:0:
251,298,68396,1,0,0:0:0:0:
251,298,68487,2,0,P|254:262|264:218,1,75.9999976806641,4|0,1:0|0:0,0:0:0:0:
161,106,68667,1,0,0:0:0:0:
161,106,68757,2,0,P|169:143|172:180,2,75.9999976806641,0|0|0,0:0|0:0|0:0,0:0:0:0:
87,42,69027,2,0,P|141:74|228:71,1,151.999995361328,0|0,1:0|0:0,0:0:0:0:
306,37,69297,1,0,0:0:0:0:
306,37,69387,2,0,B|406:34|364:84|467:71,1,151.999995361328,0|4,0:0|1:0,0:0:0:0:
470,242,69838,70,0,L|459:385,1,142.500005435944,8|0,1:0|0:0,0:0:0:0:
320,142,70108,2,0,L|331:-1,1,142.500005435944,8|0,1:0|0:0,0:0:0:0:
191,242,70378,2,0,L|180:385,1,142.500005435944,8|0,1:0|0:0,0:0:0:0:
41,142,70649,2,0,L|52:-1,1,142.500005435944,8|0,1:0|0:0,0:0:0:0:
196,119,70919,101,8,1:0:0:0:
32,241,71054,1,8,1:0:0:0:
274,353,71189,2,0,L|302:350,1,28.5,8|0,0:0|0:0,0:0:0:0:
323,338,71761,22,0,B|236:331|272:393|162:381,1,170.999994781494,2|0,3:2|0:0,0:0:0:0:
93,338,72301,2,0,P|42:341|-7:355,1,95,8|0,0:0|0:0,0:0:0:0:
26,251,72842,2,0,L|36:150,2,95,0|0|8,3:0|3:0|0:0,0:0:0:0:
13,59,73517,5,0,0:0:0:0:
13,59,73652,2,0,P|44:53|75:64,1,47.5,2|0,0:0|0:0,0:0:0:0:
107,122,73923,2,0,P|147:94|236:104,1,142.5,0|0,3:0|0:0,0:0:0:0:
259,284,74463,2,0,P|215:262|179:180,1,142.5,8|0,0:0|0:0,0:0:0:0:
325,70,75004,38,0,P|328:118|274:191,2,142.5,0|0|8,3:0|3:0|0:0,0:0:0:0:
325,70,76085,54,0,L|470:61,1,142.5,0|0,3:0|0:0,0:0:0:0:
241,12,76625,86,2,B|170:103|328:149|253:266|253:266|237:224|254:200,1,341.999989562989,8|0,0:0|0:0,0:1:0:0:
169,236,77166,38,0,L|71:246,2,95,0|0|8,3:0|3:0|0:0,0:0:0:0:
233,300,77842,101,0,0:0:0:0:
233,300,77977,2,0,L|286:304,1,47.5,2|0,0:0|0:0,0:0:0:0:
383,285,78247,2,0,P|424:281|457:370,1,142.5,0|0,3:0|0:0,0:0:0:0:
299,239,78788,2,0,P|275:205|335:132,1,142.5,8|0,0:0|0:0,0:0:0:0:
302,335,79328,2,0,P|284:372|191:356,1,142.5,0|0,3:0|3:0,0:0:0:0:
195,363,79801,53,0,0:0:0:0:
195,363,79869,2,0,L|114:375,1,71.2500027179719,10|0,3:2|0:0,0:0:0:0:
149,283,80409,70,0,P|207:296|322:297,1,170.999994781494,6|0,3:2|0:0,0:0:0:0:
377,360,80950,2,0,P|405:357|467:328,1,95,8|0,0:0|0:0,0:0:0:0:
511,246,81490,2,0,P|493:207|480:141,2,95,0|0|8,3:0|3:0|0:0,0:0:0:0:
396,162,82166,1,0,0:0:0:0:
396,162,82301,2,0,P|400:129|415:105,1,47.5,2|0,0:0|0:0,0:0:0:0:
429,36,82571,102,0,B|360:25|362:81|286:64,1,142.5,0|0,3:0|0:0,0:0:0:0:
228,138,83112,2,0,B|166:151|167:101|105:111,1,123.499994346619,8|0,0:0|0:0,0:0:0:0:
3,48,83517,1,2,0:0:0:0:
3,48,83652,70,0,P|3:95|35:199,2,142.500005435944,0|0|8,3:0|3:0|0:0,0:0:0:0:
3,48,84733,38,0,P|25:115|30:179,1,126.666666666667,2|0,3:2|0:0,0:0:0:0:
0,322,85274,86,2,B|118:366|97:241|210:280,1,227.999993041992,8|0,0:0|0:0,0:1:0:0:
384,358,85815,22,0,L|480:348,2,95,0|0|8,3:0|3:0|0:0,0:0:0:0:
290,366,86490,5,2,0:0:0:0:
290,366,86625,2,0,P|277:344|274:303,1,47.5,2|0,0:0|0:0,0:0:0:0:
299,233,86896,2,0,P|331:239|400:167,1,142.5,0|0,3:0|0:0,0:0:0:0:
310,33,87436,2,0,P|288:57|316:153,1,142.5,8|0,0:0|0:0,0:0:0:0:
477,142,87977,2,0,P|466:111|369:87,1,142.5,0|0,3:0|3:0,0:0:0:0:
369,86,88450,53,0,0:0:0:0:
369,86,88517,2,0,L|299:78,1,71.25,10|0,3:2|0:0,0:0:0:0:
58,28,89058,101,4,3:1:0:0:
58,28,89328,1,0,0:0:0:0:
116,97,89463,1,2,0:0:0:0:
75,178,89598,2,0,P|31:185|-2:177,1,76,8|0,0:0|0:0,0:0:0:0:
130,96,89869,2,0,P|174:89|207:97,1,76,2|0,0:0|0:0,0:0:0:0:
264,26,90139,1,0,1:0:0:0:
168,175,90274,2,0,L|180:258,2,76,0|2|0,0:0|0:0|0:0,0:0:0:0:
326,209,90679,2,0,L|250:201,1,76,8|0,0:0|0:0,0:0:0:0:
100,335,90950,2,0,L|175:342,1,76,6|0,0:0|0:0,0:0:0:0:
252,304,91220,5,0,1:0:0:0:
252,304,91490,1,0,0:0:0:0:
333,343,91625,1,2,0:0:0:0:
402,283,91760,2,0,P|410:332|419:366,1,76,8|0,0:0|0:0,0:0:0:0:
486,202,92031,2,0,P|478:153|469:119,1,76,2|0,0:0|0:0,0:0:0:0:
490,37,92301,1,0,1:0:0:0:
381,184,92436,2,0,P|343:185|302:168,2,76,0|2|0,0:0|0:0|0:0,0:0:0:0:
361,101,92842,1,8,0:0:0:0:
232,37,92977,1,0,0:0:0:0:
181,106,93112,2,0,L|190:192,1,76,6|0,0:0|0:0,0:0:0:0:
73,139,93382,102,0,L|65:63,1,76,0|0,1:0|0:0,0:0:0:0:
4,182,93652,2,0,P|40:228|74:325,1,152,2|8,0:0|0:0,0:0:0:0:
144,384,94058,1,0,0:0:0:0:
144,384,94193,2,0,P|162:340|162:301,1,76,2|0,0:0|0:0,0:0:0:0:
72,315,94463,1,0,1:0:0:0:
248,379,94598,2,0,B|349:388|305:330|408:340,1,152,0|0,0:0|0:0,0:0:0:0:
468,371,95004,1,8,0:0:0:0:
468,371,95139,2,0,L|481:289,1,76,0|6,0:0|0:0,0:0:0:0:
373,117,95409,1,0,0:0:0:0:
439,225,95544,6,0,B|460:176|460:176|319:211,1,190,2|2,1:2|0:0,0:0:0:0:
327,208,96085,1,8,0:0:0:0:
261,170,96220,1,0,0:0:0:0:
197,211,96355,1,2,0:0:0:0:
129,175,96490,1,0,0:0:0:0:
39,264,96625,2,0,P|23:226|1:117,1,152,0|0,1:0|0:0,0:0:0:0:
66,58,97031,5,2,0:0:0:0:
133,186,97166,1,8,0:0:0:0:
248,69,97301,2,0,P|183:67|131:174,1,190,6|0,0:0|0:0,0:0:0:0:
214,261,97706,85,4,1:0:0:0:
214,261,97977,1,0,0:0:0:0:
274,147,98112,1,2,0:0:0:0:
378,206,98247,2,0,P|376:263|365:299,1,76,8|0,0:0|0:0,0:0:0:0:
274,115,98517,2,0,P|276:58|287:22,1,76,2|0,0:0|0:0,0:0:0:0:
361,0,98788,1,0,1:0:0:0:
497,157,98923,2,0,L|508:74,2,76,0|2|0,0:0|0:0|0:0,0:0:0:0:
420,99,99328,2,0,P|382:86|339:88,1,76,8|0,0:0|0:0,0:0:0:0:
318,273,99598,2,0,P|356:286|399:284,1,76,6|0,0:0|0:0,0:0:0:0:
369,186,99869,5,0,1:0:0:0:
369,186,100139,1,0,0:0:0:0:
247,144,100274,1,2,0:0:0:0:
155,196,100409,2,0,P|162:152|164:94,1,76,8|0,0:0|0:0,0:0:0:0:
26,28,100679,2,0,P|19:72|17:130,1,76,2|0,0:0|0:0,0:0:0:0:
276,201,100950,1,0,1:0:0:0:
199,268,101085,2,0,L|304:289,1,76,2|0,0:0|0:0,0:0:0:0:
401,376,101355,2,0,L|296:355,1,76,2|8,0:0|0:0,0:0:0:0:
240,377,101625,1,0,0:0:0:0:
371,262,101760,2,0,P|384:224|376:177,1,76,6|0,0:0|0:0,0:0:0:0:
499,60,102031,102,0,L|402:72,1,76,0|0,1:0|0:0,0:0:0:0:
359,31,102301,2,0,B|276:23|311:87|206:77,1,152,2|8,0:0|0:0,0:0:0:0:
131,112,102706,1,0,0:0:0:0:
131,112,102842,2,0,P|123:50|128:27,1,76,2|0,0:0|0:0,0:0:0:0:
366,183,103112,2,0,P|374:245|369:268,1,76,0|0,1:0|0:0,0:0:0:0:
186,261,103382,1,2,0:0:0:0:
119,221,103517,2,0,L|22:241,1,76,2|8,0:0|0:0,0:0:0:0:
198,175,103788,1,0,0:0:0:0:
263,361,103923,1,6,0:0:0:0:
328,302,104058,1,0,0:0:0:0:
328,302,104193,22,0,B|444:269|430:370|540:341,1,190,2|0,1:2|0:0,0:0:0:0:
184,234,104733,2,0,B|68:201|82:302|-28:273,1,190,10|0,0:0|0:0,0:0:0:0:
328,166,105274,2,0,B|444:133|430:234|540:205,1,190,2|0,1:2|0:0,0:0:0:0:
184,98,105679,1,0,0:0:0:0:
184,98,105815,2,0,B|68:65|82:166|-28:137,1,190,10|0,0:0|0:0,0:0:0:0:
50,362,106355,70,0,P|130:374|187:227,1,256.499992172241,4|0,1:0|3:0,0:0:0:0:
88,164,106896,2,0,L|97:262,1,85.4999973907472,10|0,0:0|0:0,0:0:0:0:
187,147,107166,2,0,B|291:129|247:197|360:183,1,170.999994781494,2|0,0:0|1:0,0:0:0:0:
469,174,107571,1,2,0:0:0:0:
469,174,107706,2,0,L|455:90,1,85.4999973907472,2|2,0:0|0:0,0:0:0:0:
348,185,107977,2,0,L|334:276,1,85.4999973907472,8|0,0:0|0:0,0:0:0:0:
469,358,108247,2,0,L|455:270,1,85.4999973907472,2|0,0:0|0:0,0:0:0:0:
347,359,108517,6,0,P|287:373|231:282,1,170.999994781494,0|2,1:0|0:0,0:0:0:0:
256,202,108923,1,0,0:0:0:0:
157,126,109058,2,0,L|72:140,2,85.4999973907472,8|0|0,0:0|0:0|0:0,0:0:0:0:
256,202,109463,2,0,L|340:187,1,85.4999973907472,2|0,0:0|1:0,0:0:0:0:
147,118,109733,2,0,L|45:135,2,85.4999973907472,2|0|0,0:0|0:0|0:0,0:0:0:0:
265,209,110138,2,0,L|367:192,1,85.4999973907472,10|0,0:0|0:0,0:0:0:0:
137,110,110409,2,0,L|35:127,1,85.4999973907472,2|0,0:0|0:0,0:0:0:0:
16,273,110679,102,0,B|48:207|16:141|16:141|-17:75|16:9,1,256.499992172241,0|0,1:0|3:0,0:0:0:0:
97,106,111220,2,0,L|187:90,1,85.4999973907472,10|0,0:0|0:0,0:0:0:0:
250,24,111490,2,0,P|332:15|362:117,1,170.999994781494,2|0,0:0|1:0,0:0:0:0:
303,155,111896,1,2,0:0:0:0:
215,226,112031,2,0,B|229:276|229:276|209:332,1,85.4999973907472,2|2,0:0|0:0,0:0:0:0:
66,214,112301,2,0,B|54:178|54:178|68:127,1,85.4999973907472,8|0,0:0|0:0,0:0:0:0:
210,27,112571,2,0,B|224:77|224:77|204:134,1,85.4999973907472,2|0,0:0|0:0,0:0:0:0:
31,322,112842,54,0,B|143:350|115:256|222:289,1,190,0|0,1:0|0:0,0:0:0:0:
274,349,113247,1,2,0:0:0:0:
368,229,113382,70,0,P|385:285|386:322,2,85.4999973907472,8|0|0,0:0|0:0|0:0,0:0:0:0:
269,178,113788,2,0,P|273:135|287:95,1,85.4999973907472,2|0,0:0|1:0,0:0:0:0:
375,224,114058,2,0,P|392:280|393:317,2,85.4999973907472,2|0|0,0:0|0:0|0:0,0:0:0:0:
261,172,114463,2,0,P|265:130|280:90,1,85.4999973907472,10|0,0:0|0:0,0:0:0:0:
382,219,114733,2,0,P|399:275|400:312,1,85.4999973907472,2|0,0:0|0:0,0:0:0:0:
482,327,115004,102,0,P|444:248|415:74,1,256.499992172241,4|0,1:0|3:0,0:0:0:0:
512,17,115544,2,0,L|499:121,1,85.4999973907472,10|0,0:0|0:0,0:0:0:0:
231,92,115815,2,0,P|245:45|370:42,1,170.999994781494,2|0,0:0|1:0,0:0:0:0:
419,90,116220,1,2,0:0:0:0:
341,161,116355,2,0,L|243:174,1,85.4999973907472,2|2,0:0|0:0,0:0:0:0:
432,195,116625,2,0,L|492:272,1,85.4999973907472,8|0,0:0|0:0,0:0:0:0:
416,100,116896,2,0,L|452:8,1,85.4999973907472,2|0,0:0|0:0,0:0:0:0:
360,261,117166,6,0,P|348:318|231:347,1,170.999994781494,0|2,1:0|0:0,0:0:0:0:
150,280,117571,1,0,0:0:0:0:
150,280,117706,2,0,L|161:370,2,85.4999973907472,8|0|0,0:0|0:0|0:0,0:0:0:0:
224,171,118112,2,0,L|213:81,1,85.4999973907472,2|0,0:0|1:0,0:0:0:0:
142,289,118382,2,0,L|153:379,2,85.4999973907472,2|0|0,0:0|0:0|0:0,0:0:0:0:
232,162,118788,2,0,L|221:72,1,85.4999973907472,10|0,0:0|0:0,0:0:0:0:
134,298,119058,2,0,L|145:388,1,85.4999973907472,2|0,0:0|0:0,0:0:0:0:
228,274,119328,102,0,B|379:237|297:387|459:353,1,256.499992172241,0|0,1:0|3:0,0:0:0:0:
470,182,119869,2,0,P|442:247|436:280,1,85.4999973907472,10|0,0:0|0:0,0:0:0:0:
352,204,120139,2,0,P|336:123|284:25,1,170.999994781494,2|0,0:0|1:0,0:0:0:0:
208,18,120544,1,2,0:0:0:0:
140,139,120679,2,0,L|48:128,1,85.4999973907472,2|2,0:0|0:0,0:0:0:0:
203,232,120950,2,0,L|294:222,1,85.4999973907472,8|0,0:0|0:0,0:0:0:0:
428,120,121220,2,0,L|336:109,1,85.4999973907472,2|0,0:0|0:0,0:0:0:0:
261,149,121490,38,0,B|242:98|262:62|262:62|218:10|130:7|61:71,1,285,0|2,1:2|0:0,0:0:0:0:
25,160,122031,86,0,P|75:155|117:156,2,85.4999973907472,8|0|0,0:0|0:0|0:0,0:0:0:0:
151,325,122436,2,0,P|101:330|59:329,1,85.4999973907472,2|0,0:0|1:0,0:0:0:0:
16,152,122706,2,0,P|66:147|108:148,2,85.4999973907472,2|0|0,0:0|0:0|0:0,0:0:0:0:
160,333,123112,2,0,P|110:338|68:337,1,85.4999973907472,10|0,0:0|0:0,0:0:0:0:
7,144,123382,2,0,P|57:139|99:140,1,85.4999973907472,2|0,0:0|0:0,0:0:0:0:
256,192,123652,53,4,1:0:0:0:
425,15,132301,54,0,L|397:123,1,95,4|0,1:0|0:0,0:0:0:0:
487,206,132571,1,8,0:0:0:0:
487,206,132706,2,0,B|346:176|346:176|380:232,1,190,2|2,1:2|1:2,0:0:0:0:
494,384,133112,2,0,B|505:338|505:338|487:290,1,95,8|2,0:0|0:2,0:0:0:0:
226,335,133382,6,0,L|323:322,1,95,0|0,1:0|0:0,0:0:0:0:
409,345,133652,1,8,0:0:0:0:
400,170,133788,2,0,L|385:263,1,95,2|0,0:0|1:0,0:0:0:0:
303,204,134058,1,2,1:2:0:0:
187,278,134193,2,0,L|202:372,1,95,10|0,0:0|0:0,0:0:0:0:
62,211,134463,101,2,1:2:0:0:
76,117,134598,1,2,0:2:0:0:
70,217,134733,1,8,0:2:0:0:
85,113,134869,2,0,B|164:93|136:162|244:136,1,142.5,2|0,1:2|0:0,0:0:0:0:
236,137,135139,1,2,1:2:0:0:
362,7,135274,2,0,L|346:101,1,95,8|0,0:0|0:0,0:0:0:0:
434,64,135544,5,2,1:2:0:0:
484,155,135679,2,0,L|381:173,1,95,2|8,0:0|0:0,0:0:0:0:
131,85,135950,2,0,L|234:103,1,95,2|0,0:0|1:0,0:0:0:0:
160,178,136220,5,2,1:2:0:0:
2,130,136355,1,10,0:2:0:0:
61,51,136490,1,2,0:0:0:0:
0,250,136625,86,0,B|64:241|64:241|114:276|114:276|196:264,1,190,2|8,1:2|0:0,0:0:0:0:
303,221,137031,2,0,B|275:183|275:183|255:354,1,190,2|2,1:2|1:2,0:0:0:0:
196,378,137436,1,8,0:0:0:0:
334,310,137571,1,0,0:0:0:0:
431,371,137706,6,0,P|417:324|411:264,1,95,2|2,1:2|0:0,0:0:0:0:
439,29,137977,1,8,0:0:0:0:
493,94,138112,2,0,P|507:141|513:201,1,95,2|0,0:0|1:0,0:0:0:0:
409,116,138382,2,0,B|330:93|346:210|239:174,1,190,2|0,1:2|0:0,0:0:0:0:
257,0,138788,102,0,L|264:104,1,95,0|0,1:0|0:0,0:0:0:0:
170,251,139058,1,8,0:0:0:0:
112,177,139193,2,0,L|119:73,1,95,2|0,1:2|0:0,0:0:0:0:
306,292,139463,1,2,1:2:0:0:
306,292,139598,2,0,L|299:188,1,95,8|0,0:0|0:0,0:0:0:0:
221,351,139869,5,2,1:2:0:0:
117,292,140004,1,2,0:0:0:0:
13,355,140139,1,10,0:0:0:0:
13,355,140274,2,0,P|31:312|38:256,1,95,2|0,0:2|1:0,0:0:0:0:
98,54,140544,21,2,1:2:0:0:
4,181,140679,1,10,0:0:0:0:
166,201,140815,1,2,0:0:0:0:
92,35,140950,70,0,B|129:70|129:70|274:47,1,190,4|8,1:2|0:0,0:0:0:0:
367,4,141355,2,0,B|351:60|351:60|379:109|379:109|354:188,1,190,2|2,1:2|1:2,0:0:0:0:
292,118,141760,1,8,0:0:0:0:
448,190,141896,1,0,0:0:0:0:
358,264,142031,6,0,L|252:279,1,95,2|2,1:2|0:0,0:0:0:0:
449,177,142301,1,8,0:0:0:0:
502,254,142436,2,0,B|513:304|513:304|495:352,1,95,2|0,0:0|1:0,0:0:0:0:
295,163,142706,1,2,1:2:0:0:
295,163,142842,2,0,B|284:113|284:113|302:65,1,95,10|0,0:0|0:0,0:0:0:0:
443,73,143112,101,2,1:2:0:0:
365,119,143247,1,2,0:0:0:0:
222,32,143382,1,8,0:0:0:0:
222,32,143517,2,0,B|164:24|164:24|127:44|127:44|56:33,1,142.5,2|0,1:2|0:0,0:0:0:0:
48,32,143788,1,2,1:2:0:0:
0,186,143923,2,0,L|15:293,1,95,8|0,0:0|0:0,0:0:0:0:
67,352,144193,5,2,1:2:0:0:
191,231,144328,1,2,0:0:0:0:
270,362,144463,1,8,0:0:0:0:
355,211,144598,2,0,L|365:116,1,95,2|0,0:0|1:0,0:0:0:0:
259,138,144869,5,2,1:2:0:0:
277,341,145004,1,10,0:0:0:0:
461,257,145139,1,2,0:0:0:0:
461,257,145274,86,0,B|476:217|476:217|462:143,1,95,0|0,1:0|0:0,0:0:0:0:
276,31,145544,1,8,0:0:0:0:
223,95,145679,2,0,B|213:146|213:146|228:186,1,95,2|0,1:2|0:0,0:0:0:0:
400,128,145950,1,2,1:2:0:0:
400,128,146085,2,0,L|295:138,1,95,8|0,0:0|0:0,0:0:0:0:
168,238,146355,5,2,1:2:0:0:
280,373,146490,1,2,0:0:0:0:
345,203,146625,1,8,0:0:0:0:
276,359,146760,2,0,B|285:287|285:287|256:250|256:250|269:161,1,190,2|0,0:0|1:2,0:0:0:0:
325,32,147166,2,0,L|338:132,1,95,10|0,0:0|0:0,0:0:0:0:
39,89,147436,6,0,B|97:62|97:62|152:83,1,113.999996520996,2|0,1:2|0:0,0:0:0:0:
387,261,147706,1,8,0:0:0:0:
387,261,147842,2,0,B|329:288|329:288|274:267,1,113.999996520996,2|0,1:2|0:0,0:0:0:0:
325,32,148112,2,0,L|334:160,1,113.999996520996,2|8,1:2|0:0,0:0:0:0:
17,308,148382,1,0,0:0:0:0:
83,358,148517,22,0,B|123:379|123:379|96:198,1,227.999993041992,0|8,1:0|0:0,0:0:0:0:
20,27,148923,2,0,B|0:83|0:83|13:137,1,113.999996520996,0|0,1:0|0:0,0:0:0:0:
224,18,149193,2,0,B|244:74|244:74|231:128,2,113.999996520996,0|8|0,1:0|0:0|0:0,0:0:0:0:
155,74,149598,21,4,1:0:0:0:
292,199,149733,1,2,0:0:0:0:
292,199,149801,1,2,0:0:0:0:
292,199,149869,1,8,0:0:0:0:
348,139,150004,2,0,B|499:167|499:167|448:124,1,209.000006378174,0|2,1:0|1:2,0:0:0:0:
276,82,150409,2,0,B|255:132|255:132|277:193,1,104.500003189087,8|2,0:0|0:0,0:0:0:0:
444,256,150679,5,2,1:2:0:0:
423,259,150747,1,0,0:0:0:0:
402,262,150815,1,2,0:0:0:0:
382,265,150882,1,2,0:0:0:0:
361,268,150950,1,8,0:0:0:0:
462,370,151085,2,0,L|355:357,1,104.500003189087,2|0,0:0|1:0,0:0:0:0:
163,285,151355,1,2,1:2:0:0:
163,285,151490,2,0,B|143:328|143:328|159:383,1,104.500003189087,10|0,0:0|0:0,0:0:0:0:
362,139,151760,102,0,B|381:95|381:95|365:40,1,104.500003189087,2|2,1:2|0:0,0:0:0:0:
339,13,151963,2,0,L|330:77,1,52.2500015945435,2|8,0:0|0:0,0:0:0:0:
122,60,152166,2,0,B|101:4|101:4|265:39,1,209.000006378174,2|0,1:2|1:0,0:0:0:0:
283,111,152571,2,0,L|261:216,1,104.500003189087,10|0,0:2|0:0,0:0:0:0:
63,281,152842,54,0,L|174:227,1,104.500003189087,2|0,1:1|0:0,0:0:0:0:
414,330,153112,1,8,0:0:0:0:
414,330,153247,2,0,L|311:260,1,104.500003189087,2|0,1:1|0:0,0:0:0:0:
281,1,153517,2,0,L|272:124,2,104.500003189087,2|8|0,1:1|0:0|0:0,0:0:0:0:
180,61,153923,69,2,1:2:0:0:
44,140,154058,1,2,0:0:0:0:
44,140,154125,1,2,0:0:0:0:
44,140,154193,1,8,0:0:0:0:
248,168,154328,2,0,B|183:180|183:180|160:223|160:223|58:245,1,209.000006378174,2|2,1:2|1:2,0:0:0:0:
44,140,154733,2,0,L|66:26,1,104.500003189087,8|0,0:0|0:0,0:0:0:0:
244,269,155004,102,0,L|266:383,1,104.500003189087,2|2,1:2|0:0,0:0:0:0:
263,371,155206,1,2,0:0:0:0:
263,371,155274,1,8,0:0:0:0:
467,272,155409,2,0,B|482:326|482:326|461:373,1,104.500003189087,2|0,0:0|1:0,0:0:0:0:
249,243,155679,1,2,1:2:0:0:
249,243,155815,2,0,B|234:189|234:189|255:142,1,104.500003189087,8|0,0:0|0:0,0:0:0:0:
500,41,156085,6,0,L|389:56,1,104.500003189087,2|2,1:2|0:0,0:0:0:0:
375,73,156288,2,0,L|391:122,1,52.2500015945435,2|8,0:0|0:0,0:0:0:0:
195,0,156490,2,0,B|221:47|221:47|175:197,1,209.000006378174,2|2,1:2|1:2,0:0:0:0:
57,287,156896,2,0,L|46:184,1,104.500003189087,8|2,0:0|0:0,0:0:0:0:
339,248,157166,54,0,B|375:291|375:291|373:366,1,104.500003189087,2|0,1:1|0:0,0:0:0:0:
262,92,157436,1,8,0:0:0:0:
262,92,157571,2,0,B|282:39|282:39|348:3,1,104.500003189087,2|0,1:0|0:0,0:0:0:0:
69,220,157842,2,0,B|110:245|110:245|166:235,2,104.500003189087,2|8|0,1:0|0:0|0:0,0:0:0:0:
100,42,158247,37,6,1:2:0:0:
106,67,158314,1,2,0:0:0:0:
112,92,158382,1,2,0:0:0:0:
118,118,158449,1,2,0:0:0:0:
125,143,158517,1,8,0:0:0:0:
233,61,158652,2,0,L|194:275,1,209.000006378174,2|2,1:2|1:2,0:0:0:0:
61,212,159058,2,0,L|46:91,1,104.500003189087,8|0,0:0|0:0,0:0:0:0:
8,332,159328,5,2,1:2:0:0:
8,332,159396,2,0,B|38:366|38:366|110:353,1,104.500003189087,2|2,0:0|0:0,0:0:0:0:
116,352,159598,1,10,0:0:0:0:
219,373,159733,2,0,B|262:313|262:313|394:353,1,209.000006378174,2|2,1:2|1:2,0:0:0:0:
371,251,160139,1,8,0:0:0:0:
479,376,160274,1,0,0:0:0:0:
505,219,160409,102,0,L|484:106,1,104.500003189087,2|2,1:2|0:0,0:0:0:0:
456,88,160612,2,0,L|474:27,2,52.2500015945435,2|8|2,0:0|0:0|0:0,0:0:0:0:
398,148,160815,2,0,B|366:177|366:177|244:137,1,156.750004783631,2|0,1:2|0:0,0:0:0:0:
229,134,161085,1,2,1:2:0:0:
264,304,161220,1,8,0:0:0:0:
122,229,161355,1,0,0:0:0:0:
122,229,161490,54,0,L|4:207,1,104.500003189087,2|0,1:1|0:0,0:0:0:0:
242,37,161760,1,8,0:0:0:0:
242,37,161896,2,0,L|360:59,1,104.500003189087,2|0,1:0|0:0,0:0:0:0:
416,332,162166,2,0,L|298:310,2,104.500003189087,2|8|0,1:0|0:0|0:0,0:0:0:0:
258,199,162571,69,2,1:2:0:0:
220,369,162706,1,2,0:0:0:0:
91,251,162842,1,8,0:0:0:0:
192,279,162977,2,0,B|271:263|271:263|321:300|321:300|394:283,1,209.000006378174,2|0,1:2|1:0,0:0:0:0:
484,250,163382,2,0,L|467:353,1,104.500003189087,8|0,0:2|0:0,0:0:0:0:
362,121,163652,101,2,1:2:0:0:
366,95,163720,1,2,0:0:0:0:
370,69,163788,1,2,0:0:0:0:
374,43,163855,1,2,0:0:0:0:
378,17,163923,1,10,0:0:0:0:
487,88,164058,2,0,B|502:129|502:129|295:96,1,209.000006378174,2|0,0:0|1:0,0:0:0:0:
254,43,164463,1,8,0:0:0:0:
143,165,164598,1,0,0:0:0:0:
66,15,164733,5,2,1:2:0:0:
152,76,164869,1,2,0:0:0:0:
152,76,164936,1,2,0:0:0:0:
152,76,165004,2,0,L|156:193,1,104.500003189087,8|2,0:0|0:0,0:0:0:0:
160,273,165274,1,0,1:0:0:0:
265,142,165409,1,2,1:2:0:0:
416,190,165544,2,0,L|400:301,1,104.500003189087,8|0,0:0|1:0,0:0:0:0:
449,26,165815,54,0,B|412:61|412:61|440:199,1,182.4,6|0,1:0|0:0,0:0:0:0:
509,221,166085,2,0,B|517:191|517:191|508:159,1,60.8,8|0,0:1|0:0,0:0:0:0:
279,261,166220,2,0,B|264:320|264:320|282:384,1,121.6,2|8,1:0|0:0,0:0:0:0:
351,199,166490,2,0,B|259:124|152:175|218:290|126:334|51:286,1,364.8,4|4,1:0|1:0,0:0:0:0:
54,288,167436,6,0,B|161:263|114:370|228:348,2,190,0|0|0,0:0|1:0|0:0,0:0:0:0:
5,222,168697,2,0,P|5:186|17:151,1,63.3333333333333
89,66,169058,6,0,L|188:78,2,95.0000036239625,0|0|0,1:0|0:0|0:0,0:0:0:0:
234,148,169598,2,0,L|333:136,2,95.0000036239625,0|0|0,0:0|0:0|0:0,0:0:0:0:
407,47,170139,38,0,P|429:88|430:157,1,95.0000036239625,0|0,1:0|0:0,0:0:0:0:
301,225,170499,2,0,P|305:178|327:136,1,95.0000036239625,0|0,0:0|0:0,0:0:0:0:
476,234,170860,2,0,B|454:334|501:287|486:394,1,151.999995361328,0|0,0:0|1:0,0:0:0:0:
488,383,171760,54,0,P|479:343|475:261,1,113.999996520996,0|0,0:0|0:0,0:0:0:0:
496,169,172301,2,0,P|456:180|312:194,1,170.999994781494,0|0,1:0|0:0,0:0:0:0:
245,142,172842,2,0,L|174:137,2,66.4999979705811
84,51,173382,5,0,1:0:0:0:
66,135,173562,1,0,0:0:0:0:
48,219,173742,1,0,0:0:0:0:
146,226,173923,101,0,0:0:0:0:
154,269,174103,1,0,0:0:0:0:
164,312,174283,1,0,0:0:0:0:
174,142,174463,5,0,1:0:0:0:
295,44,174643,1,0,0:0:0:0:
319,197,174824,1,0,0:0:0:0:
263,128,175004,1,0,0:0:0:0:
263,128,175139,2,0,P|194:117|87:116,1,170.999994781494,0|4,0:0|1:0,0:0:0:0:
356,69,175724,5,0,3:0:0:0:
356,69,175815,2,0,P|363:109|363:157,2,75.9999976806641,0|0|0,0:0|0:0|0:0,0:0:0:0:
285,197,176085,2,0,P|329:180|456:206,1,151.999995361328,0|0,1:0|0:0,0:0:0:0:
490,254,176355,1,0,0:0:0:0:
494,291,176445,1,0,0:0:0:0:
475,324,176535,1,0,0:0:0:0:
441,340,176625,2,0,P|390:345|355:340,2,75.9999976806641,4|0|0,1:0|0:0|0:0,0:0:0:0:
451,184,176896,2,0,P|480:225|494:258,2,75.9999976806641,0|0|0,0:0|0:0|0:0,0:0:0:0:
387,237,177166,2,0,B|298:249|311:194|241:207,1,151.999995361328,0|0,1:0|0:0,0:0:0:0:
180,296,177436,1,0,0:0:0:0:
180,296,177526,1,0,0:0:0:0:
180,296,177616,2,0,L|265:283,1,75.9999976806641,0|4,0:0|1:0,0:0:0:0:
64,365,177887,5,0,0:0:0:0:
49,338,177977,1,0,0:0:0:0:
64,311,178067,2,0,P|55:260|61:138,1,151.999995361328,0|0,0:0|1:0,0:0:0:0:
131,144,178337,2,0,P|143:94|137:54,1,75.9999976806641,0|0,0:0|0:0,0:0:0:0:
0,40,178517,2,0,P|37:75|74:90,1,75.9999976806641,0|0,0:0|0:0,0:0:0:0:
212,31,178697,1,0,0:0:0:0:
231,60,178788,2,0,P|301:46|387:46,1,151.999995361328,4|0,1:0|0:0,0:0:0:0:
459,5,179058,2,0,P|468:47|459:87,2,75.9999976806641,0|0|0,0:0|0:0|0:0,0:0:0:0:
327,206,179328,2,0,P|316:156|326:125,1,75.9999976806641,0|0,1:0|0:0,0:0:0:0:
481,270,179508,1,0,0:0:0:0:
460,303,179598,2,0,L|371:314,2,75.9999976806641,0|0|0,0:0|0:0|0:0,0:0:0:0:
411,236,179869,1,4,1:0:0:0:
242,52,180049,101,0,0:0:0:0:
242,52,180139,1,0,0:0:0:0:
242,52,180229,1,0,0:0:0:0:
242,52,180319,1,0,0:0:0:0:
242,52,180409,2,0,L|164:67,1,75.9999976806641,0|0,1:0|0:0,0:0:0:0:
72,171,180589,1,0,0:0:0:0:
72,171,180679,1,0,0:0:0:0:
72,171,180769,1,0,0:0:0:0:
72,171,180859,1,0,0:0:0:0:
72,171,180950,2,0,L|150:186,1,75.9999976806641,4|0,1:0|0:0,0:0:0:0:
196,268,181130,1,0,0:0:0:0:
196,268,181220,2,0,L|274:253,1,75.9999976806641,0|0,0:0|0:0,0:0:0:0:
375,180,181400,1,0,0:0:0:0:
375,180,181490,2,0,P|353:240|349:333,1,151.999995361328,0|0,1:0|0:0,0:0:0:0:
480,231,181760,2,0,P|475:171|451:111,1,113.999996520996,0|0,0:0|0:0,0:0:0:0:
403,37,182031,1,0,1:0:0:0:
403,37,182301,54,0,L|262:62,1,142.500005435944,0|0,1:0|0:0,0:0:0:0:
63,185,182571,2,0,L|203:210,1,142.500005435944,0|0,1:0|0:0,0:0:0:0:
447,340,182842,2,0,L|306:365,1,142.500005435944,0|0,1:0|0:0,0:0:0:0:
135,110,183112,5,8,1:2:0:0:
338,237,183247,1,8,0:0:0:0:
105,261,183382,1,8,1:2:0:0:
277,92,183517,1,8,0:0:0:0:
231,333,183652,6,0,L|234:363,1,28.5,8|0,0:0|0:0,0:0:0:0:
221,376,184212,6,0,P|170:386|87:288,1,170.999994781494,2|0,3:2|0:0,0:0:0:0:
28,256,184752,2,0,L|38:157,1,95,8|0,0:0|0:0,0:0:0:0:
190,21,185293,2,0,L|200:120,2,95,0|0|8,3:0|3:0|0:0,0:0:0:0:
316,67,185968,101,0,0:0:0:0:
316,67,186103,2,0,P|295:52|272:50,1,47.5,2|0,0:0|0:0,0:0:0:0:
189,242,186374,2,0,P|221:256|312:212,1,142.5,0|0,3:0|0:0,0:0:0:0:
273,49,186914,2,0,P|244:69|237:170,1,142.5,8|0,0:0|0:0,0:0:0:0:
398,218,187455,54,0,P|394:183|310:126,2,142.5,0|0|8,3:0|3:0|0:0,0:0:0:0:
398,218,188536,70,0,L|391:367,1,142.5,0|0,3:0|0:0,0:0:0:0:
492,224,189076,70,2,B|406:180|330:243|369:315|282:392|205:321,1,341.999989562989,8|0,0:0|0:0,0:1:0:0:
119,300,189617,22,0,L|106:377,2,76,0|0|8,3:0|3:0|0:0,0:0:0:0:
175,224,190293,1,0,0:0:0:0:
175,224,190428,2,0,L|168:186,1,38,2|0,0:0|0:0,0:0:0:0:
97,155,190698,6,0,P|126:167|199:134,1,114,0|0,3:0|0:0,0:0:0:0:
214,13,191239,2,0,P|189:32|181:111,1,114,8|0,0:0|0:0,0:0:0:0:
278,185,191779,2,0,P|273:153|208:107,1,114,0|0,3:0|3:0,0:0:0:0:
210,107,192252,53,0,0:0:0:0:
210,107,192320,2,0,L|123:119,1,71.2500027179719,10|0,3:2|0:0,0:0:0:0:
237,34,192860,38,0,B|336:28|312:91|411:80,1,170.999994781494,2|0,3:2|0:0,0:0:0:0:
507,29,193401,2,0,P|490:66|481:134,1,95,8|0,0:2|0:0,0:0:0:0:
402,190,193941,2,0,L|411:292,2,95,0|0|8,3:0|3:0|0:0,0:0:0:0:
489,318,194617,1,0,0:0:0:0:
489,318,194752,2,0,P|467:353|451:363,1,47.5,2|0,0:0|0:0,0:0:0:0:
349,369,195022,6,0,B|282:313|325:298|267:254,1,142.5,0|0,3:0|0:0,0:0:0:0:
237,114,195563,2,0,B|222:198|187:169|178:241,1,142.5,8|2,0:0|0:0,0:0:0:0:
200,354,196103,38,0,B|110:384|131:286|-10:321,2,190,0|0|8,3:0|3:0|0:0,0:0:0:0:
200,354,197184,54,0,L|206:248,1,95,0|0,3:0|0:0,0:0:0:0:
147,171,197725,102,2,P|216:236|264:100,1,285.000010871888,8|0,0:0|0:0,0:1:0:0:
211,37,198130,1,0,0:0:0:0:
211,37,198266,6,0,L|327:25,2,95,0|0|8,3:0|3:0|0:0,0:0:0:0:
144,90,198941,1,2,0:0:0:0:
144,90,199076,1,2,0:0:0:0:
325,211,199347,6,0,P|340:182|276:92,1,142.5,0|0,3:0|0:0,0:0:0:0:
275,277,199887,2,0,P|292:304|402:294,1,142.5,8|0,0:0|0:0,0:0:0:0:
242,200,200428,2,0,P|209:201|163:301,1,142.5,0|0,3:0|3:0,0:0:0:0:
157,285,200901,53,0,0:0:0:0:
157,285,200968,2,0,L|168:372,1,71.2500027179719,10|0,3:2|0:0,0:0:0:0:
309,372,201509,101,4,1:0:0:0:
309,372,201779,1,0,0:0:0:0:
394,283,201914,1,2,0:0:0:0:
394,283,202049,2,0,L|385:186,1,76,8|0,0:0|0:0,0:0:0:0:
312,160,202320,2,0,L|321:63,1,76,2|0,0:0|0:0,0:0:0:0:
387,21,202590,1,0,1:0:0:0:
501,147,202725,2,0,P|501:191|492:243,2,76,0|2|0,0:0|0:0|0:0,0:0:0:0:
479,31,203130,2,0,P|431:22|389:33,1,76,8|0,0:0|0:0,0:0:0:0:
317,172,203401,2,0,P|365:181|407:170,1,76,6|0,0:0|0:0,0:0:0:0:
292,64,203671,5,0,1:0:0:0:
292,64,203941,1,0,0:0:0:0:
207,114,204076,1,2,0:0:0:0:
115,50,204211,2,0,P|125:98|124:139,1,76,8|0,0:0|0:0,0:0:0:0:
29,294,204482,2,0,P|19:246|20:205,1,76,2|0,0:0|0:0,0:0:0:0:
41,98,204752,1,0,1:0:0:0:
187,277,204887,2,0,L|282:264,2,76,0|2|0,0:0|0:0|0:0,0:0:0:0:
321,318,205293,1,8,0:0:0:0:
155,205,205428,1,0,0:0:0:0:
109,270,205563,2,0,L|123:361,1,76,6|0,0:0|0:0,0:0:0:0:
35,116,205833,101,0,1:0:0:0:
35,116,206103,2,0,L|130:107,1,76,2|0,0:0|0:0,0:0:0:0:
224,227,206374,2,0,L|168:149,1,76,8|0,0:0|0:0,0:0:0:0:
226,8,206644,1,0,0:0:0:0:
183,86,206779,1,2,0:0:0:0:
275,102,206914,6,0,B|398:70|339:190|495:162,1,228,0|2,1:0|0:0,0:0:0:0:
470,16,207455,2,0,P|451:65|450:98,1,76,8|0,0:0|0:0,0:0:0:0:
295,173,207725,2,0,P|290:135|274:101,1,76,6|0,0:0|0:0,0:0:0:0:
506,373,207995,6,0,P|481:301|333:298,1,228,0|2,1:0|0:0,0:0:0:0:
261,281,208536,86,0,L|273:368,1,76,8|0,0:0|0:0,0:0:0:0:
313,210,208806,2,0,L|323:134,1,76,2|0,0:0|0:0,0:0:0:0:
232,164,209076,2,0,P|192:164|162:175,1,50.6666666666667,0|0,1:0|0:0,0:0:0:0:
165,194,209257,2,0,P|112:178|38:174,1,126.666666666667,2|0,0:0|0:0,0:0:0:0:
238,153,209617,37,8,0:0:0:0:
97,45,209752,2,0,P|182:48|228:155,1,190,6|0,0:0|0:0,0:0:0:0:
177,210,210157,85,4,1:0:0:0:
177,210,210428,1,0,0:0:0:0:
269,268,210563,1,2,0:0:0:0:
346,149,210698,2,0,L|358:247,1,76,8|0,0:0|0:0,0:0:0:0:
281,360,210968,2,0,L|269:262,1,76,2|0,0:0|0:0,0:0:0:0:
258,171,211239,1,0,1:0:0:0:
453,336,211374,2,0,P|413:331|371:337,2,76,0|2|0,0:0|0:0|0:0,0:0:0:0:
465,172,211779,2,0,P|481:219|485:271,1,76,8|0,0:0|0:0,0:0:0:0:
256,164,212049,2,0,P|262:126|275:91,1,76,6|0,0:0|0:0,0:0:0:0:
459,36,212320,101,0,1:0:0:0:
459,36,212590,1,0,0:0:0:0:
346,6,212725,1,2,0:0:0:0:
286,73,212860,2,0,L|296:165,1,76,8|0,0:0|0:0,0:0:0:0:
186,231,213130,2,0,L|196:139,1,76,2|0,0:0|0:0,0:0:0:0:
70,20,213401,1,0,1:0:0:0:
5,195,213536,2,0,P|16:266|32:293,2,76,0|2|0,0:0|0:0|0:0,0:0:0:0:
166,214,213941,2,0,L|81:206,1,76,8|0,0:0|0:0,0:0:0:0:
10,380,214211,2,0,L|95:372,1,76,6|0,0:0|0:0,0:0:0:0:
171,312,214482,5,0,1:0:0:0:
171,312,214752,1,2,0:0:0:0:
244,360,214887,2,0,P|253:306|269:263,1,76,2|0,0:0|0:0,0:0:0:0:
388,124,215157,1,0,0:0:0:0:
397,216,215293,2,0,P|407:179|412:141,1,76,2|0,0:0|0:0,0:0:0:0:
183,19,215563,70,0,P|188:56|198:93,1,76,0|0,1:0|0:0,0:0:0:0:
281,45,215833,1,2,0:0:0:0:
281,45,215968,1,2,0:0:0:0:
352,102,216103,2,0,L|434:96,1,76,8|2,0:0|0:0,0:0:0:0:
492,25,216374,1,6,0:0:0:0:
439,94,216509,1,2,0:0:0:0:
501,190,216644,54,0,P|509:239|322:365,1,285,2|0,1:2|0:0,0:0:0:0:
247,311,217184,1,8,0:0:0:0:
193,375,217320,6,0,P|86:341|84:251,1,190,2|0,0:0|0:0,0:0:0:0:
152,221,217725,102,0,L|173:2,1,190,2|0,1:2|0:0,0:0:0:0:
251,105,218130,1,0,0:0:0:0:
251,105,218266,6,0,B|413:82|311:223|501:202,1,285,10|0,0:0|0:0,0:0:0:0:
483,16,218806,70,0,L|460:120,1,80.750001540184,4|0,1:0|0:0,0:0:0:0:
378,251,219076,1,0,0:0:0:0:
466,287,219211,2,0,L|443:183,1,80.750001540184,2|8,0:0|0:0,0:0:0:0:
381,63,219482,1,0,0:0:0:0:
316,6,219617,2,0,L|293:110,1,80.750001540184,2|0,0:0|0:0,0:0:0:0:
273,195,219887,5,0,1:0:0:0:
273,195,220157,2,0,L|183:159,1,80.750001540184,2|0,0:0|0:0,0:0:0:0:
323,263,220428,2,0,L|336:358,1,80.750001540184,8|0,0:0|0:0,0:0:0:0:
357,186,220698,2,0,L|433:126,1,80.750001540184,2|0,0:0|0:0,0:0:0:0:
375,53,220968,102,0,B|272:41|320:108|201:94,1,161.500003080368,0|0,1:0|0:0,0:0:0:0:
155,38,221374,1,2,0:0:0:0:
155,38,221509,2,0,P|131:95|133:131,1,80.750001540184,8|0,0:0|0:0,0:0:0:0:
324,223,221779,2,0,P|348:166|346:130,1,80.750001540184,2|0,0:0|0:0,0:0:0:0:
263,168,222049,6,0,L|148:181,1,80.750001540184,2|0,1:2|0:0,0:0:0:0:
70,234,222320,2,0,L|12:227,2,53.8333343601227,2|0|0,0:0|0:0|0:0,0:0:0:0:
96,267,222590,2,0,P|100:318|204:359,1,161.500003080368,8|2,0:0|0:0,0:0:0:0:
189,363,223130,102,0,P|218:319|224:276,1,80.750001540184,0|0,1:0|0:0,0:0:0:0:
127,144,223401,1,0,0:0:0:0:
191,90,223536,2,0,P|201:128|225:160,1,80.750001540184,2|8,0:0|0:0,0:0:0:0:
380,211,223806,1,0,0:0:0:0:
316,157,223941,2,0,P|305:195|281:227,1,80.750001540184,2|0,0:0|0:0,0:0:0:0:
141,227,224211,5,0,1:0:0:0:
141,227,224482,2,0,P|187:210|246:223,1,80.750001540184,2|0,0:0|0:0,0:0:0:0:
327,358,224752,2,0,P|289:326|271:269,1,80.750001540184,8|0,0:0|0:0,0:0:0:0:
348,132,225022,2,0,P|339:180|298:224,1,80.750001540184,2|0,0:0|0:0,0:0:0:0:
449,97,225293,86,0,P|414:40|296:41,1,180.49999518013,2|0,1:2|0:0,0:0:0:0:
434,181,225698,2,0,P|486:172|522:141,1,90.2499975900651,2|8,0:0|0:0,0:0:0:0:
294,23,225968,1,0,0:0:0:0:
222,80,226103,2,0,P|203:129|208:174,1,90.2499975900651,2|0,0:0|0:0,0:0:0:0:
331,211,226374,6,0,P|347:247|348:287,1,80.750001540184,2|0,1:2|0:0,0:0:0:0:
204,156,226644,2,0,L|217:220,2,53.8333343601227,2|0|0,0:0|0:0|0:0,0:0:0:0:
185,110,226914,2,0,L|362:128,1,161.500003080368,8|2,0:0|0:0,0:0:0:0:
345,126,227455,6,0,P|331:78|331:36,1,80.750001540184,4|0,1:2|0:0,0:0:0:0:
417,74,227725,1,0,0:0:0:0:
331,213,227860,2,0,P|287:188|257:159,1,80.750001540184,2|8,0:0|0:0,0:0:0:0:
345,126,228130,1,0,0:0:0:0:
487,199,228266,2,0,P|488:248|477:289,1,80.750001540184,2|0,0:0|0:0,0:0:0:0:
416,356,228536,101,0,1:0:0:0:
416,356,228806,2,0,L|360:295,1,80.750001540184,2|0,0:0|0:0,0:0:0:0:
374,139,229076,2,0,L|349:217,1,80.750001540184,8|0,0:0|0:0,0:0:0:0:
208,284,229347,2,0,L|288:266,1,80.750001540184,2|0,0:0|0:0,0:0:0:0:
202,373,229617,6,0,B|100:379|152:316|36:321,1,161.500003080368,0|0,1:2|0:0,0:0:0:0:
35,169,230022,1,2,0:0:0:0:
35,169,230157,2,0,L|48:259,1,80.750001540184,8|0,0:0|0:0,0:0:0:0:
152,83,230428,2,0,L|139:-7,1,80.750001540184,2|0,0:0|0:0,0:0:0:0:
292,101,230698,102,0,L|371:113,1,80.750001540184,0|0,1:0|0:0,0:0:0:0:
186,206,230968,2,0,L|121:216,2,53.8333343601227,2|0|0,0:0|0:0|0:0,0:0:0:0:
241,227,231239,2,0,P|224:295|129:310,1,161.500003080368,8|2,0:0|0:0,0:0:0:0:
144,317,231779,6,0,P|201:311|247:318,1,80.750001540184,0|0,1:0|0:0,0:0:0:0:
380,277,232049,1,0,0:0:0:0:
348,384,232184,2,0,P|314:337|297:294,1,80.750001540184,2|8,0:0|0:0,0:0:0:0:
197,200,232455,1,0,0:0:0:0:
305,174,232590,2,0,P|281:226|252:262,1,80.750001540184,2|0,0:0|0:0,0:0:0:0:
189,92,232860,101,0,1:0:0:0:
189,92,233130,2,0,P|136:85|105:92,1,80.750001540184,2|0,0:0|0:0,0:0:0:0:
105,248,233401,2,0,P|137:205|147:175,1,80.750001540184,8|0,0:0|0:0,0:0:0:0:
11,97,233671,2,0,P|31:146|53:169,1,80.750001540184,2|0,0:0|0:0,0:0:0:0:
187,19,233941,102,0,B|299:6|240:79|366:67,1,180.49999518013,2|0,1:2|0:0,0:0:0:0:
445,4,234347,2,0,P|429:54|425:94,1,90.2499975900651,2|8,0:0|0:0,0:0:0:0:
493,281,234617,1,0,0:0:0:0:
493,281,234752,2,0,P|509:231|513:191,1,90.2499975900651,2|0,0:0|0:0,0:0:0:0:
394,167,235022,6,0,L|382:262,1,80.750001540184,2|0,1:2|0:0,0:0:0:0:
293,303,235293,2,0,L|302:379,2,53.8333343601227,2|0|0,0:0|0:0|0:0,0:0:0:0:
304,265,235563,2,0,L|138:289,1,161.500003080368,8|6,0:0|0:0,0:0:0:0:
36,157,236103,102,0,P|51:79|211:26,1,256.499992172241,4|0,1:0|3:0,0:0:0:0:
300,0,236644,2,0,L|286:97,1,85.4999973907472,10|0,0:0|0:0,0:0:0:0:
446,235,236914,2,0,P|445:180|389:72,1,170.999994781494,2|0,0:0|1:0,0:0:0:0:
258,188,237320,1,2,0:0:0:0:
258,188,237455,2,0,P|303:208|367:208,1,85.4999973907472,2|2,0:0|0:0,0:0:0:0:
261,31,237725,2,0,P|218:36|180:54,1,85.4999973907472,8|0,0:0|0:0,0:0:0:0:
87,200,237995,2,0,P|132:220|196:220,1,85.4999973907472,2|0,0:0|0:0,0:0:0:0:
257,147,238266,6,0,P|283:189|270:341,1,170.999994781494,0|2,1:0|0:0,0:0:0:0:
214,345,238671,1,0,0:0:0:0:
370,235,238806,2,0,L|479:249,2,85.4999973907472,8|0|0,0:0|0:0|0:0,0:0:0:0:
214,345,239211,2,0,L|105:331,1,85.4999973907472,2|0,0:0|1:0,0:0:0:0:
379,228,239482,2,0,L|488:242,2,85.4999973907472,2|0|0,0:0|0:0|0:0,0:0:0:0:
205,352,239887,2,0,L|96:338,1,85.4999973907472,10|0,0:0|0:0,0:0:0:0:
388,221,240157,2,0,L|497:235,1,85.4999973907472,2|0,0:0|0:0,0:0:0:0:
489,80,240428,102,0,B|435:37|363:72|404:151|341:186|262:130,1,256.499992172241,0|0,1:2|3:0,0:0:0:0:
166,8,240968,2,0,P|165:60|192:103,1,85.4999973907472,10|0,0:0|0:0,0:0:0:0:
393,117,241239,2,0,P|334:55|241:41,1,170.999994781494,2|0,0:0|1:0,0:0:0:0:
156,164,241644,1,2,0:0:0:0:
41,48,241779,2,0,L|34:149,1,85.4999973907472,2|2,0:0|0:0,0:0:0:0:
175,256,242049,2,0,L|182:155,1,85.4999973907472,8|0,0:0|0:0,0:0:0:0:
27,250,242320,2,0,L|20:351,1,85.4999973907472,2|0,0:0|0:0,0:0:0:0:
146,362,242590,38,0,P|211:384|285:206,1,285,0|2,1:0|0:0,0:0:0:0:
207,159,243130,86,0,P|191:202|189:252,2,85.4999973907472,8|0|0,0:0|0:0|0:0,0:0:0:0:
321,100,243536,2,0,P|317:57|302:17,1,85.4999973907472,2|0,0:0|1:0,0:0:0:0:
194,159,243806,2,0,P|178:202|176:252,2,85.4999973907472,2|0|0,0:0|0:0|0:0,0:0:0:0:
333,99,244211,2,0,P|330:56|315:17,1,85.4999973907472,10|0,0:0|0:0,0:0:0:0:
181,159,244482,2,0,P|165:202|163:252,1,85.4999973907472,2|0,0:0|0:0,0:0:0:0:
33,65,244752,102,0,B|87:22|159:57|118:136|181:171|260:115,1,256.499992172241,4|0,1:0|3:0,0:0:0:0:
333,33,245293,2,0,P|356:76|353:142,1,85.4999973907472,10|0,0:0|0:0,0:0:0:0:
213,248,245563,2,0,P|183:148|222:100,1,170.999994781494,2|0,0:0|1:0,0:0:0:0:
372,208,245968,1,2,0:0:0:0:
372,208,246103,2,0,L|282:201,1,85.4999973907472,2|2,0:0|0:0,0:0:0:0:
465,178,246374,2,0,L|515:103,1,85.4999973907472,8|0,0:0|0:0,0:0:0:0:
444,273,246644,2,0,L|483:353,1,85.4999973907472,2|0,0:0|0:0,0:0:0:0:
380,329,246914,6,0,P|291:297|210:290,1,170.999994781494,0|2,1:0|0:0,0:0:0:0:
162,200,247320,1,0,0:0:0:0:
73,264,247455,2,0,P|69:311|76:363,2,85.4999973907472,8|0|0,0:0|0:0|0:0,0:0:0:0:
204,160,247860,2,0,P|208:113|201:61,1,85.4999973907472,2|0,0:0|1:0,0:0:0:0:
64,270,248130,2,0,P|60:317|67:369,2,85.4999973907472,2|0|0,0:0|0:0|0:0,0:0:0:0:
213,154,248536,2,0,P|217:107|210:55,1,85.4999973907472,10|0,0:0|0:0,0:0:0:0:
55,276,248806,2,0,P|51:323|58:375,1,85.4999973907472,2|0,0:0|0:0,0:0:0:0:
17,171,249076,102,0,B|167:135|85:275|280:241,1,256.499992172241,0|0,1:0|3:0,0:0:0:0:
337,174,249617,2,0,P|349:124|340:74,1,85.4999973907472,10|0,0:0|0:0,0:0:0:0:
368,277,249887,2,0,P|386:332|506:343,1,170.999994781494,2|0,0:0|1:0,0:0:0:0:
434,222,250293,1,0,0:0:0:0:
258,309,250428,2,0,B|195:293|228:355|134:345,1,128.249996086121,2|0,0:0|0:0,0:0:0:0:
111,356,250698,1,8,0:0:0:0:
24,304,250833,2,0,P|8:253|14:200,1,85.4999973907472,2|0,0:0|0:0,0:0:0:0:
109,244,251103,1,0,0:0:0:0:
214,155,251239,6,0,P|211:231|124:261,1,170.999994781494,2|0,1:2|0:0,0:0:0:0:
144,95,251644,1,0,0:0:0:0:
144,95,251779,2,0,P|188:64|233:62,1,85.4999973907472,10|0,0:0|0:0,0:0:0:0:
299,199,252049,2,0,P|257:190|224:164,1,85.4999973907472,0|0,0:0|0:0,0:0:0:0:
413,23,252320,22,0,P|435:89|384:237,1,190,2|0,1:2|0:0,0:0:0:0:
453,305,252725,1,0,0:0:0:0:
453,305,252860,2,0,P|404:308|343:288,1,95,10|0,0:0|0:0,0:0:0:0:
281,362,253130,2,0,P|253:321|240:258,1,95,2|0,0:0|0:0,0:0:0:0:
318,159,253401,21,0,1:0:0:0:
326,148,253806,2,0,L|150:164,1,170.999994781494,0|0,1:0|0:0,0:0:0:0:
74,118,254211,1,0,1:0:0:0:
74,118,254752,2,0,L|54:216,1,85.4999973907472,0|0,1:0|0:0,0:0:0:0:
141,244,255022,2,0,L|161:342,1,85.4999973907472,0|0,1:0|0:0,0:0:0:0:
149,338,255563,6,0,B|216:314|216:314|260:340|260:340|342:309,1,170.999994781494,0|0,1:0|0:0,0:0:0:0:
396,343,255968,2,0,B|429:377|429:377|449:219,1,170.999994781494,0|0,1:0|0:0,0:0:0:0:
509,180,256374,2,0,L|495:87,1,85.4999973907472,0|0,1:0|0:0,0:0:0:0:
496,95,256914,2,0,B|453:74|453:74|396:83,1,85.4999973907472,0|0,1:0|0:0,0:0:0:0:
386,184,257184,2,0,B|343:205|343:205|286:196,1,85.4999973907472,0|0,1:0|0:0,0:0:0:0:
224,17,257455,5,8,1:0:0:0:
238,7,257725,86,0,L|250:96,1,85.4999973907472,0|0,1:0|0:0,0:0:0:0:
238,105,258130,2,0,L|211:305,1,170.999994781494,0|0,1:0|0:0,0:0:0:0:
118,327,258536,2,0,L|100:206,1,85.4999973907472,0|0,1:0|0:0,0:0:0:0:
105,242,259076,2,0,L|136:159,1,85.4999973907472,0|0,1:0|0:0,0:0:0:0:
302,210,259347,2,0,L|214:225,1,85.4999973907472,0|0,1:0|0:0,0:0:0:0:
240,125,259617,1,0,0:0:0:0:
240,125,259887,6,0,B|285:78|285:78|415:118,1,170.999994781494,0|0,1:0|0:0,0:0:0:0:
456,64,260293,2,0,B|409:109|409:109|449:239,1,170.999994781494,0|0,1:0|0:0,0:0:0:0:
512,283,260698,2,0,L|330:327,1,170.999994781494,0|0,1:0|1:0,0:0:0:0:
345,323,261239,2,0,L|355:225,1,85.4999973907472,0|0,1:0|0:0,0:0:0:0:
233,158,261509,2,0,L|243:256,1,85.4999973907472,0|0,1:0|0:0,0:0:0:0:
65,355,261779,5,8,0:0:0:0:
65,355,262049,86,0,B|39:326|39:326|53:249,1,85.4999973907472,0|0,1:0|0:0,0:0:0:0:
58,271,262455,2,0,B|92:234|92:234|71:77,1,170.999994781494,0|0,1:0|0:0,0:0:0:0:
28,38,262860,2,0,B|58:16|58:16|117:30,1,85.4999973907472,0|0,1:0|0:0,0:0:0:0:
104,27,263401,2,0,L|191:17,1,85.4999973907472,0|0,1:0|0:0,0:0:0:0:
262,102,263671,2,0,L|348:112,1,85.4999973907472,0|0,1:0|0:0,0:0:0:0:
346,112,264211,6,0,L|365:25,1,85.4999973907472,0|0,1:0|0:0,0:0:0:0:
363,32,264617,2,0,L|262:1,2,85.4999973907472,0|0|0,1:0|0:0|0:0,0:0:0:0:
281,96,265022,2,0,B|225:106|225:106|198:91|198:91|115:107,1,170.999994781494,0|0,1:0|0:0,0:0:0:0:
116,106,265563,2,0,B|134:152|134:152|126:197,1,85.4999973907472,0|0,1:0|0:0,0:0:0:0:
25,315,265833,2,0,B|7:269|7:269|15:224,1,85.4999973907472,0|0,1:0|0:0,0:0:0:0:
187,274,266103,5,8,0:0:0:0:
187,274,266374,86,0,B|257:262|257:262|292:287|292:287|355:275,1,170.999994781494,0|0,1:0|0:0,0:0:0:0:
447,240,266779,2,0,B|430:290|430:290|407:152,1,170.999994781494,0|0,1:0|0:0,0:0:0:0:
451,94,267184,2,0,L|472:2,1,85.4999973907472,0|0,1:0|0:0,0:0:0:0:
354,40,267455,2,0,L|254:56,2,85.4999973907472,0|0|0,0:0|0:0|1:0,0:0:0:0:
451,95,267860,2,0,B|441:143|441:143|467:182|467:182|446:273,1,170.999994781494,0|0,0:0|0:0,0:0:0:0:
364,277,268266,2,0,L|378:364,1,85.4999973907472,0|0,0:0|0:0,0:0:0:0:
502,324,268536,6,0,B|513:288|513:288|345:310,1,170.999994781494,0|0,1:0|0:0,0:0:0:0:
308,368,268941,2,0,B|242:353|242:353|212:318|212:318|136:303,1,170.999994781494,0|0,1:0|0:0,0:0:0:0:
69,218,269347,1,0,1:0:0:0:
69,218,269482,2,0,B|19:257|19:257|53:372,1,170.999994781494,0|0,0:0|0:0,0:0:0:0:
162,185,269887,2,0,B|141:146|141:146|92:125,1,85.4999973907472,0|0,1:0|0:0,0:0:0:0:
36,4,270157,2,0,B|12:41|12:41|19:94,1,85.4999973907472,0|0,1:0|0:0,0:0:0:0:
201,13,270428,5,8,0:0:0:0:
257,193,270698,85,0,0:0:0:0:
