osu file format v14

[General]
AudioFilename: audio.mp3
AudioLeadIn: 0
PreviewTime: 184411
Countdown: 0
SampleSet: Soft
StackLeniency: 0.7
Mode: 0
LetterboxInBreaks: 0
WidescreenStoryboard: 0

[Editor]
DistanceSpacing: 0.1
BeatDivisor: 3
GridSize: 8
TimelineZoom: 2.699999

[Metadata]
Title:Unknown Mother-Goose
TitleUnicode:アンノウン・マザーグース
Artist:FantasticYouth
ArtistUnicode:FantasticYouth
Creator:Sajinn
Version:Serendipity
Source:
Tags:armin a_r_m_i_n irohas mugiwarasekai spokenaway vocaloid utaite japanese wowaka hatsune miku lowfat onyu おん湯(♨) hot water cover ふぁんゆ fanyu announ mazaa guusu novelty
BeatmapID:2997378
BeatmapSetID:1458574

[Difficulty]
HPDrainRate:5.4
CircleSize:4.2
OverallDifficulty:9.2
ApproachRate:9.6
SliderMultiplier:2.12
SliderTickRate:1

[Events]
//Background and Video events
0,0,"bg.png",0,0
//Break Periods
//Storyboard Layer 0 (Background)
//Storyboard Layer 1 (Fail)
//Storyboard Layer 2 (Pass)
//Storyboard Layer 3 (Foreground)
//Storyboard Layer 4 (Overlay)
//Storyboard Sound Samples

[TimingPoints]
1659,270.27027027027,4,2,1,60,1,0
2740,-81.9672131147541,4,2,1,60,0,0
2942,-714.285714285714,4,2,1,5,0,0
3010,-108.695652173913,4,2,1,60,0,0
4834,-714.285714285714,4,2,1,5,0,0
4902,-108.695652173913,4,2,1,60,0,0
8888,-714.285714285714,4,2,1,5,0,0
8956,-108.695652173913,4,2,2,60,0,0
9091,-108.695652173913,4,2,1,60,0,0
9158,-714.285714285714,4,2,1,5,0,0
9226,-108.695652173913,4,2,1,60,0,0
11388,-81.9672131147541,4,2,1,60,0,0
11591,-714.285714285714,4,2,1,5,0,0
11658,-108.695652173913,4,2,1,60,0,0
13213,-714.285714285714,4,2,1,5,0,0
13280,-108.695652173913,4,2,2,60,0,0
13415,-108.695652173913,4,2,1,60,0,0
13483,-714.285714285714,4,2,1,5,0,0
13550,-108.695652173913,4,2,1,60,0,0
16321,-714.285714285714,4,2,1,5,0,0
16389,-108.695652173913,4,2,1,60,0,0
17537,-714.285714285714,4,2,1,5,0,0
17604,-108.695652173913,4,2,2,60,0,0
17740,-108.695652173913,4,2,1,60,0,0
17807,-714.285714285714,4,2,1,5,0,0
17875,-108.695652173913,4,2,1,60,0,0
18077,-714.285714285714,4,2,1,5,0,0
18145,-108.695652173913,4,2,1,60,0,0
18686,-312.5,4,2,1,60,0,0
18888,-714.285714285714,4,2,1,5,0,0
18956,-108.695652173913,4,2,1,60,0,0
19496,-98.0392156862745,4,2,1,60,0,0
20037,-81.9672131147541,4,2,1,70,0,0
20240,-714.285714285714,4,2,1,5,0,0
20307,-81.9672131147541,4,2,1,70,0,0
20375,-714.285714285714,4,2,1,5,0,0
20442,-81.9672131147541,4,2,1,70,0,0
21321,-714.285714285714,4,2,1,5,0,0
21388,-81.9672131147541,4,2,1,70,0,0
21591,-714.285714285714,4,2,1,5,0,0
21658,-81.9672131147541,4,2,1,70,0,0
22402,-714.285714285714,4,2,1,5,0,0
22469,-81.9672131147541,4,2,1,70,0,0
23348,-714.285714285714,4,2,1,5,0,0
23415,-81.9672131147541,4,2,1,70,0,0
23483,-714.285714285714,4,2,1,5,0,0
23550,-161.290322580645,4,2,1,70,0,0
23753,-714.285714285714,4,2,1,5,0,0
23821,-81.9672131147541,4,2,1,70,0,0
24564,-714.285714285714,4,2,1,5,0,0
24632,-81.9672131147541,4,2,1,70,0,0
25780,-714.285714285714,4,2,1,5,0,0
25983,-81.9672131147541,4,2,1,70,0,0
26186,-714.285714285714,4,2,1,5,0,0
26253,-312.5,4,2,1,70,0,0
26456,-714.285714285714,4,2,1,5,0,0
26523,-81.9672131147541,4,2,1,70,0,0
26726,-714.285714285714,4,2,1,5,0,0
26794,-81.9672131147541,4,2,1,70,0,0
28145,-312.5,4,2,1,70,0,0
28348,-714.285714285714,4,2,1,5,0,0
28415,-81.9672131147541,4,2,1,70,0,0
28483,-714.285714285714,4,2,1,5,0,0
28686,-75.7575757575758,4,2,1,70,0,0
33010,-121.951219512195,4,2,1,70,0,0
34969,-714.285714285714,4,2,1,5,0,0
35172,-121.951219512195,4,2,1,70,0,0
37131,-714.285714285714,4,2,1,5,0,0
37334,-285.714285714286,4,2,1,50,0,0
39496,-121.951219512195,4,2,1,60,0,0
42267,-714.285714285714,4,2,1,5,0,0
42334,-121.951219512195,4,2,1,60,0,0
43753,-714.285714285714,4,2,1,5,0,0
43820,-121.951219512195,4,2,1,60,0,0
45104,-714.285714285714,4,2,1,5,0,0
45171,-121.951219512195,4,2,1,60,0,0
45983,-108.695652173913,4,2,1,60,0,0
48077,-714.285714285714,4,2,1,5,0,0
48145,-108.695652173913,4,2,1,60,0,0
49158,-714.285714285714,4,2,1,5,0,0
49226,-108.695652173913,4,2,1,60,0,0
50915,-714.285714285714,4,2,1,5,0,0
50983,-108.695652173913,4,2,1,60,0,0
52402,-714.285714285714,4,2,1,5,0,0
52469,-108.695652173913,4,2,1,60,0,0
52672,-714.285714285714,4,2,1,5,0,0
52740,-108.695652173913,4,2,1,60,0,0
53077,-714.285714285714,4,2,1,5,0,0
53145,-108.695652173913,4,2,1,60,0,0
53280,-312.5,4,2,1,60,0,0
53483,-714.285714285714,4,2,1,5,0,0
53550,-65.7894736842105,4,2,1,60,0,0
53686,-714.285714285714,4,2,1,5,0,0
53731,-65.7894736842105,4,2,1,60,0,0
53866,-714.285714285714,4,2,1,5,0,0
53911,-65.7894736842105,4,2,1,60,0,0
54046,-714.285714285714,4,2,1,5,0,0
54091,-65.7894736842105,4,2,1,60,0,0
54226,-714.285714285714,4,2,1,5,0,0
54271,-454.545454545455,4,2,1,60,0,0
55104,-714.285714285714,4,2,1,5,0,0
55172,-238.095238095238,4,2,1,60,0,0
55645,-714.285714285714,4,2,1,5,0,0
55713,-238.095238095238,4,2,1,60,0,0
59429,-714.285714285714,4,2,1,5,0,0
59496,-238.095238095238,4,2,1,60,0,0
59969,-714.285714285714,4,2,1,5,0,0
60037,-238.095238095238,4,2,1,60,0,0
64361,-161.290322580645,4,2,1,60,0,0
65442,-138.888888888889,4,2,1,60,0,0
66523,-121.951219512195,4,2,1,60,0,0
68686,-108.695652173913,4,2,1,60,0,0
69767,-98.0392156862745,4,2,1,60,0,0
71388,-98.0392156862745,4,2,2,80,0,0
71960,270.27027027027,4,2,1,50,1,0
71960,-238.095238095238,4,2,1,50,0,0
76284,-161.290322580645,4,2,1,50,0,0
76824,-98.0392156862745,4,2,1,50,0,0
77365,-238.095238095238,4,2,1,50,0,0
84932,-161.290322580645,4,2,1,50,0,0
85472,-98.0392156862745,4,2,1,50,0,0
86013,-238.095238095238,4,2,1,50,0,0
89257,-98.0392156862745,4,2,1,55,0,0
89662,-121.951219512195,4,2,1,55,0,0
94324,-714.285714285714,4,2,1,5,0,0
94392,-121.951219512195,4,2,1,55,0,0
95946,-714.285714285714,4,2,1,5,0,0
96014,-121.951219512195,4,2,1,55,0,0
96216,-714.285714285714,4,2,1,5,0,0
96284,-121.951219512195,4,2,1,55,0,0
104392,-98.0392156862745,4,2,1,55,0,0
106014,-454.545454545455,4,2,1,55,0,0
106554,-121.951219512195,4,2,1,60,0,0
107027,-714.285714285714,4,2,1,5,0,0
107095,-121.951219512195,4,2,1,60,0,0
108108,-714.285714285714,4,2,1,5,0,0
108176,-121.951219512195,4,2,1,60,0,0
108919,-714.285714285714,4,2,1,5,0,0
108987,-121.951219512195,4,2,1,60,0,0
111351,-714.285714285714,4,2,1,5,0,0
111419,-121.951219512195,4,2,1,60,0,0
112432,-714.285714285714,4,2,1,5,0,0
112500,-121.951219512195,4,2,1,60,0,0
113243,-714.285714285714,4,2,1,5,0,0
113311,-121.951219512195,4,2,1,60,0,0
115135,-714.285714285714,4,2,1,5,0,0
115203,-121.951219512195,4,2,1,60,0,0
115676,-714.285714285714,4,2,1,5,0,0
115743,-121.951219512195,4,2,1,60,0,0
116757,-714.285714285714,4,2,1,5,0,0
116824,-121.951219512195,4,2,1,60,0,0
117568,-714.285714285714,4,2,1,5,0,0
117635,-121.951219512195,4,2,1,60,0,0
119459,-714.285714285714,4,2,1,5,0,0
119527,-121.951219512195,4,2,1,60,0,0
120000,-714.285714285714,4,2,1,5,0,0
120068,-121.951219512195,4,2,1,60,0,0
121081,-714.285714285714,4,2,1,5,0,0
121149,-121.951219512195,4,2,1,60,0,0
121892,-714.285714285714,4,2,1,5,0,0
121959,-121.951219512195,4,2,1,60,0,0
123851,-192.307692307692,4,2,1,50,0,0
132500,-121.951219512195,4,2,1,60,0,0
134595,-714.285714285714,4,2,1,5,0,0
134662,-121.951219512195,4,2,1,60,0,0
138919,-714.285714285714,4,2,1,5,0,0
138986,-121.951219512195,4,2,1,60,0,0
141149,-108.695652173913,4,2,1,60,0,0
143243,-714.285714285714,4,2,1,5,0,0
143311,-108.695652173913,4,2,1,60,0,0
144324,-714.285714285714,4,2,1,5,0,0
144392,-108.695652173913,4,2,1,60,0,0
147568,-714.285714285714,4,2,1,5,0,0
147635,-108.695652173913,4,2,1,60,0,0
147838,-714.285714285714,4,2,1,5,0,0
147906,-108.695652173913,4,2,1,60,0,0
148243,-714.285714285714,4,2,1,5,0,0
148311,-108.695652173913,4,2,1,60,0,0
148919,-714.285714285714,4,2,1,5,0,0
148987,-108.695652173913,4,2,1,60,0,0
149324,-714.285714285714,4,2,1,5,0,0
149392,-108.695652173913,4,2,1,60,0,0
149797,-81.9672131147541,4,2,1,70,0,1
149865,-714.285714285714,4,2,1,5,0,1
149932,-81.9672131147541,4,2,1,70,0,1
150405,-714.285714285714,4,2,1,5,0,1
150472,-81.9672131147541,4,2,1,70,0,1
150946,-714.285714285714,4,2,1,5,0,1
151013,-81.9672131147541,4,2,1,70,0,1
151487,-714.285714285714,4,2,1,5,0,1
151554,-81.9672131147541,4,2,1,70,0,1
152027,-714.285714285714,4,2,1,5,0,1
152094,-81.9672131147541,4,2,1,70,0,1
152568,-714.285714285714,4,2,1,5,0,1
152635,-81.9672131147541,4,2,1,70,0,1
152770,-238.095238095238,4,2,1,70,0,1
152973,-714.285714285714,4,2,1,5,0,1
153041,-81.9672131147541,4,2,1,70,0,1
153243,-714.285714285714,4,2,1,5,0,1
153311,-81.9672131147541,4,2,1,70,0,1
153649,-714.285714285714,4,2,1,5,0,1
153716,-81.9672131147541,4,2,1,70,0,1
154189,-714.285714285714,4,2,1,5,0,1
154257,-81.9672131147541,4,2,1,70,0,1
154730,-714.285714285714,4,2,1,5,0,1
154798,-81.9672131147541,4,2,1,70,0,1
155270,-714.285714285714,4,2,1,5,0,1
155338,-81.9672131147541,4,2,1,70,0,1
155811,-714.285714285714,4,2,1,5,0,1
155879,-81.9672131147541,4,2,1,70,0,1
156351,-714.285714285714,4,2,1,5,0,1
156419,-81.9672131147541,4,2,1,70,0,1
156892,-714.285714285714,4,2,1,5,0,1
156960,-81.9672131147541,4,2,1,70,0,1
157568,-714.285714285714,4,2,1,5,0,1
157636,-81.9672131147541,4,2,1,70,0,1
157973,-714.285714285714,4,2,1,5,0,1
158041,-81.9672131147541,4,2,1,70,0,1
159054,-714.285714285714,4,2,1,5,0,1
159122,-81.9672131147541,4,2,1,70,0,1
161216,-714.285714285714,4,2,1,5,0,1
161284,-81.9672131147541,4,2,1,70,0,1
161892,-714.285714285714,4,2,1,5,0,1
161960,-81.9672131147541,4,2,1,70,0,1
162297,-714.285714285714,4,2,1,5,0,1
162365,-81.9672131147541,4,2,1,70,0,1
162838,-714.285714285714,4,2,1,5,0,1
162906,-81.9672131147541,4,2,1,70,0,1
163378,-714.285714285714,4,2,1,5,0,1
163446,-81.9672131147541,4,2,1,70,0,1
164459,-714.285714285714,4,2,1,5,0,1
164527,-81.9672131147541,4,2,1,70,0,1
165000,-714.285714285714,4,2,1,5,0,1
165068,-81.9672131147541,4,2,1,70,0,1
165541,-714.285714285714,4,2,1,5,0,1
165609,-81.9672131147541,4,2,1,70,0,1
165946,-714.285714285714,4,2,1,70,0,1
166014,-65.7894736842105,4,2,1,70,0,1
166419,-81.9672131147541,4,2,1,70,0,1
166622,-714.285714285714,4,2,1,5,0,1
166689,-833.333333333333,4,2,1,70,0,1
167027,-714.285714285714,4,2,1,5,0,1
167095,-454.545454545455,4,2,1,60,0,0
167568,-714.285714285714,4,2,1,5,0,0
167635,-238.095238095238,4,2,1,60,0,0
168108,-714.285714285714,4,2,1,5,0,0
168175,-238.095238095238,4,2,1,60,0,0
171892,-714.285714285714,4,2,1,5,0,0
171959,-238.095238095238,4,2,1,60,0,0
172432,-714.285714285714,4,2,1,5,0,0
172499,-238.095238095238,4,2,1,60,0,0
175743,-161.290322580645,4,2,1,60,0,0
177005,-138.888888888889,4,2,1,60,0,0
177905,-121.951219512195,4,2,1,60,0,0
180068,-108.695652173913,4,2,1,60,0,0
183851,-108.695652173913,4,2,2,80,0,0
184411,270.27027027027,4,2,1,50,1,0
184411,-238.095238095238,4,2,1,50,0,0
188735,-161.290322580645,4,2,1,50,0,0
189275,-98.0392156862745,4,2,1,50,0,0
189816,-238.095238095238,4,2,1,50,0,0
197383,-161.290322580645,4,2,1,50,0,0
197923,-98.0392156862745,4,2,1,50,0,0
198464,-238.095238095238,4,2,1,50,0,0
201708,-98.0392156862745,4,2,1,55,0,0
202113,-121.951219512195,4,2,1,55,0,0
206775,-714.285714285714,4,2,1,5,0,0
206843,-121.951219512195,4,2,1,55,0,0
209816,-454.545454545452,4,2,1,55,0,0
210289,-714.285714285714,4,2,1,5,0,0
210356,-98.0392156862745,4,2,1,55,0,0
210761,-121.951219512195,4,2,1,55,0,0
216843,-98.0392156862745,4,2,1,55,0,0
218465,-454.545454545455,4,2,1,55,0,0
218938,-714.285714285714,4,2,1,5,0,0
219005,-89.2857142857143,4,2,1,60,0,0
220086,-312.5,4,2,1,60,0,0
220289,-714.285714285714,4,2,1,5,0,0
220356,-89.2857142857143,4,2,1,60,0,0
222789,-312.5,4,2,1,60,0,0
222992,-714.285714285714,4,2,1,5,0,0
223059,-312.5,4,2,1,60,0,0
223262,-714.285714285714,4,2,1,5,0,0
223329,-89.2857142857143,4,2,1,60,0,0
224410,-312.5,4,2,1,60,0,0
224613,-714.285714285714,4,2,1,5,0,0
224680,-89.2857142857143,4,2,1,60,0,0
227113,-312.5,4,2,1,60,0,0
227316,-714.285714285714,4,2,1,5,0,0
227383,-312.5,4,2,1,60,0,0
227586,-714.285714285714,4,2,1,5,0,0
227653,-89.2857142857143,4,2,1,60,0,0
228735,-312.5,4,2,1,60,0,0
228938,-714.285714285714,4,2,1,5,0,0
229005,-89.2857142857143,4,2,1,60,0,0
231438,-312.5,4,2,1,60,0,0
231640,-714.285714285714,4,2,1,5,0,0
231708,-312.5,4,2,1,60,0,0
231910,-714.285714285714,4,2,1,5,0,0
231978,-89.2857142857143,4,2,1,60,0,0
233059,-312.5,4,2,1,60,0,0
233262,-714.285714285714,4,2,1,5,0,0
233329,-89.2857142857143,4,2,1,60,0,0
235762,-312.5,4,2,1,60,0,0
235965,-714.285714285714,4,2,1,5,0,0
236032,-312.5,4,2,1,60,0,0
236235,-714.285714285714,4,2,1,5,0,0
236302,-121.951219512195,4,2,1,60,0,0
236775,-714.285714285714,4,2,1,5,0,0
236843,-121.951219512195,4,2,1,60,0,0
237856,-714.285714285714,4,2,1,5,0,0
237924,-121.951219512195,4,2,1,60,0,0
238667,-714.285714285714,4,2,1,5,0,0
238735,-121.951219512195,4,2,1,60,0,0
241100,-714.285714285714,4,2,1,5,0,0
241167,-121.951219512195,4,2,1,60,0,0
242181,-714.285714285714,4,2,1,5,0,0
242248,-121.951219512195,4,2,1,60,0,0
242992,-714.285714285714,4,2,1,5,0,0
243059,-121.951219512195,4,2,1,60,0,0
244883,-714.285714285714,4,2,1,5,0,0
244951,-121.951219512195,4,2,1,60,0,0
245424,-714.285714285714,4,2,1,5,0,0
245492,-121.951219512195,4,2,1,60,0,0
246505,-714.285714285714,4,2,1,5,0,0
246573,-121.951219512195,4,2,1,60,0,0
247316,-714.285714285714,4,2,1,5,0,0
247383,-121.951219512195,4,2,1,60,0,0
249208,-714.285714285714,4,2,1,5,0,0
249275,-121.951219512195,4,2,1,60,0,0
249748,-714.285714285714,4,2,1,5,0,0
249816,-121.951219512195,4,2,1,60,0,0
250829,-714.285714285714,4,2,1,5,0,0
250897,-121.951219512195,4,2,1,60,0,0
251640,-714.285714285714,4,2,1,5,0,0
251708,-121.951219512195,4,2,1,60,0,0
253600,-833.333333333326,4,2,1,50,0,0
253938,-714.285714285714,4,2,1,5,0,0
254005,-833.333333333326,4,2,1,50,0,0
254343,-714.285714285714,4,2,1,5,0,0
254410,-833.333333333326,4,2,1,50,0,0
254883,-714.285714285714,4,2,1,5,0,0
254951,-81.967213114754,4,2,1,50,0,0
255154,-714.285714285714,4,2,1,5,0,0
255221,-833.333333333326,4,2,1,50,0,0
255694,-714.285714285714,4,2,1,5,0,0
255761,-833.333333333326,4,2,1,50,0,0
256100,-714.285714285714,4,2,1,5,0,0
256167,-833.333333333326,4,2,1,50,0,0
256505,-714.285714285714,4,2,1,5,0,0
256572,-833.333333333326,4,2,1,50,0,0
257046,-714.285714285714,4,2,1,5,0,0
257113,-81.967213114754,4,2,1,50,0,0
257316,-714.285714285714,4,2,1,5,0,0
257383,-833.333333333326,4,2,1,50,0,0
257586,-714.285714285714,4,2,1,5,0,0
257654,-238.095238095238,4,2,1,50,0,0
257856,-714.285714285714,4,2,1,5,0,0
257924,-833.333333333326,4,2,1,50,0,0
258262,-714.285714285714,4,2,1,5,0,0
258329,-833.333333333326,4,2,1,50,0,0
258667,-714.285714285714,4,2,1,5,0,0
258734,-833.333333333326,4,2,1,50,0,0
259208,-714.285714285714,4,2,1,5,0,0
259275,-81.967213114754,4,2,1,50,0,0
259478,-714.285714285714,4,2,1,5,0,0
259545,-833.333333333326,4,2,1,50,0,0
260019,-714.285714285714,4,2,1,5,0,0
260086,-833.333333333326,4,2,1,50,0,0
260424,-714.285714285714,4,2,1,5,0,0
260491,-833.333333333326,4,2,1,50,0,0
260829,-714.285714285714,4,2,1,5,0,0
260896,-833.333333333326,4,2,1,50,0,0
261437,-81.967213114754,4,2,1,50,0,0
261640,-714.285714285714,4,2,1,5,0,0
261707,-833.333333333326,4,2,1,50,0,0
261910,-714.285714285714,4,2,1,5,0,0
261978,-238.095238095238,4,2,1,50,0,0
262181,-714.285714285714,4,2,1,5,0,0
262248,-833.333333333326,4,2,1,50,0,0
262586,-714.285714285714,4,2,1,5,0,0
262653,-833.333333333326,4,2,1,50,0,0
262992,-714.285714285714,4,2,1,5,0,0
263059,-833.333333333326,4,2,1,50,0,0
263532,-714.285714285714,4,2,1,5,0,0
263599,-81.967213114754,4,2,1,50,0,0
263802,-714.285714285714,4,2,1,5,0,0
263869,-833.333333333326,4,2,1,50,0,0
264343,-714.285714285714,4,2,1,5,0,0
264410,-833.333333333326,4,2,1,50,0,0
264748,-714.285714285714,4,2,1,5,0,0
264815,-833.333333333326,4,2,1,50,0,0
265154,-714.285714285714,4,2,1,5,0,0
265221,-833.333333333326,4,2,1,50,0,0
265694,-714.285714285714,4,2,1,5,0,0
265761,-81.967213114754,4,2,1,50,0,0
265965,-714.285714285714,4,2,1,5,0,0
266031,-833.333333333326,4,2,1,50,0,0
266235,-714.285714285714,4,2,1,5,0,0
266302,-238.095238095238,4,2,1,50,0,0
266505,-714.285714285714,4,2,1,5,0,0
266572,-833.333333333326,4,2,1,50,0,0
266910,-714.285714285714,4,2,1,5,0,0
266977,-833.333333333326,4,2,1,50,0,0
267316,-714.285714285714,4,2,1,5,0,0
267383,-833.333333333326,4,2,1,50,0,0
267856,-714.285714285714,4,2,1,5,0,0
267923,-81.967213114754,4,2,1,50,0,0
268127,-714.285714285714,4,2,1,5,0,0
268193,-833.333333333326,4,2,1,50,0,0
268667,-714.285714285714,4,2,1,5,0,0
268734,-833.333333333326,4,2,1,50,0,0
269073,-714.285714285714,4,2,1,5,0,0
269140,-833.333333333326,4,2,1,50,0,0
269478,-714.285714285714,4,2,1,5,0,0
269545,-833.333333333326,4,2,1,50,0,0
270019,-714.285714285714,4,2,1,5,0,0
270085,-81.967213114754,4,2,1,50,0,0
270289,-714.285714285714,4,2,1,5,0,0
270355,-833.333333333326,4,2,1,50,0,0
270559,-714.285714285714,4,2,1,5,0,0
270626,-238.095238095238,4,2,1,50,0,0
270829,-714.285714285714,4,2,1,5,0,0
270897,-714.285714285714,4,2,1,30,0,0
270965,-714.285714285714,4,2,1,30,0,0
271032,-714.285714285714,4,2,1,30,0,0
275221,-714.285714285714,4,2,1,5,0,0

[Colours]
Combo1 : 0,242,0
Combo2 : 157,255,255
Combo3 : 147,255,147
Combo4 : 255,151,151
Combo5 : 255,255,128
Combo6 : 230,0,0
Combo7 : 0,87,174

[HitObjects]
43,196,2334,5,2,0:0:0:0:
100,152,2469,5,2,0:0:0:0:
176,203,2604,5,2,0:0:0:0:
342,123,2740,6,0,B|349:101|377:94|377:94|330:83|308:125|323:130|284:162|231:139,1,193.979992008271,6|0,1:2|0:0,0:0:0:0:
242,140,3010,1,8,0:0:0:0:
342,326,3145,2,0,B|392:307|447:289|447:289|393:290|365:259,1,195.039993452637,2|2,1:2|1:2,0:0:0:0:
298,223,3550,5,10,0:0:0:0:
156,315,3686,1,2,0:0:0:0:
225,335,3821,5,2,1:2:0:0:
207,268,3956,1,2,0:0:0:0:
11,334,4091,5,10,0:0:0:0:
62,285,4226,2,0,B|25:183|154:209|107:96,1,195.039993452637,2|0,1:2|1:2,0:0:0:0:
321,95,4631,2,0,B|278:76|278:76|219:100|242:160,1,146.279995089478,8|0,0:0|0:0,0:0:0:0:
334,93,4902,6,0,P|347:53|363:-1,1,97.5199967263185,2|0,1:2|0:0,0:0:0:0:
405,192,5172,1,10,0:0:0:0:
507,128,5307,2,0,B|467:93|417:115|417:115|398:178|323:179,1,195.039993452637,2|2,1:2|1:2,0:0:0:0:
246,257,5713,5,10,0:0:0:0:
408,337,5848,1,2,0:0:0:0:
322,266,5983,5,2,1:2:0:0:
336,338,6118,1,2,0:0:0:0:
236,250,6253,5,10,0:0:0:0:
192,314,6388,2,0,B|150:321|150:321|133:337|133:337|93:344,1,97.5199967263185,2|0,0:0|1:2,0:0:0:0:
62,159,6658,5,2,1:2:0:0:
148,90,6794,1,10,0:0:0:0:
227,170,6929,1,2,0:0:0:0:
99,240,7064,6,0,P|83:150|66:36,1,195.039993452637,2|8,1:2|0:0,0:0:0:0:
227,170,7469,2,0,B|271:143|331:130|331:130|278:126|249:74,1,195.039993452637,2|2,1:2|1:2,0:0:0:0:
221,0,7875,5,10,0:0:0:0:
332,51,8010,1,2,0:0:0:0:
384,6,8145,5,2,1:2:0:0:
326,57,8280,1,2,0:0:0:0:
506,63,8415,5,10,0:0:0:0:
455,115,8550,2,0,P|469:169|483:232,1,97.5199967263185,2|0,1:2|0:0,0:0:0:0:
437,341,8821,6,0,P|411:330|367:322,1,48.7599983631592,2|0,1:0|0:0,0:0:0:0:
451,337,8956,2,0,P|388:315|303:306,1,146.279995089478,10|0,1:0|0:0,0:0:0:0:
230,372,9226,6,0,B|267:270|138:296|185:183,1,195.039993452637,2|10,1:2|0:0,0:0:0:0:
0,162,9631,2,0,P|47:147|103:130,1,97.5199967263185,2|0,1:2|0:0,0:0:0:0:
227,2,9902,5,2,1:2:0:0:
242,69,10037,1,10,0:0:0:0:
258,136,10172,1,2,0:0:0:0:
400,14,10307,5,2,1:2:0:0:
349,76,10442,2,0,P|380:86|421:104,2,48.7599983631592,0|2|8,0:0|0:0|0:0,0:0:0:0:
468,135,10713,1,0,0:0:0:0:
480,146,10848,1,2,1:2:0:0:
340,259,10983,5,2,1:2:0:0:
426,328,11119,1,10,0:0:0:0:
505,248,11254,1,2,0:0:0:0:
417,324,11388,6,0,B|371:287|321:308|321:308|297:364|245:360,1,193.979992008271,6|0,1:2|0:0,0:0:0:0:
241,356,11658,1,8,0:0:0:0:
42,217,11794,2,0,B|66:194|90:169|90:169|178:212|137:289,1,195.039993452637,2|2,1:2|1:2,0:0:0:0:
0,377,12199,5,10,0:0:0:0:
78,315,12334,1,2,0:0:0:0:
146,351,12469,5,2,1:2:0:0:
66,309,12604,1,2,0:0:0:0:
234,268,12740,5,10,0:0:0:0:
175,219,12875,2,0,P|194:166|213:115,1,97.5199967263185,2|0,1:2|0:0,0:0:0:0:
369,29,13145,6,0,P|337:37|320:51,1,48.7599983631592,2|0,1:0|0:0,0:0:0:0:
381,38,13280,2,0,P|317:68|334:149,1,146.279995089478,10|0,1:0|0:0,0:0:0:0:
351,218,13550,6,0,B|397:191|404:136|404:136|419:190|468:227,1,195.039993452637,2|10,1:2|0:0,0:0:0:0:
278,357,13956,2,0,B|253:346|224:350|224:350|304:328|370:312,1,195.039993452637,2|2,1:2|1:2,0:0:0:0:
503,378,14361,5,10,0:0:0:0:
456,322,14496,1,2,0:0:0:0:
498,235,14631,5,2,1:2:0:0:
448,332,14767,1,2,0:0:0:0:
351,218,14902,5,10,0:0:0:0:
471,109,15037,2,0,B|436:118|436:118|421:138|421:138|382:150,1,97.5199967263185,2|0,0:0|1:2,0:0:0:0:
149,89,15307,5,2,1:2:0:0:
235,20,15443,1,10,0:0:0:0:
314,100,15578,1,2,0:0:0:0:
153,230,15713,6,0,B|204:212|258:197|258:197|205:197|177:150,1,195.039993452637,2|8,1:2|0:0,0:0:0:0:
72,38,16118,2,0,P|58:103|42:188,1,146.279995089478,2|0,1:2|0:0,0:0:0:0:
41,192,16388,1,2,1:2:0:0:
193,293,16523,5,10,0:0:0:0:
153,230,16658,1,2,0:0:0:0:
41,363,16794,5,2,1:2:0:0:
117,296,16929,1,2,0:0:0:0:
30,372,17064,5,10,0:0:0:0:
197,384,17199,2,0,P|211:321|220:272,1,97.5199967263185,2|0,1:2|0:0,0:0:0:0:
179,151,17469,6,0,P|202:135|244:120,1,48.7599983631592,2|0,1:0|0:0,0:0:0:0:
165,149,17604,2,0,P|223:116|305:92,1,146.279995089478,10|0,1:0|0:0,0:0:0:0:
512,158,17875,6,0,P|455:129|395:194,1,146.279995089478,2|0,1:2|0:0,0:0:0:0:
401,186,18145,1,10,0:0:0:0:
512,313,18280,2,0,B|472:305|472:305|450:315|450:315|410:307,1,97.5199967263185,2|0,1:2|0:0,0:0:0:0:
353,352,18550,1,2,1:2:0:0:
116,163,18686,6,0,P|148:152|168:148,1,50.88,10|0,0:0|0:0,0:0:0:0:
243,187,18956,5,2,1:2:0:0:
248,193,19023,1,8,0:0:0:0:
252,206,19091,1,8,0:0:0:0:
248,221,19158,1,8,0:0:0:0:
236,236,19226,1,8,0:0:0:0:
232,259,19294,1,8,0:0:0:0:
238,289,19361,1,8,0:0:0:0:
256,316,19429,1,8,0:0:0:0:
256,328,19496,6,0,P|227:322|203:319,1,54.0600003299561,8|8,0:0|0:0,0:0:0:0:
76,258,19631,1,8,0:0:0:0:
48,217,19699,1,8,0:0:0:0:
62,172,19767,2,0,P|91:166|115:163,1,54.0600003299561,8|8,0:0|0:0,0:0:0:0:
195,34,19902,2,0,P|221:39|248:43,1,54.0600003299561,8|8,0:0|0:0,0:0:0:0:
420,254,20037,6,0,B|365:161|503:169|434:60,1,193.979992008271,6|0,1:2|0:0,0:0:0:0:
448,61,20307,2,0,P|468:100|468:141,1,64.6599973360902,10|0,0:0|0:0,0:0:0:0:
342,294,20442,2,0,B|367:252|422:255|422:255|352:193|257:240,1,258.639989344361,2|2,1:2|1:2,0:0:0:0:
165,167,20848,5,10,0:0:0:0:
135,250,20983,1,2,0:0:0:0:
172,151,21118,5,2,1:2:0:0:
129,271,21253,2,0,B|100:281|100:281|51:234,1,64.6599973360902,0|0,1:2|0:0,0:0:0:0:
110,95,21388,6,0,B|92:76|59:78|59:78|229:52,1,193.979992008271,10|0,0:0|0:0,0:0:0:0:
320,34,21658,5,2,1:2:0:0:
338,54,21726,1,2,0:0:0:0:
309,98,21794,1,2,0:0:0:0:
331,134,21861,1,2,0:0:0:0:
322,146,21929,6,0,P|309:174|296:225,1,64.6599973360902,2|0,1:2|0:0,0:0:0:0:
243,259,22064,1,0,0:0:0:0:
371,312,22199,6,0,B|408:343|440:368|440:368|468:319|492:276,1,193.979992008271,2|0,1:2|0:0,0:0:0:0:
489,190,22469,5,10,0:0:0:0:
384,230,22604,1,2,1:2:0:0:
505,183,22740,5,2,0:0:0:0:
369,237,22875,1,2,1:2:0:0:
440,81,23010,5,10,0:0:0:0:
319,64,23145,1,2,0:0:0:0:
458,88,23280,6,0,P|438:120|424:173,1,64.6599973360902,2|0,0:0|0:0,0:0:0:0:
301,62,23415,2,0,P|321:94|335:147,1,64.6599973360902,2|0,1:2|0:0,0:0:0:0:
243,259,23550,6,0,B|197:248|197:248|186:253|186:253|124:238,1,98.5799960890505,10|0,0:0|0:0,0:0:0:0:
50,211,23821,6,0,B|33:199|11:200|11:200|97:182|97:182|160:238|93:320,1,258.639989344361,2|0,1:2|1:2,0:0:0:0:
26,354,24226,1,2,0:0:0:0:
263,364,24361,6,0,B|207:279|345:268|271:173,1,193.979992008271,2|0,1:2|0:0,0:0:0:0:
210,144,24631,5,10,0:0:0:0:
297,98,24767,1,2,1:2:0:0:
195,152,24902,5,2,0:0:0:0:
311,91,25037,1,2,1:2:0:0:
196,67,25172,5,10,0:0:0:0:
281,190,25307,1,2,0:0:0:0:
184,52,25442,5,2,0:0:0:0:
290,203,25577,1,2,1:2:0:0:
176,165,25713,6,0,B|146:147|146:147|98:164,1,64.6599973360902,10|0,0:0|0:0,0:0:0:0:
464,263,25983,6,0,B|419:223|370:249|370:249|333:305|269:286,1,193.979992008271,2|0,1:2|0:0,0:0:0:0:
232,337,26253,6,0,P|201:328|169:324,1,50.88,2|0,1:2|0:0,0:0:0:0:
72,286,26523,6,0,B|125:266|182:247|182:247|130:243|109:210,1,193.979992008271,2|0,1:2|0:0,0:0:0:0:
39,139,26794,2,0,P|108:135|116:62,1,129.31999467218,10|0,0:0|1:2,0:0:0:0:
73,36,27064,5,2,0:0:0:0:
194,134,27199,1,2,1:2:0:0:
231,71,27334,6,0,P|282:62|363:47,1,129.31999467218,10|0,0:0|0:0,0:0:0:0:
430,88,27537,1,0,0:0:0:0:
437,95,27604,6,0,B|391:142|391:142|409:242,1,129.31999467218,2|0,0:0|1:2,0:0:0:0:
485,282,27875,5,10,0:0:0:0:
370,334,28010,1,2,0:0:0:0:
365,339,28077,1,0,0:0:0:0:
361,344,28145,6,0,P|330:334|308:327,1,50.88,2|0,1:2|0:0,0:0:0:0:
259,272,28415,6,0,B|228:260|228:260|270:241,1,64.6599973360902,2|0,1:2|0:0,0:0:0:0:
272,241,28686,5,6,1:2:0:0:
256,164,28776,1,2,0:0:0:0:
183,150,28866,1,2,0:0:0:0:
176,154,28956,5,10,0:0:0:0:
126,95,29046,1,2,0:0:0:0:
162,29,29136,1,2,0:0:0:0:
168,23,29226,5,2,0:0:0:0:
227,73,29316,1,2,0:0:0:0:
293,37,29406,1,2,0:0:0:0:
299,30,29496,6,0,B|361:-11|410:47|410:47|373:109,1,186.559999430664,10|0,0:0|0:0,0:0:0:0:
368,176,29767,5,2,0:0:0:0:
387,250,29857,1,2,0:0:0:0:
406,324,29947,1,2,0:0:0:0:
409,332,30037,5,10,0:0:0:0:
329,329,30127,1,2,0:0:0:0:
254,320,30217,1,2,0:0:0:0:
247,314,30307,5,2,1:2:0:0:
172,323,30397,1,2,0:0:0:0:
92,326,30487,1,2,0:0:0:0:
86,320,30577,6,0,B|76:279|31:258|31:258|89:254|120:196,1,186.559999430664,2|0,1:2|0:0,0:0:0:0:
83,132,30848,6,0,B|183:98|172:211|274:184,1,186.559999430664,2|2,1:2|0:0,0:0:0:0:
309,134,31118,5,10,0:0:0:0:
335,61,31208,1,2,0:0:0:0:
279,11,31298,1,2,0:0:0:0:
271,19,31388,5,2,0:0:0:0:
210,58,31478,1,2,0:0:0:0:
149,16,31568,1,2,0:0:0:0:
140,10,31658,5,10,0:0:0:0:
76,50,31749,1,2,0:0:0:0:
113,113,31839,1,2,0:0:0:0:
119,120,31929,5,2,0:0:0:0:
162,179,32019,1,2,0:0:0:0:
122,241,32109,1,2,0:0:0:0:
116,247,32199,5,8,0:0:0:0:
87,316,32289,1,2,0:0:0:0:
156,344,32379,1,2,0:0:0:0:
167,341,32469,5,2,1:2:0:0:
224,295,32559,1,2,0:0:0:0:
299,304,32649,1,2,0:0:0:0:
308,307,32740,5,2,1:2:0:0:
3,345,33010,6,0,B|-41:259|87:268|23:158,1,173.840002652588,2|10,1:2|0:0,0:0:0:0:
102,15,33415,1,2,1:2:0:0:
0,105,33550,2,0,P|55:90|110:74,1,86.920001326294,2|0,0:0|1:2,0:0:0:0:
250,43,33821,5,10,0:0:0:0:
198,100,33956,1,2,0:0:0:0:
313,106,34091,5,2,0:0:0:0:
261,49,34226,1,2,1:2:0:0:
254,168,34361,5,10,0:0:0:0:
311,116,34496,1,2,0:0:0:0:
191,109,34631,5,2,1:2:0:0:
243,166,34766,1,2,0:0:0:0:
152,240,34902,6,0,P|178:232|210:227,1,43.460000663147,0|0,1:2|0:0,0:0:0:0:
512,165,35172,6,0,B|473:135|427:148|427:148|401:192|352:188,1,173.840002652588,2|10,1:2|0:0,0:0:0:0:
281,262,35577,1,2,1:2:0:0:
385,357,35713,2,0,P|330:342|275:326,1,86.920001326294,2|0,0:0|1:2,0:0:0:0:
145,352,35983,5,10,0:0:0:0:
197,295,36118,1,2,0:0:0:0:
82,289,36253,5,2,0:0:0:0:
134,346,36388,1,2,1:2:0:0:
141,227,36523,5,10,0:0:0:0:
84,279,36658,1,2,0:0:0:0:
204,286,36793,5,2,1:2:0:0:
152,229,36928,1,2,0:0:0:0:
243,155,37064,6,0,P|217:163|185:168,1,43.460000663147,2|0,1:2|0:0,0:0:0:0:
252,138,37334,6,0,B|296:177|339:134|343:84|296:52|231:53|176:63|145:122,1,296.799990942383,6|2,1:2|0:0,0:0:0:0:
474,252,39496,6,0,B|425:240|375:236|375:236|419:221|448:181,1,173.840002652588,6|10,1:2|0:0,0:0:0:0:
336,81,39902,2,0,P|318:140|283:262,1,173.840002652588,2|2,1:2|1:2,0:0:0:0:
178,253,40307,5,10,0:0:0:0:
236,313,40442,1,2,0:0:0:0:
91,288,40577,5,2,1:2:0:0:
166,266,40713,1,2,0:0:0:0:
41,177,40848,5,10,0:0:0:0:
139,96,40983,2,0,P|125:147|108:211,1,86.920001326294,2|0,0:0|1:2,0:0:0:0:
221,57,41253,5,2,1:2:0:0:
233,49,41388,1,10,0:0:0:0:
247,41,41523,1,2,0:0:0:0:
422,67,41658,6,0,B|379:35|338:60|338:60|322:116|264:120,1,173.840002652588,2|8,1:2|0:0,0:0:0:0:
246,246,42064,2,0,P|297:194|363:224,1,130.380001989441,2|0,1:2|0:0,0:0:0:0:
354,215,42334,1,2,1:2:0:0:
422,67,42469,2,0,P|433:122|444:174,1,86.920001326294,10|0,0:0|0:0,0:0:0:0:
493,203,42672,1,0,0:0:0:0:
500,210,42740,6,0,P|489:265|478:317,1,86.920001326294,2|2,1:2|0:0,0:0:0:0:
347,378,43010,1,10,0:0:0:0:
385,312,43145,2,0,B|344:293|344:293|304:316,1,86.920001326294,2|0,0:0|1:2,0:0:0:0:
187,372,43415,1,2,1:2:0:0:
121,330,43550,2,0,P|137:263|152:196,1,130.380001989441,10|0,0:0|0:0,0:0:0:0:
161,182,43821,6,0,B|258:141|226:262|323:229,1,173.840002652588,2|10,1:2|0:0,0:0:0:0:
396,144,44226,2,0,B|386:120|376:98|376:98|386:49|450:29|508:85,1,173.840002652588,2|2,1:2|1:2,0:0:0:0:
389,158,44631,2,0,B|353:150|353:150|334:156|334:156|286:146,1,86.920001326294,10|0,0:0|0:0,0:0:0:0:
200,36,44902,1,2,1:2:0:0:
200,36,45037,6,0,P|190:67|184:88,1,43.460000663147
45,171,45172,2,0,B|74:136|102:101|102:101|130:134|173:175,1,173.840002652588,10|0,0:0|1:2,0:0:0:0:
246,252,45577,5,2,1:2:0:0:
256,263,45713,1,10,0:0:0:0:
265,273,45848,1,2,0:0:0:0:
102,355,45983,6,0,B|82:339|51:340|51:340|207:309,1,195.039993452637,6|8,1:2|0:0,0:0:0:0:
453,352,46388,2,0,B|381:363|342:304|342:304|391:313|433:267,1,195.039993452637,2|2,1:2|1:2,0:0:0:0:
465,241,46794,5,10,0:0:0:0:
390,140,46929,1,2,0:0:0:0:
441,77,47064,5,2,1:2:0:0:
379,150,47199,1,2,0:0:0:0:
247,67,47334,5,10,0:0:0:0:
339,0,47469,2,0,P|325:52|309:114,1,97.5199967263185,2|0,1:2|0:0,0:0:0:0:
248,232,47740,5,2,1:2:0:0:
191,168,47875,2,0,P|138:153|82:218,1,146.279995089478,8|0,0:0|0:0,0:0:0:0:
75,227,48145,6,0,P|88:279|105:341,1,97.5199967263185,2|0,1:2|0:0,0:0:0:0:
191,376,48415,1,10,0:0:0:0:
236,310,48550,2,0,B|272:303|272:303|296:312|296:312|331:304,1,97.5199967263185,2|0,1:2|0:0,0:0:0:0:
481,260,48821,1,2,1:2:0:0:
436,204,48956,2,0,B|404:185|394:133|394:133|387:179|348:195,1,146.279995089478,10|0,0:0|0:0,0:0:0:0:
356,189,49226,5,2,1:2:0:0:
305,141,49361,1,2,0:0:0:0:
255,90,49496,1,8,0:0:0:0:
228,225,49631,2,0,P|178:213|129:201,1,97.5199967263185,2|0,0:0|1:2,0:0:0:0:
14,91,49902,5,2,1:2:0:0:
114,29,50037,1,10,0:0:0:0:
184,133,50172,1,2,0:0:0:0:
0,186,50307,6,0,B|105:137|75:290|198:231,1,195.039993452637,2|10,1:2|0:0,0:0:0:0:
321,384,50713,2,0,P|331:316|345:222,1,146.279995089478,2|0,1:2|0:0,0:0:0:0:
342,228,50983,1,2,1:2:0:0:
221,321,51118,5,10,0:0:0:0:
285,291,51253,1,2,0:0:0:0:
405,343,51388,5,2,1:2:0:0:
299,297,51523,1,2,0:0:0:0:
434,270,51658,5,10,0:0:0:0:
342,228,51794,2,0,P|328:171|314:113,1,97.5199967263185,2|0,0:0|1:2,0:0:0:0:
193,57,52064,5,0,1:2:0:0:
78,105,52199,2,0,P|135:81|196:148,1,146.279995089478,10|0,0:0|0:0,0:0:0:0:
198,144,52469,6,0,B|169:167|141:188|141:188|161:222|197:279,1,146.279995089478,2|0,1:2|0:0,0:0:0:0:
188,256,52740,1,10,0:0:0:0:
34,363,52875,2,0,B|86:350|86:350|123:366|123:366|200:350,1,146.279995089478,2|0,1:2|0:0,0:0:0:0:
184,352,53145,1,2,1:2:0:0:
363,384,53280,6,0,P|369:354|375:330,1,50.88,14|0,0:0|0:0,0:0:0:0:
445,140,53550,6,0,B|494:211|400:222|441:291,1,161.119998033203,10|0,0:0|0:0,0:0:0:0:
454,296,53731,6,0,B|408:222|509:217|452:133,1,161.119998033203,10|0,0:0|0:0,0:0:0:0:
466,143,53911,6,0,B|515:214|421:225|462:294,1,161.119998033203,10|0,0:0|0:0,0:0:0:0:
475,299,54092,6,0,B|429:225|530:220|473:136,1,161.119998033203,10|0,0:0|0:0,0:0:0:0:
489,73,54271,5,6,1:2:0:0:
480,63,54631,6,0,P|443:47|395:44,1,81.6200024908448,6|0,1:2|0:0,0:0:0:0:
352,96,55172,6,0,B|256:74|256:74|283:95|289:123,1,155.819995244751,2|0,0:0|0:0,0:0:0:0:
227,213,55713,2,0,P|257:168|335:185,1,133.559995924072,2|2,1:2|0:0,0:0:0:0:
371,292,56253,2,0,P|340:277|307:273,2,66.7799979620362,2|2|2,0:0|0:0|0:0,0:0:0:0:
166,343,56794,5,2,1:2:0:0:
112,300,56996,1,2,0:0:0:0:
136,236,57199,1,2,0:0:0:0:
142,228,57334,2,0,P|150:188|160:147,2,66.7799979620362,2|2|2,0:0|0:0|0:0,0:0:0:0:
257,217,57875,5,2,1:2:0:0:
311,174,58077,1,2,0:0:0:0:
287,110,58280,1,2,0:0:0:0:
281,102,58415,2,0,P|273:62|263:21,1,66.7799979620362,2|2,0:0|0:0,0:0:0:0:
496,232,58956,6,0,B|472:207|442:173|442:173|416:205|385:245,1,155.819995244751,2|0,1:2|0:0,0:0:0:0:
435,289,59496,2,0,B|347:248|371:347|283:313,1,155.819995244751,2|0,0:0|0:0,0:0:0:0:
208,316,60037,2,0,P|244:312|265:216,1,133.559995924072,2|2,1:2|0:0,0:0:0:0:
147,181,60577,2,0,P|175:166|219:161,2,66.7799979620362,2|2|2,0:0|0:0|0:0,0:0:0:0:
134,62,61118,5,2,1:2:0:0:
66,39,61321,1,2,0:0:0:0:
18,89,61523,1,2,0:0:0:0:
12,96,61658,2,0,P|24:150|28:169,2,66.7799979620362,2|2|2,0:0|0:0|0:0,0:0:0:0:
93,217,62199,5,2,1:2:0:0:
161,194,62402,1,2,0:0:0:0:
209,244,62604,1,2,0:0:0:0:
215,251,62739,2,0,P|203:305|199:324,1,66.7799979620362,2|2,0:0|0:0,0:0:0:0:
512,152,63280,6,0,P|479:144|442:136,1,59.3599981884766,4|2,1:2|0:0,0:0:0:0:
375,165,63550,1,2,0:0:0:0:
367,174,63640,2,0,L|338:181,1,29.6799990942383,2|2,0:0|0:0,0:0:0:0:
271,138,63821,2,0,P|268:99|246:60,1,59.3599981884766,2|2,1:2|0:0,0:0:0:0:
185,34,64091,1,0,0:0:0:0:
176,29,64181,2,0,P|144:42|131:56,1,29.6799990942383,2|0,0:0|0:0,0:0:0:0:
54,99,64361,5,4,1:2:0:0:
45,115,64451,2,0,P|54:144|60:169,1,43.8133315951335,2|2,0:0|0:0,0:0:0:0:
133,182,64631,1,2,0:0:0:0:
142,198,64721,2,0,P|133:227|127:252,1,43.8133315951335,2|2,0:0|0:0,0:0:0:0:
78,303,64902,1,0,1:2:0:0:
67,315,64992,2,0,P|86:335|114:341,1,43.8133315951335,2|2,0:0|0:0,0:0:0:0:
176,306,65172,1,2,0:0:0:0:
188,293,65262,2,0,P|223:282|261:278,1,43.8133315951335,2|0,0:0|0:0,0:0:0:0:
315,378,65442,6,0,P|312:325|358:295,1,101.760002484375,4|2,1:2|0:0,0:0:0:0:
425,266,65713,1,2,0:0:0:0:
442,248,65803,2,0,P|435:210|417:169,1,50.8800012421875,2|0,0:0|0:0,0:0:0:0:
345,169,65983,1,2,1:2:0:0:
332,188,66073,2,0,P|291:199|255:183,1,50.8800012421875,2|2,0:0|0:0,0:0:0:0:
222,135,66253,1,2,0:0:0:0:
205,117,66343,2,0,P|212:79|230:38,1,50.8800012421875,2|2,0:0|0:0,0:0:0:0:
323,19,66523,6,0,P|370:67|426:45,1,115.893335101725,6|2,1:2|0:0,0:0:0:0:
487,102,66794,1,2,0:0:0:0:
506,126,66884,2,0,P|494:156|484:198,1,57.9466675508626,2|2,0:0|0:0,0:0:0:0:
477,306,67064,2,0,P|428:268|330:273,2,130.380001989441,2|2|2,1:2|0:0|0:0,0:0:0:0:
282,381,67604,6,0,P|276:311|254:254,1,115.893335101725,4|2,1:2|0:0,0:0:0:0:
228,173,67875,1,2,0:0:0:0:
201,161,67965,2,0,P|170:162|141:194,1,57.9466675508626,2|2,0:0|0:0,0:0:0:0:
156,261,68145,1,6,1:2:0:0:
178,283,68235,2,0,P|169:318|165:363,1,57.9466675508626,2|2,0:0|0:0,0:0:0:0:
93,372,68415,1,2,0:0:0:0:
61,384,68505,2,0,P|30:383|3:349,1,57.9466675508626,2|2,0:0|0:0,0:0:0:0:
41,263,68686,5,6,1:2:0:0:
65,228,68776,2,0,P|51:182|51:132,1,65.013331150879,2|2,0:0|0:0,0:0:0:0:
73,61,68956,1,2,0:0:0:0:
95,33,69046,2,0,P|131:20|205:37,1,65.013331150879,2|2,0:0|0:0,0:0:0:0:
187,123,69226,2,0,P|254:134|282:74,1,130.026662301758,6|2,1:2|0:0,0:0:0:0:
344,5,69496,1,2,0:0:0:0:
374,23,69586,2,0,P|390:54|405:103,1,65.013331150879,2|0,0:0|0:0,0:0:0:0:
472,176,69767,5,4,1:2:0:0:
463,194,69902,1,0,0:0:0:0:
453,164,70037,1,2,1:2:0:0:
470,220,70172,1,0,0:0:0:0:
497,103,70307,1,2,1:2:0:0:
436,284,70442,1,0,0:0:0:0:
361,100,70577,1,2,1:2:0:0:
493,329,70713,1,0,0:0:0:0:
346,88,70848,5,10,0:2:0:0:
502,341,70983,1,8,0:0:0:0:
493,88,71118,1,10,0:2:0:0:
384,348,71253,1,8,0:0:0:0:
502,75,71388,5,8,0:0:0:0:
328,79,71960,6,0,P|286:58|184:53,1,133.559995924072,2|0,1:2|0:0,0:0:0:0:
91,158,72500,2,0,P|118:126|169:131,1,89.0399972827149,10|0,0:0|0:0,0:0:0:0:
162,126,72905,1,0,0:0:0:0:
247,312,73041,6,0,P|219:281|246:232,2,89.0399972827149,2|0|8,1:2|1:2|0:0,0:0:0:0:
384,357,73716,5,2,0:0:0:0:
389,360,73851,1,2,0:0:0:0:
394,363,73987,1,2,0:0:0:0:
477,239,74122,6,0,P|446:283|428:362,1,133.559995924072,2|2,1:2|0:0,0:0:0:0:
331,225,74662,2,0,P|357:230|394:177,1,89.0399972827149,10|0,0:0|0:0,0:0:0:0:
391,183,75068,1,2,0:0:0:0:
505,51,75203,6,0,P|459:43|405:33,1,89.0399972827149,2|0,1:2|1:2,0:0:0:0:
278,113,75608,1,2,0:0:0:0:
333,64,75743,2,0,P|294:75|248:1,1,133.559995924072,8|0,0:0|0:0,0:0:0:0:
113,151,76284,6,0,B|230:115|183:236|317:195,1,197.159992178101,2|0,1:2|0:0,0:0:0:0:
508,339,76824,2,0,B|432:311|330:310|330:310|413:286|417:181,1,324.360001979736,10|0,0:0|0:0,0:0:0:0:
256,277,77365,6,0,P|234:315|228:359,2,89.0399972827149,2|0|8,1:2|1:2|0:0,0:0:0:0:
115,318,78041,5,2,0:0:0:0:
111,322,78176,1,2,0:0:0:0:
107,327,78311,1,2,0:0:0:0:
29,276,78446,6,0,P|60:289|123:212,1,133.559995924072,2|2,1:2|1:2,0:0:0:0:
16,133,78987,2,0,P|57:124|109:113,1,89.0399972827149,10|0,0:0|0:0,0:0:0:0:
103,114,79392,1,2,0:0:0:0:
255,32,79527,6,0,P|234:78|221:163,1,133.559995924072,2|2,1:2|1:2,0:0:0:0:
228,167,80000,1,0,1:2:0:0:
233,172,80068,1,10,0:0:0:0:
480,315,80608,6,0,P|437:326|387:250,1,133.559995924072,6|0,1:2|0:0,0:0:0:0:
500,226,81149,2,0,P|491:194|475:128,1,89.0399972827149,10|0,0:0|0:0,0:0:0:0:
483,136,81554,1,0,0:0:0:0:
312,63,81689,6,0,P|344:35|401:51,2,89.0399972827149,2|0|8,1:2|1:2|0:0,0:0:0:0:
272,183,82365,5,2,0:0:0:0:
268,187,82500,1,2,0:0:0:0:
264,192,82635,1,2,0:0:0:0:
166,136,82770,6,0,P|216:143|318:157,1,133.559995924072,2|2,1:2|0:0,0:0:0:0:
175,230,83311,2,0,P|196:265|206:321,1,89.0399972827149,10|0,0:0|0:0,0:0:0:0:
208,317,83716,1,2,0:0:0:0:
3,192,83851,5,2,1:2:0:0:
288,363,84122,1,2,1:2:0:0:
16,201,84392,1,10,0:0:0:0:
496,113,84932,6,0,B|403:69|403:201|290:146,1,197.159992178101,2|2,1:2|0:0,0:0:0:0:
176,55,85473,2,0,B|157:6|209:-29|281:-11|297:63|254:125|215:83|173:172|237:243,1,324.360001979736,10|2,0:0|0:0,0:0:0:0:
14,278,86014,6,0,P|52:260|110:254,2,89.0399972827149,2|0|8,1:2|1:2|0:0,0:0:0:0:
179,341,86689,5,2,0:0:0:0:
184,346,86824,1,2,0:0:0:0:
189,350,86959,1,2,0:0:0:0:
295,331,87095,6,0,P|257:341|205:269,1,133.559995924072,2|2,1:2|1:2,0:0:0:0:
284,142,87635,2,0,P|292:188|301:249,1,89.0399972827149,10|0,0:0|0:0,0:0:0:0:
295,236,88041,1,2,0:0:0:0:
512,142,88176,6,0,B|438:120|454:188|382:173,1,133.559995924072,2|2,1:2|1:2,0:0:0:0:
382,172,88649,1,0,1:2:0:0:
377,168,88716,1,10,0:0:0:0:
161,353,89257,6,0,B|206:337|284:327|284:327|233:316|203:265,1,216.240001319824,6|2,1:2|0:0,0:0:0:0:
124,173,89662,1,2,0:0:0:0:
79,269,89797,2,0,P|63:223|49:177,1,86.920001326294,10|0,0:0|0:0,0:0:0:0:
200,53,90068,5,2,0:0:0:0:
248,105,90203,1,2,0:0:0:0:
125,84,90338,5,2,1:2:0:0:
186,51,90473,1,2,0:0:0:0:
55,37,90608,5,2,0:0:0:0:
111,81,90743,1,2,0:0:0:0:
0,179,90878,5,10,0:0:0:0:
64,153,91014,1,2,0:0:0:0:
113,202,91149,2,0,P|100:246|88:299,1,86.920001326294,2|0,0:0|0:0,0:0:0:0:
210,354,91419,6,0,B|254:379|296:328|266:315|306:265|353:282,1,173.840002652588,0|2,1:2|0:0,0:0:0:0:
452,137,91824,1,2,0:0:0:0:
474,213,91959,2,0,B|428:221|428:221|381:175,1,86.920001326294,10|0,0:0|0:0,0:0:0:0:
329,32,92230,5,2,0:0:0:0:
260,68,92365,1,2,0:0:0:0:
389,83,92500,5,2,1:2:0:0:
246,65,92635,1,2,0:0:0:0:
317,151,92770,5,2,0:0:0:0:
253,192,92905,1,2,0:0:0:0:
177,140,93041,5,10,0:0:0:0:
267,200,93176,1,2,0:0:0:0:
155,314,93311,2,0,P|169:265|183:218,1,86.920001326294,2|0,0:0|0:0,0:0:0:0:
54,83,93581,5,0,1:2:0:0:
41,69,93851,2,0,P|87:70|111:32,1,86.920001326294,2|2,0:0|0:0,0:0:0:0:
177,140,94122,2,0,P|231:121|308:102,1,130.380001989441,10|0,0:0|0:0,0:0:0:0:
313,109,94392,5,2,0:0:0:0:
358,160,94527,1,2,0:0:0:0:
243,202,94662,2,0,P|284:214|325:229,1,86.920001326294,2|2,1:2|0:0,0:0:0:0:
393,351,94932,5,2,0:0:0:0:
457,314,95068,1,2,0:0:0:0:
307,310,95203,5,10,0:0:0:0:
279,381,95338,1,2,0:0:0:0:
313,300,95473,5,0,0:0:0:0:
377,358,95608,1,2,0:0:0:0:
222,319,95743,6,0,P|166:307|72:288,1,130.380001989441,2|0,1:2|0:0,0:0:0:0:
85,281,96014,2,0,B|106:259|132:235|132:235|107:210|69:166,1,130.380001989441,2|0,0:0|0:0,0:0:0:0:
24,155,96284,5,10,0:0:0:0:
82,104,96419,1,2,0:0:0:0:
152,151,96554,1,2,0:0:0:0:
219,88,96689,1,2,0:0:0:0:
314,187,96824,6,0,B|285:180|259:175|259:175|222:128|250:76|317:80,1,173.840002652588,2|0,1:2|0:0,0:0:0:0:
326,179,97230,1,2,0:0:0:0:
472,92,97365,2,0,B|443:98|443:98|426:116|426:116|390:125,1,86.920001326294,10|2,0:0|0:0,0:0:0:0:
437,293,97635,2,0,P|396:273|398:227,1,86.920001326294,2|0,0:0|0:0,0:0:0:0:
472,92,97905,6,0,B|435:85|376:75|376:75|417:62|436:30,1,173.840002652588,4|2,1:2|0:0,0:0:0:0:
296,5,98311,1,2,0:0:0:0:
265,135,98446,2,0,P|251:90|237:41,1,86.920001326294,10|0,0:0|0:0,0:0:0:0:
116,17,98716,5,2,0:0:0:0:
56,157,98851,1,2,0:0:0:0:
111,114,98987,5,2,1:2:0:0:
60,60,99122,1,2,0:0:0:0:
47,167,99257,5,2,0:0:0:0:
121,107,99392,1,2,0:0:0:0:
174,160,99527,5,10,0:0:0:0:
241,132,99662,1,2,0:0:0:0:
346,223,99797,2,0,B|308:198|308:198|247:220,1,86.920001326294,2|0,0:0|0:0,0:0:0:0:
136,363,100068,6,0,B|177:358|222:352|222:352|250:304|196:266,1,173.840002652588,0|2,1:2|0:0,0:0:0:0:
21,217,100473,1,2,0:0:0:0:
80,273,100608,2,0,B|106:237|106:237|90:184,1,86.920001326294,10|0,0:0|0:0,0:0:0:0:
2,73,100878,6,0,P|47:52|92:50,1,86.920001326294,2|2,0:0|0:0,0:0:0:0:
92,57,101081,1,0,0:0:0:0:
98,62,101149,5,2,1:2:0:0:
152,113,101284,1,2,0:0:0:0:
271,65,101419,5,2,0:0:0:0:
196,46,101554,1,2,0:0:0:0:
284,70,101689,5,8,0:0:0:0:
231,142,101824,1,2,0:0:0:0:
334,235,101959,2,0,P|323:185|311:133,1,86.920001326294,2|0,0:0|0:0,0:0:0:0:
453,54,102230,5,0,1:2:0:0:
467,40,102500,2,0,P|457:82|448:124,1,86.920001326294,2|0,0:0|0:0,0:0:0:0:
402,254,102770,5,10,0:0:0:0:
451,205,102905,1,2,0:0:0:0:
384,187,103041,5,2,0:0:0:0:
334,235,103176,1,2,0:0:0:0:
487,309,103311,6,0,B|451:270|405:281|405:281|381:329|318:322,1,173.840002652588,2|2,1:2|0:0,0:0:0:0:
182,274,103716,2,0,P|229:273|249:234,1,86.920001326294,2|10,0:0|0:0,0:0:0:0:
217,68,103987,5,2,0:0:0:0:
171,125,104122,1,2,0:0:0:0:
226,57,104257,1,2,0:0:0:0:
0,188,104392,6,0,B|65:91|174:125|174:125|96:143|84:244,1,324.360001979736,2|0,1:2|0:0,0:0:0:0:
81,326,104932,6,0,B|12:335|-1:232|72:203|172:258|122:299|191:347|274:291,1,324.360001979736,10|0,0:0|0:0,0:0:0:0:
320,384,105473,6,0,B|219:248|480:234|351:63,1,324.360001979736,2|2,1:2|0:0,0:0:0:0:
377,77,106014,6,0,P|392:101|403:150,1,69.9600021350098,10|0,0:0|0:0,0:0:0:0:
282,187,106554,6,0,B|240:161|196:176|196:176|175:232|112:235,1,173.840002652588,4|0,1:2|0:0,0:0:0:0:
129,233,106959,2,0,P|115:256|107:285,1,43.460000663147
0,131,107095,2,0,B|42:135|97:146|97:146|63:103|67:63,1,173.840002652588,10|0,0:0|0:0,0:0:0:0:
171,32,107500,2,0,P|165:57|159:85,2,43.460000663147,0|0|0,0:0|0:0|1:2,0:0:0:0:
282,187,107770,5,0,0:0:0:0:
472,106,107905,2,0,P|399:119|328:131,1,130.380001989441,2|0,0:0|0:0,0:0:0:0:
330,123,108176,2,0,P|306:89|323:39,1,86.920001326294,10|0,0:0|0:0,0:0:0:0:
448,195,108446,2,0,P|436:237|420:293,1,86.920001326294,2|0,0:0|0:0,0:0:0:0:
366,327,108649,1,0,0:0:0:0:
358,333,108716,6,0,P|314:289|241:322,1,130.380001989441,0|0,1:2|0:0,0:0:0:0:
250,314,108987,2,0,P|199:304|146:297,1,86.920001326294,2|0,0:0|0:0,0:0:0:0:
282,187,109257,2,0,P|231:197|178:204,1,86.920001326294,10|0,0:0|0:0,0:0:0:0:
185,199,109459,1,0,0:0:0:0:
177,195,109527,1,2,0:0:0:0:
82,64,109662,6,0,B|111:97|111:97|91:152,1,86.920001326294,2|0,0:0|1:2,0:0:0:0:
7,234,109932,2,0,B|49:208|93:223|93:223|114:279|177:282,1,173.840002652588,2|0,0:0|0:0,0:0:0:0:
269,384,110338,2,0,P|258:328|247:272,1,86.920001326294,10|0,0:0|0:0,0:0:0:0:
392,242,110608,2,0,P|344:251|318:216,1,86.920001326294,2|0,0:0|0:0,0:0:0:0:
316,211,110811,1,0,0:0:0:0:
319,202,110878,6,0,B|269:117|394:127|327:27,1,173.840002652588,0|0,1:2|0:0,0:0:0:0:
326,37,111284,2,0,P|301:32|271:46,1,43.460000663147
201,202,111419,2,0,B|180:182|155:163|155:163|161:83|263:110,1,173.840002652588,10|0,0:0|0:0,0:0:0:0:
319,202,111824,2,0,P|306:234|300:256,2,43.460000663147,0|0|0,0:0|0:0|1:2,0:0:0:0:
337,379,112095,5,0,0:0:0:0:
492,335,112230,2,0,P|432:354|386:308,1,130.380001989441,2|0,0:0|0:0,0:0:0:0:
390,303,112500,2,0,P|400:263|413:219,1,86.920001326294,10|0,0:0|0:0,0:0:0:0:
512,158,112770,2,0,P|501:118|488:74,1,86.920001326294,2|0,0:0|0:0,0:0:0:0:
479,68,112974,1,0,0:0:0:0:
469,64,113041,6,0,B|425:80|425:80|412:108|412:108|335:139,1,130.380001989441,0|0,1:2|0:0,0:0:0:0:
321,227,113311,2,0,P|280:200|234:209,1,86.920001326294,2|0,0:0|0:0,0:0:0:0:
128,346,113581,2,0,P|158:311|151:262,1,86.920001326294,10|0,0:0|0:0,0:0:0:0:
148,262,113784,1,0,0:0:0:0:
144,254,113851,1,0,0:0:0:0:
143,90,113987,6,0,P|155:131|166:173,1,86.920001326294,2|0,0:0|1:2,0:0:0:0:
0,210,114257,2,0,B|42:184|86:199|86:199|107:255|170:258,1,173.840002652588,2|0,0:0|0:0,0:0:0:0:
254,352,114662,2,0,B|234:314|234:314|257:269,1,86.920001326294,10|0,0:0|0:0,0:0:0:0:
406,241,114932,2,0,B|384:247|350:260|350:260|333:224|306:172,1,130.380001989441,2|0,0:0|0:0,0:0:0:0:
313,187,115203,6,0,B|277:180|217:170|217:170|261:161|285:121,1,173.840002652588,6|0,1:2|0:0,0:0:0:0:
287,119,115608,2,0,P|288:92|270:56,1,43.460000663147
32,116,115743,2,0,P|113:101|208:85,1,173.840002652588,10|0,0:0|0:0,0:0:0:0:
282,0,116149,2,0,P|303:4|323:11,2,43.460000663147,0|0|0,0:0|0:0|1:2,0:0:0:0:
400,108,116419,5,0,0:0:0:0:
313,187,116554,2,0,P|379:182|411:236,1,130.380001989441,2|0,0:0|0:0,0:0:0:0:
409,240,116824,2,0,P|397:282|381:338,1,86.920001326294,10|0,0:0|0:0,0:0:0:0:
276,292,117095,2,0,B|243:305|243:305|231:324|231:324|191:337,1,86.920001326294,2|0,0:0|0:0,0:0:0:0:
190,333,117297,1,0,0:0:0:0:
180,328,117365,6,0,B|138:281|138:281|186:226,1,130.380001989441,0|0,1:2|0:0,0:0:0:0:
194,221,117635,2,0,P|219:175|194:140,1,86.920001326294,2|0,0:0|0:0,0:0:0:0:
21,137,117905,2,0,P|66:122|109:110,1,86.920001326294,10|0,0:0|0:0,0:0:0:0:
115,103,118108,1,0,0:0:0:0:
123,98,118176,1,0,0:0:0:0:
268,9,118311,6,0,B|240:48|240:48|260:94,1,86.920001326294,2|0,0:0|1:2,0:0:0:0:
413,106,118581,2,0,B|319:86|350:175|247:161,1,173.840002652588,2|0,0:0|0:0,0:0:0:0:
252,329,118987,2,0,P|286:294|272:255,1,86.920001326294,10|0,0:0|0:0,0:0:0:0:
137,140,119257,2,0,P|152:185|180:277,1,130.380001989441,2|0,0:0|0:0,0:0:0:0:
174,272,119527,6,0,B|132:246|88:261|88:261|67:317|4:320,1,173.840002652588,6|0,1:2|0:0,0:0:0:0:
19,314,119932,2,0,P|15:287|12:262,1,43.460000663147
0,104,120068,2,0,B|35:116|53:160|53:160|56:98|107:63,1,173.840002652588,10|0,0:0|0:0,0:0:0:0:
212,50,120473,2,0,P|206:75|200:103,2,43.460000663147,0|0|0,0:0|0:0|1:2,0:0:0:0:
302,186,120743,5,0,0:0:0:0:
471,133,120878,2,0,L|342:110,1,130.380001989441,2|0,0:0|0:0,0:0:0:0:
328,113,121149,2,0,P|299:147|315:203,1,86.920001326294,10|0,0:0|0:0,0:0:0:0:
409,225,121419,2,0,P|421:267|437:323,1,86.920001326294,2|0,0:0|0:0,0:0:0:0:
428,322,121622,1,0,0:0:0:0:
422,330,121689,6,0,P|361:345|317:301,1,130.380001989441,0|0,1:2|0:0,0:0:0:0:
310,292,121959,2,0,P|259:282|206:275,1,86.920001326294,2|0,0:0|0:0,0:0:0:0:
194,107,122230,2,0,B|222:144|222:144|199:199,1,86.920001326294,10|0,0:0|0:0,0:0:0:0:
199,188,122432,1,0,0:0:0:0:
193,194,122500,1,2,0:0:0:0:
29,118,122635,6,0,P|77:118|97:81,1,86.920001326294,2|0,0:0|1:2,0:0:0:0:
193,24,122905,2,0,B|283:22|250:109|358:106,1,173.840002652588,2|0,0:0|0:0,0:0:0:0:
453,56,123311,2,0,P|466:102|476:153,1,86.920001326294,10|0,0:0|0:0,0:0:0:0:
370,180,123581,2,0,P|357:226|347:277,1,86.920001326294,2|0,0:0|0:0,0:0:0:0:
225,322,123851,6,0,B|184:333|184:333|166:356|166:356|105:375,1,110.239999327148,2|2,0:0|0:0,0:0:0:0:
182,253,124257,2,0,B|145:241|145:241|127:218|127:218|86:207,1,110.239999327148,2|0,0:0|0:0,0:0:0:0:
198,245,124662,2,0,B|236:210|236:210|212:151,1,110.239999327148,2|2,0:0|0:0,0:0:0:0:
144,67,125068,5,2,0:0:0:0:
100,124,125203,1,0,0:0:0:0:
206,142,125338,5,2,0:0:0:0:
184,78,125439,1,0,0:0:0:0:
189,72,125473,6,0,P|217:62|246:55,1,55.1199996635742,2|0,0:0|0:0,0:0:0:0:
280,134,125743,2,0,P|306:140|332:150,1,55.1199996635742
419,32,126014,2,0,B|397:53|377:72|377:72|392:97|413:131,1,110.239999327148,2|2,0:0|0:0,0:0:0:0:
503,159,126419,5,2,0:0:0:0:
480,204,126554,1,0,0:0:0:0:
490,219,126689,1,0,0:0:0:0:
397,195,126824,2,0,B|356:206|356:206|338:229|338:229|277:248,1,110.239999327148,2|2,0:0|0:0,0:0:0:0:
217,361,127230,5,2,0:0:0:0:
223,291,127365,1,0,0:0:0:0:
167,234,127500,1,2,0:0:0:0:
181,158,127635,1,2,0:0:0:0:
170,143,127770,2,0,B|133:131|133:131|115:108|115:108|74:97,1,110.239999327148,2|2,0:0|0:0,0:0:0:0:
246,7,128176,6,0,B|229:26|211:45|211:45|227:70|251:103,1,110.239999327148,2|2,0:0|0:0,0:0:0:0:
279,198,128581,2,0,B|316:186|316:186|334:163|334:163|375:152,1,110.239999327148,2|0,0:0|0:0,0:0:0:0:
367,48,128987,2,0,B|408:59|408:59|426:82|426:82|463:94,1,110.239999327148,2|2,0:0|0:0,0:0:0:0:
487,198,129392,5,2,0:0:0:0:
440,289,129527,2,0,P|426:256|416:236,1,55.1199996635742
328,351,129797,2,0,P|342:318|352:298,1,55.1199996635742,2|2,0:0|0:0,0:0:0:0:
209,314,130068,2,0,P|235:304|260:292,1,55.1199996635742,2|0,0:0|0:0,0:0:0:0:
176,137,130338,6,0,B|214:172|214:172|191:226,1,110.239999327148,2|2,0:0|0:0,0:0:0:0:
176,120,130743,2,0,B|213:108|213:108|231:85|231:85|272:74,1,110.239999327148,2|0,0:0|0:0,0:0:0:0:
299,161,131149,2,0,B|340:172|340:172|358:195|358:195|395:207,1,110.239999327148,2|2,0:0|0:0,0:0:0:0:
493,315,131554,5,2,0:0:0:0:
425,337,131689,1,0,0:0:0:0:
356,298,131824,1,2,0:0:0:0:
283,346,131959,1,2,0:0:0:0:
271,339,132095,2,0,B|282:286|282:286|220:263,1,110.239999327148,2|0,0:0|0:0,0:0:0:0:
133,365,132500,6,0,B|80:281|207:283|133:185,1,173.840002652588,6|8,1:2|0:0,0:0:0:0:
16,162,132905,2,0,P|51:219|151:198,1,173.840002652588,2|2,1:2|1:2,0:0:0:0:
180,89,133311,5,10,0:0:0:0:
119,128,133446,1,2,0:0:0:0:
222,176,133581,5,2,1:2:0:0:
192,106,133716,1,2,0:0:0:0:
145,204,133851,5,10,0:0:0:0:
235,190,133987,2,0,P|280:201|329:211,1,86.920001326294,2|0,1:2|0:0,0:0:0:0:
456,268,134257,5,2,1:2:0:0:
464,275,134324,1,0,1:0:0:0:
464,275,134392,2,0,P|415:256|361:324,1,130.380001989441,10|0,0:0|0:0,0:0:0:0:
357,318,134662,5,2,1:2:0:0:
247,358,134797,1,2,0:0:0:0:
176,318,134932,5,10,0:0:0:0:
47,343,135068,2,0,B|81:353|81:353|93:370|93:370|140:385,1,86.920001326294,2|0,1:2|0:0,0:0:0:0:
236,370,135338,1,2,1:2:0:0:
180,302,135473,5,10,0:0:0:0:
230,182,135608,1,2,0:0:0:0:
262,251,135743,5,2,1:2:0:0:
152,182,135878,1,2,0:0:0:0:
274,117,136014,5,10,0:0:0:0:
136,189,136149,2,0,P|93:180|51:169,1,86.920001326294,2|0,0:0|1:2,0:0:0:0:
118,49,136419,5,2,1:2:0:0:
128,41,136554,1,10,0:0:0:0:
136,34,136689,1,2,0:0:0:0:
301,20,136824,6,0,B|242:3|217:46|217:46|207:99|150:119,1,173.840002652588,2|8,1:2|0:0,0:0:0:0:
270,255,137230,2,0,B|249:235|217:205|217:205|256:166|295:126,1,173.840002652588,2|2,1:2|1:2,0:0:0:0:
398,84,137635,5,10,0:0:0:0:
376,156,137770,1,2,0:0:0:0:
501,287,137905,5,2,1:2:0:0:
447,138,138041,1,2,0:0:0:0:
389,264,138176,5,10,0:0:0:0:
464,135,138311,2,0,P|453:180|443:229,1,86.920001326294,2|0,1:2|0:0,0:0:0:0:
459,359,138581,5,2,1:2:0:0:
373,286,138716,2,0,P|314:273|237:253,1,130.380001989441,8|0,0:0|0:0,0:0:0:0:
236,247,138987,6,0,B|194:155|315:177|256:67,1,173.840002652588,2|10,1:2|0:0,0:0:0:0:
70,167,139392,2,0,B|117:149|166:133|166:133|114:125|91:88,1,173.840002652588,2|2,1:2|1:2,0:0:0:0:
0,0,139797,5,10,0:0:0:0:
32,64,139932,1,2,0:0:0:0:
172,53,140068,5,2,1:2:0:0:
99,22,140203,1,2,0:0:0:0:
188,60,140338,5,10,0:0:0:0:
80,186,140473,2,0,P|96:122|110:70,1,86.920001326294,2|0,0:0|1:2,0:0:0:0:
268,99,140743,5,2,1:2:0:0:
278,93,140878,1,10,0:0:0:0:
286,89,141014,1,2,0:0:0:0:
401,215,141149,6,0,B|421:199|452:200|452:200|296:169,1,195.039993452637,6|8,1:2|0:0,0:0:0:0:
179,347,141554,2,0,B|258:351|276:283|276:283|229:307|186:275,1,195.039993452637,2|2,1:2|1:2,0:0:0:0:
90,184,141959,5,10,0:0:0:0:
159,237,142095,1,2,0:0:0:0:
237,211,142230,5,2,1:2:0:0:
144,243,142365,1,2,0:0:0:0:
125,72,142500,5,10,0:0:0:0:
172,139,142635,2,0,P|218:124|280:106,1,97.5199967263185,2|0,1:2|0:0,0:0:0:0:
460,97,142905,5,2,1:2:0:0:
406,44,143041,2,0,P|360:70|384:160,1,146.279995089478,10|0,0:0|0:0,0:0:0:0:
382,161,143311,5,2,1:2:0:0:
343,229,143446,1,2,0:0:0:0:
415,357,143581,5,10,0:0:0:0:
512,252,143716,2,0,P|465:265|418:280,1,97.5199967263185,2|0,1:2|0:0,0:0:0:0:
290,347,143987,5,2,1:2:0:0:
248,277,144122,2,0,B|194:259|194:259|173:229|173:229|122:214,1,146.279995089478,10|0,0:0|0:0,0:0:0:0:
111,211,144392,6,0,P|100:157|136:131,1,97.5199967263185,2|2,1:2|0:0,0:0:0:0:
302,110,144662,1,10,0:0:0:0:
200,0,144797,2,0,P|215:46|228:93,1,97.5199967263185,2|0,0:0|1:2,0:0:0:0:
405,228,145068,5,2,1:2:0:0:
473,107,145203,1,10,0:0:0:0:
350,47,145338,1,2,0:0:0:0:
256,252,145473,6,0,B|300:234|311:188|311:188|309:263|358:292,1,195.039993452637,2|10,1:2|0:0,0:0:0:0:
424,328,145811,1,0,0:0:0:0:
435,335,145878,2,0,B|390:298|339:320|339:320|319:378|251:370,1,195.039993452637,2|2,1:2|1:2,0:0:0:0:
113,376,146284,5,10,0:0:0:0:
175,286,146419,1,2,0:0:0:0:
116,230,146554,5,2,1:2:0:0:
192,365,146689,1,2,0:0:0:0:
106,216,146824,5,10,0:0:0:0:
225,220,146959,2,0,B|260:209|260:209|275:193|275:193|313:185,1,97.5199967263185,2|0,1:2|0:0,0:0:0:0:
398,38,147230,5,0,1:2:0:0:
475,132,147365,2,0,P|411:118|307:98,1,146.279995089478,10|0,0:0|0:0,0:0:0:0:
311,89,147635,6,0,B|257:103|257:103|237:132|237:132|172:152,1,146.279995089478,2|0,1:2|0:0,0:0:0:0:
172,145,147905,1,10,0:0:0:0:
11,44,148041,2,0,B|49:99|49:99|149:31,1,146.279995089478,2|0,1:2|0:0,0:0:0:0:
118,46,148311,1,2,1:2:0:0:
298,88,148446,5,10,0:0:0:0:
244,27,148581,1,2,0:0:0:0:
125,219,148716,6,0,B|171:192|172:147|172:147|175:182|211:214,1,146.279995089478,2|0,1:2|0:0,0:0:0:0:
204,203,148987,1,10,0:0:0:0:
432,244,149122,2,0,B|378:230|378:230|358:201|358:201|305:184,1,146.279995089478,2|0,0:0|0:0,0:0:0:0:
292,187,149392,1,2,1:2:0:0:
161,331,149527,1,8,0:0:0:0:
141,344,149797,6,0,P|186:333|238:326,1,64.6599973360902,6|0,1:2|0:0,0:0:0:0:
342,354,149932,1,2,0:0:0:0:
368,343,150000,1,2,0:0:0:0:
385,319,150068,1,10,0:0:0:0:
478,171,150203,2,0,B|441:149|433:100|433:100|425:162|348:197,1,193.979992008271,2|0,1:2|0:0,0:0:0:0:
292,187,150473,5,2,1:2:0:0:
213,147,150608,1,10,0:0:0:0:
125,195,150743,1,2,0:0:0:0:
15,95,150878,6,0,B|46:87|46:87|55:88|55:88|112:77,1,64.6599973360902,2|0,1:2|0:0,0:0:0:0:
205,13,151013,1,2,0:0:0:0:
231,24,151081,1,2,0:0:0:0:
248,48,151149,1,10,0:0:0:0:
125,195,151284,2,0,B|113:232|100:256|100:256|160:326|229:245,1,193.979992008271,2|0,0:0|0:0,0:0:0:0:
282,201,151554,5,2,1:2:0:0:
398,343,151689,1,10,0:0:0:0:
411,355,151959,6,0,P|417:318|433:262,1,64.6599973360902,2|0,1:2|0:0,0:0:0:0:
485,182,152095,1,2,0:0:0:0:
467,164,152162,1,2,0:0:0:0:
460,138,152230,1,10,0:0:0:0:
353,245,152365,2,0,B|284:165|429:148|339:52,1,193.979992008271,2|0,1:2|0:0,0:0:0:0:
281,44,152635,5,2,1:2:0:0:
222,115,152770,2,0,P|177:108|139:103,1,66.7799979620362,10|0,0:0|0:0,0:0:0:0:
1,154,153041,6,0,B|43:203|114:183|114:183|72:165|66:112,1,193.979992008271,2|0,1:2|0:0,0:0:0:0:
71,118,153311,1,10,0:0:0:0:
170,270,153446,6,0,B|234:274|270:210|270:210|227:227|186:194,1,193.979992008271,2|0,0:0|0:0,0:0:0:0:
194,195,153716,1,2,1:2:0:0:
44,315,153851,5,8,0:0:0:0:
26,330,154122,6,0,B|56:337|56:337|62:342|62:342|108:353,1,64.6599973360902,2|0,1:2|0:0,0:0:0:0:
227,378,154257,1,2,0:0:0:0:
253,376,154324,1,2,0:0:0:0:
279,365,154392,1,10,0:0:0:0:
379,230,154527,2,0,B|357:267|341:308|341:308|295:270|254:240,1,193.979992008271,2|0,1:2|0:0,0:0:0:0:
194,195,154797,5,2,1:2:0:0:
252,132,154932,1,10,0:0:0:0:
201,43,155068,1,2,0:0:0:0:
391,34,155203,6,0,P|367:27|303:22,1,64.6599973360902,2|0,1:2|0:0,0:0:0:0:
181,55,155338,1,2,0:0:0:0:
154,61,155405,1,2,0:0:0:0:
124,51,155473,1,10,0:0:0:0:
0,201,155608,2,0,B|46:194|63:151|63:151|67:215|134:233,1,193.979992008271,2|0,0:0|0:0,0:0:0:0:
194,195,155878,5,2,1:2:0:0:
266,138,156014,1,10,0:0:0:0:
380,214,156149,1,2,0:0:0:0:
272,368,156284,6,0,B|282:340|282:340|287:338|287:338|300:299,1,64.6599973360902,2|0,1:2|0:0,0:0:0:0:
394,202,156419,1,2,0:0:0:0:
406,167,156487,1,2,0:0:0:0:
380,141,156554,1,10,0:0:0:0:
185,109,156689,2,0,B|279:145|256:-7|369:47,1,193.979992008271,2|0,1:2|0:0,0:0:0:0:
416,67,156959,5,2,1:2:0:0:
301,157,157095,1,10,0:0:0:0:
433,273,157230,1,0,0:0:0:0:
243,241,157365,6,0,B|203:228|143:221|143:221|118:159|188:140,1,193.979992008271,2|0,1:2|0:0,0:0:0:0:
257,231,157635,1,10,0:0:0:0:
146,328,157770,6,0,B|103:329|45:343|45:343|0:293|59:251,1,193.979992008271,2|0,0:0|0:0,0:0:0:0:
155,313,158040,1,2,1:2:0:0:
36,151,158176,5,8,0:0:0:0:
21,144,158446,6,0,P|50:136|106:115,1,64.6599973360902,6|2,1:2|0:0,0:0:0:0:
188,0,158581,2,0,P|218:10|249:19,1,64.6599973360902,2|2,0:0|0:0,0:0:0:0:
419,158,158716,1,10,0:0:0:0:
318,229,158851,2,0,B|262:140|400:132|329:39,1,193.979992008271,2|0,1:2|0:0,0:0:0:0:
261,22,159122,5,2,1:2:0:0:
186,102,159257,1,10,0:0:0:0:
222,203,159392,1,2,0:0:0:0:
88,333,159527,5,2,1:2:0:0:
81,346,159595,2,0,B|112:339|112:339|118:343|118:343|173:331,1,64.6599973360902,2|2,0:0|0:0,0:0:0:0:
309,238,159730,1,2,0:0:0:0:
318,229,159798,2,0,B|349:236|349:236|355:232|355:232|410:244,1,64.6599973360902,10|0,0:0|0:0,0:0:0:0:
512,360,159932,2,0,B|471:348|451:303|451:303|434:378|369:390,1,193.979992008271,2|0,0:0|0:0,0:0:0:0:
328,320,160203,5,2,1:2:0:0:
215,366,160338,1,10,0:0:0:0:
126,259,160473,1,2,0:0:0:0:
284,145,160608,5,2,1:2:0:0:
293,132,160676,2,0,P|280:104|225:84,1,64.6599973360902,0|2,0:0|0:0,0:0:0:0:
94,47,160811,1,2,0:0:0:0:
75,52,160879,2,0,P|88:80|103:133,1,64.6599973360902,10|0,0:0|0:0,0:0:0:0:
126,259,161014,2,0,B|240:240|240:240|189:225|171:178,1,193.979992008271,2|0,1:2|0:0,0:0:0:0:
177,115,161284,5,2,1:2:0:0:
78,191,161419,1,10,0:0:0:0:
80,324,161554,1,2,0:0:0:0:
329,300,161689,6,0,B|366:262|366:262|298:183|213:267,1,193.979992008271,2|0,1:2|0:0,0:0:0:0:
237,251,161959,1,10,0:0:0:0:
341,145,162095,6,0,B|388:121|388:121|351:24|243:74,1,193.979992008271,2|0,0:0|0:0,0:0:0:0:
271,67,162365,1,2,1:2:0:0:
462,215,162500,5,8,0:0:0:0:
477,237,162770,6,0,P|433:223|383:218,1,64.6599973360902,6|0,1:2|0:0,0:0:0:0:
316,310,162905,1,2,0:0:0:0:
306,331,162973,1,2,0:0:0:0:
292,349,163041,2,0,P|248:363|198:368,1,64.6599973360902,10|0,0:0|0:0,0:0:0:0:
76,177,163176,2,0,B|130:159|169:192|169:192|187:253|254:251,1,193.979992008271,2|0,1:2|0:0,0:0:0:0:
313,225,163446,5,2,1:2:0:0:
212,124,163581,1,10,0:0:0:0:
329,19,163716,1,2,0:0:0:0:
443,121,163851,5,2,1:2:0:0:
458,136,163919,2,0,B|424:127|424:127|416:129|416:129|354:114,1,64.6599973360902,2|2,0:0|0:0,0:0:0:0:
249,48,164054,1,2,0:0:0:0:
231,40,164122,2,0,B|210:44|210:44|202:42|202:42|168:51,1,64.6599973360902,10|0,0:0|0:0,0:0:0:0:
20,187,164257,2,0,B|58:170|81:130|81:130|98:197|140:221,1,193.979992008271,2|0,0:0|0:0,0:0:0:0:
216,207,164527,5,2,1:2:0:0:
318,142,164662,1,10,0:0:0:0:
449,261,164797,1,2,0:0:0:0:
305,383,164932,6,0,P|315:336|321:287,1,64.6599973360902,2|0,1:2|0:0,0:0:0:0:
216,207,165068,1,2,0:0:0:0:
200,189,165135,1,2,0:0:0:0:
190,162,165203,2,0,P|223:132|255:133,1,64.6599973360902,10|0,0:0|0:0,0:0:0:0:
449,261,165338,2,0,B|407:243|355:225|355:225|402:202|415:141,1,193.979992008271,2|0,1:2|0:0,0:0:0:0:
500,169,165608,5,2,1:2:0:0:
414,347,165743,1,10,0:0:0:0:
207,267,165878,2,0,P|255:248|293:228,1,64.6599973360902,2|2,0:0|0:0,0:0:0:0:
451,66,166014,6,0,B|461:36|489:23|489:23|355:38|355:38|388:105|416:164,1,322.239996066406,6|10,1:2|0:0,0:0:0:0:
199,144,166419,6,0,B|204:77|279:80|279:80|314:156,1,193.979992008271,2|0,1:2|0:0,0:0:0:0:
207,267,166689,6,0,P|200:284|196:301,1,31.8000007763672,6|0,1:2|0:0,0:0:0:0:
135,346,167095,6,0,P|80:341|67:316,1,81.6200024908448,6|0,1:2|0:0,0:0:0:0:
66,226,167635,6,0,B|162:204|162:204|135:225|129:253,1,155.819995244751,2|0,0:0|0:0,0:0:0:0:
207,267,168176,2,0,P|268:280|308:231,1,133.559995924072,2|2,1:2|0:0,0:0:0:0:
450,136,168716,2,0,P|420:150|388:156,2,59.3599981884766,2|2|2,0:0|0:0|0:0,0:0:0:0:
314,50,169257,5,2,1:2:0:0:
271,104,169437,1,2,0:0:0:0:
207,80,169617,1,2,0:0:0:0:
199,74,169797,2,0,P|166:67|133:60,2,66.7799979620362,2|0|0,0:0|0:0|0:0,0:0:0:0:
31,118,170338,5,2,1:2:0:0:
85,161,170518,1,2,0:0:0:0:
61,225,170698,1,2,0:0:0:0:
55,233,170878,2,0,P|47:273|37:311,1,59.3599981884766,2|2,0:0|0:0,0:0:0:0:
293,347,171419,6,0,P|252:370|193:290,1,155.819995244751,2|0,1:2|0:0,0:0:0:0:
265,268,171959,2,0,B|351:231|336:315|417:287,1,155.819995244751,2|0,0:0|0:0,0:0:0:0:
492,237,172500,2,0,B|467:247|440:261|440:261|417:228|395:198,1,118.719996376953,2|2,1:2|0:0,0:0:0:0:
306,90,173040,2,0,P|294:126|287:159,2,59.3599981884766,2|2|2,0:0|0:0|0:0,0:0:0:0:
190,209,173581,5,2,1:2:0:0:
122,232,173761,1,2,0:0:0:0:
74,182,173941,1,2,0:0:0:0:
68,175,174121,2,0,P|80:121|84:103,2,59.3599981884766,2|2|2,0:0|0:0|0:0,0:0:0:0:
176,285,174662,5,2,1:2:0:0:
183,356,174842,1,2,0:0:0:0:
249,378,175023,1,2,0:0:0:0:
258,381,175202,2,0,P|301:347|318:334,1,59.3599981884766,2|2,0:0|0:0,0:0:0:0:
481,285,175743,6,0,P|435:283|408:235,1,87.6266631902671,4|2,1:2|0:0,0:0:0:0:
466,168,176014,1,2,0:0:0:0:
479,154,176104,1,2,0:0:0:0:
481,132,176194,1,2,0:0:0:0:
471,117,176284,2,0,P|428:112|400:103,1,43.8133315951335,2|2,1:2|0:0,0:0:0:0:
346,52,176464,5,2,0:0:0:0:
328,63,176554,1,2,0:0:0:0:
309,70,176644,1,2,0:0:0:0:
289,69,176734,1,2,0:0:0:0:
222,28,176824,5,4,1:2:0:0:
194,20,176914,1,2,0:0:0:0:
167,28,177005,1,2,0:0:0:0:
149,50,177095,1,2,0:0:0:0:
142,77,177185,1,2,0:0:0:0:
154,99,177275,1,2,0:0:0:0:
166,115,177365,2,0,P|154:159|149:189,1,50.8800012421875,0|2,1:2|0:0,0:0:0:0:
87,226,177545,5,2,0:0:0:0:
97,243,177635,1,2,0:0:0:0:
119,257,177725,1,2,0:0:0:0:
143,258,177815,1,2,0:0:0:0:
233,212,177905,6,0,P|289:192|366:182,1,115.893335101725,4|2,1:2|0:0,0:0:0:0:
447,239,178176,1,2,0:0:0:0:
463,258,178266,1,2,0:0:0:0:
464,289,178356,1,2,0:0:0:0:
453,313,178446,2,0,B|420:321|420:321|418:324|418:324|376:338,1,57.9466675508626,2|2,1:2|0:0,0:0:0:0:
317,373,178626,5,2,0:0:0:0:
297,361,178716,1,2,0:0:0:0:
272,353,178806,1,2,0:0:0:0:
241,357,178896,1,2,0:0:0:0:
160,304,178987,5,6,1:2:0:0:
131,319,179077,1,2,0:0:0:0:
102,322,179167,1,2,0:0:0:0:
75,309,179257,2,0,P|68:280|53:240,2,57.9466675508626,2|2|2,0:0|0:0|0:0,0:0:0:0:
130,191,179527,5,2,1:2:0:0:
108,171,179617,1,0,0:0:0:0:
97,138,179707,1,2,0:0:0:0:
104,107,179797,1,2,0:0:0:0:
122,84,179887,1,2,0:0:0:0:
157,73,179978,1,2,0:0:0:0:
315,178,180068,6,0,P|247:177|232:102,1,130.026662301758,4|2,1:2|0:0,0:0:0:0:
316,65,180338,1,2,0:0:0:0:
353,47,180428,1,2,0:0:0:0:
396,55,180518,1,2,0:0:0:0:
430,84,180608,2,0,P|443:106|463:174,1,65.013331150879,6|2,1:2|0:0,0:0:0:0:
348,279,180788,5,2,0:0:0:0:
380,311,180878,1,2,0:0:0:0:
422,319,180969,1,2,0:0:0:0:
458,296,181059,1,2,0:0:0:0:
387,195,181149,5,6,1:2:0:0:
340,178,181239,1,2,0:0:0:0:
294,197,181329,1,2,0:0:0:0:
264,237,181419,1,2,0:0:0:0:
223,268,181509,1,2,0:0:0:0:
171,269,181599,1,2,0:0:0:0:
128,243,181689,2,0,P|103:210|85:158,1,65.013331150879,6|0,1:2|0:0,0:0:0:0:
144,46,181869,5,2,0:0:0:0:
194,66,181959,1,2,0:0:0:0:
218,113,182050,1,0,0:0:0:0:
197,167,182140,1,0,0:0:0:0:
0,153,182230,5,4,1:2:0:0:
75,108,182365,1,0,0:0:0:0:
161,166,182500,1,6,1:2:0:0:
305,245,182635,1,0,0:0:0:0:
443,145,182770,1,6,1:2:0:0:
327,0,182905,1,0,0:0:0:0:
153,27,183041,1,6,1:2:0:0:
119,255,183176,1,0,0:0:0:0:
173,27,183311,5,10,0:2:0:0:
121,280,183446,1,8,0:2:0:0:
255,53,183581,1,10,0:2:0:0:
328,351,183716,1,8,0:2:0:0:
434,9,183851,5,8,0:0:0:0:
450,24,184411,6,0,P|426:66|407:161,1,133.559995924072,2|0,1:2|0:0,0:0:0:0:
512,259,184951,2,0,P|483:291|440:290,1,89.0399972827149,10|0,0:0|0:0,0:0:0:0:
436,284,185356,1,0,0:0:0:0:
246,261,185492,6,0,P|283:254|341:235,2,89.0399972827149,2|0|8,1:2|1:2|0:0,0:0:0:0:
97,100,186167,5,2,0:0:0:0:
91,96,186302,1,2,0:0:0:0:
85,92,186438,1,2,0:0:0:0:
220,94,186573,6,0,P|155:104|119:42,1,133.559995924072,2|0,1:2|0:0,0:0:0:0:
290,32,187113,2,0,P|332:32|354:69,1,89.0399972827149,10|0,0:0|0:0,0:0:0:0:
353,76,187519,1,2,0:0:0:0:
511,215,187654,6,0,P|465:207|411:197,1,89.0399972827149,2|2,1:2|1:2,0:0:0:0:
329,272,188059,1,0,0:0:0:0:
251,192,188194,2,0,P|282:241|295:330,1,133.559995924072,10|0,0:0|0:0,0:0:0:0:
34,260,188735,6,0,B|70:244|82:201|82:201|102:281|173:287,1,197.159992178101,2|0,1:2|0:0,0:0:0:0:
251,192,189275,2,0,B|178:145|87:201|87:201|35:109|132:49,1,324.360001979736,10|0,0:0|0:0,0:0:0:0:
281,5,189816,6,0,P|259:43|253:87,2,89.0399972827149,2|0|8,1:2|1:2|0:0,0:0:0:0:
360,193,190492,5,2,0:0:0:0:
364,197,190627,1,2,0:0:0:0:
368,202,190762,1,2,0:0:0:0:
471,149,190897,6,0,P|429:156|337:163,1,133.559995924072,2|2,1:2|1:2,0:0:0:0:
207,279,191438,2,0,P|237:249|284:253,1,89.0399972827149,10|0,0:0|0:0,0:0:0:0:
280,251,191843,1,2,0:0:0:0:
443,382,191978,6,0,P|392:360|405:285,1,133.559995924072,2|2,1:2|1:2,0:0:0:0:
408,287,192451,1,0,1:2:0:0:
417,287,192519,1,10,0:0:0:0:
279,39,193059,6,0,P|254:86|236:164,1,133.559995924072,6|0,1:2|0:0,0:0:0:0:
150,252,193600,2,0,P|136:202|113:169,1,89.0399972827149,10|0,0:0|0:0,0:0:0:0:
110,170,194005,1,0,0:0:0:0:
317,280,194140,6,0,P|285:252|231:265,2,89.0399972827149,2|0|8,1:2|1:2|0:0,0:0:0:0:
434,128,194816,5,2,0:0:0:0:
438,123,194951,1,2,0:0:0:0:
442,119,195086,1,2,0:0:0:0:
319,111,195221,6,0,P|372:131|426:65,1,133.559995924072,2|2,1:2|0:0,0:0:0:0:
306,103,195762,2,0,P|274:93|215:84,1,89.0399972827149,10|0,0:0|0:0,0:0:0:0:
210,92,196167,1,2,0:0:0:0:
186,293,196302,5,2,1:2:0:0:
97,45,196573,1,2,1:2:0:0:
194,312,196843,1,10,0:0:0:0:
512,140,197383,6,0,B|457:119|418:163|418:163|411:229|343:237,1,197.159992178101,2|0,1:2|0:0,0:0:0:0:
236,65,197924,2,0,B|226:27|175:27|175:27|305:4|331:152|245:207,1,324.360001979736,10|2,0:0|0:0,0:0:0:0:
67,151,198465,6,0,P|105:133|156:164,2,89.0399972827149,2|0|8,1:2|1:2|0:0,0:0:0:0:
97,317,199140,5,2,0:0:0:0:
102,322,199275,1,2,0:0:0:0:
107,326,199410,1,0,0:0:0:0:
213,307,199546,6,0,P|175:317|123:245,1,133.559995924072,2|2,1:2|1:2,0:0:0:0:
276,146,200086,2,0,P|293:182|300:250,1,89.0399972827149,10|0,0:0|0:0,0:0:0:0:
301,236,200492,1,2,0:0:0:0:
467,363,200627,6,0,P|410:357|410:276,1,133.559995924072,2|2,1:2|1:2,0:0:0:0:
408,282,201100,1,0,1:2:0:0:
416,280,201167,1,10,0:0:0:0:
416,280,201708,6,0,B|305:318|347:146|218:205,1,216.240001319824,6|2,1:2|0:0,0:0:0:0:
63,189,202113,1,2,0:0:0:0:
101,322,202248,2,0,P|117:275|131:230,1,86.920001326294,10|0,0:0|0:0,0:0:0:0:
232,102,202519,5,2,0:0:0:0:
164,145,202654,1,2,0:0:0:0:
245,92,202789,5,2,1:2:0:0:
316,129,202924,1,2,0:0:0:0:
377,15,203059,5,2,0:0:0:0:
310,53,203194,1,2,0:0:0:0:
391,197,203329,5,10,0:0:0:0:
332,149,203465,1,2,0:0:0:0:
467,170,203600,2,0,P|477:127|489:86,1,86.920001326294,2|0,0:0|0:0,0:0:0:0:
444,280,203870,6,0,B|407:257|391:197|391:197|385:243|348:264,1,173.840002652588,0|2,1:2|0:0,0:0:0:0:
156,353,204275,1,2,0:0:0:0:
207,296,204410,2,0,B|241:308|241:308|253:325|253:325|281:334,1,86.920001326294,10|0,0:0|0:0,0:0:0:0:
426,384,204681,5,2,0:0:0:0:
364,339,204816,1,2,0:0:0:0:
356,258,204951,5,2,1:2:0:0:
314,194,205086,1,2,0:0:0:0:
363,136,205221,5,2,0:0:0:0:
300,204,205356,1,2,0:0:0:0:
208,96,205492,5,10,0:0:0:0:
284,122,205627,1,2,0:0:0:0:
197,261,205762,2,0,P|211:212|225:165,1,86.920001326294,2|0,0:0|0:0,0:0:0:0:
54,83,206032,5,0,1:2:0:0:
40,74,206302,2,0,P|94:64|139:50,1,86.920001326294,2|0,0:0|0:0,0:0:0:0:
89,177,206573,2,0,P|72:235|52:314,1,130.380001989441,10|0,0:0|0:0,0:0:0:0:
59,318,206843,5,2,0:0:0:0:
121,366,206978,1,2,0:0:0:0:
374,284,207113,6,0,B|335:243|286:266|286:266|264:315|212:318,1,173.840002652588,2|0,1:2|0:0,0:0:0:0:
171,266,207519,1,2,0:0:0:0:
207,142,207654,5,10,0:0:0:0:
227,214,207789,1,2,0:0:0:0:
203,126,207924,5,2,0:0:0:0:
253,63,208059,1,2,0:0:0:0:
424,161,208194,6,0,B|354:189|354:189|304:165|304:113|350:87,1,173.840002652588,2|0,1:2|0:0,0:0:0:0:
331,104,208600,1,2,0:0:0:0:
438,168,208735,2,0,P|407:224|385:353,1,173.840002652588,10|2,0:0|0:0,0:0:0:0:
391,339,209140,1,0,0:0:0:0:
472,290,209275,5,2,1:2:0:0:
275,353,209456,1,2,0:0:0:0:
270,357,209546,2,0,P|294:364|327:372,3,43.460000663147,0|0|2|0,0:0|0:0|0:0|0:0,0:0:0:0:
307,276,209816,6,0,P|274:257|227:250,1,81.6200024908448,10|0,0:0|0:0,0:0:0:0:
41,367,210356,6,0,B|99:346|162:332|162:332|106:323|75:273,1,216.240001319824,4|2,1:2|0:0,0:0:0:0:
25,180,210762,1,2,0:0:0:0:
124,95,210897,2,0,P|112:145|100:194,1,86.920001326294,10|0,0:0|0:0,0:0:0:0:
158,252,211167,5,2,0:0:0:0:
220,215,211302,1,2,0:0:0:0:
304,235,211438,5,2,1:2:0:0:
241,202,211573,1,2,0:0:0:0:
363,131,211708,5,2,0:0:0:0:
298,161,211843,1,2,0:0:0:0:
181,57,211978,5,10,0:0:0:0:
231,112,212113,1,2,0:0:0:0:
303,85,212248,2,0,B|324:44|324:44|294:-2,1,86.920001326294,2|0,0:0|0:0,0:0:0:0:
83,79,212519,6,0,B|181:57|181:57|139:80|145:142,1,173.840002652588,0|2,1:2|0:0,0:0:0:0:
106,281,212924,1,2,0:0:0:0:
40,233,213059,2,0,P|74:199|133:209,1,86.920001326294,10|0,0:0|0:0,0:0:0:0:
258,340,213329,5,2,0:0:0:0:
206,284,213465,1,2,0:0:0:0:
304,198,213600,5,2,1:2:0:0:
278,267,213735,1,2,0:0:0:0:
235,137,213870,5,2,0:0:0:0:
297,180,214005,1,2,0:0:0:0:
359,132,214140,5,8,0:0:0:0:
429,156,214275,1,2,0:0:0:0:
480,97,214410,2,0,P|469:48|460:7,1,86.920001326294,2|0,0:0|0:0,0:0:0:0:
342,120,214681,5,0,1:2:0:0:
329,132,214951,1,2,0:0:0:0:
183,60,215086,2,0,P|234:72|286:81,1,86.920001326294,2|8,0:0|0:0,0:0:0:0:
252,233,215356,5,2,0:0:0:0:
185,221,215492,1,2,0:0:0:0:
226,168,215627,1,2,0:0:0:0:
322,350,215762,6,0,B|373:270|260:263|312:184,1,173.840002652588,2|2,1:2|0:0,0:0:0:0:
476,104,216167,1,2,0:0:0:0:
470,194,216302,1,10,0:0:0:0:
460,110,216438,1,2,0:0:0:0:
382,144,216573,1,2,0:0:0:0:
302,99,216708,1,2,0:0:0:0:
121,159,216843,6,0,B|171:164|189:235|189:235|252:180|232:71|133:54,1,324.360001979736,2|0,1:2|0:0,0:0:0:0:
146,63,217383,1,10,0:0:0:0:
93,259,217519,6,0,B|211:207|172:362|302:303,1,216.240001319824,2|0,0:0|0:0,0:0:0:0:
463,181,217924,6,0,B|396:215|379:332|379:332|375:227|277:210,1,324.360001979736,2|2,1:2|0:0,0:0:0:0:
121,159,218465,6,0,P|156:151|204:131,1,81.6200024908448,10|0,0:0|0:0,0:0:0:0:
438,105,219005,6,0,P|329:99|210:22,1,237.440002898438,6|0,1:2|0:0,0:0:0:0:
55,81,219410,1,2,0:0:0:0:
45,91,219546,2,0,P|77:142|84:202,1,118.720001449219,8|0,0:0|0:0,0:0:0:0:
209,322,219816,2,0,P|216:263|248:213,1,118.720001449219,2|0,0:0|0:0,0:0:0:0:
512,309,220086,6,0,B|491:303|491:303|483:306|483:306|452:299,1,50.88,0|0,1:2|0:0,0:0:0:0:
421,229,220356,6,0,P|370:261|310:268,1,118.720001449219,2|0,0:0|0:0,0:0:0:0:
143,84,220627,2,0,P|195:111|231:158,1,118.720001449219,10|0,0:0|0:0,0:0:0:0:
157,384,220897,2,0,P|154:325|177:270,1,118.720001449219,2|0,0:0|0:0,0:0:0:0:
383,51,221167,6,0,P|320:150|312:267,1,237.440002898438,2|0,1:2|0:0,0:0:0:0:
82,298,221573,1,2,0:0:0:0:
68,309,221708,2,0,P|117:277|176:269,1,118.720001449219,8|0,0:0|0:0,0:0:0:0:
251,123,221978,2,0,P|192:115|142:83,1,118.720001449219,2|0,0:0|0:0,0:0:0:0:
453,267,222248,6,0,P|390:167|382:50,1,237.440002898438,2|2,1:2|0:0,0:0:0:0:
388,42,222654,1,2,0:0:0:0:
446,278,222789,6,0,P|416:273|394:268,1,50.88,10|0,0:0|0:0,0:0:0:0:
306,213,223059,2,0,P|281:218|256:222,1,50.88
34,193,223329,6,0,P|151:184|250:122,1,237.440002898438,2|0,1:2|0:0,0:0:0:0:
388,42,223735,1,2,0:0:0:0:
406,39,223870,2,0,P|374:90|367:150,1,118.720001449219,8|0,0:0|0:0,0:0:0:0:
332,298,224140,2,0,P|390:300|445:277,1,118.720001449219,2|0,0:0|0:0,0:0:0:0:
158,284,224410,6,0,B|139:309|139:309|142:332,1,50.88,0|0,1:2|0:0,0:0:0:0:
234,256,224681,6,0,P|226:197|194:147,1,118.720001449219,2|0,0:0|0:0,0:0:0:0:
0,63,224951,2,0,P|54:85|113:84,1,118.720001449219,10|0,0:0|0:0,0:0:0:0:
319,18,225221,2,0,P|260:16|205:39,1,118.720001449219,2|0,0:0|0:0,0:0:0:0:
319,276,225492,6,0,P|328:159|390:60,1,237.440002898438,2|0,1:2|0:0,0:0:0:0:
503,247,225897,1,2,0:0:0:0:
512,261,226032,2,0,P|457:238|398:239,1,118.720001449219,8|0,0:0|0:0,0:0:0:0:
270,351,226302,2,0,P|215:373|156:372,1,118.720001449219,2|0,0:0|0:0,0:0:0:0:
19,112,226573,6,0,P|85:208|189:263,1,237.440002898438,2|2,1:2|0:0,0:0:0:0:
196,263,226978,1,2,0:0:0:0:
214,18,227113,6,0,P|222:47|230:76,1,50.88,10|0,0:0|0:0,0:0:0:0:
313,89,227383,2,0,P|305:118|297:147,1,50.88
440,244,227654,6,0,P|323:235|224:173,1,237.440002898438,6|0,1:2|0:0,0:0:0:0:
96,10,228059,1,2,0:0:0:0:
78,7,228194,2,0,P|110:58|117:118,1,118.720001449219,8|0,0:0|0:0,0:0:0:0:
184,280,228465,2,0,P|191:221|223:171,1,118.720001449219,2|0,0:0|0:0,0:0:0:0:
512,149,228735,6,0,B|487:154|487:154|483:161|483:161|461:167,1,50.88,0|0,1:2|0:0,0:0:0:0:
440,244,229005,6,0,P|385:266|326:265,1,118.720001449219,2|0,0:0|0:0,0:0:0:0:
427,63,229275,2,0,P|380:99|351:150,1,118.720001449219,10|0,0:0|0:0,0:0:0:0:
259,367,229546,2,0,P|230:315|183:279,1,118.720001449219,2|0,0:0|0:0,0:0:0:0:
13,72,229816,6,0,P|75:171|84:288,1,237.440002898438,2|0,1:2|0:0,0:0:0:0:
195,84,230221,1,2,0:0:0:0:
211,74,230356,2,0,P|179:125|172:185,1,118.720001449219,8|0,0:0|0:0,0:0:0:0:
313,6,230627,2,0,P|345:57|352:117,1,118.720001449219,2|0,0:0|0:0,0:0:0:0:
511,290,230897,6,0,P|394:281|295:219,1,237.440002898438,2|2,1:2|0:0,0:0:0:0:
292,210,231302,1,2,0:0:0:0:
136,380,231438,6,0,P|141:349|147:324,1,50.88,10|0,0:0|0:0,0:0:0:0:
83,241,231708,2,0,P|78:210|72:185,1,50.88
358,64,231978,6,0,P|258:126|141:135,1,237.440002898438,2|0,1:2|0:0,0:0:0:0:
425,183,232383,1,2,0:0:0:0:
444,191,232519,2,0,P|451:132|483:82,1,118.720001449219,8|0,0:0|0:0,0:0:0:0:
330,315,232789,2,0,P|322:256|290:206,1,118.720001449219,2|0,0:0|0:0,0:0:0:0:
36,327,233059,6,0,P|58:318|88:300,1,50.88,0|0,1:2|0:0,0:0:0:0:
226,269,233329,6,0,P|167:261|117:229,1,118.720001449219,2|0,0:0|0:0,0:0:0:0:
337,94,233600,2,0,P|278:101|228:133,1,118.720001449219,10|0,0:0|0:0,0:0:0:0:
0,54,233870,2,0,P|49:85|108:93,1,118.720001449219,2|0,0:0|0:0,0:0:0:0:
417,14,234140,6,0,P|354:113|346:230,1,237.440002898438,2|0,1:2|0:0,0:0:0:0:
152,364,234546,1,2,0:0:0:0:
140,377,234681,2,0,P|198:369|248:337,1,118.720001449219,8|0,0:0|0:0,0:0:0:0:
480,200,234951,2,0,P|421:192|371:160,1,118.720001449219,2|0,0:0|0:0,0:0:0:0:
171,262,235221,6,0,P|234:162|241:45,1,237.440002898438,2|2,1:2|0:0,0:0:0:0:
236,40,235627,1,2,0:0:0:0:
8,189,235762,6,0,P|38:182|58:176,1,50.88,10|0,0:0|0:0,0:0:0:0:
121,249,236032,2,0,P|145:256|170:261,1,50.88
181,174,236302,6,0,B|223:148|267:163|267:163|288:219|351:222,1,173.840002652588,4|0,1:2|0:0,0:0:0:0:
348,134,236707,2,0,P|362:111|370:82,1,43.460000663147
512,229,236843,2,0,B|470:225|415:214|415:214|449:257|445:297,1,173.840002652588,10|0,0:0|0:0,0:0:0:0:
354,339,237248,2,0,P|360:314|366:286,2,43.460000663147,0|0|0,0:0|0:0|1:2,0:0:0:0:
225,241,237518,5,0,0:0:0:0:
50,329,237653,2,0,P|123:316|194:304,1,130.380001989441,2|0,0:0|0:0,0:0:0:0:
189,310,237924,2,0,B|216:345|216:345|196:394,1,86.920001326294,10|0,0:0|0:0,0:0:0:0:
59,235,238194,2,0,P|71:193|87:137,1,86.920001326294,2|0,0:0|0:0,0:0:0:0:
136,95,238397,1,0,0:0:0:0:
145,88,238464,6,0,P|205:103|249:59,1,130.380001989441,0|0,1:2|0:0,0:0:0:0:
258,50,238735,2,0,P|309:60|362:67,1,86.920001326294,2|0,0:0|0:0,0:0:0:0:
333,207,239005,2,0,P|384:197|437:190,1,86.920001326294,10|0,0:0|0:0,0:0:0:0:
430,195,239207,1,0,0:0:0:0:
438,199,239275,1,0,0:0:0:0:
423,370,239410,6,0,B|395:334|395:334|414:282,1,86.920001326294,2|0,0:0|1:2,0:0:0:0:
162,252,239680,2,0,B|204:226|248:241|248:241|269:297|332:300,1,173.840002652588,2|0,0:0|0:0,0:0:0:0:
316,121,240086,2,0,P|327:177|338:233,1,86.920001326294,10|0,0:0|0:0,0:0:0:0:
136,89,240356,2,0,P|184:98|210:63,1,86.920001326294,2|0,0:0|0:0,0:0:0:0:
279,30,240559,1,0,0:0:0:0:
290,18,240626,6,0,B|377:-21|367:103|465:55,1,173.840002652588,0|0,1:2|0:0,0:0:0:0:
504,187,241032,2,0,P|480:175|454:169,1,43.460000663147
313,315,241167,2,0,B|337:300|375:286|375:286|391:239|362:207|323:205,1,173.840002652588,10|0,0:0|0:0,0:0:0:0:
197,240,241572,2,0,P|203:260|209:282,2,43.460000663147,0|0|0,0:0|0:0|1:2,0:0:0:0:
241,139,241843,5,0,0:0:0:0:
32,82,241978,2,0,P|92:63|138:109,1,130.380001989441,2|0,0:0|0:0,0:0:0:0:
134,114,242248,2,0,P|124:154|111:198,1,86.920001326294,10|0,0:0|0:0,0:0:0:0:
5,271,242518,2,0,P|16:311|29:355,1,86.920001326294,2|0,0:0|0:0,0:0:0:0:
38,361,242722,1,0,0:0:0:0:
48,365,242789,6,0,B|92:349|92:349|105:321|105:321|182:290,1,130.380001989441,0|0,1:2|0:0,0:0:0:0:
163,302,243059,2,0,P|204:329|250:320,1,86.920001326294,2|0,0:0|0:0,0:0:0:0:
265,102,243329,2,0,B|233:137|233:137|242:186,1,86.920001326294,10|0,0:0|0:0,0:0:0:0:
245,186,243532,1,0,0:0:0:0:
252,191,243600,1,0,0:0:0:0:
378,354,243735,6,0,P|366:313|355:271,1,86.920001326294,2|0,0:0|1:2,0:0:0:0:
512,161,244005,2,0,B|485:149|469:107|469:107|451:176|386:189,1,173.840002652588,2|0,0:0|0:0,0:0:0:0:
265,102,244410,2,0,P|307:95|350:87,1,86.920001326294,10|0,0:0|0:0,0:0:0:0:
222,189,244680,2,0,B|247:209|270:228|270:228|249:257|225:297,1,130.380001989441,2|0,0:0|0:0,0:0:0:0:
217,290,244951,6,0,B|181:297|121:307|121:307|165:316|189:356,1,173.840002652588,6|0,1:2|0:0,0:0:0:0:
294,384,245356,2,0,P|299:362|297:341,1,43.460000663147
393,219,245492,2,0,P|307:204|221:188,1,173.840002652588,10|0,0:0|0:0,0:0:0:0:
131,266,245897,2,0,P|123:286|119:307,2,43.460000663147,0|0|0,0:0|0:0|1:2,0:0:0:0:
0,171,246167,5,0,0:0:0:0:
163,137,246302,2,0,P|97:142|65:88,1,130.380001989441,2|0,0:0|0:0,0:0:0:0:
72,83,246573,2,0,P|84:41|100:-15,1,86.920001326294,10|0,0:0|0:0,0:0:0:0:
179,140,246843,2,0,B|212:127|212:127|224:108|224:108|264:95,1,86.920001326294,2|0,0:0|0:0,0:0:0:0:
323,118,247046,1,0,0:0:0:0:
335,125,247113,6,0,B|290:175|290:175|332:222,1,130.380001989441,0|0,1:2|0:0,0:0:0:0:
343,229,247383,2,0,P|388:214|431:202,1,86.920001326294,2|0,0:0|0:0,0:0:0:0:
427,377,247654,2,0,P|413:337|438:303,1,86.920001326294,10|0,0:0|0:0,0:0:0:0:
453,300,247856,1,0,0:0:0:0:
463,301,247924,1,0,0:0:0:0:
304,319,248059,6,0,P|262:305|221:293,1,86.920001326294,2|0,0:0|1:2,0:0:0:0:
69,255,248329,2,0,B|163:275|132:186|235:200,1,173.840002652588,2|0,0:0|0:0,0:0:0:0:
103,94,248735,2,0,P|69:129|83:168,1,86.920001326294,10|0,0:0|0:0,0:0:0:0:
235,195,249005,2,0,P|191:135|229:75,1,130.380001989441,2|0,0:0|0:0,0:0:0:0:
220,80,249275,6,0,B|262:54|306:69|306:69|327:125|390:128,1,173.840002652588,6|0,1:2|0:0,0:0:0:0:
382,0,249680,2,0,P|386:27|389:52,1,43.460000663147
512,174,249816,2,0,B|477:162|459:118|459:118|456:180|405:215,1,173.840002652588,10|0,0:0|0:0,0:0:0:0:
489,326,250221,2,0,P|495:301|501:273,2,43.460000663147,0|0|0,0:0|0:0|1:2,0:0:0:0:
293,252,250491,5,0,0:0:0:0:
231,384,250627,2,0,B|275:368|275:368|288:340|288:340|336:320,1,130.380001989441,2|0,0:0|0:0,0:0:0:0:
350,316,250897,2,0,P|378:284|375:242,1,86.920001326294,10|0,0:0|0:0,0:0:0:0:
211,203,251167,2,0,P|199:161|183:105,1,86.920001326294,2|0,0:0|0:0,0:0:0:0:
196,100,251370,1,0,0:0:0:0:
202,92,251438,6,0,P|263:77|307:121,1,130.380001989441,0|0,1:2|0:0,0:0:0:0:
317,128,251708,2,0,P|359:121|402:113,1,86.920001326294,2|0,0:0|0:0,0:0:0:0:
498,293,251978,2,0,B|525:257|525:257|510:218,1,86.920001326294,10|0,0:0|0:0,0:0:0:0:
495,207,252181,1,0,0:0:0:0:
486,201,252248,1,0,0:0:0:0:
411,369,252383,6,0,P|369:355|328:343,1,86.920001326294,2|0,0:0|1:2,0:0:0:0:
177,359,252653,2,0,B|137:279|250:278|208:198,1,173.840002652588,2|0,0:0|0:0,0:0:0:0:
9,127,253059,2,0,B|51:150|51:150|100:131,1,86.920001326294,10|0,0:0|0:0,0:0:0:0:
241,79,253329,2,0,P|199:67|158:53,1,86.920001326294,2|0,0:0|0:0,0:0:0:0:
334,244,253600,6,0,P|329:226|326:209,1,31.8000007763672,2|0,1:2|0:0,0:0:0:0:
512,12,254005,2,0,P|507:27|504:42,1,31.8000007763672,2|0,1:2|0:0,0:0:0:0:
327,249,254410,2,0,P|322:231|316:203,1,44.5200010869141,2|0,1:2|0:0,0:0:0:0:
392,301,254951,6,0,B|297:248|300:386|200:324,1,193.979992008271,2|0,1:2|0:0,0:0:0:0:
209,317,255221,6,0,P|229:326|256:326,1,44.5200010869141,0|0,1:2|0:0,0:0:0:0:
140,122,255762,6,0,P|133:141|128:151,1,31.8000007763672,2|0,1:2|0:0,0:0:0:0:
363,107,256167,2,0,P|370:126|375:136,1,31.8000007763672,2|0,1:2|0:0,0:0:0:0:
126,131,256573,2,0,P|119:150|106:172,1,44.5200010869141,0|0,1:2|0:0,0:0:0:0:
263,66,257113,6,0,B|226:81|207:130|207:130|205:60|135:41,1,193.979992008271,2|0,1:2|0:0,0:0:0:0:
140,26,257383,6,0,P|151:31|159:38,1,19.0800004658203,0|0,1:2|0:0,0:0:0:0:
223,273,257654,6,0,P|196:279|207:265,1,66.7799979620362,10|0,0:0|0:0,0:0:0:0:
239,265,257924,6,0,P|258:260|271:255,1,31.8000007763672,2|0,1:2|0:0,0:0:0:0:
507,125,258329,2,0,P|488:120|475:115,1,31.8000007763672,2|0,1:2|0:0,0:0:0:0:
250,275,258735,2,0,P|269:270|295:259,1,44.5200010869141,2|0,1:2|0:0,0:0:0:0:
468,225,259275,6,0,B|420:257|371:240|371:240|355:182|286:177,1,193.979992008271,2|0,1:2|0:0,0:0:0:0:
300,161,259546,6,0,P|315:163|345:179,1,44.5200010869141,0|0,1:2|0:0,0:0:0:0:
114,169,260086,6,0,P|103:154|98:138,1,31.8000007763672,2|0,1:2|0:0,0:0:0:0:
320,42,260492,2,0,P|331:27|336:11,1,31.8000007763672,2|0,1:2|0:0,0:0:0:0:
101,170,260897,2,0,P|90:155|84:129,1,44.5200010869141,2|0,1:2|0:0,0:0:0:0:
257,94,261438,6,0,B|264:115|301:125|301:125|224:117|141:109,1,193.979992008271,2|0,1:2|0:0,0:0:0:0:
153,100,261708,6,0,P|165:101|173:101,1,19.0800004658203,0|0,1:2|0:0,0:0:0:0:
343,252,261978,6,0,P|363:263|337:261,1,66.7799979620362,10|0,0:0|0:0,0:0:0:0:
339,239,262248,6,0,P|342:220|346:207,1,31.8000007763672,2|0,1:2|0:0,0:0:0:0:
137,384,262654,2,0,P|134:365|130:352,1,31.8000007763672,2|0,1:2|0:0,0:0:0:0:
353,234,263059,2,0,P|355:214|362:189,1,44.5200010869141,2|0,1:2|0:0,0:0:0:0:
506,149,263600,6,0,P|443:160|313:115,1,193.979992008271,2|0,1:2|0:0,0:0:0:0:
316,104,263870,6,0,P|334:119|357:125,1,44.5200010869141,0|0,1:2|0:0,0:0:0:0:
166,20,264410,6,0,P|173:47|176:54,1,31.8000007763672,2|0,1:2|0:0,0:0:0:0:
8,249,264816,2,0,P|1:276|-2:283,1,31.8000007763672,2|0,1:2|0:0,0:0:0:0:
176,22,265221,2,0,P|183:49|191:68,1,44.5200010869141,2|0,1:2|0:0,0:0:0:0:
178,180,265762,6,0,B|145:209|111:239|111:239|81:186|43:121,1,193.979992008271,2|0,1:2|0:0,0:0:0:0:
61,130,266032,6,0,P|69:142|71:147,1,19.0800004658203,0|0,1:2|0:0,0:0:0:0:
241,316,266302,6,0,P|262:330|236:332,1,66.7799979620362,10|0,0:0|0:0,0:0:0:0:
241,299,266573,6,0,P|262:294|275:290,1,31.8000007763672,2|0,1:2|0:0,0:0:0:0:
386,64,266978,2,0,P|401:68|416:71,1,31.8000007763672,2|0,1:2|0:0,0:0:0:0:
245,309,267383,2,0,P|266:304|288:297,1,44.5200010869141,2|0,1:2|0:0,0:0:0:0:
463,259,267924,6,0,B|364:297|389:157|283:196,1,193.979992008271,2|0,1:2|0:0,0:0:0:0:
279,183,268194,6,0,P|300:176|322:175,1,44.5200010869141,0|0,1:2|0:0,0:0:0:0:
482,18,268735,6,0,P|474:42|471:52,1,31.8000007763672,2|0,1:2|0:0,0:0:0:0:
211,6,269140,2,0,P|219:30|222:40,1,31.8000007763672,2|0,1:2|0:0,0:0:0:0:
490,27,269546,2,0,P|482:51|475:73,1,44.5200010869141,2|0,1:2|0:0,0:0:0:0:
303,94,270086,6,0,B|336:83|361:60|361:60|369:146|435:169,1,193.979992008271,2|0,1:2|0:0,0:0:0:0:
435,159,270356,6,0,P|425:149|421:144,1,19.0800004658203,0|0,1:2|0:0,0:0:0:0:
200,190,270627,6,0,P|187:206|214:196,1,66.7799979620362,10|0,0:0|0:0,0:0:0:0:
196,168,270897,5,2,0:0:0:0:
186,158,270965,2,0,B|93:184|58:130|58:130|198:133|149:-5|266:22|266:22|220:40|215:77,1,467.460005706299,2|0,0:0|0:0,0:0:0:0:
