osu file format v14

[General]
AudioFilename: audio.mp3
AudioLeadIn: 0
PreviewTime: 50035
Countdown: 0
SampleSet: Soft
StackLeniency: 0.7
Mode: 0
LetterboxInBreaks: 0
WidescreenStoryboard: 0

[Editor]
Bookmarks: 234125
DistanceSpacing: 2.2
BeatDivisor: 4
GridSize: 32
TimelineZoom: 1.5

[Metadata]
Title:No title
TitleUnicode:No title
Artist:FantasticYouth
ArtistUnicode:FantasticYouth
Creator:Akitoshi
Version:No difficulty name
Source:
Tags:Corinn -Laura- Kowari Reol LowFat Onyu おん湯(♨) cover utaite japanese pop jpop GigaP Fantastic Youth
BeatmapID:2113247
BeatmapSetID:1009447

[Difficulty]
HPDrainRate:6.5
CircleSize:4
OverallDifficulty:9
ApproachRate:9.5
SliderMultiplier:1.6
SliderTickRate:1

[Events]
//Background and Video events
0,0,"summr.jpg",0,0
//Break Periods
//Storyboard Layer 0 (Background)
//Storyboard Layer 1 (Fail)
//Storyboard Layer 2 (Pass)
//Storyboard Layer 3 (Foreground)
//Storyboard Layer 4 (Overlay)
//Storyboard Sound Samples

[TimingPoints]
2485,300,4,2,1,40,1,0
2485,-166.666666666667,4,2,1,40,0,0
7210,-166.666666666667,4,2,1,5,0,0
7285,-142.857142857143,4,2,1,60,0,0
9910,-142.857142857143,4,2,1,5,0,0
9985,-142.857142857143,4,2,1,60,0,0
12085,-117.647058823529,4,2,1,60,0,0
12910,-117.647058823529,4,2,1,5,0,0
12985,-117.647058823529,4,2,1,60,0,0
31135,-90.9090909090908,4,2,1,60,0,0
31435,-111.111111111111,4,2,1,60,0,0
32335,-90.9090909090908,4,2,1,60,0,0
32635,-111.111111111111,4,2,1,60,0,0
33535,-90.9090909090909,4,2,1,60,0,0
33835,-111.111111111111,4,2,1,60,0,0
34510,-111.111111111111,4,2,1,5,0,0
34585,-111.111111111111,4,2,1,60,0,0
34735,-90.9090909090909,4,2,1,60,0,0
35035,-111.111111111111,4,2,1,60,0,0
35935,-90.9090909090909,4,2,1,60,0,0
36235,-111.111111111111,4,2,1,60,0,0
37135,-90.9090909090909,4,2,1,60,0,0
37435,-111.111111111111,4,2,1,60,0,0
38335,-90.9090909090909,4,2,1,60,0,0
38635,-111.111111111111,4,2,1,60,0,0
40735,-90.9090909090909,4,2,1,60,0,0
41035,-111.111111111111,4,2,1,60,0,0
41935,-90.9090909090909,4,2,1,60,0,0
42235,-111.111111111111,4,2,1,60,0,0
43135,-90.9090909090909,4,2,1,60,0,0
43435,-111.111111111111,4,2,1,60,0,0
45535,-90.9090909090909,4,2,1,60,0,0
45835,-111.111111111111,4,2,1,60,0,0
47935,-90.9090909090909,4,2,1,60,0,0
48235,-111.111111111111,4,2,1,60,0,0
50485,-90.9090909090909,4,2,1,80,0,1
65110,-90.9090909090909,4,2,1,5,0,1
65185,-90.9090909090909,4,2,1,80,0,1
69610,-90.9090909090909,4,2,1,5,0,1
69685,-100,4,2,1,80,0,0
73210,-100,4,2,1,5,0,0
73285,-100,4,2,1,80,0,0
74410,-100,4,2,1,5,0,0
74485,-100,4,2,1,80,0,0
75010,-100,4,2,1,5,0,0
75085,-100,4,2,1,80,0,0
75610,-100,4,2,1,5,0,0
75685,-100,4,2,1,80,0,0
76210,-100,4,2,1,5,0,0
76285,-100,4,2,1,80,0,0
76885,-142.857142857143,4,2,1,60,0,0
79285,-117.647058823529,4,2,1,60,0,0
89410,-117.647058823529,4,2,1,5,0,0
89485,-117.647058823529,4,2,1,60,0,0
96085,-111.111111111111,4,2,1,60,0,0
96910,-111.111111111111,4,2,1,5,0,0
96985,-111.111111111111,4,2,1,60,0,0
98485,-117.647058823529,4,2,1,60,0,0
99310,-117.647058823529,4,2,1,5,0,0
99385,-117.647058823529,4,2,1,60,0,0
101410,-117.647058823529,4,2,1,5,0,0
101485,-117.647058823529,4,2,1,60,0,0
115285,-111.111111111111,4,2,1,60,0,0
115510,-111.111111111111,4,2,1,5,0,0
115585,-111.111111111111,4,2,1,60,0,0
117685,-90.9090909090909,4,2,1,80,0,1
132310,-90.9090909090909,4,2,1,5,0,1
132385,-90.9090909090909,4,2,1,80,0,1
135685,-90.9090909090909,4,2,1,80,0,0
136285,-90.9090909090909,4,2,1,60,0,0
136885,-90.9090909090909,4,2,1,80,0,1
151510,-90.9090909090909,4,2,1,5,0,1
151585,-90.9090909090909,4,2,1,80,0,1
156085,-111.111111111111,4,2,69,60,0,0
162310,-111.111111111111,4,2,69,5,0,0
162385,-111.111111111111,4,2,69,60,0,0
165685,-111.111111111111,4,2,1,60,0,0
172885,-125,4,2,1,60,0,0
174085,-100,4,2,1,60,0,0
175285,-90.9090909090909,4,2,1,60,0,0
175510,-90.9090909090909,4,2,1,5,0,0
175585,-125,4,2,1,60,0,0
175810,-125,4,2,1,5,0,0
175885,-200,4,2,1,60,0,0
176110,-200,4,2,1,5,0,0
176185,-500,4,2,1,60,0,0
176485,-1000,4,2,1,40,0,0
186085,-250.000000000001,4,2,1,50,0,0
192085,-100,4,2,1,50,0,0
192385,-250,4,2,1,50,0,0
193285,-125,4,2,1,60,0,0
194485,-100,4,2,1,70,0,0
195685,-86.9565217391304,4,2,1,80,0,1
210310,-86.9565217391304,4,2,1,5,0,1
210385,-86.9565217391304,4,2,1,80,0,1
214885,-90.9090909090909,4,2,1,80,0,0
216010,-90.9090909090909,4,2,1,5,0,0
216085,-90.9090909090909,4,2,1,80,0,0
220810,-90.9090909090909,4,2,1,5,0,0
220885,-90.9090909090909,4,2,1,80,0,0
225610,-90.9090909090909,4,2,1,5,0,0
225685,-90.9090909090909,4,2,1,80,0,0
230410,-90.9090909090909,4,2,1,5,0,0
230485,-90.9090909090909,4,2,1,80,0,0
232510,-90.9090909090909,4,2,1,5,0,0
232585,-90.9090909090909,4,2,1,80,0,0
233710,-90.9090909090909,4,2,1,5,0,0
233785,-90.9090909090909,4,2,1,80,0,0
234010,-90.9090909090909,4,2,1,5,0,0
234085,-90.9090909090909,4,2,1,80,0,0

[Colours]
Combo1 : 255,220,113
Combo2 : 0,255,255
Combo3 : 0,125,251
Combo4 : 43,255,96

[HitObjects]
95,114,2485,6,0,P|125:97|199:93,1,95.9999970703126,0|0,3:0|0:0,0:0:0:0:
252,201,2935,2,0,P|204:198|161:177,1,95.9999970703126,0|0,3:0|0:0,0:0:0:0:
283,111,3385,1,0,3:0:0:0:
283,111,3535,1,0,3:0:0:0:
365,177,3685,6,0,P|357:228|354:289,1,95.9999970703126,0|0,3:0|0:0,0:0:0:0:
279,325,4135,2,0,P|252:311|226:305,1,47.9999985351563,0|0,3:0|0:0,0:0:0:0:
208,219,4435,2,0,P|235:205|261:199,1,47.9999985351563,0|0,3:0|0:0,0:0:0:0:
341,181,4735,1,0,3:0:0:0:
283,111,4885,6,0,P|218:102|174:91,1,95.9999970703126,0|0,3:0|0:0,0:0:0:0:
100,70,5335,2,0,P|88:102|90:131,1,47.9999985351563,0|0,3:0|0:0,0:0:0:0:
11,165,5635,2,0,P|23:197|21:226,1,47.9999985351563,0|0,3:0|0:0,0:0:0:0:
7,301,5935,1,0,3:0:0:0:
113,273,6085,5,0,3:0:0:0:
113,273,6235,2,0,P|140:275|171:281,1,47.9999985351563,0|0,3:0|0:0,0:0:0:0:
203,359,6535,2,0,P|179:362|155:364,1,47.9999985351563,0|0,3:0|0:0,0:0:0:0:
259,277,6835,1,0,3:0:0:0:
259,277,6985,2,0,P|288:265|334:265,1,71.9999978027344,0|0,3:0|0:0,0:0:0:0:
361,271,7285,6,0,P|366:213|374:147,1,111.999996582031,6|2,3:2|0:0,0:0:0:0:
462,114,7735,2,0,P|472:153|470:184,1,55.9999982910157,0|2,3:0|0:0,0:0:0:0:
381,47,8035,1,0,0:0:0:0:
296,102,8185,2,0,P|266:99|220:93,1,55.9999982910157,0|2,3:0|0:0,0:0:0:0:
135,30,8485,6,0,B|157:62|157:62|134:145,1,111.999996582031,2|2,3:2|0:2,0:0:0:0:
98,226,8935,1,0,3:0:0:0:
47,138,9085,1,2,0:0:0:0:
47,138,9160,1,2,0:0:0:0:
47,138,9235,1,2,0:0:0:0:
187,208,9385,2,0,L|263:199,1,55.9999982910157,8|0,0:0|0:0,0:0:0:0:
383,190,9685,6,0,P|388:231|394:279,1,83.9999974365235,2|0,3:2|0:0,0:0:0:0:
414,297,9985,2,0,P|408:326|404:357,1,55.9999982910157,2|0,0:0|3:0,0:0:0:0:
308,382,10285,1,2,0:0:0:0:
253,296,10435,2,0,P|278:286|306:281,1,55.9999982910157,2|0,0:0|3:0,0:0:0:0:
196,377,10735,1,0,0:0:0:0:
211,215,10885,5,0,3:0:0:0:
125,278,11035,1,2,0:0:0:0:
36,218,11185,2,0,P|26:191|33:147,1,55.9999982910157,2|0,0:0|3:0,0:0:0:0:
43,142,11410,1,2,0:0:0:0:
43,142,11485,2,0,P|74:148|108:153,1,55.9999982910157,2|0,0:0|3:0,0:0:0:0:
202,174,11785,1,2,0:0:0:0:
162,75,11935,1,2,0:0:0:0:
284,116,12085,6,0,P|318:112|369:108,1,68.0000012969971,6|0,3:2|0:0,0:0:0:0:
480,97,12385,1,2,0:2:0:0:
383,11,12535,1,0,3:0:0:0:
424,187,12685,2,0,P|377:214|318:211,1,102.000001945496,2|0,0:2|0:0,0:0:0:0:
296,206,12985,2,0,P|291:238|286:276,1,68.0000012969971,0|0,3:0|0:0,0:0:0:0:
136,174,13285,5,0,3:0:0:0:
243,130,13435,1,0,0:0:0:0:
177,264,13585,1,2,0:0:0:0:
47,220,13735,2,0,P|42:184|39:142,1,68.0000012969971,0|2,3:0|0:0,0:0:0:0:
39,152,13960,1,2,0:0:0:0:
39,152,14035,1,0,3:0:0:0:
234,122,14185,1,8,0:0:0:0:
168,266,14335,1,0,0:0:0:0:
126,80,14485,5,0,3:0:0:0:
162,239,14635,1,0,0:0:0:0:
256,102,14785,2,0,P|294:99|336:96,1,68.0000012969971,2|0,0:0|3:0,0:0:0:0:
481,88,15085,1,2,0:0:0:0:
363,191,15235,1,0,0:0:0:0:
403,32,15385,1,0,3:0:0:0:
363,191,15535,1,0,0:0:0:0:
245,77,15685,5,0,3:0:0:0:
281,236,15835,1,0,3:0:0:0:
140,153,15985,1,2,0:0:0:0:
281,236,16135,1,0,3:0:0:0:
126,287,16285,1,2,0:0:0:0:
126,287,16360,1,2,0:0:0:0:
126,287,16435,1,0,3:0:0:0:
273,356,16585,2,0,P|308:351|347:345,1,68.0000012969971,8|0,0:0|0:0,0:0:0:0:
230,162,16885,5,0,3:0:0:0:
146,309,17035,1,0,0:0:0:0:
311,245,17185,1,2,0:0:0:0:
120,171,17335,1,0,3:0:0:0:
311,245,17485,2,0,P|343:241|378:239,1,68.0000012969971,2|0,0:0|0:0,0:0:0:0:
488,109,17785,2,0,P|455:105|421:103,1,68.0000012969971,0|2,3:0|0:0,0:0:0:0:
264,85,18085,5,0,3:0:0:0:
369,10,18235,1,0,0:0:0:0:
331,161,18385,1,2,0:0:0:0:
178,126,18535,1,0,0:0:0:0:
233,272,18685,1,0,3:0:0:0:
233,272,18760,1,2,0:0:0:0:
233,272,18835,1,2,0:0:0:0:
359,158,18985,2,0,P|394:152|437:159,1,68.0000012969971,8|0,0:0|0:0,0:0:0:0:
317,320,19285,5,0,3:0:0:0:
247,179,19435,1,0,0:0:0:0:
139,301,19585,2,0,P|134:334|131:368,1,68.0000012969971,2|0,0:0|3:0,0:0:0:0:
19,249,19885,1,2,0:0:0:0:
145,181,20035,1,0,0:0:0:0:
53,332,20185,1,0,3:0:0:0:
58,155,20335,1,0,0:0:0:0:
210,244,20485,6,0,P|244:251|286:243,1,68.0000012969971,0|2,3:0|0:0,0:0:0:0:
400,151,20785,1,0,0:0:0:0:
264,151,20935,1,0,3:0:0:0:
390,254,21085,1,2,0:0:0:0:
390,254,21160,1,2,0:0:0:0:
390,254,21235,1,0,3:0:0:0:
337,70,21385,2,0,B|284:63|284:63|260:48|260:48|198:41,1,136.000002593994,8|2,0:0|3:2,0:0:0:0:
86,109,21835,5,0,0:0:0:0:
239,164,21985,1,2,0:2:0:0:
130,219,22135,2,0,P|138:288|147:365,1,136.000002593994,0|0,3:0|0:0,0:0:0:0:
294,287,22585,2,0,P|255:283|220:278,1,68.0000012969971,0|0,3:0|0:0,0:0:0:0:
385,186,22885,5,0,3:0:0:0:
308,314,23035,1,0,0:0:0:0:
257,144,23185,1,2,0:0:0:0:
380,216,23335,1,0,3:0:0:0:
222,259,23485,1,2,0:0:0:0:
222,259,23560,1,2,0:0:0:0:
222,259,23635,1,0,3:0:0:0:
349,108,23785,2,0,B|381:57|341:8|341:8|319:31,1,136.000002593994,8|0,0:0|3:0,0:0:0:0:
235,133,24235,5,0,0:0:0:0:
122,15,24385,1,2,0:0:0:0:
34,100,24535,2,0,P|42:165|52:244,1,136.000002593994,0|0,3:0|0:0,0:0:0:0:
181,322,24985,2,0,P|185:288|189:254,1,68.0000012969971,0|0,3:0|0:0,0:0:0:0:
316,187,25285,5,0,3:0:0:0:
278,310,25435,1,0,3:0:0:0:
199,166,25585,2,0,P|159:162|120:173,1,68.0000012969971,2|0,0:0|3:0,0:0:0:0:
28,234,25885,1,2,0:0:0:0:
28,234,25960,1,2,0:0:0:0:
28,234,26035,1,0,3:0:0:0:
180,353,26185,2,0,B|232:346|232:346|259:328|259:328|315:320,1,136.000002593994,8|0,0:0|3:0,0:0:0:0:
418,239,26635,6,0,P|370:234|342:227,1,68.0000012969971,0|2,0:0|0:0,0:0:0:0:
222,128,26935,1,0,3:0:0:0:
357,134,27085,1,2,0:0:0:0:
253,222,27235,1,0,0:0:0:0:
128,168,27385,2,0,P|86:168|55:181,1,68.0000012969971,0|2,3:0|0:0,0:0:0:0:
164,330,27685,5,0,3:0:0:0:
270,206,27835,1,0,0:0:0:0:
308,378,27985,1,2,0:0:0:0:
414,254,28135,1,0,0:0:0:0:
265,303,28285,1,0,3:0:0:0:
265,303,28360,1,2,0:0:0:0:
265,303,28435,1,2,0:0:0:0:
373,146,28585,2,0,B|390:49|390:49|345:70,1,136.000002593994,8|0,0:0|3:0,0:0:0:0:
204,141,29035,5,0,0:0:0:0:
334,256,29185,1,2,0:0:0:0:
191,244,29335,1,0,3:0:0:0:
305,139,29485,2,0,P|338:141|372:145,1,68.0000012969971,2|0,0:0|0:0,0:0:0:0:
186,269,29785,2,0,P|152:272|118:275,1,68.0000012969971,0|0,3:0|0:0,0:0:0:0:
7,156,30085,5,0,3:0:0:0:
175,135,30235,1,2,0:0:0:0:
88,281,30385,1,2,0:0:0:0:
86,111,30535,1,0,3:0:0:0:
258,207,30685,1,2,0:0:0:0:
258,207,30760,1,2,0:0:0:0:
258,207,30835,1,0,3:0:0:0:
59,284,30985,1,8,0:0:0:0:
190,55,31135,6,0,B|314:38|314:38|288:53|270:81,1,176.000005371094,6|2,0:0|0:0,0:0:0:0:
369,242,31585,1,2,0:0:0:0:
472,131,31735,2,0,P|426:125|390:134,1,71.9999978027344,0|0,3:0|0:0,0:0:0:0:
269,252,32035,2,0,P|304:257|339:250,1,71.9999978027344,2|0,0:0|3:0,0:0:0:0:
152,170,32335,6,0,B|126:271|126:271|150:291|163:337,1,176.000005371094,2|2,0:0|0:0,0:0:0:0:
51,146,32785,1,2,0:0:0:0:
252,156,32935,2,0,P|288:149|337:142,1,71.9999978027344,0|2,3:0|0:0,0:0:0:0:
322,143,33160,1,2,0:0:0:0:
322,143,33235,1,0,3:0:0:0:
178,36,33385,1,8,0:0:0:0:
239,256,33535,5,2,0:0:0:0:
323,43,33685,1,0,3:0:0:0:
239,256,33835,1,2,0:0:0:0:
110,163,33985,2,0,P|71:168|25:174,1,71.9999978027344,2|0,0:0|3:0,0:0:0:0:
4,326,34285,2,0,P|51:313|129:344,1,107.999996704102,2|0,0:0|0:0,0:0:0:0:
107,327,34585,1,0,3:0:0:0:
226,163,34735,6,0,B|203:42|203:42|259:82,1,176.000005371094,2|2,0:0|0:0,0:0:0:0:
371,203,35185,1,2,0:0:0:0:
350,53,35335,1,0,3:0:0:0:
238,203,35485,1,2,0:0:0:0:
238,203,35560,1,2,0:0:0:0:
238,203,35635,1,0,3:0:0:0:
448,154,35785,1,8,0:0:0:0:
287,328,35935,6,0,B|187:347|187:347|144:328|146:277,1,176.000005371094,6|2,0:0|0:0,0:0:0:0:
138,94,36385,1,2,0:0:0:0:
40,219,36535,1,0,3:0:0:0:
209,187,36685,2,0,P|243:190|285:194,1,71.9999978027344,2|0,0:0|0:0,0:0:0:0:
115,297,36985,1,0,3:0:0:0:
17,119,37135,6,0,B|1:2|1:2|19:24|48:36,1,176.000005371094,2|2,0:0|0:0,0:0:0:0:
230,99,37585,1,2,0:0:0:0:
115,186,37735,1,0,3:0:0:0:
166,13,37885,1,2,0:0:0:0:
166,13,37960,1,2,0:0:0:0:
166,13,38035,1,0,3:0:0:0:
245,190,38185,1,8,0:0:0:0:
374,34,38335,6,0,B|438:-1|507:43|507:43|479:77,1,176.000005371094,2|2,0:0|0:0,0:0:0:0:
356,227,38785,1,2,0:0:0:0:
278,80,38935,1,0,3:0:0:0:
420,149,39085,1,2,0:0:0:0:
245,190,39235,1,0,0:0:0:0:
400,306,39385,2,0,P|436:300|493:292,1,71.9999978027344,0|2,3:0|0:0,0:0:0:0:
405,133,39685,5,0,3:0:0:0:
405,133,39760,1,2,0:0:0:0:
405,133,39835,1,2,0:0:0:0:
276,278,39985,1,2,0:0:0:0:
463,209,40135,1,0,3:0:0:0:
245,190,40285,1,2,0:0:0:0:
245,190,40360,1,2,0:0:0:0:
245,190,40435,1,0,3:0:0:0:
354,29,40585,1,8,0:0:0:0:
463,209,40735,6,0,B|489:251|489:251|467:333|467:333|442:300,1,176.000005371094,6|2,0:0|0:0,0:0:0:0:
337,125,41185,2,0,P|371:120|420:112,1,71.9999978027344,2|0,0:0|3:0,0:0:0:0:
217,203,41485,2,0,P|181:197|145:192,1,71.9999978027344,2|0,0:0|0:0,0:0:0:0:
266,28,41785,1,0,3:0:0:0:
350,240,41935,6,0,B|362:282|362:282|345:331,1,88.000002685547,2|0,0:0|3:0,0:0:0:0:
123,312,42235,2,0,P|162:286|275:302,1,143.999995605469,2|0,0:0|3:0,0:0:0:0:
441,367,42685,1,2,0:0:0:0:
441,367,42760,1,2,0:0:0:0:
441,367,42835,1,0,3:0:0:0:
396,163,42985,1,8,0:0:0:0:
255,289,43135,6,0,B|243:331|243:331|260:380,1,88.000002685547,2|0,0:0|3:0,0:0:0:0:
427,251,43435,2,0,P|424:213|419:166,1,71.9999978027344,2|2,0:0|0:0,0:0:0:0:
294,83,43735,2,0,P|290:118|287:154,1,71.9999978027344,0|0,3:0|0:0,0:0:0:0:
157,244,44035,1,2,0:0:0:0:
181,65,44185,1,0,3:0:0:0:
287,188,44335,1,2,0:0:0:0:
82,145,44485,5,0,3:0:0:0:
82,145,44560,1,2,0:0:0:0:
82,145,44635,1,2,0:0:0:0:
186,325,44785,1,2,0:0:0:0:
287,188,44935,1,0,3:0:0:0:
67,258,45085,1,2,0:0:0:0:
67,258,45160,1,2,0:0:0:0:
67,258,45235,1,0,3:0:0:0:
161,48,45385,1,8,0:0:0:0:
310,209,45535,6,0,B|355:220|355:220|414:201,1,88.000002685547,6|0,0:0|3:0,0:0:0:0:
498,60,45835,2,0,P|459:55|414:50,1,71.9999978027344,2|2,0:0|0:0,0:0:0:0:
260,35,46135,1,0,3:0:0:0:
172,167,46285,2,0,P|163:199|174:253,1,71.9999978027344,2|0,0:0|0:0,0:0:0:0:
394,207,46585,1,0,3:0:0:0:
253,119,46735,1,2,0:0:0:0:
321,316,46885,5,0,3:0:0:0:
347,108,47035,1,2,0:0:0:0:
321,316,47185,2,0,P|279:318|234:322,1,71.9999978027344,2|0,0:0|3:0,0:0:0:0:
76,245,47485,1,2,0:0:0:0:
76,245,47560,1,2,0:0:0:0:
76,245,47635,1,0,3:0:0:0:
259,209,47785,1,8,0:0:0:0:
49,339,47935,6,0,B|4:286|48:214|48:214|82:252,1,176.000005371094,2|2,0:0|0:0,0:0:0:0:
220,105,48385,2,0,P|181:100|143:95,1,71.9999978027344,2|0,0:0|3:0,0:0:0:0:
279,230,48685,2,0,P|314:225|350:220,1,71.9999978027344,2|0,0:0|0:0,0:0:0:0:
161,328,48985,1,0,3:0:0:0:
240,126,49135,1,2,0:0:0:0:
347,346,49285,5,0,3:0:0:0:
347,346,49360,1,2,0:0:0:0:
347,346,49435,1,2,0:0:0:0:
138,218,49585,2,0,P|97:211|44:228,1,71.9999978027344,2|0,0:0|3:0,0:0:0:0:
204,38,49885,2,0,P|239:43|274:36,1,71.9999978027344,2|0,0:0|3:0,0:0:0:0:
476,130,50185,1,8,0:0:0:0:
294,174,50335,1,2,0:0:0:0:
499,109,50485,6,0,B|455:213|455:213|478:231|494:282,1,176.000005371094,6|2,3:2|0:0,0:0:0:0:
294,360,50935,2,0,P|296:272|264:191,1,176.000005371094,0|2,3:0|0:0,0:0:0:0:
55,361,51385,1,0,3:0:0:0:
273,341,51535,1,2,0:0:0:0:
111,175,51685,6,0,P|115:128|120:80,1,88.000002685547,0|0,3:0|0:0,0:0:0:0:
344,5,51985,2,0,P|348:48|352:92,1,88.000002685547,2|0,0:0|3:0,0:0:0:0:
377,334,52285,1,2,0:0:0:0:
480,144,52435,1,0,3:0:0:0:
242,216,52585,1,8,0:0:0:0:
469,293,52735,1,2,0:0:0:0:
224,243,52885,6,0,B|175:237|145:251|145:251|134:263|134:263|100:286|33:268,1,176.000005371094,6|2,3:2|0:0,0:0:0:0:
61,33,53335,2,0,P|119:57|132:170,1,176.000005371094,0|2,3:0|0:0,0:0:0:0:
10,348,53785,1,0,3:0:0:0:
57,124,53935,1,2,0:0:0:0:
212,267,54085,6,0,P|208:313|203:364,1,88.000002685547,0|0,3:0|0:0,0:0:0:0:
398,203,54385,2,0,P|394:157|389:106,1,88.000002685547,2|0,0:0|3:0,0:0:0:0:
152,50,54685,1,2,0:0:0:0:
152,50,54760,1,2,0:0:0:0:
152,50,54835,1,0,3:0:0:0:
307,241,54985,1,8,0:0:0:0:
325,30,55135,1,2,0:0:0:0:
152,205,55285,5,6,3:2:0:0:
398,203,55435,1,0,0:0:0:0:
203,354,55585,1,2,0:0:0:0:
268,116,55735,1,0,3:0:0:0:
52,235,55885,1,2,0:0:0:0:
272,297,56035,2,0,P|314:293|381:287,1,88.000002685547,0|0,0:0|3:0,0:0:0:0:
176,124,56335,1,2,0:0:0:0:
89,354,56485,5,0,3:0:0:0:
284,203,56635,1,0,0:0:0:0:
38,217,56785,1,2,0:0:0:0:
219,383,56935,2,0,P|261:379|328:373,1,88.000002685547,0|2,3:0|0:0,0:0:0:0:
434,196,57235,1,0,3:0:0:0:
190,272,57385,1,8,0:0:0:0:
409,362,57535,1,2,0:0:0:0:
327,120,57685,5,2,3:2:0:0:
231,356,57835,1,0,0:0:0:0:
123,124,57985,1,2,0:0:0:0:
86,358,58135,1,0,3:0:0:0:
312,229,58285,1,0,0:0:0:0:
84,255,58435,1,2,0:0:0:0:
233,93,58585,2,0,P|242:50|230:9,1,88.000002685547,0|2,3:0|0:0,0:0:0:0:
31,172,58885,5,0,3:0:0:0:
277,237,59035,1,0,0:0:0:0:
110,21,59185,1,2,0:0:0:0:
3,272,59335,2,0,P|7:314|12:368,1,88.000002685547,0|2,3:0|0:0,0:0:0:0:
11,359,59560,1,2,0:0:0:0:
11,359,59635,1,0,3:0:0:0:
245,237,59785,1,8,0:0:0:0:
56,182,59935,1,2,0:0:0:0:
253,356,60085,6,0,B|359:378|359:378|395:366|413:313,1,176.000005371094,6|2,3:2|0:0,0:0:0:0:
502,156,60535,2,0,P|417:180|316:133,1,176.000005371094,0|2,3:0|0:0,0:0:0:0:
155,43,60985,1,0,3:0:0:0:
342,7,61135,1,2,0:0:0:0:
166,164,61285,6,0,P|156:206|162:250,1,88.000002685547,0|0,3:0|0:0,0:0:0:0:
344,372,61585,2,0,P|355:329|349:286,1,88.000002685547,2|0,0:0|3:0,0:0:0:0:
238,85,61885,1,2,0:0:0:0:
170,282,62035,1,0,3:0:0:0:
359,166,62185,1,8,0:0:0:0:
140,151,62335,1,2,0:0:0:0:
272,342,62485,6,0,B|343:331|343:331|368:308|368:308|448:298,1,176.000005371094,6|2,3:2|0:0,0:0:0:0:
187,263,62935,2,0,P|91:280|11:230,1,176.000005371094,0|2,3:0|0:0,0:0:0:0:
261,163,63385,1,0,3:0:0:0:
179,372,63535,1,2,0:0:0:0:
116,146,63685,6,0,P|123:98|129:53,1,88.000002685547,0|0,3:0|0:0,0:0:0:0:
334,5,63985,2,0,P|339:48|346:92,1,88.000002685547,2|0,0:0|3:0,0:0:0:0:
391,317,64285,1,2,0:0:0:0:
391,317,64360,1,2,0:0:0:0:
391,317,64435,1,0,3:0:0:0:
237,147,64585,1,8,0:0:0:0:
443,192,64735,1,2,0:0:0:0:
253,285,64885,6,0,P|208:268|111:297,1,132.00000402832,6|0,3:2|0:0,0:0:0:0:
95,298,65185,2,0,P|47:291|-2:284,1,88.000002685547,2|0,0:0|3:0,0:0:0:0:
190,383,65485,1,2,0:0:0:0:
154,174,65635,1,0,0:0:0:0:
334,354,65785,1,0,3:0:0:0:
298,145,65935,1,2,0:0:0:0:
190,383,66085,5,0,3:0:0:0:
362,246,66235,1,0,0:0:0:0:
154,174,66385,2,0,P|108:168|53:162,1,88.000002685547,2|0,0:0|3:0,0:0:0:0:
270,22,66685,1,2,0:0:0:0:
270,22,66760,1,2,0:0:0:0:
270,22,66835,1,0,3:0:0:0:
211,270,66985,2,0,P|165:276|110:282,1,88.000002685547,8|2,0:0|0:0,0:0:0:0:
317,125,67285,5,2,3:2:0:0:
440,262,67435,2,0,P|452:306|449:350,1,88.000002685547,2|0,0:0|0:0,0:0:0:0:
239,268,67735,1,0,3:0:0:0:
430,160,67885,1,2,0:0:0:0:
334,318,68035,1,0,0:0:0:0:
220,161,68185,2,0,P|174:144|123:148,1,88.000002685547,0|2,3:0|0:0,0:0:0:0:
11,293,68485,6,0,P|70:309|156:235,1,176.000005371094,0|2,3:0|0:0,0:0:0:0:
199,62,68935,1,0,3:0:0:0:
364,162,69085,2,0,P|357:212|352:271,1,88.000002685547,2|0,0:0|3:0,0:0:0:0:
169,373,69385,2,0,P|162:307|153:241,1,132.00000402832,8|0,0:0|0:0,0:0:0:0:
128,156,69685,6,0,P|74:167|9:117,1,120,6|0,3:2|0:0,0:0:0:0:
81,83,69985,2,0,L|146:73,2,40,2|0|0,0:0|0:0|3:0,0:0:0:0:
222,157,70285,2,0,P|261:161|313:167,1,80,2|0,0:0|0:0,0:0:0:0:
407,286,70585,2,0,P|368:290|316:296,1,80,0|0,3:0|0:0,0:0:0:0:
167,311,70885,6,0,P|152:269|157:220,1,80,0|0,3:0|0:0,0:0:0:0:
191,77,71185,1,2,0:0:0:0:
304,203,71335,1,2,0:0:0:0:
304,203,71410,1,2,0:0:0:0:
304,203,71485,2,0,P|366:191|393:187,1,80,2|0,0:0|3:0,0:0:0:0:
492,71,71785,2,0,P|452:64|413:58,1,80,8|0,0:0|0:0,0:0:0:0:
255,23,72085,6,0,P|214:42|161:37,1,80,0|0,3:0|0:0,0:0:0:0:
45,21,72385,1,2,0:0:0:0:
23,160,72535,1,2,0:0:0:0:
23,160,72610,1,2,0:0:0:0:
23,160,72685,2,0,P|36:197|49:246,1,80,2|0,0:0|0:0,0:0:0:0:
208,342,72985,2,0,P|219:289|236:222,1,120,0|0,3:0|0:0,0:0:0:0:
258,147,73285,6,0,P|296:163|342:158,1,80,0|0,3:0|0:0,0:0:0:0:
483,101,73585,1,2,0:0:0:0:
419,251,73735,1,2,0:0:0:0:
419,250,73810,1,2,0:0:0:0:
419,250,73885,1,2,0:0:0:0:
383,69,74035,1,0,3:0:0:0:
235,225,74185,2,0,B|181:252|181:252|111:230,1,120,8|0,0:0|0:0,0:0:0:0:
77,167,74485,6,0,P|37:174|-2:183,1,80,2|0,3:2|0:0,0:0:0:0:
103,340,74785,2,0,P|172:353|227:323,1,120,2|0,0:0|0:0,0:0:0:0:
235,302,75085,2,0,P|243:257|222:206,1,80,2|0,0:0|0:0,0:0:0:0:
213,74,75385,2,0,P|272:64|348:53,1,120,0|0,3:0|0:0,0:0:0:0:
367,49,75685,6,0,P|363:88|359:134,1,80,0|0,3:0|0:0,0:0:0:0:
234,225,75985,2,0,P|177:200|115:215,1,120,2|0,0:0|0:0,0:0:0:0:
90,228,76285,2,0,P|45:221|-3:216,1,80,2|0,0:0|3:0,0:0:0:0:
136,344,76585,2,0,P|175:339|215:333,1,80,8|0,0:0|0:0,0:0:0:0:
368,260,76885,6,0,P|390:201|395:136,1,111.999996582031,4|8,3:0|0:0,0:0:0:0:
395,152,77335,1,4,3:0:0:0:
277,204,77485,6,0,P|236:155|183:118,1,111.999996582031,4|8,3:0|0:0,0:0:0:0:
198,127,77935,1,4,3:0:0:0:
183,254,78085,6,0,P|151:259|122:273,1,55.9999982910157,4|0,3:0|0:0,0:0:0:0:
240,336,78385,1,8,0:0:0:0:
277,204,78535,1,4,3:0:0:0:
387,281,78685,1,4,3:0:0:0:
387,281,79285,6,0,P|317:256|237:266,1,136.000002593994,6|2,3:2|0:2,0:0:0:0:
328,349,79735,1,0,3:0:0:0:
482,283,79885,2,0,P|468:209|419:145,1,136.000002593994,2|0,0:2|3:0,0:0:0:0:
325,121,80335,1,0,0:0:0:0:
231,241,80485,6,0,P|222:308|214:375,1,136.000002593994,0|2,3:0|0:0,0:0:0:0:
134,292,80935,1,0,3:0:0:0:
324,282,81085,1,2,0:0:0:0:
324,282,81160,1,2,0:0:0:0:
324,282,81235,1,0,3:0:0:0:
178,159,81385,1,8,0:0:0:0:
121,319,81535,1,0,0:0:0:0:
244,215,81685,6,0,P|305:191|374:189,1,136.000002593994,0|2,3:0|0:0,0:0:0:0:
488,207,82135,1,0,3:0:0:0:
466,93,82285,2,0,P|413:54|346:33,1,136.000002593994,2|0,0:0|3:0,0:0:0:0:
230,44,82735,1,0,0:0:0:0:
281,179,82885,5,0,3:0:0:0:
281,179,82960,1,2,0:0:0:0:
281,179,83035,2,0,P|277:216|271:263,1,68.0000012969971,0|2,3:0|0:0,0:0:0:0:
191,329,83335,1,0,3:0:0:0:
163,216,83485,1,2,0:0:0:0:
163,216,83560,1,2,0:0:0:0:
163,216,83635,1,0,3:0:0:0:
306,329,83785,2,0,P|340:324|374:319,1,68.0000012969971,8|0,0:0|0:0,0:0:0:0:
471,256,84085,5,0,3:0:0:0:
392,171,84235,2,0,P|331:180|253:126,1,136.000002593994,2|0,0:0|3:0,0:0:0:0:
197,53,84685,2,0,P|265:45|333:37,1,136.000002593994,2|0,0:0|3:0,0:0:0:0:
234,150,85135,1,2,0:0:0:0:
180,32,85285,5,0,3:0:0:0:
78,87,85435,2,0,P|50:155|75:231,1,136.000002593994,2|2,0:0|0:0,0:0:0:0:
133,323,85885,1,2,0:0:0:0:
133,323,85960,1,2,0:0:0:0:
133,323,86035,1,0,3:0:0:0:
209,171,86185,1,8,0:0:0:0:
75,238,86335,1,0,0:0:0:0:
220,271,86485,6,0,P|254:267|300:260,1,68.0000012969971,0|0,3:0|0:0,0:0:0:0:
200,366,86785,2,0,P|166:362|120:355,1,68.0000012969971,2|0,0:0|3:0,0:0:0:0:
6,304,87085,1,2,0:0:0:0:
91,216,87235,1,0,0:0:0:0:
52,381,87385,1,0,3:0:0:0:
91,216,87535,1,0,0:0:0:0:
220,271,87685,6,0,P|254:267|300:260,1,68.0000012969971,0|2,3:0|0:0,0:0:0:0:
406,160,87985,1,0,0:0:0:0:
290,171,88135,1,0,3:0:0:0:
393,258,88285,1,2,0:0:0:0:
393,258,88360,1,2,0:0:0:0:
393,258,88435,1,0,3:0:0:0:
338,89,88585,1,8,0:0:0:0:
259,173,88735,1,0,0:0:0:0:
427,147,88885,6,0,P|460:151|502:156,1,68.0000012969971,2|0,3:2|0:0,0:0:0:0:
505,319,89185,2,0,P|460:319|395:352,1,102.000001945496,2|0,0:2|0:0,0:0:0:0:
383,363,89485,2,0,P|349:358|315:354,1,68.0000012969971,2|0,0:2|0:0,0:0:0:0:
198,260,89785,1,0,3:0:0:0:
308,227,89935,1,0,0:0:0:0:
214,352,90085,6,0,P|180:356|146:360,1,68.0000012969971,0|0,3:0|0:0,0:0:0:0:
2,299,90385,1,2,0:0:0:0:
85,218,90535,2,0,P|92:183|87:144,1,68.0000012969971,0|2,3:0|0:0,0:0:0:0:
88,151,90760,1,2,0:0:0:0:
88,151,90835,1,0,3:0:0:0:
201,88,90985,2,0,P|198:121|204:154,1,68.0000012969971,8|0,0:0|0:0,0:0:0:0:
288,235,91285,5,0,3:0:0:0:
314,122,91435,1,0,0:0:0:0:
394,248,91585,1,2,0:0:0:0:
420,135,91735,1,0,3:0:0:0:
288,235,91885,2,0,P|285:271|281:318,1,68.0000012969971,2|0,0:0|0:0,0:0:0:0:
168,378,92185,2,0,P|165:344|162:310,1,68.0000012969971,0|0,3:0|0:0,0:0:0:0:
144,195,92485,6,0,P|67:187|28:142,1,136.000002593994,0|2,3:0|0:0,0:0:0:0:
95,50,92935,2,0,P|126:46|166:40,1,68.0000012969971,0|2,3:0|0:0,0:0:0:0:
162,40,93160,1,2,0:0:0:0:
162,40,93235,1,0,3:0:0:0:
277,134,93385,2,0,P|242:129|206:124,1,68.0000012969971,8|0,0:0|0:0,0:0:0:0:
333,38,93685,5,0,3:0:0:0:
409,123,93835,2,0,P|419:157|412:196,1,68.0000012969971,0|2,0:0|0:0,0:0:0:0:
335,274,94135,1,0,3:0:0:0:
435,331,94285,2,0,P|469:326|509:321,1,68.0000012969971,2|0,0:0|0:0,0:0:0:0:
340,247,94585,1,0,3:0:0:0:
303,356,94735,1,2,0:0:0:0:
217,278,94885,6,0,P|154:268|83:315,1,136.000002593994,0|2,3:0|0:0,0:0:0:0:
21,210,95335,2,0,P|17:174|13:133,1,68.0000012969971,0|2,3:0|0:0,0:0:0:0:
13,142,95560,1,2,0:0:0:0:
13,142,95635,1,0,3:0:0:0:
92,23,95785,1,8,0:0:0:0:
160,148,95935,1,0,0:0:0:0:
235,25,96085,6,0,P|268:22|316:35,1,71.9999978027344,0|0,3:0|0:0,0:0:0:0:
240,190,96385,1,2,0:0:0:0:
158,71,96535,1,0,3:0:0:0:
330,122,96685,2,0,P|379:117|462:109,1,107.999996704102,2|0,0:0|0:0,0:0:0:0:
469,108,96985,2,0,P|483:144|482:187,1,71.9999978027344,0|0,3:0|0:0,0:0:0:0:
422,339,97285,5,0,3:0:0:0:
339,229,97435,1,2,0:0:0:0:
505,275,97585,1,2,0:0:0:0:
336,313,97735,2,0,P|297:310|247:306,1,71.9999978027344,0|2,3:0|0:0,0:0:0:0:
92,287,98035,1,0,3:0:0:0:
243,203,98185,1,8,0:0:0:0:
174,345,98335,1,2,0:0:0:0:
87,198,98485,6,0,P|83:163|95:125,1,68.0000012969971,6|0,3:2|0:0,0:0:0:0:
200,29,98785,2,0,P|203:64|208:107,1,68.0000012969971,2|0,0:2|3:0,0:0:0:0:
272,193,99085,2,0,P|320:174|385:182,1,102.000001945496,2|0,0:2|0:0,0:0:0:0:
400,189,99385,2,0,P|396:224|392:267,1,68.0000012969971,0|0,3:0|0:0,0:0:0:0:
280,334,99685,5,0,3:0:0:0:
243,203,99835,1,0,0:0:0:0:
164,314,99985,1,2,0:0:0:0:
127,183,100135,2,0,P|86:188|46:193,1,68.0000012969971,0|2,3:0|0:0,0:0:0:0:
59,191,100360,1,2,0:0:0:0:
59,191,100435,1,0,3:0:0:0:
190,94,100585,1,8,0:0:0:0:
218,220,100735,1,0,0:0:0:0:
310,129,100885,6,0,P|318:86|313:55,1,68.0000012969971,0|0,3:0|0:0,0:0:0:0:
419,11,101185,2,0,P|426:65|432:116,1,102.000001945496,2|0,0:0|0:0,0:0:0:0:
454,137,101485,2,0,P|449:174|444:210,1,68.0000012969971,2|0,0:0|0:0,0:0:0:0:
424,318,101785,1,0,3:0:0:0:
329,251,101935,1,0,0:0:0:0:
443,233,102085,5,2,3:2:0:0:
332,346,102235,1,0,3:0:0:0:
332,346,102310,1,2,0:0:0:0:
332,346,102385,1,2,0:0:0:0:
241,274,102535,2,0,P|169:280|84:289,1,136.000002593994,0|0,3:0|3:0,0:0:0:0:
28,199,102985,2,0,P|65:192|101:177,1,68.0000012969971,8|0,0:0|0:0,0:0:0:0:
186,111,103285,5,0,3:0:0:0:
75,77,103435,1,0,0:0:0:0:
186,111,103585,2,0,P|191:70|195:35,1,68.0000012969971,2|0,0:0|3:0,0:0:0:0:
305,8,103885,2,0,P|338:58|319:141,1,136.000002593994,2|0,0:0|3:0,0:0:0:0:
264,228,104335,1,2,0:0:0:0:
379,229,104485,5,0,3:0:0:0:
317,327,104635,1,0,0:0:0:0:
379,229,104785,2,0,P|414:233|450:225,1,68.0000012969971,2|0,0:0|0:0,0:0:0:0:
326,130,105085,1,0,3:0:0:0:
326,130,105160,1,2,0:0:0:0:
326,130,105235,1,2,0:0:0:0:
234,230,105385,2,0,P|197:227|155:222,1,68.0000012969971,8|0,0:0|0:0,0:0:0:0:
51,211,105685,5,0,3:0:0:0:
118,117,105835,1,0,0:0:0:0:
226,162,105985,2,0,P|230:199|234:235,1,68.0000012969971,2|0,0:0|3:0,0:0:0:0:
278,78,106285,2,0,P|243:62|210:48,1,68.0000012969971,2|0,0:0|0:0,0:0:0:0:
323,164,106585,2,0,P|353:142|382:120,1,68.0000012969971,0|0,3:0|0:0,0:0:0:0:
477,63,106885,5,0,3:0:0:0:
477,63,106960,1,2,0:0:0:0:
477,63,107035,1,2,0:0:0:0:
364,36,107185,1,2,0:0:0:0:
465,155,107335,2,0,P|455:220|444:307,1,136.000002593994,0|0,3:0|3:0,0:0:0:0:
302,354,107785,2,0,B|286:322|286:322|296:276,1,68.0000012969971,8|0,0:0|0:0,0:0:0:0:
314,176,108085,6,0,P|248:190|178:146,1,136.000002593994,2|2,3:2|0:2,0:0:0:0:
123,65,108535,1,0,3:0:0:0:
33,138,108685,2,0,P|38:171|43:205,1,68.0000012969971,2|0,0:2|0:0,0:0:0:0:
57,320,108985,1,0,3:0:0:0:
161,272,109135,6,0,B|240:259|221:305|310:288,1,136.000002593994,2|0,0:0|0:0,0:0:0:0:
395,237,109585,1,2,0:0:0:0:
496,292,109735,2,0,P|491:327|485:370,1,68.0000012969971,0|2,3:0|0:0,0:0:0:0:
487,360,109960,1,2,0:0:0:0:
487,360,110035,1,0,3:0:0:0:
293,290,110185,2,0,P|288:256|284:222,1,68.0000012969971,8|0,0:0|0:0,0:0:0:0:
260,88,110485,6,0,B|209:82|209:82|179:61|179:61|117:53,1,136.000002593994,0|2,3:0|0:0,0:0:0:0:
28,106,110935,1,0,3:0:0:0:
102,216,111085,2,0,P|107:182|114:149,1,68.0000012969971,2|0,0:0|0:0,0:0:0:0:
19,255,111385,1,0,3:0:0:0:
195,201,111535,1,2,0:0:0:0:
183,362,111685,5,0,3:0:0:0:
183,362,111760,1,2,0:0:0:0:
183,362,111835,2,0,P|215:358|258:355,1,68.0000012969971,0|2,3:0|0:0,0:0:0:0:
360,318,112135,1,0,3:0:0:0:
285,243,112285,1,2,0:0:0:0:
285,243,112360,1,2,0:0:0:0:
285,243,112435,1,0,3:0:0:0:
393,203,112585,2,0,P|426:207|468:210,1,68.0000012969971,8|0,0:0|0:0,0:0:0:0:
310,95,112885,6,0,P|248:125|172:95,1,136.000002593994,0|2,3:0|0:0,0:0:0:0:
89,42,113335,1,0,3:0:0:0:
5,123,113485,2,0,P|15:187|28:269,1,136.000002593994,2|0,0:0|3:0,0:0:0:0:
53,370,113935,1,2,0:0:0:0:
158,322,114085,6,0,P|166:288|165:238,1,68.0000012969971,0|0,3:0|0:0,0:0:0:0:
52,270,114385,1,2,0:0:0:0:
222,381,114535,2,0,P|255:370|298:345,1,68.0000012969971,0|0,3:0|0:0,0:0:0:0:
393,261,114835,1,2,0:0:0:0:
257,216,114985,1,8,0:0:0:0:
393,261,115135,1,0,0:0:0:0:
390,109,115285,6,0,P|339:84|266:91,1,107.999996704102,0|0,3:0|0:0,0:0:0:0:
257,92,115585,2,0,P|254:56|250:20,1,71.9999978027344,10|0,0:0|3:0,0:0:0:0:
120,113,115885,2,0,P|117:149|113:185,1,71.9999978027344,2|0,0:0|0:0,0:0:0:0:
186,308,116185,1,0,3:0:0:0:
269,190,116335,1,2,0:0:0:0:
91,269,116485,5,0,3:0:0:0:
306,287,116635,1,2,0:0:0:0:
225,86,116785,1,8,0:0:0:0:
180,333,116935,1,0,3:0:0:0:
373,171,117085,5,8,0:0:0:0:
120,113,117235,1,2,3:2:0:0:
307,321,117385,1,0,1:0:0:0:
342,317,117460,1,0,1:0:0:0:
378,313,117535,1,0,1:0:0:0:
414,309,117610,1,0,1:0:0:0:
450,305,117685,6,0,B|476:312|499:327|499:327|454:179,1,176.000005371094,6|2,3:2|0:0,0:0:0:0:
213,178,118135,2,0,P|198:256|179:357,1,176.000005371094,0|2,3:0|0:0,0:0:0:0:
104,175,118585,1,0,3:0:0:0:
301,232,118735,1,2,0:0:0:0:
89,286,118885,6,0,P|31:293|-13:276,1,88.000002685547,0|0,3:0|0:0,0:0:0:0:
173,89,119185,2,0,P|215:79|258:87,1,88.000002685547,2|0,0:0|3:0,0:0:0:0:
463,188,119485,1,2,0:0:0:0:
281,221,119635,1,0,3:0:0:0:
393,21,119785,1,8,0:0:0:0:
495,185,119935,1,2,0:0:0:0:
272,110,120085,6,0,B|209:115|209:115|169:144|169:144|97:152,1,176.000005371094,6|2,3:2|0:0,0:0:0:0:
1,325,120535,2,0,B|94:316|78:369|172:353,1,176.000005371094,0|2,3:0|0:0,0:0:0:0:
380,256,120985,1,0,3:0:0:0:
187,234,121135,1,2,0:0:0:0:
317,376,121285,6,0,P|359:369|404:364,1,88.000002685547,0|0,3:0|0:0,0:0:0:0:
504,157,121585,2,0,P|460:151|416:145,1,88.000002685547,2|0,0:0|3:0,0:0:0:0:
215,116,121885,1,2,0:0:0:0:
215,116,121960,1,2,0:0:0:0:
215,116,122035,1,0,3:0:0:0:
427,31,122185,1,8,0:0:0:0:
355,241,122335,1,2,0:0:0:0:
271,9,122485,5,6,3:2:0:0:
177,208,122635,1,0,0:0:0:0:
417,145,122785,1,2,0:0:0:0:
323,344,122935,1,0,3:0:0:0:
240,121,123085,1,2,0:0:0:0:
144,299,123235,2,0,P|94:306|51:291,1,88.000002685547,0|0,0:0|3:0,0:0:0:0:
15,124,123535,1,2,0:0:0:0:
260,102,123685,5,0,3:0:0:0:
85,204,123835,1,0,0:0:0:0:
327,246,123985,1,2,0:0:0:0:
151,129,124135,2,0,P|154:85|158:34,1,88.000002685547,0|2,3:0|0:0,0:0:0:0:
336,156,124435,1,0,3:0:0:0:
99,225,124585,1,8,0:0:0:0:
276,321,124735,1,2,0:0:0:0:
259,75,124885,5,2,3:2:0:0:
181,281,125035,1,0,0:0:0:0:
18,96,125185,1,2,0:0:0:0:
251,51,125335,1,0,3:0:0:0:
85,204,125485,1,0,0:0:0:0:
136,18,125635,1,2,0:0:0:0:
301,163,125785,2,0,P|306:207|310:259,1,88.000002685547,0|2,3:0|0:0,0:0:0:0:
486,20,126085,5,0,3:0:0:0:
251,51,126235,1,0,0:0:0:0:
469,183,126385,1,2,0:0:0:0:
211,239,126535,2,0,P|206:283|202:335,1,88.000002685547,0|2,3:0|0:0,0:0:0:0:
202,326,126760,1,2,0:0:0:0:
202,326,126835,1,0,3:0:0:0:
322,142,126985,1,8,0:0:0:0:
123,179,127135,1,2,0:0:0:0:
324,305,127285,6,0,B|426:326|426:326|461:315|469:258,1,176.000005371094,6|2,3:2|0:0,0:0:0:0:
303,119,127735,2,0,P|207:136|129:152,1,176.000005371094,0|2,3:0|0:0,0:0:0:0:
0,299,128185,1,0,3:0:0:0:
182,250,128335,1,2,0:0:0:0:
17,94,128485,6,0,P|22:55|28:-1,1,88.000002685547,0|0,3:0|0:0,0:0:0:0:
154,255,128785,2,0,P|159:294|165:350,1,88.000002685547,2|0,0:0|3:0,0:0:0:0:
325,132,129085,1,2,0:0:0:0:
126,122,129235,1,0,3:0:0:0:
303,282,129385,1,8,0:0:0:0:
219,47,129535,1,2,0:0:0:0:
467,87,129685,6,0,B|481:146|494:188|494:188|455:211|443:265,1,176.000005371094,6|2,3:2|0:0,0:0:0:0:
204,346,130135,2,0,P|211:262|219:169,1,176.000005371094,0|2,3:0|0:0,0:0:0:0:
104,353,130585,1,0,3:0:0:0:
314,291,130735,1,2,0:0:0:0:
102,214,130885,6,0,P|61:217|15:221,1,88.000002685547,0|0,3:0|0:0,0:0:0:0:
132,25,131185,2,0,P|175:29|219:32,1,88.000002685547,2|0,0:0|3:0,0:0:0:0:
438,65,131485,1,2,0:0:0:0:
438,65,131560,1,2,0:0:0:0:
438,65,131635,1,0,3:0:0:0:
246,172,131785,1,8,0:0:0:0:
338,2,131935,1,2,0:0:0:0:
469,156,132085,6,0,P|490:223|466:295,1,132.00000402832,6|0,3:2|0:0,0:0:0:0:
452,308,132385,2,0,P|405:301|353:294,1,88.000002685547,2|0,0:0|3:0,0:0:0:0:
163,264,132685,1,2,0:0:0:0:
335,160,132835,1,0,0:0:0:0:
252,382,132985,1,0,3:0:0:0:
452,308,133135,1,2,0:0:0:0:
234,192,133285,5,0,3:0:0:0:
447,138,133435,1,0,0:0:0:0:
245,296,133585,2,0,P|202:298|159:290,1,88.000002685547,2|0,0:0|3:0,0:0:0:0:
9,164,133885,1,2,0:0:0:0:
9,164,133960,1,2,0:0:0:0:
9,164,134035,1,0,3:0:0:0:
218,96,134185,2,0,P|211:144|204:195,1,88.000002685547,8|2,0:0|0:0,0:0:0:0:
367,344,134485,5,2,3:2:0:0:
433,166,134635,2,0,P|375:143|322:144,1,88.000002685547,2|0,0:0|0:0,0:0:0:0:
183,198,134935,1,0,3:0:0:0:
387,252,135085,1,2,0:0:0:0:
247,87,135235,1,0,0:0:0:0:
190,296,135385,2,0,P|141:291|77:285,1,88.000002685547,0|2,3:0|0:0,0:0:0:0:
47,75,135685,6,0,B|145:60|121:119|230:93,1,176.000005371094,0|2,3:0|0:0,0:0:0:0:
383,32,136135,1,0,3:0:0:0:
344,212,136285,2,0,P|303:219|242:229,1,88.000002685547,2|0,0:0|3:0,0:0:0:0:
409,119,136585,1,8,0:0:0:0:
461,286,136735,1,2,0:0:0:0:
260,195,136885,6,0,B|163:170|163:170|112:181|109:224,1,176.000005371094,6|2,3:2|0:0,0:0:0:0:
198,370,137335,2,0,P|277:359|391:347,1,176.000005371094,0|2,3:0|0:0,0:0:0:0:
289,192,137785,1,0,3:0:0:0:
174,348,137935,1,2,0:0:0:0:
19,263,138085,6,0,P|13:220|26:178,1,88.000002685547,0|0,3:0|0:0,0:0:0:0:
202,180,138385,2,0,P|214:221|208:265,1,88.000002685547,2|0,0:0|3:0,0:0:0:0:
114,64,138685,1,2,0:0:0:0:
284,106,138835,1,0,3:0:0:0:
105,237,138985,1,8,0:0:0:0:
145,65,139135,1,2,0:0:0:0:
321,201,139285,6,0,B|420:184|420:184|443:219|499:234,1,176.000005371094,6|2,3:2|0:0,0:0:0:0:
290,365,139735,2,0,P|200:356|115:349,1,176.000005371094,0|2,3:0|0:0,0:0:0:0:
6,137,140185,1,0,3:0:0:0:
207,198,140335,1,2,0:0:0:0:
29,296,140485,6,0,P|15:345|24:393,1,88.000002685547,0|0,3:0|0:0,0:0:0:0:
178,192,140785,2,0,P|182:148|168:106,1,88.000002685547,2|0,0:0|3:0,0:0:0:0:
15,174,141085,1,2,0:0:0:0:
15,174,141160,1,2,0:0:0:0:
15,174,141235,1,0,3:0:0:0:
207,280,141385,1,8,0:0:0:0:
154,84,141535,1,2,0:0:0:0:
379,158,141685,5,6,3:2:0:0:
219,309,141835,1,0,0:0:0:0:
278,69,141985,1,2,0:0:0:0:
374,266,142135,1,0,3:0:0:0:
443,57,142285,1,2,0:0:0:0:
244,186,142435,2,0,P|197:179|141:171,1,88.000002685547,0|0,0:0|3:0,0:0:0:0:
359,29,142735,1,2,0:0:0:0:
290,265,142885,5,0,3:0:0:0:
185,81,143035,1,0,0:0:0:0:
107,305,143185,1,2,0:0:0:0:
20,122,143335,2,0,P|15:79|32:24,1,88.000002685547,0|2,3:0|0:0,0:0:0:0:
202,180,143635,1,0,3:0:0:0:
0,244,143785,1,8,0:0:0:0:
153,86,143935,1,2,0:0:0:0:
207,333,144085,5,2,3:2:0:0:
320,147,144235,1,0,0:0:0:0:
98,204,144385,1,2,0:0:0:0:
300,263,144535,1,0,3:0:0:0:
242,59,144685,1,2,0:0:0:0:
175,250,144835,1,0,0:0:0:0:
393,221,144985,2,0,P|439:227|491:236,1,88.000002685547,0|2,3:0|0:0,0:0:0:0:
223,359,145285,5,0,3:0:0:0:
284,150,145435,1,0,0:0:0:0:
82,292,145585,1,2,0:0:0:0:
325,330,145735,2,0,P|372:336|414:322,1,88.000002685547,0|2,3:0|0:0,0:0:0:0:
410,324,145960,1,2,0:0:0:0:
410,324,146035,1,0,3:0:0:0:
495,111,146185,1,8,0:0:0:0:
308,227,146335,1,2,0:0:0:0:
210,29,146485,6,0,B|94:7|94:7|81:38|48:64,1,176.000005371094,6|2,3:2|0:0,0:0:0:0:
0,268,146935,2,0,B|81:259|60:262|185:250,1,176.000005371094,0|2,3:0|0:0,0:0:0:0:
404,235,147385,1,0,3:0:0:0:
240,338,147535,1,2,0:0:0:0:
309,138,147685,6,0,P|345:122|403:119,1,88.000002685547,0|0,3:0|0:0,0:0:0:0:
178,224,147985,2,0,P|134:220|93:203,1,88.000002685547,2|0,0:0|3:0,0:0:0:0:
235,47,148285,1,2,0:0:0:0:
275,236,148435,1,0,3:0:0:0:
380,25,148585,1,8,0:0:0:0:
420,214,148735,1,2,0:0:0:0:
224,79,148885,6,0,B|126:57|126:57|73:69|67:123,1,176.000005371094,6|2,3:2|0:0,0:0:0:0:
28,356,149335,2,0,P|114:344|221:334,1,176.000005371094,0|2,3:0|0:0,0:0:0:0:
393,218,149785,1,0,3:0:0:0:
202,183,149935,1,2,0:0:0:0:
357,326,150085,6,0,P|399:332|445:337,1,88.000002685547,0|0,3:0|0:0,0:0:0:0:
391,121,150385,2,0,P|347:125|303:131,1,88.000002685547,2|0,0:0|3:0,0:0:0:0:
108,235,150685,1,2,0:0:0:0:
108,235,150760,1,2,0:0:0:0:
108,235,150835,1,0,3:0:0:0:
334,306,150985,1,8,0:0:0:0:
275,121,151135,1,2,0:0:0:0:
152,324,151285,6,0,P|87:332|26:291,1,132.00000402832,6|0,3:2|0:0,0:0:0:0:
12,268,151585,2,0,P|16:226|22:168,1,88.000002685547,2|0,0:0|3:0,0:0:0:0:
190,37,151885,1,2,0:0:0:0:
136,232,152035,1,0,0:0:0:0:
357,145,152185,1,0,3:0:0:0:
129,124,152335,1,2,0:0:0:0:
255,314,152485,5,0,3:0:0:0:
246,111,152635,1,0,0:0:0:0:
425,266,152785,2,0,P|468:268|511:258,1,88.000002685547,2|0,0:0|3:0,0:0:0:0:
382,58,153085,1,2,0:0:0:0:
382,58,153160,1,2,0:0:0:0:
382,58,153235,1,0,3:0:0:0:
276,270,153385,2,0,P|282:312|286:357,1,88.000002685547,8|2,0:0|0:0,0:0:0:0:
448,171,153685,5,2,3:2:0:0:
245,85,153835,2,0,P|195:80|139:95,1,88.000002685547,2|0,0:0|0:0,0:0:0:0:
37,240,154135,1,0,3:0:0:0:
256,246,154285,1,2,0:0:0:0:
66,134,154435,1,0,0:0:0:0:
173,335,154585,2,0,P|216:342|259:337,1,88.000002685547,0|2,3:0|0:0,0:0:0:0:
440,201,154885,6,0,B|344:182|356:239|259:213,1,176.000005371094,0|2,3:0|0:0,0:0:0:0:
470,105,155335,1,0,3:0:0:0:
500,308,155485,2,0,P|454:301|410:295,1,88.000002685547,2|0,0:0|3:0,0:0:0:0:
180,224,155785,2,0,P|223:219|267:215,1,88.000002685547,2|0,0:0|0:0,0:0:0:0:
186,93,156085,6,0,B|155:136|155:136|183:235,1,143.999995605469,4|2,3:2|0:0,0:0:0:0:
266,311,156535,1,0,3:2:0:0:
387,290,156685,2,0,P|390:250|393:209,1,71.9999978027344,2|0,0:0|0:0,0:0:0:0:
402,95,156985,1,8,3:2:0:0:
490,179,157135,1,2,0:0:0:0:
405,68,157285,6,0,P|355:61|326:66,1,71.9999978027344,0|0,3:0|0:0,0:0:0:0:
225,135,157585,1,2,0:0:0:0:
100,92,157735,2,0,P|97:56|104:21,1,71.9999978027344,0|0,3:0|0:0,0:0:0:0:
227,108,158035,1,0,3:0:0:0:
112,196,158185,1,8,0:0:0:0:
229,230,158335,1,0,0:0:0:0:
130,301,158485,6,0,P|92:297|50:293,1,71.9999978027344,0|0,3:2|0:0,0:0:0:0:
202,375,158785,2,0,P|237:371|273:367,1,71.9999978027344,2|0,0:0|3:2,0:0:0:0:
327,256,159085,2,0,P|292:252|256:248,1,71.9999978027344,2|0,0:0|0:0,0:0:0:0:
393,168,159385,1,8,3:2:0:0:
348,282,159535,1,2,0:0:0:0:
279,139,159685,5,0,3:0:0:0:
279,139,159760,1,2,0:0:0:0:
279,139,159835,1,2,0:0:0:0:
419,178,159985,1,2,0:0:0:0:
411,55,160135,2,0,P|376:44|334:43,1,71.9999978027344,0|2,3:0|0:0,0:0:0:0:
340,42,160360,1,2,0:0:0:0:
340,42,160435,1,0,3:0:0:0:
208,151,160585,2,0,P|243:149|278:138,1,71.9999978027344,8|0,0:0|0:0,0:0:0:0:
134,68,160885,5,0,3:2:0:0:
92,182,161035,1,0,0:0:0:0:
208,151,161185,1,2,0:0:0:0:
166,265,161335,1,0,3:2:0:0:
42,264,161485,2,0,P|0:209|6:138,1,143.999995605469,2|8,0:0|3:2,0:0:0:0:
54,26,161935,1,2,0:0:0:0:
164,78,162085,6,0,P|216:73|286:66,1,107.999996704102,0|0,3:0|0:0,0:0:0:0:
304,51,162385,2,0,P|338:54|385:59,1,71.9999978027344,2|0,0:0|3:0,0:0:0:0:
464,143,162685,1,2,0:0:0:0:
464,143,162760,1,2,0:0:0:0:
464,143,162835,1,0,3:0:0:0:
362,212,162985,2,0,P|359:248|356:289,1,71.9999978027344,8|0,0:0|0:0,0:0:0:0:
263,363,163285,5,0,3:2:0:0:
251,241,163435,1,0,0:0:0:0:
155,367,163585,1,2,0:0:0:0:
143,245,163735,1,0,3:2:0:0:
37,306,163885,2,0,P|31:256|28:227,1,71.9999978027344,2|0,0:0|0:0,0:0:0:0:
101,100,164185,1,8,3:2:0:0:
143,245,164335,1,2,0:0:0:0:
20,149,164485,5,0,3:0:0:0:
20,149,164560,1,2,0:0:0:0:
20,149,164635,1,2,0:0:0:0:
169,168,164785,2,0,P|202:162|241:155,1,71.9999978027344,2|0,0:0|3:0,0:0:0:0:
316,61,165085,1,2,0:0:0:0:
316,61,165160,1,2,0:0:0:0:
316,61,165235,2,0,P|278:56|238:53,1,71.9999978027344,0|8,3:0|0:0,0:0:0:0:
122,40,165535,1,0,0:0:0:0:
169,168,165685,6,0,B|205:175|240:160|240:160|269:183|309:182,2,143.999995605469,4|2|2,3:2|0:0|0:0,0:0:0:0:
49,142,166435,1,0,0:0:0:0:
106,250,166585,2,0,P|112:289|117:329,1,71.9999978027344,0|2,3:2|0:0,0:0:0:0:
230,364,166885,5,0,3:0:0:0:
324,286,167035,2,0,P|358:293|398:282,1,71.9999978027344,2|2,0:0|0:0,0:0:0:0:
491,210,167335,1,0,3:0:0:0:
397,141,167485,1,2,0:0:0:0:
397,141,167560,1,2,0:0:0:0:
397,141,167635,1,0,3:0:0:0:
290,200,167785,2,0,P|293:235|295:271,1,71.9999978027344,8|0,0:0|0:0,0:0:0:0:
186,341,168085,6,0,B|99:329|124:377|31:359,1,143.999995605469,0|2,3:2|0:0,0:0:0:0:
1,247,168535,1,0,3:2:0:0:
101,177,168685,2,0,P|107:215|114:260,1,71.9999978027344,2|0,0:0|0:0,0:0:0:0:
219,140,168985,2,0,P|224:104|230:68,1,71.9999978027344,0|2,3:2|0:0,0:0:0:0:
342,18,169285,5,0,3:0:0:0:
394,128,169435,2,0,P|355:140|315:136,1,71.9999978027344,2|2,0:0|0:0,0:0:0:0:
248,235,169735,2,0,P|283:233|317:245,1,71.9999978027344,0|2,3:0|0:0,0:0:0:0:
416,318,170035,1,0,3:0:0:0:
301,361,170185,2,0,P|263:355|223:351,1,71.9999978027344,8|0,0:0|0:0,0:0:0:0:
108,335,170485,5,0,3:2:0:0:
147,218,170635,1,0,0:0:0:0:
5,304,170785,1,2,0:0:0:0:
44,187,170935,1,0,3:2:0:0:
157,248,171085,2,0,P|191:257|227:256,1,71.9999978027344,2|0,0:0|0:0,0:0:0:0:
310,137,171385,2,0,P|274:135|239:145,1,71.9999978027344,0|2,3:2|0:0,0:0:0:0:
350,249,171685,5,0,3:0:0:0:
340,127,171835,1,2,0:0:0:0:
463,248,171985,1,2,0:0:0:0:
453,126,172135,1,0,3:0:0:0:
350,249,172285,1,2,0:0:0:0:
350,249,172360,1,2,0:0:0:0:
350,249,172435,1,0,3:0:0:0:
239,145,172585,2,0,P|237:109|234:55,1,71.9999978027344,8|2,0:0|0:0,0:0:0:0:
98,35,172885,6,0,P|90:68|90:104,1,64,2|0,0:0|0:0,0:0:0:0:
166,245,173185,2,0,P|165:213|157:182,1,64,8|0,0:0|0:0,0:0:0:0:
96,338,173485,1,2,0:0:0:0:
254,288,173635,1,0,3:0:0:0:
77,229,173785,2,0,P|45:231|13:235,1,64,8|0,0:0|0:0,0:0:0:0:
213,89,174085,5,8,3:2:0:0:
341,291,174235,1,2,0:2:0:0:
334,51,174385,1,8,3:2:0:0:
213,258,174535,1,2,0:2:0:0:
222,101,174685,5,8,3:2:0:0:
331,273,174835,1,8,3:2:0:0:
325,69,174985,1,8,3:2:0:0:
222,245,175135,1,8,3:2:0:0:
375,178,175285,6,0,P|418:169|502:211,1,132.00000402832,2|0,0:0|0:0,0:0:0:0:
419,271,175585,6,0,P|444:301|451:360,1,96,2|0,0:0|0:0,0:0:0:0:
372,338,175885,6,0,P|341:344|310:338,1,60,2|0,0:0|0:0,0:0:0:0:
340,269,176185,6,0,P|343:261|346:250,1,16,2|0,0:0|0:0,0:0:0:0:
393,90,176485,6,0,B|366:86|357:86|335:83,1,56,6|0,0:0|0:0,0:0:0:0:
151,230,177685,6,0,B|175:226|185:227|209:223,1,56,2|0,0:0|0:0,0:0:0:0:
337,83,178885,6,0,P|341:58|335:27,1,56,2|0,0:0|0:0,0:0:0:0:
206,223,180085,6,0,P|202:248|205:272,1,48,2|2,0:0|0:0,0:0:0:0:
278,249,181135,1,2,0:0:0:0:
150,167,181285,6,0,P|119:170|92:174,1,56,6|0,0:0|0:0,0:0:0:0:
278,249,182485,6,0,P|308:253|336:256,1,56,2|0,0:0|0:0,0:0:0:0:
489,82,183685,6,0,P|492:54|486:26,1,56,2|0,0:0|0:0,0:0:0:0:
282,14,184885,6,0,P|280:31|278:47,1,32,2|2,0:0|0:0,0:0:0:0:
265,120,185635,5,8,3:0:0:0:
280,149,185785,5,8,3:0:0:0:
298,176,185935,5,8,3:0:0:0:
317,204,186085,6,0,P|270:209|244:222,1,64,6|2,3:2|0:0,0:0:0:0:
181,254,186535,2,0,P|134:249|108:236,1,64,0|0,3:0|0:0,0:0:0:0:
57,186,186985,1,8,0:0:0:0:
57,186,187135,1,2,0:0:0:0:
104,117,187285,6,0,P|135:113|212:105,1,96,2|0,3:2|3:0,0:0:0:0:
282,102,187885,1,2,0:0:0:0:
282,102,188035,1,0,0:0:0:0:
338,162,188185,1,8,0:0:0:0:
338,162,188335,1,0,0:0:0:0:
290,229,188485,6,0,P|298:259|299:291,1,64,2|2,3:2|0:0,0:0:0:0:
380,313,188935,2,0,P|381:281|389:250,1,64,0|0,3:0|0:0,0:0:0:0:
436,181,189385,1,8,0:0:0:0:
436,181,189535,1,0,0:0:0:0:
382,117,189685,6,0,B|315:106|325:144|251:135,1,128,2|2,3:2|0:0,0:0:0:0:
94,99,190585,1,8,0:0:0:0:
94,99,190735,1,0,0:0:0:0:
38,161,190885,6,0,P|50:204|52:230,1,64,2|2,3:2|0:0,0:0:0:0:
108,284,191335,1,0,3:0:0:0:
108,284,191485,2,0,P|127:278|148:277,1,32,2|0,0:0|0:0,0:0:0:0:
162,196,191785,2,0,P|181:200|200:209,1,32,8|0,0:0|0:0,0:0:0:0:
261,247,192085,6,0,B|270:264|276:282|276:282|288:265|288:238,1,80,2|0,3:2|0:0,0:0:0:0:
323,166,192385,2,0,L|363:172,1,32,2|0,0:0|3:0,0:0:0:0:
436,185,192685,1,2,0:0:0:0:
436,185,192835,1,0,0:0:0:0:
477,257,192985,1,8,0:0:0:0:
477,257,193135,1,0,0:0:0:0:
439,327,193285,5,6,3:2:0:0:
439,327,193435,2,0,P|403:309|314:313,1,128,2|2,0:0|0:0,0:0:0:0:
221,208,193885,2,0,P|283:215|342:192,1,128,2|2,3:2|0:0,0:0:0:0:
228,108,194335,1,0,0:0:0:0:
181,302,194485,5,2,0:0:0:0:
78,129,194635,1,0,1:0:0:0:
78,129,194710,1,0,1:0:0:0:
78,129,194785,1,0,1:0:0:0:
38,357,194935,1,0,1:0:0:0:
251,215,195085,5,2,1:2:0:0:
0,181,195235,1,0,1:2:0:0:
242,26,195385,1,2,1:2:0:0:
150,298,195535,1,0,1:2:0:0:
367,128,195685,6,0,B|470:150|470:150|507:129|505:80,1,184.000003509522,6|2,3:2|0:0,0:0:0:0:
213,33,196135,2,0,B|189:127|255:117|221:229,1,184.000003509522,0|2,3:0|0:0,0:0:0:0:
15,348,196585,1,0,3:0:0:0:
122,165,196735,1,2,0:0:0:0:
242,360,196885,6,0,P|288:353|354:349,1,92.0000017547608,0|0,3:0|0:0,0:0:0:0:
510,201,197185,2,0,P|464:197|418:191,1,92.0000017547608,2|0,0:0|3:0,0:0:0:0:
213,33,197485,1,2,0:0:0:0:
432,56,197635,1,0,3:0:0:0:
225,212,197785,1,8,0:0:0:0:
334,9,197935,1,2,0:0:0:0:
460,233,198085,6,0,B|485:340|485:340|457:367|415:366,1,184.000003509522,6|2,3:2|0:0,0:0:0:0:
171,295,198535,2,0,B|272:274|256:334|359:300,1,184.000003509522,0|2,3:0|0:0,0:0:0:0:
127,174,198985,1,0,3:0:0:0:
214,383,199135,1,2,0:0:0:0:
311,174,199285,6,0,P|315:125|298:73,1,92.0000017547608,0|0,3:0|0:0,0:0:0:0:
68,261,199585,2,0,P|63:306|75:350,1,92.0000017547608,2|0,0:0|3:0,0:0:0:0:
344,283,199885,1,2,0:0:0:0:
344,283,199960,1,2,0:0:0:0:
344,283,200035,1,0,3:0:0:0:
125,147,200185,1,8,0:0:0:0:
207,352,200335,1,2,0:0:0:0:
304,84,200485,5,6,3:2:0:0:
161,252,200635,1,0,0:0:0:0:
215,9,200785,1,2,0:0:0:0:
315,195,200935,1,0,3:0:0:0:
103,133,201085,1,2,0:0:0:0:
322,64,201235,2,0,P|367:70|426:79,1,92.0000017547608,0|0,0:0|3:0,0:0:0:0:
248,252,201535,1,2,0:0:0:0:
183,1,201685,5,0,3:0:0:0:
83,218,201835,1,0,0:0:0:0:
326,168,201985,1,2,0:0:0:0:
104,107,202135,2,0,P|53:110|1:115,1,92.0000017547608,0|2,3:0|0:0,0:0:0:0:
221,247,202435,1,0,3:0:0:0:
336,6,202585,1,8,0:0:0:0:
465,185,202735,1,2,0:0:0:0:
226,115,202885,5,2,3:2:0:0:
352,329,203035,1,0,0:0:0:0:
422,71,203185,1,2,0:0:0:0:
248,235,203335,1,0,3:0:0:0:
183,1,203485,1,0,0:0:0:0:
360,160,203635,1,2,0:0:0:0:
105,202,203785,2,0,P|55:210|3:196,1,92.0000017547608,0|2,3:0|0:0,0:0:0:0:
285,29,204085,5,0,3:0:0:0:
162,280,204235,1,0,0:0:0:0:
72,18,204385,1,2,0:0:0:0:
311,155,204535,2,0,P|356:156|400:141,1,92.0000017547608,0|2,3:0|0:0,0:0:0:0:
400,141,204760,1,2,0:0:0:0:
400,141,204835,1,0,3:0:0:0:
183,1,204985,1,8,0:0:0:0:
232,206,205135,1,2,0:0:0:0:
33,90,205285,6,0,B|6:204|6:204|26:223|43:273,1,184.000003509522,6|2,3:2|0:0,0:0:0:0:
294,281,205735,2,0,P|261:236|140:233,1,184.000003509522,0|2,3:0|0:0,0:0:0:0:
360,376,206185,1,0,3:0:0:0:
338,165,206335,1,2,0:0:0:0:
199,319,206485,6,0,P|150:326|96:335,1,92.0000017547608,0|0,3:0|0:0,0:0:0:0:
352,198,206785,2,0,P|397:205|442:211,1,92.0000017547608,2|0,0:0|3:0,0:0:0:0:
192,90,207085,1,2,0:0:0:0:
192,90,207160,1,2,0:0:0:0:
192,90,207235,1,0,3:0:0:0:
301,308,207385,1,8,0:0:0:0:
377,100,207535,1,2,0:0:0:0:
150,223,207685,6,0,B|22:239|22:239|51:225|66:199,1,184.000003509522,6|2,3:2|0:0,0:0:0:0:
300,25,208135,2,0,P|288:100|272:218,1,184.000003509522,0|2,3:0|0:0,0:0:0:0:
31,344,208585,1,0,3:0:0:0:
112,80,208735,1,2,0:0:0:0:
112,80,208810,1,2,0:0:0:0:
112,80,208885,6,0,P|156:67|207:73,1,92.0000017547608,0|0,3:0|0:0,0:0:0:0:
358,246,209185,2,0,P|312:250|268:237,1,92.0000017547608,2|0,0:0|3:0,0:0:0:0:
500,121,209485,1,2,0:0:0:0:
500,121,209560,1,2,0:0:0:0:
500,121,209635,1,0,3:0:0:0:
369,353,209785,1,8,0:0:0:0:
314,101,209935,1,2,0:0:0:0:
144,318,210085,6,0,B|56:338|56:338|14:290,1,138.000002632141,6|0,3:2|0:0,0:0:0:0:
7,229,210385,2,0,P|14:184|21:133,1,92.0000017547608,2|0,0:0|3:0,0:0:0:0:
264,25,210685,1,2,0:0:0:0:
172,236,210835,1,0,0:0:0:0:
51,8,210985,1,0,3:0:0:0:
172,236,211135,1,2,0:0:0:0:
291,18,211285,5,0,3:0:0:0:
109,123,211435,1,0,0:0:0:0:
342,206,211585,2,0,P|385:201|445:195,1,92.0000017547608,2|0,0:0|3:0,0:0:0:0:
197,70,211885,1,2,0:0:0:0:
197,70,211960,1,2,0:0:0:0:
197,70,212035,1,0,3:0:0:0:
297,326,212185,1,8,0:0:0:0:
440,170,212335,1,2,0:0:0:0:
175,206,212485,5,2,3:2:0:0:
397,295,212635,2,0,P|442:302|486:291,1,92.0000017547608,2|0,0:0|0:0,0:0:0:0:
324,115,212935,1,0,3:0:0:0:
190,313,213085,1,2,0:0:0:0:
170,74,213235,1,0,0:0:0:0:
398,192,213385,2,0,P|442:185|508:174,1,92.0000017547608,0|2,3:0|0:0,0:0:0:0:
199,77,213685,5,0,3:0:0:0:
311,328,213835,1,0,0:0:0:0:
354,27,213985,1,2,0:0:0:0:
134,209,214135,1,0,3:0:0:0:
440,185,214285,5,2,0:0:0:0:
183,50,214435,1,0,3:0:0:0:
296,355,214585,1,8,0:0:0:0:
387,45,214735,1,2,0:0:0:0:
387,45,214810,1,2,0:0:0:0:
387,45,214885,6,0,P|431:49|490:56,1,88.000002685547,6|0,3:2|0:0,0:0:0:0:
210,174,215185,2,0,P|166:179|122:182,1,88.000002685547,2|0,0:0|3:0,0:0:0:0:
387,301,215485,2,0,P|431:305|490:312,1,88.000002685547,2|0,0:0|0:0,0:0:0:0:
262,370,215785,2,0,P|241:304|272:248,1,132.00000402832,0|0,3:0|0:0,0:0:0:0:
318,189,216085,6,0,P|314:145|308:94,1,88.000002685547,0|0,3:0|0:0,0:0:0:0:
128,7,216385,2,0,P|122:50|118:94,1,88.000002685547,2|0,0:0|3:0,0:0:0:0:
155,293,216685,1,2,0:0:0:0:
155,293,216760,1,2,0:0:0:0:
155,293,216835,1,0,3:0:0:0:
350,213,216985,2,0,P|396:206|442:218,1,88.000002685547,8|2,0:0|0:0,0:0:0:0:
262,370,217285,5,6,3:2:0:0:
202,167,217435,1,0,0:0:0:0:
262,370,217585,1,2,0:0:0:0:
202,167,217735,1,0,3:0:0:0:
70,332,217885,5,2,0:0:0:0:
269,263,218035,1,0,0:0:0:0:
70,332,218185,1,0,3:0:0:0:
269,263,218335,1,2,0:0:0:0:
69,193,218485,5,0,3:0:0:0:
160,384,218635,1,0,0:0:0:0:
69,193,218785,1,2,0:0:0:0:
160,384,218935,1,0,3:0:0:0:
298,180,219085,5,2,0:0:0:0:
298,180,219160,1,2,0:0:0:0:
298,180,219235,1,0,3:0:0:0:
119,293,219385,2,0,P|72:288|25:283,1,88.000002685547,8|2,0:0|0:0,0:0:0:0:
140,52,219685,6,0,P|173:95|178:132,1,88.000002685547,6|0,3:2|0:0,0:0:0:0:
348,254,219985,2,0,P|294:261|259:246,1,88.000002685547,2|0,0:0|3:0,0:0:0:0:
69,332,220285,2,0,P|89:281|119:259,1,88.000002685547,2|0,0:0|0:0,0:0:0:0:
297,155,220585,2,0,P|368:161|448:169,1,132.00000402832,0|0,3:0|0:0,0:0:0:0:
508,174,220885,6,0,P|508:220|483:277,1,88.000002685547,0|0,3:0|0:0,0:0:0:0:
320,347,221185,2,0,P|306:305|306:261,1,88.000002685547,2|0,0:0|3:0,0:0:0:0:
367,67,221485,1,2,0:0:0:0:
367,67,221560,1,2,0:0:0:0:
367,67,221635,1,0,3:0:0:0:
186,158,221785,2,0,P|139:154|96:150,1,88.000002685547,8|2,0:0|0:0,0:0:0:0:
285,19,222085,5,2,3:2:0:0:
370,183,222235,1,0,0:0:0:0:
186,158,222385,1,2,0:0:0:0:
302,21,222535,5,0,3:0:0:0:
357,197,222685,1,0,0:0:0:0:
180,141,222835,1,2,0:0:0:0:
393,84,222985,5,0,3:0:0:0:
253,218,223135,1,2,0:0:0:0:
177,39,223285,5,0,3:0:0:0:
58,191,223435,2,0,P|62:233|67:278,1,88.000002685547,0|2,0:0|0:0,0:0:0:0:
215,374,223735,1,0,3:0:0:0:
269,206,223885,1,2,0:0:0:0:
269,206,223960,1,2,0:0:0:0:
269,206,224035,1,0,3:0:0:0:
422,292,224185,2,0,P|433:342|425:383,1,88.000002685547,8|2,0:0|0:0,0:0:0:0:
269,206,224485,6,0,P|272:162|276:118,1,88.000002685547,6|0,3:2|0:0,0:0:0:0:
50,103,224785,2,0,P|54:146|57:190,1,88.000002685547,2|0,0:0|3:0,0:0:0:0:
183,372,225085,2,0,P|186:328|190:284,1,88.000002685547,2|0,0:0|0:0,0:0:0:0:
213,64,225385,2,0,P|272:81|339:53,1,132.00000402832,0|0,3:0|0:0,0:0:0:0:
396,3,225685,6,0,P|439:8|491:14,1,88.000002685547,0|0,3:0|0:0,0:0:0:0:
500,225,225985,2,0,P|456:230|412:235,1,88.000002685547,2|0,0:0|3:0,0:0:0:0:
203,264,226285,1,2,0:0:0:0:
342,82,226435,1,0,3:0:0:0:
319,327,226585,2,0,P|353:339|425:334,1,88.000002685547,8|2,0:0|0:0,0:0:0:0:
237,156,226885,5,6,3:2:0:0:
152,368,227035,1,0,0:0:0:0:
112,115,227185,1,2,0:0:0:0:
325,225,227335,2,0,P|368:230|412:235,1,88.000002685547,0|0,3:0|0:0,0:0:0:0:
241,55,227635,1,2,0:0:0:0:
103,259,227785,2,0,P|59:264|15:269,1,88.000002685547,0|2,3:0|0:0,0:0:0:0:
262,152,228085,5,0,3:0:0:0:
152,368,228235,1,0,0:0:0:0:
112,115,228385,1,2,0:0:0:0:
282,305,228535,1,0,3:0:0:0:
356,70,228685,1,2,0:0:0:0:
356,70,228760,1,2,0:0:0:0:
356,70,228835,1,0,3:0:0:0:
494,273,228985,2,0,B|508:317|508:317|495:357,1,88.000002685547,8|2,0:0|0:0,0:0:0:0:
317,212,229285,6,0,P|362:199|411:203,1,88.000002685547,6|0,3:2|0:0,0:0:0:0:
200,185,229585,2,0,P|166:152|145:108,1,88.000002685547,2|0,0:0|3:0,0:0:0:0:
236,298,229885,2,0,P|224:343|196:383,1,88.000002685547,2|0,0:0|0:0,0:0:0:0:
0,380,230185,2,0,P|8:311|17:237,1,132.00000402832,0|0,3:0|0:0,0:0:0:0:
53,178,230485,6,0,P|47:129|41:77,1,88.000002685547,0|0,3:0|0:0,0:0:0:0:
264,5,230785,2,0,P|258:48|253:92,1,88.000002685547,2|0,0:0|3:0,0:0:0:0:
224,310,231085,1,2,0:0:0:0:
224,310,231160,1,2,0:0:0:0:
224,310,231235,1,0,3:0:0:0:
400,178,231385,2,0,P|452:182|492:201,1,88.000002685547,8|2,0:0|0:0,0:0:0:0:
338,360,231685,5,2,3:2:0:0:
231,197,231835,1,2,0:0:0:0:
231,197,231910,2,0,P|177:206|115:268,1,132.00000402832,2|0,0:0|3:0,0:0:0:0:
371,184,232285,2,0,P|386:120|362:57,1,132.00000402832,2|0,0:0|0:0,0:0:0:0:
293,20,232585,2,0,P|248:15|188:8,1,88.000002685547,0|2,3:0|0:0,0:0:0:0:
13,120,232885,5,0,3:0:0:0:
197,239,233035,1,2,0:0:0:0:
197,239,233110,1,2,0:0:0:0:
197,239,233185,2,0,P|245:246|292:228,1,88.000002685547,2|0,0:0|3:0,0:0:0:0:
459,104,233485,6,0,P|493:158|478:242,1,132.00000402832,2|0,0:0|0:0,0:0:0:0:
382,156,233785,6,0,P|318:158|252:103,1,132.00000402832,8|0,0:0|0:0,0:0:0:0:
378,72,234085,5,6,3:2:0:0:
