osu file format v14

[General]
AudioFilename: audio.mp3
AudioLeadIn: 0
PreviewTime: 50035
Countdown: 0
SampleSet: Soft
StackLeniency: 0.7
Mode: 0
LetterboxInBreaks: 0
WidescreenStoryboard: 1

[Editor]
DistanceSpacing: 2.3
BeatDivisor: 4
GridSize: 32
TimelineZoom: 1.9

[Metadata]
Title:No title
TitleUnicode:No title
Artist:FantasticYouth
ArtistUnicode:FantasticYouth
Creator:Akitoshi
Version:Kowari's Expert
Source:
Tags:Corinn -Laura- Kowari Reol LowFat Onyu おん湯(♨) cover utaite japanese pop jpop GigaP Fantastic Youth
BeatmapID:2276355
BeatmapSetID:1009447

[Difficulty]
HPDrainRate:6
CircleSize:4
OverallDifficulty:8.5
ApproachRate:9.3
SliderMultiplier:1.7
SliderTickRate:1

[Events]
//Background and Video events
0,0,"summr.jpg",0,0
//Break Periods
2,176685,185531
//Storyboard Layer 0 (Background)
//Storyboard Layer 1 (Fail)
//Storyboard Layer 2 (Pass)
//Storyboard Layer 3 (Foreground)
//Storyboard Layer 4 (Overlay)
//Storyboard Sound Samples

[TimingPoints]
2485,300,4,2,1,40,1,0
2485,-166.666666666667,4,2,1,40,0,0
7209,-166.666666666667,4,2,1,5,0,0
7285,-142.857142857143,4,2,1,60,0,0
10885,-125,4,2,1,60,0,0
12085,-117.647058823529,4,2,1,60,0,0
12910,-117.647058823529,4,2,1,5,0,0
12985,-117.647058823529,4,2,1,60,0,0
31135,-100,4,2,1,60,0,0
31435,-111.111111111111,4,2,1,60,0,0
32335,-90.9090909090908,4,2,1,60,0,0
32635,-111.111111111111,4,2,1,60,0,0
33535,-90.9090909090909,4,2,1,60,0,0
33835,-111.111111111111,4,2,1,60,0,0
34735,-90.9090909090909,4,2,1,60,0,0
34885,-111.111111111111,4,2,1,60,0,0
35935,-90.9090909090909,4,2,1,60,0,0
36235,-111.111111111111,4,2,1,60,0,0
37135,-90.9090909090909,4,2,1,60,0,0
37435,-111.111111111111,4,2,1,60,0,0
38335,-90.9090909090909,4,2,1,60,0,0
38635,-111.111111111111,4,2,1,60,0,0
40735,-90.9090909090909,4,2,1,60,0,0
41035,-111.111111111111,4,2,1,60,0,0
41935,-90.9090909090909,4,2,1,60,0,0
42235,-111.111111111111,4,2,1,60,0,0
43135,-90.9090909090909,4,2,1,60,0,0
43435,-111.111111111111,4,2,1,60,0,0
45535,-90.9090909090909,4,2,1,60,0,0
45835,-111.111111111111,4,2,1,60,0,0
47935,-90.9090909090909,4,2,1,60,0,0
48235,-111.111111111111,4,2,1,60,0,0
50485,-90.9090909090909,4,2,1,80,0,1
69685,-100,4,2,1,80,0,0
69910,-100,4,2,1,5,0,0
69985,-100,4,2,1,80,0,0
71710,-100,4,2,1,5,0,0
71785,-100,4,2,1,80,0,0
74410,-100,4,2,1,5,0,0
74485,-100,4,2,1,80,0,0
75610,-100,4,2,1,5,0,0
75685,-100,4,2,1,80,0,0
76210,-100,4,2,1,5,0,0
76285,-100,4,2,1,80,0,0
76885,-142.857142857143,4,2,1,60,0,0
79285,-117.647058823529,4,2,1,60,0,0
96085,-111.111111111111,4,2,1,60,0,0
98485,-117.647058823529,4,2,1,60,0,0
101410,-117.647058823529,4,2,1,5,0,0
101485,-117.647058823529,4,2,1,60,0,0
115285,-111.111111111111,4,2,1,60,0,0
117685,-90.9090909090909,4,2,1,80,0,1
135685,-90.9090909090909,4,2,1,80,0,0
136285,-90.9090909090909,4,2,1,60,0,0
136885,-90.9090909090909,4,2,1,80,0,1
156085,-111.111111111111,4,2,69,60,0,0
165685,-111.111111111111,4,2,1,60,0,0
172885,-125,4,2,1,60,0,0
174085,-100,4,2,1,60,0,0
175285,-90.9090909090909,4,2,1,60,0,0
175510,-90.9090909090909,4,2,1,5,0,0
175585,-125,4,2,1,60,0,0
176485,-1000,4,2,1,40,0,0
186085,-166.666666666667,4,2,1,50,0,0
192085,-125,4,2,1,50,0,0
192385,-166.666666666667,4,2,1,50,0,0
193285,-125,4,2,1,60,0,0
194485,-100,4,2,1,70,0,0
195685,-86.9565217391304,4,2,1,80,0,1
214885,-90.9090909090909,4,2,1,80,0,0
215110,-90.9090909090909,4,2,1,5,0,0
215185,-90.9090909090909,4,2,1,80,0,0
219910,-90.9090909090909,4,2,1,5,0,0
219985,-90.9090909090909,4,2,1,80,0,0
229510,-90.9090909090909,4,2,1,5,0,0
229585,-90.9090909090909,4,2,1,80,0,0

[Colours]
Combo1 : 255,220,113
Combo2 : 0,255,255
Combo3 : 0,125,251
Combo4 : 43,255,96

[HitObjects]
54,347,2485,6,0,P|106:339|170:334,1,101.999996887207,0|0,3:0|0:0,0:0:0:0:
207,258,2935,2,0,P|156:253|105:245,1,101.999996887207,0|0,3:0|0:0,0:0:0:0:
37,183,3385,1,0,3:0:0:0:
37,183,3535,1,0,3:0:0:0:
93,110,3685,6,0,B|161:95|161:95|190:119,1,101.999996887207,0|0,3:0|0:0,0:0:0:0:
261,169,4135,2,0,P|310:141|365:151,2,101.999996887207,0|0|0,3:0|3:0|3:0,0:0:0:0:
208,245,4885,6,0,P|220:319|223:357,1,101.999996887207,0|0,3:0|0:0,0:0:0:0:
309,377,5335,2,0,P|346:364|366:360,1,50.9999984436036,0|0,3:0|0:0,0:0:0:0:
449,367,5635,1,0,3:0:0:0:
449,367,5935,1,0,3:0:0:0:
398,290,6085,5,0,3:0:0:0:
474,238,6235,2,0,P|480:196|484:180,1,50.9999984436036,0|0,3:0|0:0,0:0:0:0:
397,116,6535,2,0,P|402:140|404:166,1,50.9999984436036,0|0,3:0|0:0,0:0:0:0:
343,234,6835,1,0,3:0:0:0:
343,234,6985,2,0,P|290:223|254:219,1,76.4999976654054,0|0,3:0|0:0,0:0:0:0:
235,226,7285,6,0,P|219:185|241:112,1,118.999996368408,6|2,3:2|0:0,0:0:0:0:
332,63,7735,1,0,3:0:0:0:
243,3,7885,2,0,P|201:11|172:15,1,59.4999981842042,2|0,0:0|0:0,0:0:0:0:
102,83,8185,1,0,3:0:0:0:
201,122,8335,1,2,0:0:0:0:
121,194,8485,6,0,B|134:279|134:279|118:263|103:255,1,118.999996368408,2|2,3:2|0:2,0:0:0:0:
37,338,8935,1,0,3:0:0:0:
134,381,9085,1,2,0:0:0:0:
134,381,9160,1,2,0:0:0:0:
134,381,9235,1,2,0:0:0:0:
211,307,9385,2,0,P|245:297|275:300,1,59.4999981842042,8|0,0:0|0:0,0:0:0:0:
389,373,9685,6,0,P|399:330|405:306,1,59.4999981842042,2|0,3:2|0:0,0:0:0:0:
307,203,9985,2,0,P|339:233|357:250,1,59.4999981842042,2|0,0:0|3:0,0:0:0:0:
496,217,10285,2,0,P|453:229|429:236,1,59.4999981842042,2|2,0:0|0:0,0:0:0:0:
380,143,10585,1,0,3:0:0:0:
471,87,10735,1,0,0:0:0:0:
376,9,10885,6,0,B|339:2|339:2|304:17,1,68,0|2,3:0|0:0,0:0:0:0:
241,114,11185,2,0,B|278:121|278:121|313:106,1,68,2|0,0:0|3:0,0:0:0:0:
211,31,11485,1,2,0:0:0:0:
161,143,11635,1,0,3:0:0:0:
121,27,11785,1,2,0:0:0:0:
64,135,11935,1,2,0:0:0:0:
144,237,12085,6,0,P|156:274|150:312,1,72.2500013780594,6|0,3:2|0:0,0:0:0:0:
31,355,12385,2,0,P|19:318|25:280,1,72.2500013780594,2|0,0:2|3:0,0:0:0:0:
92,175,12685,2,0,P|166:185|225:194,1,108.375002067089,2|0,0:2|0:0,0:0:0:0:
241,179,12985,2,0,P|313:174|333:174,1,72.2500013780594,0|0,3:0|0:0,0:0:0:0:
435,249,13285,5,0,3:0:0:0:
301,303,13435,1,0,0:0:0:0:
335,162,13585,1,2,0:0:0:0:
446,254,13735,2,0,B|460:291|460:291|450:330,1,72.2500013780594,0|2,3:0|0:0,0:0:0:0:
329,191,14035,1,0,3:0:0:0:
440,99,14185,2,0,P|480:104|518:109,1,72.2500013780594,8|0,0:0|0:0,0:0:0:0:
340,18,14485,6,0,P|294:12|261:23,1,72.2500013780594,0|0,3:0|0:0,0:0:0:0:
176,130,14785,1,2,0:0:0:0:
318,152,14935,1,0,3:0:0:0:
222,260,15085,2,0,P|235:324|237:350,1,72.2500013780594,2|0,0:0|0:0,0:0:0:0:
94,366,15385,2,0,P|99:330|107:295,1,72.2500013780594,0|0,3:0|0:0,0:0:0:0:
190,176,15685,5,0,3:0:0:0:
53,223,15835,1,0,3:0:0:0:
140,107,15985,1,2,0:0:0:0:
0,143,16135,1,0,3:0:0:0:
82,24,16285,2,0,B|119:12|119:12|163:23,1,72.2500013780594,2|0,0:0|3:0,0:0:0:0:
224,145,16585,1,8,0:0:0:0:
279,11,16735,1,0,0:0:0:0:
125,110,16885,6,0,P|132:168|134:193,1,72.2500013780594,0|0,3:0|0:0,0:0:0:0:
135,326,17185,1,2,0:0:0:0:
29,227,17335,1,0,3:0:0:0:
189,252,17485,2,0,P|233:255|266:242,1,72.2500013780594,2|0,0:0|0:0,0:0:0:0:
351,134,17785,6,0,P|288:128|256:125,1,72.2500013780594,0|2,3:0|0:0,0:0:0:0:
395,239,18085,1,0,3:0:0:0:
474,118,18235,1,0,0:0:0:0:
506,258,18385,2,0,B|513:295|513:295|494:332,1,72.2500013780594,2|0,0:0|0:0,0:0:0:0:
358,369,18685,5,0,3:0:0:0:
358,369,18760,1,2,0:0:0:0:
358,369,18835,1,2,0:0:0:0:
301,236,18985,2,0,P|339:224|373:233,1,72.2500013780594,8|0,0:0|0:0,0:0:0:0:
258,324,19285,2,0,P|191:313|165:310,1,72.2500013780594,0|0,3:0|0:0,0:0:0:0:
42,311,19585,5,2,0:0:0:0:
151,216,19735,1,0,3:0:0:0:
32,132,19885,2,0,P|22:178|28:207,1,72.2500013780594,2|0,0:0|0:0,0:0:0:0:
173,78,20185,1,0,3:0:0:0:
37,26,20335,1,0,0:0:0:0:
126,171,20485,6,0,P|192:165|220:163,1,72.2500013780594,0|2,3:0|0:0,0:0:0:0:
359,92,20785,1,0,0:0:0:0:
289,249,20935,1,0,3:0:0:0:
241,89,21085,1,2,0:0:0:0:
241,89,21160,1,2,0:0:0:0:
241,89,21235,1,0,3:0:0:0:
384,212,21385,2,0,P|397:250|391:290,1,72.2500013780594,8|0,0:0|0:0,0:0:0:0:
285,376,21685,6,0,P|356:366|450:355,1,144.500002756119,2|2,3:2|0:2,0:0:0:0:
225,281,22135,2,0,P|182:248|85:260,1,144.500002756119,0|0,3:0|0:0,0:0:0:0:
9,369,22585,1,0,3:0:0:0:
148,332,22735,1,0,0:0:0:0:
21,227,22885,6,0,P|15:170|11:139,1,72.2500013780594,0|0,3:0|0:0,0:0:0:0:
116,54,23185,2,0,P|133:93|135:126,1,72.2500013780594,2|0,0:0|3:0,0:0:0:0:
192,244,23485,1,2,0:0:0:0:
192,244,23560,1,2,0:0:0:0:
192,244,23635,1,0,3:0:0:0:
294,141,23785,2,0,P|357:155|393:163,1,72.2500013780594,8|0,0:0|0:0,0:0:0:0:
504,35,24085,6,0,B|415:49|415:49|389:33|380:-1,1,144.500002756119,0|2,3:0|0:0,0:0:0:0:
214,107,24535,2,0,P|279:98|341:154,1,144.500002756119,0|0,3:0|0:0,0:0:0:0:
436,251,24985,2,0,P|448:194|456:168,1,72.2500013780594,0|0,3:0|0:0,0:0:0:0:
335,265,25285,5,0,3:0:0:0:
458,340,25435,1,0,3:0:0:0:
329,369,25585,2,0,P|271:375|238:377,1,72.2500013780594,2|0,0:0|3:0,0:0:0:0:
134,317,25885,1,2,0:0:0:0:
134,317,25960,1,2,0:0:0:0:
134,317,26035,1,0,3:0:0:0:
228,213,26185,2,0,B|272:207|312:197|312:197|334:223|384:243,1,144.500002756119,8|0,0:0|3:0,0:0:0:0:
494,168,26635,5,0,0:0:0:0:
429,310,26785,1,2,0:0:0:0:
391,138,26935,2,0,P|400:83|406:55,1,72.2500013780594,0|2,3:0|0:0,0:0:0:0:
266,1,27235,1,0,0:0:0:0:
203,139,27385,2,0,B|167:154|167:154|123:146,1,72.2500013780594,0|2,3:0|0:0,0:0:0:0:
20,46,27685,5,0,3:0:0:0:
170,27,27835,1,0,0:0:0:0:
46,138,27985,2,0,P|52:200|54:226,1,72.2500013780594,2|0,0:0|0:0,0:0:0:0:
75,359,28285,1,0,3:0:0:0:
75,359,28360,1,2,0:0:0:0:
75,359,28435,1,2,0:0:0:0:
161,234,28585,2,0,B|219:243|219:243|242:263|242:263|303:269,1,144.500002756119,8|0,0:0|3:0,0:0:0:0:
455,248,29035,5,0,0:0:0:0:
335,353,29185,1,2,0:0:0:0:
363,196,29335,1,0,3:0:0:0:
425,341,29485,2,0,P|477:346|514:329,1,72.2500013780594,2|0,0:0|0:0,0:0:0:0:
512,169,29785,2,0,P|460:164|423:181,1,72.2500013780594,0|0,3:0|0:0,0:0:0:0:
317,268,30085,5,0,3:0:0:0:
275,114,30235,1,2,0:0:0:0:
275,114,30310,1,2,0:0:0:0:
275,114,30385,2,0,P|284:60|288:27,1,72.2500013780594,2|0,0:0|3:0,0:0:0:0:
168,166,30685,2,0,P|177:220|181:253,1,72.2500013780594,2|0,0:0|3:0,0:0:0:0:
323,307,30985,1,8,0:0:0:0:
150,378,31135,6,0,B|43:346|43:346|75:369|86:388,1,170,6|2,0:0|0:0,0:0:0:0:
238,316,31585,1,2,0:0:0:0:
148,173,31735,2,0,P|103:172|70:194,1,76.4999976654053,0|0,3:0|0:0,0:0:0:0:
258,305,32035,2,0,P|267:244|272:214,1,76.4999976654053,2|0,0:0|3:0,0:0:0:0:
350,38,32335,6,0,B|315:140|315:140|363:166|364:225,1,187.000005706787,2|2,0:0|0:0,0:0:0:0:
310,361,32785,1,2,0:0:0:0:
474,324,32935,2,0,B|487:286|487:286|471:246,1,76.4999976654053,0|2,3:0|0:0,0:0:0:0:
334,158,33235,1,0,3:0:0:0:
493,105,33385,1,8,0:0:0:0:
372,272,33535,5,2,0:0:0:0:
372,272,33610,1,2,0:0:0:0:
372,272,33685,2,0,P|283:259|256:256,1,93.5000028533936,0|2,3:0|0:0,0:0:0:0:
112,232,33985,1,2,0:0:0:0:
231,350,34135,1,0,3:0:0:0:
208,183,34285,2,0,P|202:145|216:110,1,76.4999976654053,2|0,0:0|0:0,0:0:0:0:
360,21,34585,1,0,3:0:0:0:
444,218,34735,5,2,0:0:0:0:
444,218,34810,1,2,0:0:0:0:
444,218,34885,2,0,B|405:234|405:234|358:220,1,76.4999976654053,2|2,0:0|0:0,0:0:0:0:
268,91,35185,1,2,0:0:0:0:
434,114,35335,1,0,3:0:0:0:
274,201,35485,1,2,0:0:0:0:
274,201,35560,1,2,0:0:0:0:
274,201,35635,1,0,3:0:0:0:
362,57,35785,1,8,0:0:0:0:
162,8,35935,6,0,B|187:130|187:130|132:181,1,187.000005706787,6|2,0:0|0:0,0:0:0:0:
1,268,36385,1,2,0:0:0:0:
46,106,36535,1,0,3:0:0:0:
124,255,36685,2,0,P|116:310|112:345,1,76.4999976654053,2|0,0:0|0:0,0:0:0:0:
236,215,36985,1,0,3:0:0:0:
382,358,37135,6,0,B|278:323|278:323|237:341|238:385,1,187.000005706787,2|2,0:0|0:0,0:0:0:0:
480,310,37585,2,0,P|495:261|489:220,1,76.4999976654053,2|0,0:0|3:0,0:0:0:0:
340,162,37885,1,2,0:0:0:0:
340,162,37960,1,2,0:0:0:0:
340,162,38035,1,0,3:0:0:0:
491,88,38185,1,8,0:0:0:0:
387,265,38335,6,0,P|288:254|196:245,1,187.000005706787,2|2,0:0|0:0,0:0:0:0:
47,176,38785,1,2,0:0:0:0:
199,104,38935,1,0,3:0:0:0:
62,6,39085,2,0,P|50:44|62:84,1,76.4999976654053,2|0,0:0|0:0,0:0:0:0:
224,107,39385,2,0,P|236:69|224:29,1,76.4999976654053,0|2,3:0|0:0,0:0:0:0:
129,172,39685,5,0,3:0:0:0:
129,172,39760,1,2,0:0:0:0:
129,172,39835,1,2,0:0:0:0:
211,318,39985,2,0,P|146:328|119:333,1,76.4999976654053,2|0,0:0|3:0,0:0:0:0:
242,198,40285,2,0,P|279:204|317:209,1,76.4999976654053,2|0,0:0|3:0,0:0:0:0:
462,121,40585,1,8,0:0:0:0:
494,324,40735,6,0,B|426:308|426:308|383:330|383:330|310:320,1,187.000005706787,6|2,0:0|0:0,0:0:0:0:
243,166,41185,2,0,P|294:156|328:174,1,76.4999976654053,2|0,0:0|3:0,0:0:0:0:
216,302,41485,2,0,P|165:312|131:294,1,76.4999976654053,2|0,0:0|0:0,0:0:0:0:
21,186,41785,1,0,3:0:0:0:
169,44,41935,6,0,P|159:123|156:146,1,93.5000028533936,2|0,0:0|3:0,0:0:0:0:
289,242,42235,2,0,P|333:181|311:108,1,152.999995330811,2|0,0:0|3:0,0:0:0:0:
187,224,42685,1,2,0:0:0:0:
187,224,42760,1,2,0:0:0:0:
187,224,42835,1,0,3:0:0:0:
301,346,42985,1,8,0:0:0:0:
486,256,43135,6,0,P|409:242|368:237,1,93.5000028533936,2|0,0:0|3:0,0:0:0:0:
253,144,43435,2,0,P|326:133|386:121,1,114.749996498108,2|0,0:0|0:0,0:0:0:0:
399,115,43735,2,0,B|405:75|405:75|385:43,1,76.4999976654053,0|0,3:0|0:0,0:0:0:0:
220,11,44035,1,2,0:0:0:0:
131,153,44185,2,0,P|119:193|133:241,1,76.4999976654053,0|2,3:0|0:0,0:0:0:0:
221,365,44485,5,0,3:0:0:0:
60,314,44635,1,2,0:0:0:0:
216,228,44785,1,2,0:0:0:0:
129,372,44935,1,0,3:0:0:0:
21,256,45085,1,2,0:0:0:0:
21,256,45160,1,2,0:0:0:0:
21,256,45235,1,0,3:0:0:0:
160,161,45385,1,8,0:0:0:0:
277,329,45535,6,0,B|398:313|398:313|420:343|468:366,1,187.000005706787,6|2,0:0|0:0,0:0:0:0:
504,195,45985,2,0,P|487:251|484:288,1,76.4999976654053,2|0,0:0|3:0,0:0:0:0:
392,126,46285,2,0,P|385:88|372:52,1,76.4999976654053,2|0,0:0|0:0,0:0:0:0:
321,212,46585,1,0,3:0:0:0:
484,172,46735,1,2,0:0:0:0:
365,291,46885,5,0,3:0:0:0:
285,142,47035,1,2,0:0:0:0:
201,288,47185,2,0,P|188:332|195:365,1,76.4999976654053,2|0,0:0|3:0,0:0:0:0:
307,237,47485,1,2,0:0:0:0:
307,237,47560,1,2,0:0:0:0:
307,237,47635,1,0,3:0:0:0:
145,188,47785,1,8,0:0:0:0:
245,8,47935,6,0,B|264:142|264:142|245:114|216:94,1,187.000005706787,2|2,0:0|0:0,0:0:0:0:
71,161,48385,2,0,P|57:203|63:242,1,76.4999976654053,2|0,0:0|3:0,0:0:0:0:
198,333,48685,2,0,P|190:263|186:235,1,76.4999976654053,2|0,0:0|0:0,0:0:0:0:
166,89,48985,1,0,3:0:0:0:
79,233,49135,1,2,0:0:0:0:
234,168,49285,5,0,3:0:0:0:
234,168,49360,1,2,0:0:0:0:
234,168,49435,1,2,0:0:0:0:
83,91,49585,2,0,B|74:52|74:52|89:16,1,76.4999976654053,2|0,0:0|3:0,0:0:0:0:
256,1,49885,2,0,B|265:40|265:40|250:76,1,76.4999976654053,2|0,0:0|3:0,0:0:0:0:
151,210,50185,1,8,0:0:0:0:
309,153,50335,1,2,0:0:0:0:
300,358,50485,6,0,P|241:375|128:279,1,187.000005706787,6|2,3:2|0:0,0:0:0:0:
312,168,50935,2,0,P|402:186|513:207,1,187.000005706787,0|2,3:0|0:0,0:0:0:0:
284,281,51385,1,0,3:0:0:0:
226,74,51535,1,2,0:0:0:0:
438,147,51685,6,0,B|440:196|440:196|407:236,1,93.5000028533936,0|0,3:0|0:0,0:0:0:0:
199,157,51985,2,0,B|197:108|197:108|230:68,1,93.5000028533936,2|0,0:0|3:0,0:0:0:0:
304,283,52285,1,2,0:0:0:0:
81,315,52435,1,0,3:0:0:0:
243,160,52585,1,8,0:0:0:0:
181,381,52735,1,2,0:0:0:0:
88,176,52885,6,0,B|115:49|115:49|87:81|57:98,1,187.000005706787,6|2,3:2|0:0,0:0:0:0:
162,293,53335,2,0,P|221:302|320:215,1,187.000005706787,0|2,3:0|0:0,0:0:0:0:
266,7,53785,1,0,3:0:0:0:
205,223,53935,1,2,0:0:0:0:
381,84,54085,6,0,P|456:100|485:104,1,93.5000028533936,0|0,3:0|0:0,0:0:0:0:
248,134,54385,2,0,P|201:141|156:152,1,93.5000028533936,2|0,0:0|3:0,0:0:0:0:
371,215,54685,1,2,0:0:0:0:
371,215,54760,1,2,0:0:0:0:
371,215,54835,1,0,3:0:0:0:
214,375,54985,2,0,P|185:328|184:284,1,93.5000028533936,8|2,0:0|0:0,0:0:0:0:
273,85,55285,5,6,3:2:0:0:
97,224,55435,2,0,B|49:239|49:239|5:223,1,93.5000028533936,2|0,0:0|0:0,0:0:0:0:
138,41,55735,1,0,3:0:0:0:
221,249,55885,1,2,0:0:0:0:
38,118,56035,2,0,P|51:53|57:20,1,93.5000028533936,0|0,0:0|3:0,0:0:0:0:
239,155,56335,1,2,0:0:0:0:
33,244,56485,6,0,P|30:298|51:337,1,93.5000028533936,0|0,3:0|0:0,0:0:0:0:
236,379,56785,1,2,0:0:0:0:
154,169,56935,2,0,P|140:240|134:271,1,93.5000028533936,0|2,3:0|0:0,0:0:0:0:
345,345,57235,1,0,3:0:0:0:
345,345,57310,1,2,0:0:0:0:
345,345,57385,2,0,B|366:297|366:297|347:255,1,93.5000028533936,8|2,0:0|0:0,0:0:0:0:
200,90,57685,5,2,3:2:0:0:
408,173,57835,1,0,0:0:0:0:
191,231,57985,1,2,0:0:0:0:
335,59,58135,1,0,3:0:0:0:
277,275,58285,2,0,P|261:323|270:371,1,93.5000028533936,2|0,0:0|0:0,0:0:0:0:
479,292,58585,2,0,P|495:244|486:196,1,93.5000028533936,0|2,3:0|0:0,0:0:0:0:
287,103,58885,5,0,3:0:0:0:
395,337,59035,1,0,0:0:0:0:
474,90,59185,1,2,0:0:0:0:
270,238,59335,2,0,P|194:227|159:221,1,93.5000028533936,0|2,3:0|0:0,0:0:0:0:
2,127,59635,1,0,3:0:0:0:
164,38,59785,2,0,P|218:27|261:33,1,93.5000028533936,8|2,0:0|0:0,0:0:0:0:
454,135,60085,6,0,B|376:127|376:127|334:143|334:143|253:132,1,187.000005706787,6|2,3:2|0:0,0:0:0:0:
139,317,60535,2,0,P|204:378|316:348,1,187.000005706787,0|2,3:0|0:0,0:0:0:0:
415,176,60985,1,0,3:0:0:0:
509,379,61135,1,2,0:0:0:0:
325,249,61285,6,0,P|250:256|222:259,1,93.5000028533936,0|0,3:0|0:0,0:0:0:0:
419,134,61585,2,0,P|465:138|512:142,1,93.5000028533936,2|0,0:0|3:0,0:0:0:0:
305,54,61885,1,2,0:0:0:0:
427,241,62035,1,0,3:0:0:0:
427,241,62110,1,2,0:0:0:0:
427,241,62185,1,8,0:0:0:0:
449,17,62335,1,2,0:0:0:0:
260,139,62485,6,0,B|191:198|243:283|243:283|273:235,1,187.000005706787,6|2,3:2|0:0,0:0:0:0:
425,112,62935,2,0,B|323:103|378:43|250:36,1,187.000005706787,0|2,3:0|0:0,0:0:0:0:
66,150,63385,1,0,3:0:0:0:
289,169,63535,1,2,0:0:0:0:
140,0,63685,6,0,P|127:76|154:113,1,93.5000028533936,0|0,3:0|0:0,0:0:0:0:
315,176,63985,2,0,P|328:100|301:63,1,93.5000028533936,2|0,0:0|3:0,0:0:0:0:
169,253,64285,1,2,0:0:0:0:
169,253,64360,1,2,0:0:0:0:
169,253,64435,1,0,3:0:0:0:
391,279,64585,1,8,0:0:0:0:
237,115,64735,1,2,0:0:0:0:
203,332,64885,6,0,B|247:347|247:347|292:332,1,93.5000028533936,6|0,3:2|0:0,0:0:0:0:
60,157,65185,1,2,0:0:0:0:
89,379,65335,1,0,3:0:0:0:
239,212,65485,2,0,P|233:135|230:102,1,93.5000028533936,2|0,0:0|0:0,0:0:0:0:
72,277,65785,1,0,3:0:0:0:
292,320,65935,1,2,0:0:0:0:
155,141,66085,6,0,P|109:127|64:143,1,93.5000028533936,0|0,3:0|0:0,0:0:0:0:
276,341,66385,2,0,P|322:355|367:339,1,93.5000028533936,2|0,0:0|3:0,0:0:0:0:
497,161,66685,1,2,0:0:0:0:
497,161,66760,1,2,0:0:0:0:
497,161,66835,1,0,3:0:0:0:
280,101,66985,2,0,P|292:177|296:211,1,93.5000028533936,8|2,0:0|0:0,0:0:0:0:
423,8,67285,1,2,3:2:0:0:
291,226,67435,6,0,B|182:198|182:198|136:217|141:263,1,187.000005706787,2|0,0:0|3:0,0:0:0:0:
49,48,67885,1,2,0:0:0:0:
240,106,68035,1,0,0:0:0:0:
53,309,68185,2,0,P|35:244|24:212,1,93.5000028533936,0|2,3:0|0:0,0:0:0:0:
175,49,68485,5,0,3:0:0:0:
3,194,68635,1,0,0:0:0:0:
211,276,68785,2,0,P|233:222|228:182,1,93.5000028533936,2|0,0:0|3:0,0:0:0:0:
62,36,69085,1,2,0:0:0:0:
282,77,69235,1,0,3:0:0:0:
96,203,69385,1,8,0:0:0:0:
183,6,69535,1,0,0:0:0:0:
311,177,69685,6,0,P|375:168|448:160,1,127.5,6|0,3:2|0:0,0:0:0:0:
479,163,69985,2,0,B|502:202|502:202|496:246,1,85,2|0,0:0|3:0,0:0:0:0:
342,347,70285,2,0,P|388:337|437:349,1,85,2|0,0:0|0:0,0:0:0:0:
295,208,70585,2,0,P|249:218|200:206,1,85,0|0,3:0|0:0,0:0:0:0:
90,131,70885,6,0,P|95:88|101:46,1,85,0|2,3:0|0:0,0:0:0:0:
0,231,71185,1,2,0:0:0:0:
109,341,71335,1,2,0:0:0:0:
109,341,71410,1,2,0:0:0:0:
109,341,71485,2,0,P|185:306|252:333,1,127.5,2|0,0:0|0:0,0:0:0:0:
257,339,71785,2,0,P|267:268|273:240,1,85,8|0,0:0|0:0,0:0:0:0:
198,120,72085,6,0,P|150:129|98:140,1,85,0|0,3:0|0:0,0:0:0:0:
287,10,72385,1,2,0:0:0:0:
384,137,72535,1,2,0:0:0:0:
384,137,72610,1,2,0:0:0:0:
384,137,72685,2,0,P|374:180|366:224,1,85,2|0,0:0|0:0,0:0:0:0:
449,17,72985,1,0,3:0:0:0:
287,100,73135,1,2,0:0:0:0:
479,130,73285,6,0,P|496:188|487:218,1,85,0|2,3:0|0:0,0:0:0:0:
428,379,73585,1,2,0:0:0:0:
360,224,73735,1,2,0:0:0:0:
360,224,73810,1,2,0:0:0:0:
360,224,73885,1,2,0:0:0:0:
251,343,74035,1,0,3:0:0:0:
208,152,74185,2,0,P|140:139|81:175,1,127.5,8|0,0:0|0:0,0:0:0:0:
70,204,74485,6,0,P|79:270|82:301,1,85,2|0,3:2|0:0,0:0:0:0:
166,384,74785,1,2,0:0:0:0:
0,341,74935,1,0,0:0:0:0:
175,252,75085,2,0,P|219:238|271:249,1,85,2|0,0:0|0:0,0:0:0:0:
391,330,75385,6,0,B|359:356|359:356|381:259,1,127.5,0|0,3:0|0:0,0:0:0:0:
401,233,75685,2,0,P|394:171|387:132,1,85,0|0,3:0|0:0,0:0:0:0:
285,13,75985,2,0,P|214:3|158:33,1,127.5,2|0,0:0|0:0,0:0:0:0:
154,66,76285,2,0,P|165:122|169:155,1,85,2|0,0:0|3:0,0:0:0:0:
140,317,76585,1,8,0:0:0:0:
61,166,76735,1,0,0:0:0:0:
216,248,76885,6,0,P|275:236|343:226,1,118.999996368408,4|8,3:0|0:0,0:0:0:0:
333,227,77335,1,4,3:0:0:0:
315,43,77485,6,0,P|295:99|274:154,1,118.999996368408,4|8,3:0|0:0,0:0:0:0:
273,154,77935,1,4,3:0:0:0:
451,239,78085,6,0,P|411:194|374:147,1,118.999996368408,4|8,3:0|0:0,0:0:0:0:
374,147,78535,1,4,3:0:0:0:
275,258,78685,6,0,P|305:252|334:248,1,59.4999981842042,4|0,3:0|0:0,0:0:0:0:
277,92,78985,2,0,P|267:121|255:148,1,59.4999981842042,2|0,0:0|0:0,0:0:0:0:
133,193,79285,6,0,P|98:132|134:68,1,144.500002756119,6|2,3:2|0:2,0:0:0:0:
230,153,79735,1,0,3:0:0:0:
190,276,79885,2,0,P|106:286|37:295,1,144.500002756119,2|0,0:2|3:0,0:0:0:0:
148,188,80335,1,0,0:0:0:0:
244,346,80485,6,0,B|331:367|331:367|360:354|381:329,1,144.500002756119,0|2,3:0|0:0,0:0:0:0:
482,260,80935,1,0,3:0:0:0:
365,202,81085,1,2,0:0:0:0:
365,202,81160,1,2,0:0:0:0:
365,202,81235,1,0,3:0:0:0:
481,144,81385,2,0,B|496:108|496:108|486:63,1,72.2500013780594,8|0,0:0|0:0,0:0:0:0:
368,25,81685,5,0,3:0:0:0:
328,149,81835,2,0,B|350:245|350:245|355:217|368:195,1,144.500002756119,2|0,0:0|3:0,0:0:0:0:
258,94,82285,2,0,B|176:78|195:142|104:119,1,144.500002756119,2|0,0:0|3:0,0:0:0:0:
22,38,82735,1,0,0:0:0:0:
10,167,82885,5,0,3:0:0:0:
10,167,82960,1,2,0:0:0:0:
10,167,83035,2,0,P|23:212|31:244,1,72.2500013780594,0|2,3:0|0:0,0:0:0:0:
159,220,83335,1,0,3:0:0:0:
99,338,83485,1,2,0:0:0:0:
99,338,83560,1,2,0:0:0:0:
99,338,83635,1,0,3:0:0:0:
225,368,83785,2,0,B|241:334|241:334|226:294,1,72.2500013780594,8|0,0:0|0:0,0:0:0:0:
150,197,84085,5,0,3:0:0:0:
242,105,84235,2,0,B|301:114|301:114|323:134|323:134|390:145,1,144.500002756119,2|0,0:0|3:0,0:0:0:0:
503,107,84685,1,2,0:0:0:0:
494,236,84835,2,0,P|453:277|359:268,1,144.500002756119,2|2,0:0|0:0,0:0:0:0:
284,177,85285,1,0,3:0:0:0:
209,283,85435,6,0,B|121:263|121:263|94:280|86:306,1,144.500002756119,2|2,0:0|0:0,0:0:0:0:
169,182,85885,1,2,0:0:0:0:
169,182,85960,1,2,0:0:0:0:
169,182,86035,1,0,3:0:0:0:
51,126,86185,2,0,P|54:179|56:208,1,72.2500013780594,8|0,0:0|0:0,0:0:0:0:
186,38,86485,6,0,P|147:27|102:41,1,72.2500013780594,0|0,3:0|0:0,0:0:0:0:
169,182,86785,2,0,P|204:187|238:176,1,72.2500013780594,2|0,0:0|3:0,0:0:0:0:
326,81,87085,1,2,0:0:0:0:
368,203,87235,1,0,0:0:0:0:
221,105,87385,1,0,3:0:0:0:
407,31,87535,1,0,0:0:0:0:
363,222,87685,6,0,P|357:271|354:301,1,72.2500013780594,0|2,3:0|0:0,0:0:0:0:
487,186,87985,2,0,P|483:150|478:114,1,72.2500013780594,0|0,0:0|3:0,0:0:0:0:
393,15,88285,1,2,0:0:0:0:
393,15,88360,1,2,0:0:0:0:
393,15,88435,1,0,3:0:0:0:
311,116,88585,2,0,P|275:129|229:119,1,72.2500013780594,8|0,0:0|0:0,0:0:0:0:
135,18,88885,6,0,P|140:84|143:138,1,108.375002067089,2|0,3:2|0:0,0:0:0:0:
130,160,89185,2,0,B|97:180|97:180|60:172,1,72.2500013780594,2|0,0:2|0:0,0:0:0:0:
226,237,89485,2,0,P|281:249|308:256,1,72.2500013780594,2|0,0:2|0:0,0:0:0:0:
477,225,89785,1,0,3:0:0:0:
356,352,89935,1,0,0:0:0:0:
353,157,90085,5,0,3:0:0:0:
449,317,90235,2,0,P|494:326|524:314,1,72.2500013780594,0|2,0:0|0:0,0:0:0:0:
491,139,90535,2,0,P|485:188|482:221,1,72.2500013780594,0|2,3:0|0:0,0:0:0:0:
482,210,90760,1,2,0:0:0:0:
482,210,90835,1,0,3:0:0:0:
355,177,90985,1,8,0:0:0:0:
410,294,91135,1,0,0:0:0:0:
266,351,91285,6,0,B|228:361|228:361|192:344,1,72.2500013780594,0|0,3:0|0:0,0:0:0:0:
110,210,91585,1,2,0:0:0:0:
50,370,91735,1,0,3:0:0:0:
229,248,91885,2,0,P|221:183|217:156,1,72.2500013780594,2|0,0:0|0:0,0:0:0:0:
91,110,92185,2,0,P|86:145|82:181,1,72.2500013780594,0|0,3:0|0:0,0:0:0:0:
184,46,92485,6,0,P|142:11|45:13,1,144.500002756119,0|2,3:0|0:0,0:0:0:0:
229,160,92935,2,0,B|325:141|325:141|353:160|356:183,1,144.500002756119,0|0,3:0|3:0,0:0:0:0:
411,293,93385,1,8,0:0:0:0:
483,185,93535,1,0,0:0:0:0:
297,245,93685,5,0,3:0:0:0:
429,314,93835,2,0,P|440:359|445:385,1,72.2500013780594,2|0,0:0|0:0,0:0:0:0:
290,264,94135,1,0,3:0:0:0:
470,189,94285,2,0,P|493:132|476:80,1,108.375002067089,2|0,0:0|0:0,0:0:0:0:
438,60,94585,2,0,P|383:68|347:74,1,72.2500013780594,0|2,3:0|0:0,0:0:0:0:
238,161,94885,6,0,B|183:149|183:149|161:122|161:122|91:109,1,144.500002756119,0|2,3:0|0:0,0:0:0:0:
4,232,95335,2,0,P|32:268|132:260,1,144.500002756119,0|0,3:0|3:0,0:0:0:0:
228,188,95785,2,0,P|239:242|245:273,1,72.2500013780594,8|0,0:0|0:0,0:0:0:0:
330,384,96085,5,0,3:0:0:0:
169,344,96235,1,0,0:0:0:0:
349,243,96385,1,2,0:0:0:0:
208,162,96535,2,0,B|187:60|187:60|207:81|225:94,1,152.999995330811,0|0,3:0|0:0,0:0:0:0:
109,227,96985,1,0,3:0:0:0:
314,154,97135,1,0,0:0:0:0:
272,312,97285,5,0,3:0:0:0:
272,312,97360,1,2,0:0:0:0:
272,312,97435,2,0,P|228:330|190:322,1,76.4999976654053,2|2,0:0|0:0,0:0:0:0:
321,193,97735,2,0,P|397:207|463:218,1,114.749996498108,0|0,3:0|0:0,0:0:0:0:
433,213,98035,1,0,3:0:0:0:
506,96,98185,1,8,0:0:0:0:
369,112,98335,1,2,0:0:0:0:
497,266,98485,6,0,P|506:320|466:369,1,108.375002067089,6|0,3:2|0:0,0:0:0:0:
434,368,98785,2,0,P|377:349|353:343,1,72.2500013780594,2|0,0:2|3:0,0:0:0:0:
254,275,99085,2,0,P|288:265|322:252,1,72.2500013780594,2|0,0:2|0:0,0:0:0:0:
213,374,99385,1,0,3:0:0:0:
129,274,99535,1,0,0:0:0:0:
226,161,99685,6,0,B|240:126|240:126|231:82,1,72.2500013780594,0|0,3:0|0:0,0:0:0:0:
107,60,99985,1,2,0:0:0:0:
154,200,100135,2,0,B|315:189,1,144.500002756119,0|0,3:0|3:0,0:0:0:0:
465,180,100585,1,8,0:0:0:0:
370,294,100735,1,0,0:0:0:0:
386,123,100885,6,0,P|392:74|378:44,1,72.2500013780594,0|0,3:0|0:0,0:0:0:0:
259,15,101185,2,0,B|189:41|189:41|155:27,1,108.375002067089,2|0,0:0|0:0,0:0:0:0:
124,17,101485,2,0,P|101:51|101:86,1,72.2500013780594,2|0,0:0|0:0,0:0:0:0:
188,176,101785,1,0,3:0:0:0:
65,219,101935,1,0,0:0:0:0:
166,300,102085,6,0,P|155:347|151:379,1,72.2500013780594,2|0,3:2|3:0,0:0:0:0:
151,370,102310,1,2,0:0:0:0:
151,370,102385,1,2,0:0:0:0:
251,246,102535,2,0,B|336:232|336:232|359:259|392:257,1,144.500002756119,0|0,3:0|3:0,0:0:0:0:
498,190,102985,1,8,0:0:0:0:
377,140,103135,1,0,0:0:0:0:
486,70,103285,6,0,P|497:36|487:-4,1,72.2500013780594,0|0,3:0|0:0,0:0:0:0:
349,137,103585,2,0,P|261:121|235:116,1,108.375002067089,2|0,0:0|0:0,0:0:0:0:
208,113,103885,2,0,B|167:177|167:177|197:255,1,144.500002756119,2|0,0:0|3:0,0:0:0:0:
310,293,104335,1,2,0:0:0:0:
203,368,104485,6,0,P|141:361|107:358,1,72.2500013780594,0|0,3:0|0:0,0:0:0:0:
21,290,104785,2,0,P|46:252|124:247,1,108.375002067089,2|0,0:0|0:0,0:0:0:0:
140,256,105085,2,0,P|123:154|115:103,1,144.500002756119,0|8,3:0|0:0,0:0:0:0:
201,21,105535,1,0,0:0:0:0:
272,129,105685,5,0,3:0:0:0:
348,24,105835,1,0,0:0:0:0:
434,121,105985,2,0,P|446:157|444:196,1,72.2500013780594,2|0,0:0|3:0,0:0:0:0:
332,273,106285,2,0,P|340:214|342:193,1,72.2500013780594,2|0,0:0|0:0,0:0:0:0:
434,310,106585,2,0,P|437:345|443:381,1,72.2500013780594,0|0,3:0|0:0,0:0:0:0:
324,298,106885,5,0,3:0:0:0:
506,230,107035,1,2,0:0:0:0:
506,230,107110,1,2,0:0:0:0:
506,230,107185,1,2,0:0:0:0:
385,110,107335,2,0,B|304:99|316:150|238:138,1,144.500002756119,0|0,3:0|3:0,0:0:0:0:
52,36,107785,2,0,P|95:32|143:95,1,108.375002067089,8|0,0:0|0:0,0:0:0:0:
135,113,108085,6,0,B|119:211|119:211|96:163,1,144.500002756119,2|2,3:2|0:2,0:0:0:0:
23,277,108535,1,0,3:0:0:0:
135,342,108685,2,0,P|176:325|212:325,1,72.2500013780594,2|0,0:2|0:0,0:0:0:0:
318,261,108985,1,0,3:0:0:0:
210,187,109135,1,2,0:0:0:0:
334,98,109285,6,0,P|416:113|488:126,1,144.500002756119,0|2,3:0|0:0,0:0:0:0:
511,249,109735,2,0,P|470:267|437:269,1,72.2500013780594,0|2,3:0|0:0,0:0:0:0:
280,201,110035,1,0,3:0:0:0:
340,363,110185,2,0,B|354:326|354:326|343:292,1,72.2500013780594,8|0,0:0|0:0,0:0:0:0:
145,265,110485,6,0,P|159:308|258:314,1,144.500002756119,0|2,3:0|0:0,0:0:0:0:
197,172,110935,1,0,3:0:0:0:
66,243,111085,2,0,P|20:255|-8:265,1,72.2500013780594,2|0,0:0|0:0,0:0:0:0:
39,114,111385,2,0,P|73:125|108:134,1,72.2500013780594,0|2,3:0|0:0,0:0:0:0:
206,48,111685,5,0,3:0:0:0:
206,48,111760,1,2,0:0:0:0:
206,48,111835,1,0,3:0:0:0:
270,161,111985,2,0,P|252:198|256:234,1,72.2500013780594,2|0,0:0|3:0,0:0:0:0:
356,309,112285,1,2,0:0:0:0:
236,360,112435,1,0,3:0:0:0:
236,360,112510,1,2,0:0:0:0:
236,360,112585,1,8,0:0:0:0:
348,230,112735,1,0,0:0:0:0:
474,328,112885,6,0,B|454:338|437:360|437:360|458:245,1,144.500002756119,0|2,3:0|0:0,0:0:0:0:
474,137,113335,1,0,3:0:0:0:
355,191,113485,2,0,B|270:164|270:164|238:175|232:209,1,144.500002756119,2|0,0:0|3:0,0:0:0:0:
245,332,113935,1,2,0:0:0:0:
131,268,114085,6,0,P|120:227|124:190,1,72.2500013780594,0|0,3:0|0:0,0:0:0:0:
214,106,114385,1,2,0:0:0:0:
104,35,114535,2,0,P|67:43|31:51,1,72.2500013780594,0|0,3:0|0:0,0:0:0:0:
152,179,114835,1,2,0:0:0:0:
285,6,114985,1,8,0:0:0:0:
123,58,115135,1,0,0:0:0:0:
322,127,115285,6,0,P|385:116|411:113,1,76.4999976654053,0|0,3:0|0:0,0:0:0:0:
485,246,115585,2,0,P|447:238|409:233,1,76.4999976654053,10|0,0:0|3:0,0:0:0:0:
292,305,115885,1,2,0:0:0:0:
292,305,115960,1,2,0:0:0:0:
292,305,116035,1,0,0:0:0:0:
217,189,116185,2,0,B|206:149|206:149|226:114,1,76.4999976654053,0|2,3:0|0:0,0:0:0:0:
321,216,116485,5,0,3:0:0:0:
139,287,116635,1,2,0:0:0:0:
340,333,116785,1,8,0:0:0:0:
207,174,116935,1,0,3:0:0:0:
198,380,117085,5,8,0:0:0:0:
61,225,117235,1,2,3:2:0:0:
255,268,117385,1,0,1:0:0:0:
67,354,117535,1,0,1:0:0:0:
172,155,117685,6,0,B|154:37|154:37|151:66|134:106,1,187.000005706787,6|2,3:2|0:0,0:0:0:0:
264,285,118135,2,0,B|369:286|345:231|445:234,1,187.000005706787,0|2,3:0|0:0,0:0:0:0:
220,186,118585,1,0,3:0:0:0:
360,361,118735,1,2,0:0:0:0:
426,146,118885,6,0,P|435:78|440:47,1,93.5000028533936,0|0,3:0|0:0,0:0:0:0:
241,199,119185,2,0,P|248:245|253:291,1,93.5000028533936,2|0,0:0|3:0,0:0:0:0:
296,71,119485,1,2,0:0:0:0:
105,190,119635,1,0,3:0:0:0:
328,214,119785,1,8,0:0:0:0:
160,64,119935,1,2,0:0:0:0:
220,280,120085,6,0,P|147:331|40:304,1,187.000005706787,6|2,3:2|0:0,0:0:0:0:
224,147,120535,2,0,B|302:157|302:157|328:186|328:186|403:198,1,187.000005706787,0|2,3:0|0:0,0:0:0:0:
259,374,120985,1,0,3:0:0:0:
469,295,121135,1,2,0:0:0:0:
270,190,121285,5,0,3:0:0:0:
270,190,121360,1,2,0:0:0:0:
270,190,121435,1,0,0:0:0:0:
410,365,121585,2,0,P|429:314|423:274,1,93.5000028533936,2|0,0:0|3:0,0:0:0:0:
200,299,121885,1,2,0:0:0:0:
373,156,122035,1,0,3:0:0:0:
287,363,122185,1,8,0:0:0:0:
237,144,122335,1,2,0:0:0:0:
124,338,122485,6,0,P|58:325|25:320,1,93.5000028533936,6|0,3:2|0:0,0:0:0:0:
241,240,122785,2,0,P|287:232|332:222,1,93.5000028533936,2|0,0:0|3:0,0:0:0:0:
130,120,123085,1,2,0:0:0:0:
151,343,123235,2,0,P|208:378|333:355,1,187.000005706787,2|2,0:0|0:0,0:0:0:0:
423,161,123685,1,0,3:0:0:0:
487,376,123835,1,0,0:0:0:0:
301,249,123985,1,2,0:0:0:0:
502,150,124135,6,0,B|516:104|516:104|491:60,1,93.5000028533936,0|2,3:0|0:0,0:0:0:0:
269,14,124435,1,0,3:0:0:0:
269,14,124510,1,2,0:0:0:0:
269,14,124585,2,0,P|262:74|258:111,1,93.5000028533936,8|2,0:0|0:0,0:0:0:0:
407,274,124885,5,2,3:2:0:0:
205,175,125035,1,0,0:0:0:0:
407,78,125185,1,2,0:0:0:0:
286,267,125335,1,0,3:0:0:0:
175,71,125485,2,0,P|125:57|79:70,1,93.5000028533936,0|2,0:0|0:0,0:0:0:0:
269,255,125785,2,0,P|351:246|381:243,1,93.5000028533936,0|2,3:0|0:0,0:0:0:0:
174,70,126085,5,0,3:0:0:0:
119,302,126235,1,0,0:0:0:0:
328,155,126385,1,2,0:0:0:0:
57,218,126535,2,0,P|19:282|57:393,1,187.000005706787,0|0,3:0|3:0,0:0:0:0:
197,217,126985,1,8,0:0:0:0:
3,103,127135,1,2,0:0:0:0:
131,318,127285,6,0,B|251:299|251:299|279:331|324:334,1,187.000005706787,6|2,3:2|0:0,0:0:0:0:
486,194,127735,2,0,B|371:163|371:163|339:186|340:233,1,187.000005706787,0|2,3:0|0:0,0:0:0:0:
230,25,128185,1,0,3:0:0:0:
449,71,128335,1,2,0:0:0:0:
251,178,128485,6,0,P|177:167|141:162,1,93.5000028533936,0|0,3:0|0:0,0:0:0:0:
328,17,128785,2,0,P|340:67|323:113,1,93.5000028533936,2|0,0:0|3:0,0:0:0:0:
211,297,129085,1,2,0:0:0:0:
420,216,129235,1,0,3:0:0:0:
212,130,129385,1,8,0:0:0:0:
349,307,129535,1,2,0:0:0:0:
128,347,129685,6,0,B|11:303|11:303|60:369,1,187.000005706787,6|2,3:2|0:0,0:0:0:0:
255,263,130135,2,0,B|302:230|308:172|264:126|264:126|248:168,1,187.000005706787,0|2,3:0|0:0,0:0:0:0:
130,341,130585,1,0,3:0:0:0:
350,298,130735,1,2,0:0:0:0:
153,189,130885,6,0,P|76:204|43:211,1,93.5000028533936,0|0,3:0|0:0,0:0:0:0:
328,314,131185,2,0,P|373:322|419:332,1,93.5000028533936,2|0,0:0|3:0,0:0:0:0:
345,128,131485,1,2,0:0:0:0:
345,128,131560,1,2,0:0:0:0:
345,128,131635,1,0,3:0:0:0:
221,315,131785,1,8,0:0:0:0:
422,215,131935,1,2,0:0:0:0:
203,161,132085,6,0,P|176:97|221:-13,1,187.000005706787,6|2,3:2|0:0,0:0:0:0:
334,182,132535,1,0,3:0:0:0:
124,261,132685,2,0,B|78:244|78:244|28:260,1,93.5000028533936,2|0,0:0|0:0,0:0:0:0:
226,378,132985,1,0,3:0:0:0:
242,154,133135,1,2,0:0:0:0:
125,345,133285,5,0,3:0:0:0:
334,264,133435,1,0,0:0:0:0:
143,157,133585,2,0,P|135:99|152:63,1,93.5000028533936,2|0,0:0|3:0,0:0:0:0:
367,18,133885,1,2,0:0:0:0:
306,239,134035,1,0,3:0:0:0:
306,239,134110,1,2,0:0:0:0:
306,239,134185,2,0,P|287:167|280:134,1,93.5000028533936,8|2,0:0|0:0,0:0:0:0:
507,142,134485,5,2,3:2:0:0:
410,344,134635,2,0,B|335:330|335:330|300:355|300:355|211:347,1,187.000005706787,2|0,0:0|3:0,0:0:0:0:
139,144,135085,1,2,0:0:0:0:
10,327,135235,1,2,0:0:0:0:
10,327,135310,1,2,0:0:0:0:
10,327,135385,2,0,P|61:335|103:308,1,93.5000028533936,0|2,3:0|0:0,0:0:0:0:
210,122,135685,5,0,3:0:0:0:
171,343,135835,1,0,0:0:0:0:
76,139,135985,1,2,0:0:0:0:
289,207,136135,1,0,3:0:0:0:
187,6,136285,5,2,0:0:0:0:
149,226,136435,1,0,3:0:0:0:
301,61,136585,1,8,0:0:0:0:
83,114,136735,1,2,0:0:0:0:
274,230,136885,6,0,P|365:212|468:198,1,187.000005706787,6|2,3:2|0:0,0:0:0:0:
260,92,137335,2,0,P|203:56|82:77,1,187.000005706787,0|2,3:0|0:0,0:0:0:0:
52,293,137785,1,0,3:0:0:0:
256,200,137935,1,2,0:0:0:0:
59,91,138085,6,0,P|74:165|78:195,1,93.5000028533936,0|0,3:0|0:0,0:0:0:0:
181,382,138385,2,0,P|188:335|198:290,1,93.5000028533936,2|0,0:0|3:0,0:0:0:0:
351,124,138685,1,2,0:0:0:0:
413,339,138835,1,0,3:0:0:0:
413,339,138910,1,2,0:0:0:0:
413,339,138985,1,8,0:0:0:0:
201,262,139135,1,2,0:0:0:0:
353,97,139285,6,0,P|442:44|525:88,1,187.000005706787,6|2,3:2|0:0,0:0:0:0:
246,184,139735,2,0,B|190:177|137:165|137:165|97:189|107:256,1,187.000005706787,0|2,3:0|0:0,0:0:0:0:
324,275,140185,1,0,3:0:0:0:
235,68,140335,1,2,0:0:0:0:
175,313,140485,5,0,3:0:0:0:
175,313,140560,1,2,0:0:0:0:
175,313,140635,1,0,0:0:0:0:
356,180,140785,2,0,P|436:196|465:202,1,93.5000028533936,2|0,0:0|3:0,0:0:0:0:
286,355,141085,1,2,0:0:0:0:
286,355,141160,1,2,0:0:0:0:
286,355,141235,1,0,3:0:0:0:
234,136,141385,2,0,P|233:74|255:37,1,93.5000028533936,8|2,0:0|0:0,0:0:0:0:
376,231,141685,5,6,3:2:0:0:
159,291,141835,2,0,P|80:277|41:270,1,93.5000028533936,2|0,0:0|0:0,0:0:0:0:
280,201,142135,1,0,3:0:0:0:
143,379,142285,1,2,0:0:0:0:
9,199,142435,2,0,B|-32:121|56:64|56:64|50:124,1,187.000005706787,2|2,0:0|0:0,0:0:0:0:
184,275,142885,5,0,3:0:0:0:
280,72,143035,1,0,0:0:0:0:
97,202,143185,1,2,0:0:0:0:
270,344,143335,2,0,P|341:333|385:328,1,93.5000028533936,0|2,3:0|0:0,0:0:0:0:
502,154,143635,1,0,3:0:0:0:
502,154,143710,1,2,0:0:0:0:
502,154,143785,2,0,P|457:134|411:133,1,93.5000028533936,8|2,0:0|0:0,0:0:0:0:
219,245,144085,5,2,3:2:0:0:
322,46,144235,1,0,0:0:0:0:
406,253,144385,1,2,0:0:0:0:
222,123,144535,1,0,3:0:0:0:
159,338,144685,2,0,P|98:361|55:355,1,93.5000028533936,2|0,0:0|0:0,0:0:0:0:
214,157,144985,2,0,P|298:173|328:178,1,93.5000028533936,0|2,3:0|0:0,0:0:0:0:
115,52,145285,5,0,3:0:0:0:
169,296,145435,1,0,0:0:0:0:
0,148,145585,1,2,0:0:0:0:
227,20,145735,2,0,B|272:5|272:5|326:16,1,93.5000028533936,0|2,3:0|0:0,0:0:0:0:
294,245,146035,1,0,3:0:0:0:
294,245,146110,1,2,0:0:0:0:
294,245,146185,2,0,P|283:178|277:144,1,93.5000028533936,8|2,0:0|0:0,0:0:0:0:
462,21,146485,6,0,B|441:148|441:148|431:114|412:88,1,187.000005706787,6|2,3:2|0:0,0:0:0:0:
273,267,146935,2,0,B|375:232|375:232|409:259|461:256,1,187.000005706787,0|2,3:0|0:0,0:0:0:0:
265,126,147385,1,0,3:0:0:0:
217,345,147535,1,2,0:0:0:0:
35,212,147685,6,0,P|24:156|36:118,1,93.5000028533936,0|0,3:0|0:0,0:0:0:0:
243,37,147985,2,0,P|254:93|242:131,1,93.5000028533936,2|0,0:0|3:0,0:0:0:0:
117,313,148285,1,2,0:0:0:0:
331,245,148435,1,0,3:0:0:0:
134,137,148585,1,8,0:0:0:0:
351,79,148735,1,2,0:0:0:0:
215,283,148885,6,0,P|150:227|42:249,1,187.000005706787,6|2,3:2|0:0,0:0:0:0:
244,119,149335,2,0,B|360:100|318:172|435:149,1,187.000005706787,0|2,3:0|0:0,0:0:0:0:
209,221,149785,1,0,3:0:0:0:
332,33,149935,1,2,0:0:0:0:
489,192,150085,6,0,B|507:237|507:237|492:281,1,93.5000028533936,0|0,3:0|0:0,0:0:0:0:
280,352,150385,2,0,B|262:307|262:307|277:263,1,93.5000028533936,2|0,0:0|3:0,0:0:0:0:
408,82,150685,1,2,0:0:0:0:
408,82,150760,1,2,0:0:0:0:
408,82,150835,1,0,3:0:0:0:
210,188,150985,1,8,0:0:0:0:
428,239,151135,1,2,0:0:0:0:
273,76,151285,6,0,P|174:90|68:104,1,187.000005706787,6|2,3:2|0:0,0:0:0:0:
240,265,151735,1,0,3:0:0:0:
44,342,151885,2,0,P|18:284|29:246,1,93.5000028533936,2|0,0:0|0:0,0:0:0:0:
188,102,152185,2,0,P|214:160|203:198,1,93.5000028533936,0|2,3:0|0:0,0:0:0:0:
70,10,152485,5,0,3:0:0:0:
315,98,152635,1,0,0:0:0:0:
102,168,152785,1,2,0:0:0:0:
262,2,152935,1,0,3:0:0:0:
373,195,153085,2,0,P|437:185|478:179,1,93.5000028533936,2|0,0:0|3:0,0:0:0:0:
260,344,153385,2,0,P|213:337|167:329,1,93.5000028533936,8|2,0:0|0:0,0:0:0:0:
246,119,153685,5,2,3:2:0:0:
419,261,153835,2,0,B|473:330|408:387|408:387|414:333,1,187.000005706787,2|0,0:0|3:0,0:0:0:0:
442,119,154285,1,2,0:0:0:0:
283,277,154435,1,2,0:0:0:0:
283,277,154510,1,2,0:0:0:0:
283,277,154585,2,0,B|233:291|233:291|192:273,1,93.5000028533936,0|2,3:0|0:0,0:0:0:0:
11,144,154885,5,0,3:0:0:0:
97,351,155035,1,0,0:0:0:0:
139,130,155185,2,0,P|131:55|127:24,1,93.5000028533936,2|0,0:0|3:0,0:0:0:0:
28,237,155485,1,2,0:0:0:0:
224,127,155635,1,0,3:0:0:0:
10,57,155785,1,2,0:0:0:0:
150,232,155935,1,0,0:0:0:0:
304,98,156085,6,0,B|284:206|284:206|325:173,1,152.999995330811,4|2,3:2|0:0,0:0:0:0:
416,60,156535,1,0,3:2:0:0:
274,1,156685,2,0,P|227:30|196:129,1,152.999995330811,2|8,0:0|3:2,0:0:0:0:
292,236,157135,1,2,0:0:0:0:
153,301,157285,6,0,P|96:292|31:281,1,114.749996498108,0|0,3:0|0:0,0:0:0:0:
39,282,157585,1,2,0:0:0:0:
253,368,157735,2,0,B|344:338|344:338|382:348|400:373,1,152.999995330811,0|0,3:0|3:0,0:0:0:0:
493,220,158185,2,0,P|485:266|482:302,1,76.4999976654053,8|0,0:0|0:0,0:0:0:0:
408,160,158485,5,0,3:2:0:0:
343,298,158635,1,0,0:0:0:0:
308,148,158785,1,2,0:0:0:0:
236,283,158935,1,0,3:2:0:0:
148,157,159085,2,0,B|60:147|81:188|-9:174,1,152.999995330811,2|8,0:0|3:2,0:0:0:0:
127,258,159535,1,2,0:0:0:0:
230,105,159685,5,0,3:0:0:0:
230,105,159760,1,2,0:0:0:0:
230,105,159835,2,0,P|222:56|217:15,1,76.4999976654053,2|2,0:0|0:0,0:0:0:0:
332,158,160135,2,0,P|325:195|320:233,1,76.4999976654053,0|2,3:0|0:0,0:0:0:0:
320,233,160360,1,2,0:0:0:0:
320,233,160435,1,0,3:0:0:0:
410,357,160585,2,0,P|464:359|488:342,1,76.4999976654053,8|0,0:0|0:0,0:0:0:0:
329,241,160885,5,0,3:2:0:0:
249,371,161035,1,0,0:0:0:0:
395,326,161185,1,2,0:0:0:0:
231,252,161335,1,0,3:2:0:0:
395,215,161485,2,0,P|432:160|417:70,1,152.999995330811,2|8,0:0|3:2,0:0:0:0:
285,4,161935,1,2,0:0:0:0:
252,142,162085,6,0,P|311:132|346:128,1,76.4999976654053,0|0,3:0|0:0,0:0:0:0:
186,68,162385,1,2,0:0:0:0:
154,217,162535,1,0,3:0:0:0:
59,96,162685,1,2,0:0:0:0:
59,96,162760,1,2,0:0:0:0:
59,96,162835,1,0,3:0:0:0:
8,240,162985,2,0,P|-2:288|6:317,1,76.4999976654053,8|0,0:0|0:0,0:0:0:0:
160,381,163285,5,0,3:2:0:0:
210,236,163435,1,0,0:0:0:0:
80,316,163585,1,2,0:0:0:0:
232,326,163735,1,0,3:2:0:0:
130,211,163885,2,0,P|124:118|119:73,1,114.749996498108,2|0,0:0|0:0,0:0:0:0:
126,57,164185,2,0,B|164:42|164:42|203:49,1,76.4999976654053,8|2,3:2|0:0,0:0:0:0:
294,181,164485,5,0,3:0:0:0:
294,181,164560,1,2,0:0:0:0:
294,181,164635,1,2,0:0:0:0:
420,94,164785,2,0,P|428:47|416:16,1,76.4999976654053,2|0,0:0|3:0,0:0:0:0:
306,167,165085,1,2,0:0:0:0:
437,245,165235,2,0,P|497:236|528:233,1,76.4999976654053,0|8,3:0|0:0,0:0:0:0:
389,359,165535,1,0,0:0:0:0:
280,251,165685,6,0,P|228:229|149:249,1,114.749996498108,4|0,3:2|0:0,0:0:0:0:
145,268,165985,2,0,P|153:324|156:353,1,76.4999976654053,2|0,0:0|0:0,0:0:0:0:
45,236,166285,1,2,0:0:0:0:
172,150,166435,1,0,0:0:0:0:
88,21,166585,2,0,P|39:9|4:18,1,76.4999976654053,0|2,3:2|0:0,0:0:0:0:
143,166,166885,5,0,3:0:0:0:
234,43,167035,2,0,P|286:37|326:32,1,76.4999976654053,2|2,0:0|0:0,0:0:0:0:
427,132,167335,1,0,3:0:0:0:
274,125,167485,1,2,0:0:0:0:
406,48,167635,1,0,3:0:0:0:
341,186,167785,2,0,B|333:225|333:225|355:262,1,76.4999976654053,8|0,0:0|0:0,0:0:0:0:
498,300,168085,6,0,B|414:296|443:356|343:350,1,152.999995330811,0|2,3:2|0:0,0:0:0:0:
249,242,168535,1,0,3:2:0:0:
378,160,168685,2,0,P|443:170|475:174,1,76.4999976654053,2|0,0:0|0:0,0:0:0:0:
311,35,168985,2,0,P|266:37|229:57,1,76.4999976654053,0|2,3:2|0:0,0:0:0:0:
183,193,169285,5,0,3:0:0:0:
75,84,169435,2,0,P|85:30|91:-4,1,76.4999976654053,2|2,0:0|0:0,0:0:0:0:
192,171,169735,1,0,3:0:0:0:
85,280,169885,2,0,P|27:285|5:275,1,76.4999976654053,2|0,0:0|3:0,0:0:0:0:
201,148,170185,1,8,0:0:0:0:
236,334,170335,1,0,0:0:0:0:
343,224,170485,6,0,B|362:188|362:188|352:146,1,76.4999976654053,0|0,3:2|0:0,0:0:0:0:
231,245,170785,1,2,0:0:0:0:
367,313,170935,1,0,3:2:0:0:
222,363,171085,2,0,P|159:368|120:372,1,76.4999976654053,2|0,0:0|0:0,0:0:0:0:
23,277,171385,2,0,P|9:221|40:164,1,114.749996498108,0|0,3:2|0:0,0:0:0:0:
32,171,171685,5,0,3:0:0:0:
182,141,171835,1,2,0:0:0:0:
84,22,171985,2,0,P|44:29|8:33,1,76.4999976654053,2|0,0:0|3:0,0:0:0:0:
177,163,172285,1,2,0:0:0:0:
177,163,172360,1,2,0:0:0:0:
177,163,172435,1,0,3:0:0:0:
256,32,172585,2,0,P|293:16|337:25,1,76.4999976654053,8|2,0:0|0:0,0:0:0:0:
456,128,172885,6,0,P|402:122|367:118,1,68,2|0,0:0|0:0,0:0:0:0:
283,248,173185,2,0,P|316:244|350:240,1,68,8|0,0:0|0:0,0:0:0:0:
459,356,173485,1,2,0:0:0:0:
323,341,173635,1,0,3:0:0:0:
439,270,173785,2,0,P|443:227|428:196,1,68,8|0,0:0|0:0,0:0:0:0:
300,99,174085,5,8,3:2:0:0:
241,314,174235,1,2,0:2:0:0:
156,109,174385,1,8,3:2:0:0:
349,216,174535,1,2,0:2:0:0:
115,258,174685,5,8,3:2:0:0:
289,79,174835,1,8,3:2:0:0:
255,326,174985,1,8,3:2:0:0:
133,107,175135,1,8,3:2:0:0:
137,350,175285,6,0,P|61:360|11:301,1,140.25000428009,2|0,0:0|0:0,0:0:0:0:
48,237,175585,6,0,P|84:225|123:237,1,68,2|0,0:0|0:0,0:0:0:0:
28,62,175885,2,0,P|22:95|0:120,1,68,2|0,0:0|0:0,0:0:0:0:
186,134,176186,2,0,P|160:112|148:81,1,68,2|0,0:0|0:0,0:0:0:0:
85,148,176485,5,6,0:0:0:0:
416,339,186085,6,0,P|355:329|305:324,1,101.999996887207,6|2,3:2|0:0,0:0:0:0:
267,245,186535,2,0,P|311:223|367:230,1,101.999996887207,0|0,3:0|0:0,0:0:0:0:
443,269,186985,1,8,0:0:0:0:
443,269,187135,1,2,0:0:0:0:
481,185,187285,6,0,P|465:115|456:73,1,101.999996887207,2|0,3:2|0:0,0:0:0:0:
383,31,187735,1,0,3:0:0:0:
383,31,187885,2,0,P|351:47|337:65,1,50.9999984436036,2|0,0:0|0:0,0:0:0:0:
249,54,188185,2,0,P|237:87|240:110,1,50.9999984436036,8|0,0:0|0:0,0:0:0:0:
234,194,188485,6,0,P|191:218|130:197,1,101.999996887207,2|2,3:2|0:0,0:0:0:0:
80,138,188935,2,0,B|96:75|96:75|63:43,1,101.999996887207,0|0,3:0|0:0,0:0:0:0:
5,184,189385,2,0,P|16:237|17:257,1,50.9999984436036,8|0,0:0|0:0,0:0:0:0:
33,323,189685,6,0,B|88:319|73:290|136:293,1,101.999996887207,2|0,3:2|0:0,0:0:0:0:
169,210,190135,2,0,P|200:248|258:252,1,101.999996887207,2|0,0:0|0:0,0:0:0:0:
324,200,190585,1,8,0:0:0:0:
324,200,190735,1,0,0:0:0:0:
376,275,190885,6,0,P|365:321|359:356,1,76.4999976654053,2|0,3:2|0:0,0:0:0:0:
376,379,191185,2,0,P|408:385|434:380,1,50.9999984436036,2|0,0:0|3:0,0:0:0:0:
478,307,191485,1,2,0:0:0:0:
478,307,191635,1,0,0:0:0:0:
435,225,191785,2,0,P|444:176|448:157,1,50.9999984436036,8|0,0:0|0:0,0:0:0:0:
358,87,192085,6,0,B|305:95|305:95|285:114|285:114|222:126,1,136,2|2,3:2|0:0,0:0:0:0:
151,79,192535,1,0,3:0:0:0:
95,151,192685,2,0,P|107:189|111:213,1,50.9999984436036,2|0,0:0|0:0,0:0:0:0:
186,249,192985,2,0,P|191:224|200:200,1,50.9999984436036,8|0,0:0|0:0,0:0:0:0:
314,155,193285,6,0,B|371:195|384:250|343:318|343:318|276:298|280:245,2,272,6|2|2,3:2|3:2|0:0,0:0:0:0:
219,66,194635,1,0,1:0:0:0:
219,66,194710,1,0,1:0:0:0:
219,66,194785,2,0,P|168:77|130:82,1,85,0|0,1:0|1:0,0:0:0:0:
16,179,195085,5,2,1:2:0:0:
202,248,195235,1,0,1:2:0:0:
105,70,195385,1,2,1:2:0:0:
62,305,195535,1,0,1:2:0:0:
204,159,195685,6,0,B|324:157|264:231|406:216,1,195.500003728867,6|2,3:2|0:0,0:0:0:0:
382,28,196135,2,0,B|348:27|312:11|312:11|363:146,1,195.500003728867,0|2,3:0|0:0,0:0:0:0:
436,346,196585,1,0,3:0:0:0:
509,128,196735,1,2,0:0:0:0:
324,273,196885,6,0,P|256:290|191:305,1,97.7500018644333,0|0,3:0|0:0,0:0:0:0:
57,136,197185,2,0,P|104:147|151:159,1,97.7500018644333,2|0,0:0|3:0,0:0:0:0:
242,375,197485,1,2,0:0:0:0:
45,246,197635,1,0,3:0:0:0:
264,164,197785,1,8,0:0:0:0:
118,348,197935,1,2,0:0:0:0:
31,129,198085,6,0,P|93:76|216:86,1,195.500003728867,6|2,3:2|0:0,0:0:0:0:
322,282,198535,2,0,B|207:245|207:245|163:258|157:308,1,195.500003728867,0|2,3:0|0:0,0:0:0:0:
350,159,198985,1,0,3:0:0:0:
425,380,199135,1,2,0:0:0:0:
506,160,199285,6,0,P|512:101|496:59,1,97.7500018644333,0|0,3:0|0:0,0:0:0:0:
271,125,199585,2,0,P|265:184|281:226,1,97.7500018644333,2|0,0:0|3:0,0:0:0:0:
503,311,199885,1,2,0:0:0:0:
503,311,199960,1,2,0:0:0:0:
503,311,200035,1,0,3:0:0:0:
410,95,200185,1,8,0:0:0:0:
301,303,200335,1,2,0:0:0:0:
265,71,200485,6,0,P|183:60|150:54,1,97.7500018644333,6|0,3:2|0:0,0:0:0:0:
32,250,200785,1,2,0:0:0:0:
256,182,200935,1,0,3:0:0:0:
49,71,201085,1,2,0:0:0:0:
153,281,201235,2,0,B|232:270|232:270|263:296|263:296|349:281,1,195.500003728867,2|2,0:0|0:0,0:0:0:0:
496,110,201685,5,0,3:0:0:0:
274,186,201835,1,0,0:0:0:0:
482,294,201985,1,2,0:0:0:0:
351,99,202135,1,0,3:0:0:0:
351,99,202210,1,2,0:0:0:0:
351,99,202285,2,0,P|336:47|350:4,1,97.7500018644333,2|0,0:0|3:0,0:0:0:0:
501,186,202585,1,8,0:0:0:0:
255,205,202735,1,2,0:0:0:0:
436,377,202885,6,0,B|456:329|456:329|436:271,1,97.7500018644333,2|0,3:2|0:0,0:0:0:0:
228,187,203185,1,2,0:0:0:0:
445,98,203335,1,0,3:0:0:0:
346,311,203485,2,0,P|264:300|231:296,1,97.7500018644333,0|2,0:0|0:0,0:0:0:0:
50,169,203785,2,0,P|98:162|146:156,1,97.7500018644333,0|2,3:0|0:0,0:0:0:0:
356,47,204085,5,0,3:0:0:0:
249,298,204235,1,0,0:0:0:0:
192,29,204385,1,2,0:0:0:0:
369,211,204535,2,0,B|429:251|429:251|503:222|503:222|450:172,1,195.500003728867,0|0,3:0|3:0,0:0:0:0:
283,27,204985,1,8,0:0:0:0:
249,262,205135,1,2,0:0:0:0:
72,107,205285,6,0,B|92:79|100:46|100:46|118:184,1,195.500003728867,6|2,3:2|0:0,0:0:0:0:
257,360,205735,2,0,P|230:311|92:323,1,195.500003728867,0|2,3:0|0:0,0:0:0:0:
312,198,206185,1,0,3:0:0:0:
166,381,206335,1,2,0:0:0:0:
49,177,206485,6,0,P|118:196|158:207,1,97.7500018644333,0|0,3:0|0:0,0:0:0:0:
321,48,206785,2,0,P|256:42|217:59,1,97.7500018644333,2|0,0:0|3:0,0:0:0:0:
363,243,207085,1,2,0:0:0:0:
467,33,207235,1,0,3:0:0:0:
253,130,207385,1,8,0:0:0:0:
478,194,207535,1,2,0:0:0:0:
278,317,207685,6,0,P|158:297|76:286,1,195.500003728867,6|2,3:2|0:0,0:0:0:0:
19,61,208135,2,0,B|134:33|134:33|181:57|166:110,1,195.500003728867,0|2,3:0|0:0,0:0:0:0:
49,299,208585,1,0,3:0:0:0:
257,190,208735,1,2,0:0:0:0:
19,89,208885,6,0,P|10:139|34:187,1,97.7500018644333,0|0,3:0|0:0,0:0:0:0:
277,197,209185,2,0,P|286:147|262:99,1,97.7500018644333,2|0,0:0|3:0,0:0:0:0:
135,299,209485,1,2,0:0:0:0:
135,299,209560,1,2,0:0:0:0:
135,299,209635,1,0,3:0:0:0:
365,343,209785,2,0,P|428:333|481:323,1,97.7500018644333,8|2,0:0|0:0,0:0:0:0:
308,103,210085,6,0,P|253:154|267:274,1,195.500003728867,6|2,3:2|0:0,0:0:0:0:
433,117,210535,1,0,3:0:0:0:
231,14,210685,2,0,P|162:30|123:36,1,97.7500018644333,2|0,0:0|0:0,0:0:0:0:
417,140,210985,2,0,P|465:148|512:160,1,97.7500018644333,0|2,3:0|0:0,0:0:0:0:
309,281,211285,5,0,3:0:0:0:
253,39,211435,1,0,0:0:0:0:
94,211,211585,2,0,P|80:270|92:314,1,97.7500018644333,2|0,0:0|3:0,0:0:0:0:
295,187,211885,1,2,0:0:0:0:
295,187,211960,1,2,0:0:0:0:
295,187,212035,1,0,3:0:0:0:
117,33,212185,2,0,P|62:40|12:43,1,97.7500018644333,8|2,0:0|0:0,0:0:0:0:
105,299,212485,5,2,3:2:0:0:
259,107,212635,2,0,B|335:116|335:116|368:145|368:145|453:155,1,195.500003728867,2|0,0:0|3:0,0:0:0:0:
276,320,213085,2,0,B|263:272|263:272|286:222,1,97.7500018644333,2|0,0:0|0:0,0:0:0:0:
512,114,213385,2,0,B|525:162|525:162|502:212,1,97.7500018644333,0|2,3:0|0:0,0:0:0:0:
287,113,213685,5,0,3:0:0:0:
499,13,213835,1,0,0:0:0:0:
409,229,213985,1,2,0:0:0:0:
304,19,214135,1,0,3:0:0:0:
184,224,214285,5,2,0:0:0:0:
402,100,214435,1,0,3:0:0:0:
169,66,214585,1,8,0:0:0:0:
384,225,214735,1,2,0:0:0:0:
188,335,214885,6,0,P|110:323|38:314,1,140.25000428009,6|0,3:2|0:0,0:0:0:0:
3,251,215185,2,0,P|-2:201|22:156,1,93.5000028533936,2|0,0:0|3:0,0:0:0:0:
219,125,215485,2,0,P|224:175|200:220,1,93.5000028533936,2|0,0:0|0:0,0:0:0:0:
115,26,215785,1,0,3:0:0:0:
311,87,215935,1,0,0:0:0:0:
115,149,216085,6,0,P|122:222|126:283,1,93.5000028533936,0|0,3:0|0:0,0:0:0:0:
294,355,216385,2,0,P|297:308|302:261,1,93.5000028533936,2|0,0:0|3:0,0:0:0:0:
433,103,216685,1,2,0:0:0:0:
243,182,216835,1,0,3:0:0:0:
243,182,216910,1,2,0:0:0:0:
243,182,216985,1,8,0:0:0:0:
435,255,217135,1,2,0:0:0:0:
332,76,217285,6,0,B|288:58|288:58|237:67,1,93.5000028533936,6|0,3:2|0:0,0:0:0:0:
117,229,217585,1,2,0:0:0:0:
312,163,217735,1,0,3:0:0:0:
154,31,217885,2,0,P|159:99|161:141,1,93.5000028533936,2|0,0:0|0:0,0:0:0:0:
150,331,218185,1,0,3:0:0:0:
26,166,218335,1,2,0:0:0:0:
219,235,218485,5,0,3:0:0:0:
34,326,218635,1,0,0:0:0:0:
153,158,218785,2,0,P|162:107|143:67,1,93.5000028533936,2|0,0:0|3:0,0:0:0:0:
9,226,219085,1,2,0:0:0:0:
9,226,219160,1,2,0:0:0:0:
9,226,219235,1,0,3:0:0:0:
191,320,219385,2,0,P|262:312|300:310,1,93.5000028533936,8|2,0:0|0:0,0:0:0:0:
499,176,219685,6,0,P|442:134|364:150,1,140.25000428009,6|0,3:2|0:0,0:0:0:0:
351,216,219985,2,0,P|363:277|370:311,1,93.5000028533936,2|0,0:0|3:0,0:0:0:0:
239,148,220285,2,0,P|251:87|258:53,1,93.5000028533936,2|0,0:0|0:0,0:0:0:0:
154,234,220585,1,0,3:0:0:0:
352,194,220735,1,0,0:0:0:0:
168,79,220885,6,0,P|116:65|72:79,1,93.5000028533936,0|0,3:0|0:0,0:0:0:0:
181,255,221185,2,0,P|233:269|277:255,1,93.5000028533936,2|0,0:0|3:0,0:0:0:0:
440,144,221485,1,2,0:0:0:0:
372,338,221635,1,0,3:0:0:0:
235,184,221785,2,0,B|224:137|224:137|245:92,1,93.5000028533936,8|2,0:0|0:0,0:0:0:0:
389,241,222085,5,2,3:2:0:0:
205,333,222235,2,0,P|143:323|104:317,1,93.5000028533936,0|2,0:0|0:0,0:0:0:0:
262,177,222535,5,0,3:0:0:0:
375,348,222685,2,0,P|450:336|489:333,1,93.5000028533936,0|2,0:0|0:0,0:0:0:0:
341,142,222985,5,0,3:0:0:0:
240,342,223135,1,2,0:0:0:0:
417,238,223285,5,0,3:0:0:0:
261,102,223435,2,0,P|188:74|84:117,1,187.000005706787,2|0,0:0|3:0,0:0:0:0:
9,300,223885,1,2,0:0:0:0:
9,300,223960,1,2,0:0:0:0:
9,300,224035,1,0,3:0:0:0:
203,367,224185,2,0,P|192:286|189:257,1,93.5000028533936,8|2,0:0|0:0,0:0:0:0:
294,96,224485,6,0,B|386:120|386:120|431:85,1,140.25000428009,6|0,3:2|0:0,0:0:0:0:
499,96,224785,2,0,P|518:145|503:190,1,93.5000028533936,2|0,0:0|3:0,0:0:0:0:
324,275,225085,2,0,B|302:233|302:233|322:182,1,93.5000028533936,2|0,0:0|0:0,0:0:0:0:
459,340,225385,1,0,3:0:0:0:
413,139,225535,1,0,0:0:0:0:
281,342,225685,6,0,P|214:351|173:358,1,93.5000028533936,0|0,3:0|0:0,0:0:0:0:
70,186,225985,2,0,P|116:193|162:199,1,93.5000028533936,2|0,0:0|3:0,0:0:0:0:
336,89,226285,1,2,0:0:0:0:
235,271,226435,1,0,3:0:0:0:
235,271,226510,1,2,0:0:0:0:
235,271,226585,1,8,0:0:0:0:
170,75,226735,1,2,0:0:0:0:
342,186,226885,6,0,B|359:230|359:230|344:275,1,93.5000028533936,6|0,3:2|0:0,0:0:0:0:
151,350,227185,1,2,0:0:0:0:
228,159,227335,2,0,P|370:142|428:135,1,187.000005706787,0|2,3:0|0:0,0:0:0:0:
498,324,227785,1,0,3:0:0:0:
306,249,227935,1,2,0:0:0:0:
477,76,228085,6,0,P|500:127|490:168,1,93.5000028533936,0|0,3:0|0:0,0:0:0:0:
312,263,228385,1,2,0:0:0:0:
359,62,228535,1,0,3:0:0:0:
168,139,228685,1,2,0:0:0:0:
168,139,228760,1,2,0:0:0:0:
168,139,228835,1,0,3:0:0:0:
309,287,228985,2,0,P|373:278|412:274,1,93.5000028533936,8|2,0:0|0:0,0:0:0:0:
230,160,229285,6,0,P|171:151|98:208,1,140.25000428009,6|0,3:2|0:0,0:0:0:0:
80,268,229585,2,0,P|93:332|100:365,1,93.5000028533936,2|0,0:0|3:0,0:0:0:0:
305,269,229885,2,0,P|314:223|323:177,1,93.5000028533936,2|0,0:0|0:0,0:0:0:0:
147,68,230185,1,0,3:0:0:0:
214,265,230335,1,0,0:0:0:0:
283,71,230485,6,0,P|336:57|381:77,1,93.5000028533936,0|0,3:0|0:0,0:0:0:0:
199,184,230785,2,0,P|154:196|110:182,1,93.5000028533936,2|0,0:0|3:0,0:0:0:0:
217,4,231085,1,2,0:0:0:0:
325,190,231235,1,0,3:0:0:0:
325,190,231310,1,2,0:0:0:0:
325,190,231385,2,0,P|311:240|301:285,1,93.5000028533936,8|2,0:0|0:0,0:0:0:0:
485,376,231685,6,0,P|520:308|482:237,2,140.25000428009,2|2|0,3:2|0:0|3:0,0:0:0:0:
298,288,232285,2,0,B|341:266|341:266|387:284,1,93.5000028533936,2|0,0:0|0:0,0:0:0:0:
200,377,232585,1,0,3:0:0:0:
181,172,232735,1,2,0:0:0:0:
46,327,232885,5,0,3:0:0:0:
46,327,232960,1,2,0:0:0:0:
46,327,233035,1,2,0:0:0:0:
263,280,233185,2,0,P|275:220|285:180,1,93.5000028533936,2|0,0:0|3:0,0:0:0:0:
72,106,233485,2,0,P|82:151|91:197,1,93.5000028533936,2|0,0:0|3:0,0:0:0:0:
279,54,233785,1,8,0:0:0:0:
153,283,233935,1,2,0:0:0:0:
129,9,234085,5,6,3:2:0:0:
