osu file format v14

[General]
AudioFilename: audio.mp3
AudioLeadIn: 0
PreviewTime: 50035
Countdown: 0
SampleSet: Soft
StackLeniency: 0.7
Mode: 0
LetterboxInBreaks: 0
WidescreenStoryboard: 1

[Editor]
Bookmarks: 234125
DistanceSpacing: 1.4
BeatDivisor: 4
GridSize: 32
TimelineZoom: 2.1

[Metadata]
Title:No title
TitleUnicode:No title
Artist:FantasticYouth
ArtistUnicode:FantasticYouth
Creator:Akitoshi
Version:Hard
Source:
Tags:Corinn -Laura- Kowari Reol LowFat Onyu おん湯(♨) cover utaite japanese pop jpop GigaP Fantastic Youth
BeatmapID:2141101
BeatmapSetID:1009447

[Difficulty]
HPDrainRate:4.8
CircleSize:3.5
OverallDifficulty:6
ApproachRate:7.8
SliderMultiplier:1.3
SliderTickRate:1

[Events]
//Background and Video events
0,0,"summr.jpg",0,0
//Break Periods
2,176685,184885
//Storyboard Layer 0 (Background)
//Storyboard Layer 1 (Fail)
//Storyboard Layer 2 (Pass)
//Storyboard Layer 3 (Foreground)
//Storyboard Layer 4 (Overlay)
//Storyboard Sound Samples

[TimingPoints]
2485,300,4,2,1,40,1,0
2485,-142.857142857143,4,2,1,40,0,0
7285,-111.111111111111,4,2,1,60,0,0
12085,-105.263157894737,4,2,1,60,0,0
31135,-100,4,2,1,60,0,0
31435,-100,4,2,1,60,0,0
32335,-100,4,2,1,60,0,0
32635,-100,4,2,1,60,0,0
33535,-100,4,2,1,60,0,0
33835,-100,4,2,1,60,0,0
34735,-100,4,2,1,60,0,0
35035,-100,4,2,1,60,0,0
35935,-100,4,2,1,60,0,0
36235,-100,4,2,1,60,0,0
37135,-100,4,2,1,60,0,0
37435,-100,4,2,1,60,0,0
38335,-100,4,2,1,60,0,0
38635,-100,4,2,1,60,0,0
40735,-100,4,2,1,60,0,0
41035,-100,4,2,1,60,0,0
41935,-100,4,2,1,60,0,0
42235,-100,4,2,1,60,0,0
43135,-100,4,2,1,60,0,0
43435,-100,4,2,1,60,0,0
45535,-100,4,2,1,60,0,0
45835,-100,4,2,1,60,0,0
47935,-100,4,2,1,60,0,0
48235,-100,4,2,1,60,0,0
50485,-95.2380952380952,4,2,1,80,0,1
69685,-100,4,2,1,80,0,0
74410,-100,4,2,1,5,0,0
74485,-100,4,2,1,80,0,0
76885,-100,4,2,1,60,0,0
79285,-105.263157894737,4,2,1,60,0,0
96085,-100,4,2,1,60,0,0
98485,-105.263157894737,4,2,1,60,0,0
115285,-100,4,2,1,60,0,0
117685,-95.2380952380952,4,2,1,80,0,1
135685,-95.2380952380952,4,2,1,80,0,0
136285,-95.2380952380952,4,2,1,60,0,0
136885,-95.2380952380952,4,2,1,80,0,1
156085,-111.111111111111,4,2,69,60,0,0
165685,-111.111111111111,4,2,1,60,0,0
172885,-105.263157894737,4,2,1,60,0,0
174085,-100,4,2,1,60,0,0
175285,-142.857142857143,4,2,1,60,0,0
176485,-1000,4,2,1,40,0,0
186085,-142.857142857143,4,2,1,50,0,0
192085,-83.3333333333333,4,2,1,50,0,0
192385,-142.857142857143,4,2,1,50,0,0
193285,-111.111111111111,4,2,1,60,0,0
194485,-100,4,2,1,70,0,0
195685,-90.9090909090909,4,2,1,80,0,1
214885,-95.2380952380952,4,2,1,80,0,0
216009,-95.2380952380952,4,2,1,5,0,0
216085,-95.2380952380952,4,2,1,80,0,0
220809,-95.2380952380952,4,2,1,5,0,0
220885,-95.2380952380952,4,2,1,80,0,0
225609,-95.2380952380952,4,2,1,5,0,0
225685,-95.2380952380952,4,2,1,80,0,0
230409,-95.2380952380952,4,2,1,5,0,0
230485,-95.2380952380952,4,2,1,80,0,0
233709,-95.2380952380952,4,2,1,5,0,0
233785,-95.2380952380952,4,2,1,80,0,0
234009,-95.2380952380952,4,2,1,5,0,0
234085,-95.2380952380952,4,2,1,80,0,0

[Colours]
Combo1 : 255,220,113
Combo2 : 0,255,255
Combo3 : 0,125,251
Combo4 : 43,255,96

[HitObjects]
255,123,2485,6,0,P|227:111|156:121,1,90.9999972229005,0|0,3:0|0:0,0:0:0:0:
109,173,2935,2,0,P|117:248|123:315,1,136.499995834351,0|0,3:0|3:0,0:0:0:0:
194,354,3535,1,0,3:0:0:0:
194,354,3685,6,0,P|230:335|280:329,1,90.9999972229005,0|0,3:0|0:0,0:0:0:0:
361,334,4135,2,0,P|362:311|365:288,1,45.4999986114502,0|0,3:0|0:0,0:0:0:0:
370,206,4435,2,0,P|334:187|284:181,1,90.9999972229005,0|0,3:0|3:0,0:0:0:0:
202,187,4885,6,0,P|193:142|190:96,1,90.9999972229005,0|0,3:0|0:0,0:0:0:0:
130,41,5335,2,0,P|99:51|79:55,1,45.4999986114502,0|0,3:0|0:0,0:0:0:0:
16,97,5635,2,0,P|13:142|4:187,1,90.9999972229005,0|0,3:0|3:0,0:0:0:0:
58,258,6085,5,0,3:0:0:0:
58,258,6235,2,0,P|80:263|101:270,1,45.4999986114502,0|0,3:0|0:0,0:0:0:0:
175,306,6535,2,0,P|220:289|268:284,1,90.9999972229005,0|0,3:0|3:0,0:0:0:0:
344,295,6985,1,0,3:0:0:0:
424,152,7285,6,0,P|366:145|301:138,1,116.999996429443,6|2,3:2|0:0,0:0:0:0:
259,72,7735,2,0,P|229:80|197:79,2,58.4999982147217,0|2|0,3:0|0:0|0:0,0:0:0:0:
332,30,8185,1,0,3:0:0:0:
332,30,8335,1,2,0:0:0:0:
412,45,8485,6,0,B|439:77|439:77|423:151,1,116.999996429443,2|2,3:2|0:2,0:0:0:0:
404,230,8935,1,0,3:0:0:0:
329,264,9085,2,0,P|297:264|261:250,1,58.4999982147217,2|2,0:0|0:0,0:0:0:0:
234,182,9385,2,0,P|203:181|170:191,1,58.4999982147217,8|0,0:0|0:0,0:0:0:0:
119,246,9685,6,0,P|134:306|137:361,2,116.999996429443,2|2|2,3:2|0:0|0:0,0:0:0:0:
94,173,10435,1,2,0:0:0:0:
94,173,10585,2,0,P|50:169|29:166,1,58.4999982147217,0|0,3:0|0:0,0:0:0:0:
0,93,10885,6,0,P|52:84|129:74,1,116.999996429443,0|2,3:0|0:0,0:0:0:0:
197,88,11335,1,0,0:0:0:0:
249,153,11485,2,0,P|245:189|243:214,1,58.4999982147217,2|0,0:0|3:0,0:0:0:0:
289,286,11785,1,2,0:0:0:0:
289,286,11935,1,2,0:0:0:0:
367,250,12085,6,0,P|396:256|437:259,1,61.7499983510972,6|0,3:2|0:0,0:0:0:0:
462,338,12385,2,0,P|431:340|401:346,1,61.7499983510972,2|0,0:2|3:0,0:0:0:0:
316,367,12685,2,0,P|267:329|205:334,1,123.499996702194,2|0,0:2|3:0,0:0:0:0:
132,374,13135,1,0,0:0:0:0:
65,319,13285,6,0,P|68:287|72:243,1,61.7499983510972,0|0,3:0|0:0,0:0:0:0:
129,193,13585,1,2,0:0:0:0:
129,193,13735,2,0,P|181:184|255:171,1,123.499996702194,0|0,3:0|3:0,0:0:0:0:
307,106,14185,2,0,P|271:88|234:87,1,61.7499983510972,8|0,0:0|0:0,0:0:0:0:
346,191,14485,5,0,3:0:0:0:
346,191,14635,1,0,0:0:0:0:
407,129,14785,2,0,P|404:88|386:56,1,61.7499983510972,2|0,0:0|3:0,0:0:0:0:
328,14,15085,1,2,0:0:0:0:
328,14,15235,1,0,0:0:0:0:
253,58,15385,2,0,P|217:54|179:51,1,61.7499983510972,0|0,3:0|0:0,0:0:0:0:
111,84,15685,6,0,P|102:115|103:148,1,61.7499983510972,0|0,3:0|3:0,0:0:0:0:
169,199,15985,2,0,P|178:230|177:263,1,61.7499983510972,2|0,0:0|3:0,0:0:0:0:
113,318,16285,2,0,P|157:304|241:333,1,123.499996702194,2|8,0:0|0:0,0:0:0:0:
298,375,16735,1,0,0:0:0:0:
365,320,16885,6,0,P|370:287|375:257,1,61.7499983510972,0|0,3:0|0:0,0:0:0:0:
444,207,17185,2,0,P|438:174|434:144,1,61.7499983510972,2|0,0:0|3:0,0:0:0:0:
371,86,17485,1,2,0:0:0:0:
371,86,17635,1,0,0:0:0:0:
312,149,17785,2,0,P|270:145|245:135,1,61.7499983510972,0|2,3:0|0:0,0:0:0:0:
174,97,18085,5,0,3:0:0:0:
174,97,18235,1,0,0:0:0:0:
107,152,18385,2,0,P|118:193|123:220,1,61.7499983510972,2|0,0:0|0:0,0:0:0:0:
194,259,18685,2,0,P|183:300|178:327,1,61.7499983510972,0|2,3:0|0:0,0:0:0:0:
100,355,18985,2,0,P|93:324|85:295,1,61.7499983510972,8|0,0:0|0:0,0:0:0:0:
16,243,19285,6,0,P|22:184|23:111,1,123.499996702194,0|2,3:0|0:0,0:0:0:0:
87,62,19735,1,0,3:0:0:0:
87,62,19885,2,0,P|119:69|154:62,1,61.7499983510972,2|0,0:0|0:0,0:0:0:0:
225,25,20185,2,0,P|257:18|292:25,1,61.7499983510972,0|0,3:0|0:0,0:0:0:0:
353,76,20485,6,0,P|350:109|346:142,1,61.7499983510972,0|2,3:0|0:0,0:0:0:0:
269,178,20785,2,0,P|272:211|276:244,1,61.7499983510972,0|0,0:0|3:0,0:0:0:0:
291,329,21085,1,2,0:0:0:0:
291,329,21235,1,0,3:0:0:0:
374,308,21385,2,0,P|437:326|501:298,1,123.499996702194,8|2,0:0|3:2,0:0:0:0:
498,134,21985,6,0,P|431:126|359:120,1,123.499996702194,2|0,0:2|0:0,0:0:0:0:
291,97,22435,1,0,0:0:0:0:
291,97,22585,2,0,P|280:61|283:23,1,61.7499983510972,0|0,3:0|0:0,0:0:0:0:
195,15,22885,6,0,P|130:23|67:33,1,123.499996702194,0|2,3:0|0:0,0:0:0:0:
27,106,23335,1,0,3:0:0:0:
27,106,23485,2,0,P|49:136|54:175,1,61.7499983510972,2|0,0:0|3:0,0:0:0:0:
137,183,23785,2,0,P|159:146|234:117,1,123.499996702194,8|0,0:0|3:0,0:0:0:0:
374,214,24385,6,0,P|366:278|357:342,1,123.499996702194,2|0,0:0|0:0,0:0:0:0:
278,371,24835,1,0,0:0:0:0:
278,371,24985,2,0,P|239:358|204:361,1,61.7499983510972,0|0,3:0|0:0,0:0:0:0:
132,368,25285,6,0,P|124:311|117:238,1,123.499996702194,0|2,3:0|0:0,0:0:0:0:
66,175,25735,1,0,3:0:0:0:
66,175,25885,2,0,P|70:146|73:110,1,61.7499983510972,2|0,0:0|3:0,0:0:0:0:
127,45,26185,2,0,P|158:66|256:49,1,123.499996702194,8|0,0:0|3:0,0:0:0:0:
320,95,26635,6,0,P|305:128|306:156,1,61.7499983510972,0|2,0:0|0:0,0:0:0:0:
270,234,26935,2,0,P|244:218|223:188,2,61.7499983510972,0|2|0,3:0|0:0|0:0,0:0:0:0:
359,226,27385,1,0,3:0:0:0:
359,226,27535,1,2,0:0:0:0:
413,158,27685,6,0,P|406:94|399:14,1,123.499996702194,0|2,3:0|0:0,0:0:0:0:
316,16,28135,1,0,0:0:0:0:
316,16,28285,2,0,P|284:29|247:31,1,61.7499983510972,0|2,3:0|0:0,0:0:0:0:
172,50,28585,2,0,P|223:60|270:133,1,123.499996702194,8|0,0:0|3:0,0:0:0:0:
217,185,29035,5,0,0:0:0:0:
217,185,29185,2,0,P|172:181|150:179,1,61.7499983510972,2|0,0:0|3:0,0:0:0:0:
69,171,29485,2,0,P|78:232|86:293,1,123.499996702194,2|0,0:0|3:0,0:0:0:0:
147,357,29935,1,0,0:0:0:0:
147,357,30085,6,0,P|179:343|211:342,1,61.7499983510972,0|2,3:0|0:0,0:0:0:0:
257,272,30385,2,0,P|225:258|193:257,1,61.7499983510972,2|0,0:0|3:0,0:0:0:0:
155,179,30685,2,0,L|161:134,2,30.8749991755486,2|2|0,0:0|0:0|3:0,0:0:0:0:
75,214,30985,1,8,0:0:0:0:
21,140,31135,6,0,B|22:107|0:67|0:67|31:71|63:55,1,130,6|2,0:0|0:0,0:0:0:0:
140,37,31585,1,2,0:0:0:0:
140,37,31735,2,0,P|189:45|205:48,1,65,0|0,3:0|0:0,0:0:0:0:
223,137,32035,2,0,P|191:142|158:147,1,65,2|0,0:0|3:0,0:0:0:0:
122,232,32335,6,0,B|203:259|203:259|234:242|245:219,1,130,2|2,0:0|0:0,0:0:0:0:
328,238,32785,1,2,0:0:0:0:
328,238,32935,2,0,P|319:269|323:305,1,65,0|2,3:0|0:0,0:0:0:0:
411,276,33235,2,0,P|418:244|413:212,1,65,0|8,3:0|0:0,0:0:0:0:
378,128,33535,5,2,0:0:0:0:
441,63,33685,2,0,B|472:71|472:71|510:63,1,65,0|2,3:0|0:0,0:0:0:0:
367,4,33985,2,0,P|334:9|302:15,1,65,2|0,0:0|3:0,0:0:0:0:
242,82,34285,2,0,P|272:141|244:206,1,130,2|0,0:0|3:0,0:0:0:0:
179,253,34735,6,0,B|253:241|253:241|270:262|297:274,1,130,2|2,0:0|0:0,0:0:0:0:
380,311,35185,1,2,0:0:0:0:
380,311,35335,1,0,3:0:0:0:
458,265,35485,2,0,P|449:200|439:136,1,130,2|8,0:0|0:0,0:0:0:0:
382,64,35935,6,0,B|306:84|306:84|279:79|262:53,1,130,6|2,0:0|0:0,0:0:0:0:
180,19,36385,2,0,P|175:51|171:83,1,65,2|0,0:0|3:0,0:0:0:0:
96,135,36685,2,0,P|100:167|104:199,1,65,2|0,0:0|0:0,0:0:0:0:
159,271,36985,1,0,3:0:0:0:
215,199,37135,6,0,B|259:189|299:210|299:210|314:189|340:177,1,130,2|2,0:0|0:0,0:0:0:0:
414,142,37585,1,2,0:0:0:0:
414,142,37735,1,0,3:0:0:0:
489,192,37885,2,0,P|486:229|482:264,1,65,2|0,0:0|3:0,0:0:0:0:
434,334,38185,1,8,0:0:0:0:
348,301,38335,6,0,B|306:329|306:329|218:309,1,130,2|2,0:0|0:0,0:0:0:0:
152,260,38785,2,0,P|117:264|84:268,1,65,2|0,0:0|3:0,0:0:0:0:
16,210,39085,1,2,0:0:0:0:
16,210,39235,1,0,0:0:0:0:
82,148,39385,2,0,P|91:113|82:77,1,65,0|2,3:0|0:0,0:0:0:0:
156,29,39685,6,0,P|193:66|272:59,1,130,0|2,3:0|0:0,0:0:0:0:
351,29,40135,1,0,3:0:0:0:
351,29,40285,2,0,P|357:66|361:98,1,65,2|0,0:0|3:0,0:0:0:0:
373,183,40585,1,8,0:0:0:0:
282,170,40735,6,0,B|240:185|204:161|204:161|175:171|160:202,1,130,6|2,0:0|0:0,0:0:0:0:
125,272,41185,2,0,P|128:307|132:341,1,65,2|0,0:0|3:0,0:0:0:0:
209,384,41485,2,0,P|261:347|337:351,1,130,2|0,0:0|3:0,0:0:0:0:
415,359,41935,6,0,B|422:327|422:327|413:295,1,65,2|0,0:0|3:0,0:0:0:0:
333,251,42235,2,0,P|397:250|449:213,1,130,2|0,0:0|3:0,0:0:0:0:
488,130,42685,2,0,P|483:94|480:62,1,65,2|0,0:0|3:0,0:0:0:0:
394,36,42985,1,8,0:0:0:0:
324,94,43135,6,0,B|307:124|307:124|313:168,1,65,2|0,0:0|3:0,0:0:0:0:
236,207,43435,2,0,P|198:196|158:206,1,65,2|2,0:0|0:0,0:0:0:0:
107,261,43735,2,0,P|128:203|91:135,1,130,0|2,3:0|0:0,0:0:0:0:
33,82,44185,1,0,3:0:0:0:
33,82,44335,1,2,0:0:0:0:
112,35,44485,5,0,3:0:0:0:
112,35,44635,2,0,P|179:41|255:49,1,130,2|0,0:0|3:0,0:0:0:0:
320,92,45085,2,0,P|353:89|391:85,1,65,2|0,0:0|3:0,0:0:0:0:
475,82,45385,1,8,0:0:0:0:
438,165,45535,6,0,B|426:199|426:199|435:246,1,65,6|0,0:0|3:0,0:0:0:0:
350,268,45835,2,0,P|316:263|280:259,1,65,2|2,0:0|0:0,0:0:0:0:
194,250,46135,2,0,P|145:281|68:256,1,130,0|0,3:0|0:0,0:0:0:0:
13,200,46585,2,0,P|18:166|22:130,1,65,0|2,3:0|0:0,0:0:0:0:
79,66,46885,5,0,3:0:0:0:
79,66,47035,1,2,0:0:0:0:
148,125,47185,2,0,P|186:131|219:122,1,65,2|0,0:0|3:0,0:0:0:0:
260,48,47485,2,0,P|298:42|331:51,1,65,2|0,0:0|3:0,0:0:0:0:
386,113,47785,1,8,0:0:0:0:
461,62,47935,6,0,B|482:93|482:93|457:197,1,130,2|2,0:0|0:0,0:0:0:0:
385,234,48385,2,0,P|392:272|397:309,1,65,2|0,0:0|3:0,0:0:0:0:
291,243,48685,2,0,P|295:210|301:178,1,65,2|0,0:0|0:0,0:0:0:0:
198,234,48985,2,0,P|204:265|208:298,1,65,0|2,3:0|0:0,0:0:0:0:
143,363,49285,5,0,3:0:0:0:
143,363,49360,1,2,0:0:0:0:
143,363,49435,1,2,0:0:0:0:
59,326,49585,2,0,P|63:293|69:261,1,65,2|0,0:0|3:0,0:0:0:0:
94,173,49885,2,0,P|89:140|83:108,1,65,2|0,0:0|3:0,0:0:0:0:
132,32,50185,1,8,0:0:0:0:
184,106,50335,1,2,0:0:0:0:
247,34,50485,6,0,P|312:40|381:80,1,136.499995834351,6|2,3:2|0:0,0:0:0:0:
407,163,50935,2,0,P|342:169|273:209,1,136.499995834351,0|2,3:0|0:0,0:0:0:0:
217,275,51385,1,0,3:0:0:0:
217,275,51535,1,2,0:0:0:0:
292,333,51685,6,0,P|358:322|441:311,1,136.499995834351,0|2,3:0|0:0,0:0:0:0:
494,244,52135,1,0,3:0:0:0:
494,244,52285,2,0,P|501:210|493:171,1,68.2499979171754,2|0,0:0|3:0,0:0:0:0:
458,88,52585,1,8,0:0:0:0:
458,88,52735,1,2,0:0:0:0:
372,129,52885,6,0,P|303:124|239:95,1,136.499995834351,6|2,3:2|0:0,0:0:0:0:
170,34,53335,2,0,P|107:61|40:65,1,136.499995834351,0|2,3:0|0:0,0:0:0:0:
4,154,53785,1,0,3:0:0:0:
4,154,53935,1,2,0:0:0:0:
83,206,54085,6,0,P|65:284|55:346,2,136.499995834351,0|2|2,3:0|0:0|0:0,0:0:0:0:
160,150,54835,1,0,3:0:0:0:
235,209,54985,2,0,P|277:217|317:207,1,68.2499979171754,8|2,0:0|0:0,0:0:0:0:
387,169,55285,5,6,3:2:0:0:
387,169,55435,1,0,0:0:0:0:
459,231,55585,2,0,P|454:263|446:312,1,68.2499979171754,2|0,0:0|3:0,0:0:0:0:
365,345,55885,1,2,0:0:0:0:
365,345,56035,2,0,P|332:317|235:324,1,136.499995834351,0|2,0:0|0:0,0:0:0:0:
158,366,56485,6,0,P|147:328|150:298,1,68.2499979171754,0|0,3:0|0:0,0:0:0:0:
180,208,56785,1,2,0:0:0:0:
180,208,56935,2,0,P|103:194|31:187,1,136.499995834351,0|0,3:0|3:0,0:0:0:0:
30,92,57385,2,0,P|66:87|102:83,1,68.2499979171754,8|2,0:0|0:0,0:0:0:0:
193,82,57685,5,2,3:2:0:0:
193,82,57835,1,0,0:0:0:0:
274,131,57985,2,0,P|283:165|279:205,1,68.2499979171754,2|0,0:0|3:0,0:0:0:0:
242,285,58285,1,0,0:0:0:0:
242,285,58435,1,2,0:0:0:0:
313,348,58585,2,0,P|348:349|389:337,1,68.2499979171754,0|2,3:0|0:0,0:0:0:0:
444,270,58885,6,0,P|448:235|452:198,1,68.2499979171754,0|0,3:0|0:0,0:0:0:0:
440,106,59185,1,2,0:0:0:0:
349,131,59335,2,0,P|309:132|270:111,1,68.2499979171754,0|2,3:0|0:0,0:0:0:0:
260,109,59560,1,2,0:0:0:0:
260,109,59635,1,0,3:0:0:0:
227,19,59785,2,0,P|187:18|148:39,1,68.2499979171754,8|2,0:0|0:0,0:0:0:0:
108,109,60085,6,0,P|127:180|137:246,1,136.499995834351,6|2,3:2|0:0,0:0:0:0:
232,242,60535,2,0,P|242:174|260:108,1,136.499995834351,0|2,3:0|0:0,0:0:0:0:
332,45,60985,1,0,3:0:0:0:
332,45,61135,1,2,0:0:0:0:
421,79,61285,6,0,P|449:138|421:217,1,136.499995834351,0|2,3:0|0:0,0:0:0:0:
353,260,61735,1,0,3:0:0:0:
353,260,61885,2,0,P|358:297|361:337,1,68.2499979171754,2|0,0:0|3:0,0:0:0:0:
275,370,62185,1,8,0:0:0:0:
275,370,62335,1,2,0:0:0:0:
204,305,62485,6,0,P|134:313|72:342,1,136.499995834351,6|2,3:2|0:0,0:0:0:0:
0,280,62935,2,0,P|28:215|33:147,1,136.499995834351,0|2,3:0|0:0,0:0:0:0:
31,54,63385,1,0,3:0:0:0:
31,54,63535,1,2,0:0:0:0:
114,99,63685,6,0,P|190:87|263:76,2,136.499995834351,0|2|2,3:0|0:0|0:0,0:0:0:0:
35,153,64435,1,0,3:0:0:0:
99,223,64585,2,0,P|145:235|186:228,1,68.2499979171754,8|2,0:0|0:0,0:0:0:0:
245,182,64885,6,0,P|214:222|233:326,1,136.499995834351,6|2,3:2|0:0,0:0:0:0:
288,369,65335,1,0,3:0:0:0:
288,369,65485,2,0,P|321:366|366:361,1,68.2499979171754,2|0,0:0|0:0,0:0:0:0:
368,266,65785,2,0,P|334:262|300:259,1,68.2499979171754,0|2,3:0|0:0,0:0:0:0:
245,182,66085,5,0,3:0:0:0:
337,156,66235,1,0,0:0:0:0:
309,64,66385,2,0,P|274:60|235:68,1,68.2499979171754,2|0,0:0|3:0,0:0:0:0:
163,114,66685,1,2,0:0:0:0:
163,114,66760,1,2,0:0:0:0:
163,114,66835,1,0,3:0:0:0:
89,53,66985,2,0,P|54:57|15:49,1,68.2499979171754,8|2,0:0|0:0,0:0:0:0:
4,148,67285,5,2,3:2:0:0:
94,179,67435,2,0,P|85:246|77:317,1,136.499995834351,2|0,0:0|3:0,0:0:0:0:
155,378,67885,1,2,0:0:0:0:
155,378,68035,1,0,0:0:0:0:
201,294,68185,2,0,P|236:297|276:302,1,68.2499979171754,0|2,3:0|0:0,0:0:0:0:
364,309,68485,6,0,P|388:258|365:173,1,136.499995834351,0|2,3:0|0:0,0:0:0:0:
296,132,68935,1,0,3:0:0:0:
296,132,69085,2,0,P|257:136|203:142,1,68.2499979171754,2|0,0:0|3:0,0:0:0:0:
158,205,69385,2,0,P|119:201|65:195,1,68.2499979171754,8|0,0:0|0:0,0:0:0:0:
27,265,69685,6,0,P|78:297|110:368,1,130,6|2,3:2|0:0,0:0:0:0:
201,379,70135,1,0,3:0:0:0:
201,379,70285,2,0,P|204:340|208:313,1,65,2|0,0:0|0:0,0:0:0:0:
263,241,70585,2,0,P|260:202|256:175,1,65,0|0,3:0|0:0,0:0:0:0:
189,113,70885,6,0,P|143:128|99:122,2,65,0|0|2,3:0|0:0|0:0,0:0:0:0:
257,53,71335,1,2,0:0:0:0:
257,53,71485,2,0,P|292:56|330:60,1,65,2|0,0:0|3:0,0:0:0:0:
363,140,71785,2,0,P|398:137|436:133,1,65,8|0,0:0|0:0,0:0:0:0:
497,192,72085,6,0,P|508:226|503:271,2,65,0|0|2,3:0|0:0|0:0,0:0:0:0:
418,237,72535,1,2,0:0:0:0:
418,237,72685,2,0,P|413:276|410:315,1,65,2|0,0:0|0:0,0:0:0:0:
324,332,72985,2,0,P|321:299|316:267,1,65,0|0,3:0|0:0,0:0:0:0:
241,215,73285,6,0,P|192:238|107:213,1,130,0|2,3:0|0:0,0:0:0:0:
53,159,73735,1,2,0:0:0:0:
53,159,73885,2,0,P|57:126|61:94,1,65,2|0,0:0|3:0,0:0:0:0:
134,41,74185,2,0,P|171:55|239:61,1,97.5,8|0,0:0|0:0,0:0:0:0:
260,57,74485,6,0,P|264:89|267:121,1,65,2|0,3:2|0:0,0:0:0:0:
319,197,74785,2,0,P|377:175|457:206,1,130,2|2,0:0|0:0,0:0:0:0:
503,258,75235,1,0,0:0:0:0:
503,258,75385,2,0,P|498:291|494:333,1,65,0|0,3:0|0:0,0:0:0:0:
413,361,75685,6,0,P|355:339|275:370,1,130,0|2,3:0|0:0,0:0:0:0:
214,307,76135,1,0,0:0:0:0:
214,307,76285,2,0,P|208:269|205:231,1,65,2|0,0:0|3:0,0:0:0:0:
147,172,76585,2,0,P|152:134|156:96,1,65,8|0,0:0|0:0,0:0:0:0:
222,46,76885,6,0,P|172:19|89:44,1,130,4|8,3:0|0:0,0:0:0:0:
41,99,77335,1,4,3:0:0:0:
17,186,77485,6,0,P|30:257|42:326,1,130,4|8,3:0|0:0,0:0:0:0:
116,363,77935,1,4,3:0:0:0:
178,296,78085,6,0,P|247:304|322:314,1,130,4|8,3:0|0:0,0:0:0:0:
397,322,78535,1,4,3:0:0:0:
363,237,78685,1,4,3:0:0:0:
363,237,79285,6,0,P|321:204|230:204,1,123.499996702194,6|2,3:2|0:2,0:0:0:0:
200,265,79735,1,0,3:0:0:0:
200,265,79885,2,0,P|207:212|162:133,1,123.499996702194,2|0,0:2|3:0,0:0:0:0:
128,78,80335,1,0,0:0:0:0:
128,78,80485,6,0,P|200:69|274:61,1,123.499996702194,0|2,3:0|0:0,0:0:0:0:
336,51,80935,1,0,3:0:0:0:
397,112,81085,2,0,P|392:147|386:184,1,61.7499983510972,2|0,0:0|3:0,0:0:0:0:
320,228,81385,1,8,0:0:0:0:
320,228,81535,1,0,0:0:0:0:
246,177,81685,6,0,P|190:171|118:211,1,123.499996702194,0|2,3:0|0:0,0:0:0:0:
113,283,82135,1,0,3:0:0:0:
113,283,82285,2,0,P|176:278|233:308,1,123.499996702194,2|0,0:0|3:0,0:0:0:0:
286,368,82735,1,0,0:0:0:0:
371,352,82885,5,0,3:0:0:0:
371,352,83035,2,0,P|377:292|383:223,1,123.499996702194,0|0,3:0|3:0,0:0:0:0:
442,166,83485,2,0,P|440:117|430:95,1,61.7499983510972,2|0,0:0|3:0,0:0:0:0:
349,95,83785,2,0,P|334:123|330:156,1,61.7499983510972,8|0,0:0|0:0,0:0:0:0:
263,207,84085,5,0,3:0:0:0:
263,207,84235,2,0,P|210:174|130:187,1,123.499996702194,2|0,0:0|3:0,0:0:0:0:
64,189,84685,2,0,P|70:134|79:59,1,123.499996702194,2|0,0:0|3:0,0:0:0:0:
149,17,85135,1,2,0:0:0:0:
226,66,85285,5,0,3:0:0:0:
226,66,85435,2,0,P|279:33|359:46,1,123.499996702194,2|2,0:0|0:0,0:0:0:0:
407,88,85885,2,0,P|401:122|397:152,1,61.7499983510972,2|0,0:0|3:0,0:0:0:0:
342,216,86185,1,8,0:0:0:0:
342,216,86335,1,0,0:0:0:0:
257,179,86485,6,0,P|215:180|183:193,2,61.7499983510972,0|0|2,3:0|0:0|0:0,0:0:0:0:
238,263,86935,1,0,3:0:0:0:
278,339,87085,2,0,P|246:348|214:347,2,61.7499983510972,2|0|0,0:0|0:0|3:0,0:0:0:0:
356,302,87535,1,0,0:0:0:0:
342,216,87685,6,0,P|348:185|354:149,1,61.7499983510972,0|2,3:0|0:0,0:0:0:0:
304,83,87985,1,0,0:0:0:0:
304,83,88135,1,0,3:0:0:0:
230,136,88285,2,0,P|158:128|87:123,1,123.499996702194,2|8,0:0|0:0,0:0:0:0:
44,184,88735,1,0,0:0:0:0:
44,184,88885,6,0,P|57:218|57:261,1,61.7499983510972,2|0,3:2|0:0,0:0:0:0:
93,322,89185,2,0,P|143:285|222:280,1,123.499996702194,2|2,0:2|0:2,0:0:0:0:
288,290,89635,1,0,0:0:0:0:
367,322,89785,2,0,P|372:354|377:391,1,61.7499983510972,0|0,3:0|0:0,0:0:0:0:
463,325,90085,6,0,P|467:292|472:260,1,61.7499983510972,0|0,3:0|0:0,0:0:0:0:
481,180,90385,1,2,0:0:0:0:
481,180,90535,2,0,P|419:144|351:152,1,123.499996702194,0|0,3:0|3:0,0:0:0:0:
288,179,90985,2,0,P|293:211|297:243,1,61.7499983510972,8|0,0:0|0:0,0:0:0:0:
222,285,91285,6,0,P|187:276|147:278,1,61.7499983510972,0|0,3:0|0:0,0:0:0:0:
81,302,91585,1,2,0:0:0:0:
81,302,91735,1,0,3:0:0:0:
14,247,91885,2,0,P|20:182|28:110,1,123.499996702194,2|0,0:0|3:0,0:0:0:0:
64,46,92335,1,0,0:0:0:0:
139,88,92485,6,0,P|188:70|272:92,1,123.499996702194,0|2,3:0|0:0,0:0:0:0:
324,136,92935,2,0,P|392:129|462:123,1,123.499996702194,0|0,3:0|3:0,0:0:0:0:
503,190,93385,2,0,P|496:221|491:253,1,61.7499983510972,8|0,0:0|0:0,0:0:0:0:
407,282,93685,5,0,3:0:0:0:
407,282,93835,2,0,P|401:249|395:218,1,61.7499983510972,0|2,0:0|0:0,0:0:0:0:
326,169,94135,1,0,3:0:0:0:
326,169,94285,2,0,P|288:187|204:174,1,123.499996702194,2|0,0:0|3:0,0:0:0:0:
131,139,94735,1,2,0:0:0:0:
54,178,94885,6,0,P|62:240|67:301,1,123.499996702194,0|2,3:0|0:0,0:0:0:0:
138,350,95335,2,0,P|179:327|263:338,1,123.499996702194,0|0,3:0|3:0,0:0:0:0:
333,378,95785,1,8,0:0:0:0:
333,378,95935,1,0,0:0:0:0:
412,333,96085,6,0,P|418:271|426:199,1,130,0|2,3:0|0:0,0:0:0:0:
402,114,96535,1,0,3:0:0:0:
315,146,96685,2,0,P|281:156|241:150,1,65,2|0,0:0|0:0,0:0:0:0:
168,118,96985,1,0,3:0:0:0:
168,118,97135,1,0,0:0:0:0:
213,41,97285,6,0,P|247:37|290:33,1,65,0|2,3:0|0:0,0:0:0:0:
367,22,97585,1,2,0:0:0:0:
399,107,97735,2,0,P|391:143|393:177,1,65,0|2,3:0|0:0,0:0:0:0:
443,245,98035,1,0,3:0:0:0:
365,290,98185,2,0,P|329:282|295:284,1,65,8|2,0:0|0:0,0:0:0:0:
214,291,98485,6,0,P|220:227|226:154,2,123.499996702194,6|2|2,3:2|0:2|0:2,0:0:0:0:
133,323,99235,1,0,0:0:0:0:
133,323,99385,2,0,P|91:308|61:306,1,61.7499983510972,0|0,3:0|0:0,0:0:0:0:
8,248,99685,6,0,P|12:215|25:185,1,61.7499983510972,0|0,3:0|0:0,0:0:0:0:
57,109,99985,1,2,0:0:0:0:
57,109,100135,2,0,P|118:118|180:82,1,123.499996702194,0|0,3:0|3:0,0:0:0:0:
234,30,100585,2,0,P|266:34|307:40,1,61.7499983510972,8|0,0:0|0:0,0:0:0:0:
351,104,100885,6,0,P|299:130|276:208,2,123.499996702194,0|2|2,3:0|0:0|0:0,0:0:0:0:
441,119,101635,1,0,0:0:0:0:
441,119,101785,2,0,P|436:156|432:195,1,61.7499983510972,0|0,3:0|0:0,0:0:0:0:
378,247,102085,6,0,P|383:284|387:323,1,61.7499983510972,2|0,3:2|3:0,0:0:0:0:
314,357,102385,1,2,0:0:0:0:
314,357,102535,2,0,P|282:328|194:329,1,123.499996702194,0|0,3:0|3:0,0:0:0:0:
124,289,102985,2,0,P|129:252|133:213,1,61.7499983510972,8|0,0:0|0:0,0:0:0:0:
145,142,103285,5,0,3:0:0:0:
145,142,103435,1,0,0:0:0:0:
226,171,103585,2,0,P|258:176|303:161,1,61.7499983510972,2|0,0:0|3:0,0:0:0:0:
339,100,103885,2,0,P|405:108|482:118,1,123.499996702194,2|0,0:0|3:0,0:0:0:0:
497,194,104335,1,2,0:0:0:0:
497,194,104485,6,0,P|483:231|480:261,1,61.7499983510972,0|0,3:0|0:0,0:0:0:0:
403,293,104785,2,0,P|398:260|386:230,1,61.7499983510972,2|0,0:0|0:0,0:0:0:0:
303,210,105085,2,0,P|293:284|285:354,1,123.499996702194,0|8,3:0|0:0,0:0:0:0:
204,357,105535,1,0,0:0:0:0:
204,357,105685,6,0,P|165:340|134:339,1,61.7499983510972,0|0,3:0|0:0,0:0:0:0:
86,266,105985,2,0,P|125:249|156:248,1,61.7499983510972,2|0,0:0|3:0,0:0:0:0:
216,187,106285,1,2,0:0:0:0:
216,187,106435,1,0,0:0:0:0:
151,122,106585,2,0,P|112:105|81:104,1,61.7499983510972,0|0,3:0|0:0,0:0:0:0:
193,40,106885,6,0,P|253:38|329:5,1,123.499996702194,0|2,3:0|0:0,0:0:0:0:
391,48,107335,2,0,P|381:116|373:189,1,123.499996702194,0|0,3:0|3:0,0:0:0:0:
318,236,107785,2,0,P|322:270|326:306,1,61.7499983510972,8|0,0:0|0:0,0:0:0:0:
366,374,108085,6,0,P|307:339|239:345,1,123.499996702194,2|2,3:2|0:2,0:0:0:0:
169,359,108535,1,0,3:0:0:0:
169,359,108685,2,0,P|162:321|159:290,1,61.7499983510972,2|0,0:2|0:0,0:0:0:0:
138,214,108985,1,0,3:0:0:0:
138,214,109135,6,0,P|73:215|17:179,1,123.499996702194,2|0,0:0|0:0,0:0:0:0:
3,102,109585,1,2,0:0:0:0:
3,102,109735,2,0,P|39:97|76:91,1,61.7499983510972,0|2,3:0|0:0,0:0:0:0:
142,40,110035,1,0,3:0:0:0:
216,92,110185,2,0,P|248:97|280:101,1,61.7499983510972,8|0,0:0|0:0,0:0:0:0:
346,47,110485,6,0,B|320:89|320:89|343:188,1,123.499996702194,0|2,3:0|0:0,0:0:0:0:
399,229,110935,1,0,3:0:0:0:
399,229,111085,2,0,P|391:267|386:303,1,61.7499983510972,2|0,0:0|0:0,0:0:0:0:
316,339,111385,1,0,3:0:0:0:
316,339,111535,1,2,0:0:0:0:
235,295,111685,6,0,P|175:311|105:279,1,123.499996702194,0|2,3:0|0:0,0:0:0:0:
62,224,112135,1,0,3:0:0:0:
62,224,112285,2,0,P|57:188|53:147,1,61.7499983510972,2|0,0:0|3:0,0:0:0:0:
87,82,112585,1,8,0:0:0:0:
87,82,112735,1,0,0:0:0:0:
170,102,112885,6,0,B|239:94|227:136|298:125,1,123.499996702194,0|2,3:0|0:0,0:0:0:0:
361,78,113335,1,0,3:0:0:0:
361,78,113485,2,0,P|337:113|352:200,1,123.499996702194,2|0,0:0|3:0,0:0:0:0:
405,252,113935,1,2,0:0:0:0:
405,252,114085,6,0,P|440:248|487:243,1,61.7499983510972,0|0,3:0|0:0,0:0:0:0:
382,344,114385,1,2,0:0:0:0:
382,344,114535,2,0,P|318:313|250:314,1,123.499996702194,0|2,3:0|0:0,0:0:0:0:
182,333,114985,1,8,0:0:0:0:
182,333,115135,1,2,0:0:0:0:
115,270,115285,6,0,P|121:209|130:130,1,130,0|10,3:0|0:0,0:0:0:0:
203,88,115735,1,0,3:0:0:0:
203,88,115885,2,0,P|217:117|217:166,1,65,2|0,0:0|0:0,0:0:0:0:
307,173,116185,2,0,P|309:140|324:111,1,65,0|2,3:0|0:0,0:0:0:0:
387,47,116485,5,0,3:0:0:0:
408,135,116635,1,2,0:0:0:0:
495,109,116785,2,0,P|499:143|503:180,1,65,8|0,0:0|3:0,0:0:0:0:
505,264,117085,1,8,0:0:0:0:
436,323,117235,1,2,3:2:0:0:
345,312,117385,2,0,L|304:318,3,32.5,0|0|0|0,1:0|1:0|1:0|1:0,0:0:0:0:
283,335,117685,6,0,B|241:330|215:346|215:346|195:319|160:310,1,136.499995834351,6|2,3:2|0:0,0:0:0:0:
139,216,118135,2,0,B|179:211|207:227|207:227|226:199|260:190,1,136.499995834351,0|2,3:0|0:0,0:0:0:0:
355,191,118585,1,0,3:0:0:0:
355,191,118735,1,2,0:0:0:0:
417,118,118885,6,0,P|370:73|284:76,1,136.499995834351,0|2,3:0|0:0,0:0:0:0:
217,111,119335,1,0,3:0:0:0:
217,111,119485,2,0,P|179:106|142:102,1,68.2499979171754,2|0,0:0|3:0,0:0:0:0:
54,87,119785,1,8,0:0:0:0:
54,87,119935,1,2,0:0:0:0:
8,170,120085,6,0,B|16:204|43:224|43:224|27:250|32:292,1,136.499995834351,6|2,3:2|0:0,0:0:0:0:
127,309,120535,2,0,B|142:269|133:240|133:240|165:228|182:196,1,136.499995834351,0|2,3:0|0:0,0:0:0:0:
217,111,120985,1,0,3:0:0:0:
217,111,121135,1,2,0:0:0:0:
311,123,121285,6,0,P|379:115|453:107,2,136.499995834351,0|2|2,3:0|0:0|0:0,0:0:0:0:
278,212,122035,1,0,3:0:0:0:
350,274,122185,2,0,P|359:313|352:351,1,68.2499979171754,8|2,0:0|0:0,0:0:0:0:
263,367,122485,5,6,3:2:0:0:
263,367,122635,1,0,0:0:0:0:
185,311,122785,2,0,P|148:315|118:318,1,68.2499979171754,2|0,0:0|3:0,0:0:0:0:
55,244,123085,1,2,0:0:0:0:
55,244,123235,2,0,P|76:199|54:110,1,136.499995834351,0|2,0:0|0:0,0:0:0:0:
116,40,123685,6,0,P|150:43|192:47,1,68.2499979171754,0|0,3:0|0:0,0:0:0:0:
249,116,123985,1,2,0:0:0:0:
249,116,124135,2,0,P|228:161|250:250,1,136.499995834351,0|0,3:0|3:0,0:0:0:0:
325,294,124585,2,0,P|359:291|401:287,1,68.2499979171754,8|2,0:0|0:0,0:0:0:0:
488,282,124885,5,2,3:2:0:0:
488,282,125035,1,0,0:0:0:0:
439,199,125185,2,0,P|441:163|445:125,1,68.2499979171754,2|0,0:0|3:0,0:0:0:0:
384,56,125485,1,0,0:0:0:0:
384,56,125635,1,2,0:0:0:0:
316,123,125785,2,0,P|281:123|248:115,1,68.2499979171754,0|2,3:0|0:0,0:0:0:0:
177,178,126085,6,0,P|181:213|185:250,1,68.2499979171754,0|0,3:0|0:0,0:0:0:0:
143,332,126385,1,2,0:0:0:0:
47,329,126535,2,0,B|29:299|29:299|37:252,1,68.2499979171754,0|2,3:0|0:0,0:0:0:0:
43,239,126760,1,2,0:0:0:0:
43,239,126835,1,0,3:0:0:0:
110,170,126985,2,0,P|142:169|179:179,1,68.2499979171754,8|2,0:0|0:0,0:0:0:0:
262,220,127285,6,0,B|304:220|328:200|328:200|360:214|408:204,1,136.499995834351,6|2,3:2|0:0,0:0:0:0:
392,302,127735,2,0,B|350:302|326:322|326:322|294:308|246:318,1,136.499995834351,0|2,3:0|0:0,0:0:0:0:
172,343,128185,1,0,3:0:0:0:
172,343,128335,1,2,0:0:0:0:
84,304,128485,6,0,P|76:233|69:158,1,136.499995834351,0|2,3:0|0:0,0:0:0:0:
57,77,128935,1,0,3:0:0:0:
57,77,129085,2,0,P|90:66|130:69,1,68.2499979171754,2|0,0:0|3:0,0:0:0:0:
213,112,129385,1,8,0:0:0:0:
213,112,129535,1,2,0:0:0:0:
284,180,129685,6,0,B|326:180|350:160|350:160|382:174|430:164,1,136.499995834351,6|2,3:2|0:0,0:0:0:0:
447,75,130135,2,0,B|405:75|381:55|381:55|349:69|301:59,1,136.499995834351,0|2,3:0|0:0,0:0:0:0:
232,19,130585,1,0,3:0:0:0:
232,19,130735,1,2,0:0:0:0:
150,68,130885,6,0,P|159:132|173:217,2,136.499995834351,0|2|2,3:0|0:0|0:0,0:0:0:0:
78,4,131635,1,0,3:0:0:0:
10,72,131785,2,0,P|1:107|7:144,1,68.2499979171754,8|2,0:0|0:0,0:0:0:0:
44,225,132085,6,0,P|103:193|170:202,1,136.499995834351,6|2,3:2|0:0,0:0:0:0:
242,266,132535,1,0,3:0:0:0:
242,266,132685,2,0,P|239:299|234:344,1,68.2499979171754,2|0,0:0|0:0,0:0:0:0:
334,261,132985,2,0,P|331:228|326:183,1,68.2499979171754,0|2,3:0|0:0,0:0:0:0:
326,97,133285,5,0,3:0:0:0:
413,58,133435,1,0,0:0:0:0:
478,127,133585,2,0,P|490:158|487:200,1,68.2499979171754,2|0,0:0|3:0,0:0:0:0:
434,273,133885,1,2,0:0:0:0:
434,273,133960,1,2,0:0:0:0:
434,273,134035,1,0,3:0:0:0:
334,261,134185,2,0,P|298:265|262:270,1,68.2499979171754,8|2,0:0|0:0,0:0:0:0:
180,227,134485,5,2,3:2:0:0:
255,168,134635,2,0,B|244:99|285:99|265:27,1,136.499995834351,2|0,0:0|3:0,0:0:0:0:
180,5,135085,1,2,0:0:0:0:
180,5,135235,1,0,0:0:0:0:
123,81,135385,2,0,P|82:78|50:76,1,68.2499979171754,0|2,3:0|0:0,0:0:0:0:
13,163,135685,6,0,P|62:202|143:193,1,136.499995834351,0|2,3:0|0:0,0:0:0:0:
229,178,136135,1,0,3:0:0:0:
229,178,136285,2,0,P|233:217|239:271,1,68.2499979171754,2|0,0:0|3:0,0:0:0:0:
295,328,136585,1,8,0:0:0:0:
295,328,136735,1,2,0:0:0:0:
384,293,136885,6,0,B|406:250|384:204|384:204|396:153,1,136.499995834351,6|2,3:2|0:0,0:0:0:0:
440,77,137335,2,0,B|394:56|351:77|351:77|300:65,1,136.499995834351,0|2,3:0|0:0,0:0:0:0:
218,51,137785,1,0,3:0:0:0:
218,51,137935,1,2,0:0:0:0:
173,132,138085,6,0,P|116:152|41:123,1,136.499995834351,0|2,3:0|0:0,0:0:0:0:
8,216,138535,1,0,3:0:0:0:
8,215,138685,2,0,P|13:249|18:283,1,68.2499979171754,2|0,0:0|3:0,0:0:0:0:
92,344,138985,1,8,0:0:0:0:
92,344,139135,1,2,0:0:0:0:
147,266,139285,6,0,B|189:276|189:276|235:254|278:276,1,136.499995834351,6|2,3:2|0:0,0:0:0:0:
364,318,139735,2,0,B|374:275|374:275|352:229|374:186,1,136.499995834351,0|2,3:0|0:0,0:0:0:0:
427,106,140185,1,0,3:0:0:0:
427,106,140335,1,2,0:0:0:0:
356,41,140485,6,0,P|302:20|210:51,2,136.499995834351,0|2|2,3:0|0:0|0:0,0:0:0:0:
427,106,141235,1,0,3:0:0:0:
374,186,141385,2,0,P|337:189|298:193,1,68.2499979171754,8|2,0:0|0:0,0:0:0:0:
235,256,141685,5,6,3:2:0:0:
235,256,141835,1,0,0:0:0:0:
303,322,141985,2,0,P|330:332|373:331,1,68.2499979171754,2|0,0:0|3:0,0:0:0:0:
464,318,142285,1,2,0:0:0:0:
464,318,142435,2,0,P|472:258|481:172,1,136.499995834351,0|2,0:0|0:0,0:0:0:0:
454,90,142885,6,0,P|421:96|381:86,1,68.2499979171754,0|0,3:0|0:0,0:0:0:0:
300,47,143185,1,2,0:0:0:0:
300,47,143335,2,0,P|239:29|170:64,1,136.499995834351,0|0,3:0|3:0,0:0:0:0:
128,141,143785,2,0,P|131:174|134:208,1,68.2499979171754,8|2,0:0|0:0,0:0:0:0:
208,277,144085,5,2,3:2:0:0:
208,277,144235,1,0,0:0:0:0:
280,215,144385,2,0,P|316:214|356:224,1,68.2499979171754,2|0,0:0|3:0,0:0:0:0:
417,286,144685,1,2,0:0:0:0:
417,286,144835,1,0,0:0:0:0:
347,352,144985,2,0,P|311:353|271:343,1,68.2499979171754,0|2,3:0|0:0,0:0:0:0:
208,277,145285,6,0,P|171:281|132:284,1,68.2499979171754,0|0,3:0|0:0,0:0:0:0:
44,294,145585,1,2,0:0:0:0:
8,205,145735,2,0,B|23:178|23:178|17:122,1,68.2499979171754,0|2,3:0|0:0,0:0:0:0:
17,114,145960,1,2,0:0:0:0:
17,114,146035,1,0,3:0:0:0:
111,128,146185,2,0,P|141:128|187:112,1,68.2499979171754,8|2,0:0|0:0,0:0:0:0:
227,35,146485,6,0,B|269:24|269:24|309:50|360:35,1,136.499995834351,6|2,3:2|0:0,0:0:0:0:
454,35,146935,2,0,B|444:77|444:77|472:116|454:168,1,136.499995834351,0|2,3:0|0:0,0:0:0:0:
420,258,147385,1,0,3:0:0:0:
420,258,147535,1,2,0:0:0:0:
339,310,147685,6,0,P|268:323|203:294,1,136.499995834351,0|2,3:0|0:0,0:0:0:0:
130,256,148135,1,0,3:0:0:0:
130,256,148285,2,0,P|96:259|62:263,1,68.2499979171754,2|0,0:0|3:0,0:0:0:0:
176,173,148585,1,8,0:0:0:0:
176,173,148735,1,2,0:0:0:0:
257,222,148885,6,0,B|299:211|299:211|341:239|390:222,1,136.499995834351,6|2,3:2|0:0,0:0:0:0:
478,189,149335,2,0,B|494:236|467:277|467:277|477:320,1,136.499995834351,0|2,3:0|0:0,0:0:0:0:
391,362,149785,1,0,3:0:0:0:
391,362,149935,1,2,0:0:0:0:
303,323,150085,6,0,P|238:336|175:303,2,136.499995834351,0|2|2,3:0|0:0|0:0,0:0:0:0:
373,258,150835,1,0,3:0:0:0:
306,189,150985,2,0,P|270:193|227:197,1,68.2499979171754,8|2,0:0|0:0,0:0:0:0:
190,113,151285,6,0,P|249:81|316:90,1,136.499995834351,6|2,3:2|0:0,0:0:0:0:
409,107,151735,1,0,3:0:0:0:
409,107,151885,2,0,P|414:69|419:23,1,68.2499979171754,2|0,0:0|0:0,0:0:0:0:
502,128,152185,2,0,P|505:161|510:195,1,68.2499979171754,0|2,3:0|0:0,0:0:0:0:
460,277,152485,5,0,3:0:0:0:
398,203,152635,1,0,0:0:0:0:
337,276,152785,2,0,P|303:285|264:279,1,68.2499979171754,2|0,0:0|3:0,0:0:0:0:
190,248,153085,1,2,0:0:0:0:
190,248,153160,1,2,0:0:0:0:
190,248,153235,1,0,3:0:0:0:
155,337,153385,2,0,P|121:332|78:327,1,68.2499979171754,8|2,0:0|0:0,0:0:0:0:
9,272,153685,5,2,3:2:0:0:
80,208,153835,2,0,P|71:148|60:62,1,136.499995834351,2|0,0:0|3:0,0:0:0:0:
138,14,154285,1,2,0:0:0:0:
138,14,154435,1,0,0:0:0:0:
197,88,154585,2,0,P|233:92|268:81,1,68.2499979171754,0|2,3:0|0:0,0:0:0:0:
358,68,154885,6,0,P|380:143|353:210,1,136.499995834351,0|2,3:0|0:0,0:0:0:0:
301,270,155335,1,0,3:0:0:0:
301,270,155485,2,0,P|263:267|231:264,1,68.2499979171754,2|0,0:0|3:0,0:0:0:0:
140,241,155785,2,0,P|102:244|70:247,1,68.2499979171754,2|0,0:0|0:0,0:0:0:0:
17,177,156085,6,0,P|46:144|123:138,1,116.999996429443,4|2,3:2|0:0,0:0:0:0:
190,97,156535,1,0,3:2:0:0:
190,97,156685,2,0,P|194:66|197:37,1,58.4999982147217,2|0,0:0|0:0,0:0:0:0:
279,38,156985,2,0,P|282:67|285:96,1,58.4999982147217,8|2,3:2|0:0,0:0:0:0:
306,175,157285,6,0,P|354:168|419:202,1,116.999996429443,0|2,3:0|0:0,0:0:0:0:
451,270,157735,2,0,P|440:303|437:331,1,58.4999982147217,0|0,3:0|0:0,0:0:0:0:
360,354,158035,1,0,3:0:0:0:
360,354,158185,2,0,P|355:325|346:297,1,58.4999982147217,8|0,0:0|0:0,0:0:0:0:
274,258,158485,6,0,P|220:280|145:260,1,116.999996429443,0|2,3:2|0:0,0:0:0:0:
94,225,158935,1,0,3:2:0:0:
94,225,159085,2,0,P|62:229|31:233,1,58.4999982147217,2|0,0:0|0:0,0:0:0:0:
121,142,159385,2,0,P|150:145|179:149,1,58.4999982147217,8|2,3:2|0:0,0:0:0:0:
260,160,159685,6,0,P|279:111|290:46,1,116.999996429443,0|2,3:0|0:0,0:0:0:0:
368,25,160135,2,0,P|401:31|430:35,1,58.4999982147217,0|2,3:0|0:0,0:0:0:0:
456,116,160435,1,0,3:0:0:0:
456,116,160585,2,0,P|427:120|398:125,1,58.4999982147217,8|0,0:0|0:0,0:0:0:0:
344,187,160885,6,0,P|339:219|348:259,1,58.4999982147217,0|0,3:2|0:0,0:0:0:0:
375,326,161185,1,2,0:0:0:0:
375,326,161335,1,0,3:2:0:0:
293,336,161485,2,0,P|246:308|186:308,1,116.999996429443,2|8,0:0|3:2,0:0:0:0:
106,331,161935,1,2,0:0:0:0:
106,331,162085,6,0,P|94:249|86:199,1,116.999996429443,0|2,3:0|0:0,0:0:0:0:
79,133,162535,1,0,3:0:0:0:
138,76,162685,1,2,0:0:0:0:
138,76,162835,2,0,P|129:43|131:6,2,58.4999982147217,0|8|0,3:0|0:0|0:0,0:0:0:0:
205,122,163285,6,0,P|237:126|275:131,1,58.4999982147217,0|0,3:2|0:0,0:0:0:0:
321,194,163585,1,2,0:0:0:0:
321,194,163735,1,0,3:2:0:0:
256,244,163885,2,0,P|250:275|256:311,1,58.4999982147217,2|0,0:0|0:0,0:0:0:0:
301,375,164185,1,8,3:2:0:0:
301,375,164335,1,2,0:0:0:0:
381,358,164485,6,0,P|390:304|400:229,1,116.999996429443,0|2,3:0|0:0,0:0:0:0:
420,162,164935,1,0,3:0:0:0:
356,110,165085,1,2,0:0:0:0:
356,110,165235,2,0,P|310:113|282:101,1,58.4999982147217,0|8,3:0|0:0,0:0:0:0:
225,148,165535,1,0,0:0:0:0:
225,148,165685,6,0,P|245:207|236:268,1,116.999996429443,4|2,3:2|0:0,0:0:0:0:
171,307,166135,1,0,0:0:0:0:
170,307,166285,2,0,P|166:342|163:372,1,58.4999982147217,2|0,0:0|0:0,0:0:0:0:
81,365,166585,2,0,P|77:335|73:306,1,58.4999982147217,0|2,3:2|0:0,0:0:0:0:
24,240,166885,5,0,3:0:0:0:
24,240,167035,2,0,P|27:210|31:181,1,58.4999982147217,2|2,0:0|0:0,0:0:0:0:
44,100,167335,2,0,P|97:108|159:75,1,116.999996429443,0|0,3:0|3:0,0:0:0:0:
208,21,167785,1,8,0:0:0:0:
208,21,167935,1,0,0:0:0:0:
271,73,168085,6,0,P|263:129|254:198,1,116.999996429443,0|2,3:2|0:0,0:0:0:0:
245,275,168535,1,0,3:2:0:0:
245,275,168685,2,0,P|282:283|301:291,1,58.4999982147217,2|0,0:0|0:0,0:0:0:0:
379,312,168985,2,0,P|416:304|435:296,1,58.4999982147217,0|2,3:2|0:0,0:0:0:0:
497,241,169285,5,0,3:0:0:0:
497,241,169435,2,0,P|490:204|484:168,1,58.4999982147217,2|2,0:0|0:0,0:0:0:0:
471,102,169735,2,0,P|410:107|364:76,1,116.999996429443,0|0,3:0|3:0,0:0:0:0:
305,21,170185,2,0,P|270:25|239:29,1,58.4999982147217,8|0,0:0|0:0,0:0:0:0:
182,78,170485,5,0,3:2:0:0:
182,78,170635,1,0,0:0:0:0:
232,142,170785,2,0,P|237:170|233:199,1,58.4999982147217,2|0,0:0|3:2,0:0:0:0:
188,268,171085,1,2,0:0:0:0:
188,268,171235,1,0,0:0:0:0:
109,243,171385,2,0,P|105:210|101:179,1,58.4999982147217,0|2,3:2|0:0,0:0:0:0:
43,127,171685,6,0,P|47:94|51:63,1,58.4999982147217,0|2,3:0|0:0,0:0:0:0:
119,25,171985,1,2,0:0:0:0:
119,25,172135,1,0,3:0:0:0:
182,78,172285,2,0,P|210:64|244:57,1,58.4999982147217,2|0,0:0|3:0,0:0:0:0:
319,58,172585,2,0,P|347:65|373:77,1,58.4999982147217,8|2,0:0|0:0,0:0:0:0:
448,121,172885,6,0,P|477:78|470:0,2,123.499996702194,2|8|2,0:0|0:0|0:0,0:0:0:0:
371,160,173635,1,0,3:0:0:0:
371,160,173785,2,0,P|375:194|379:226,1,61.7499983510972,8|0,0:0|0:0,0:0:0:0:
308,279,174085,6,0,P|272:264|239:264,1,65,8|2,3:2|0:2,0:0:0:0:
205,181,174385,2,0,P|174:204|157:233,1,65,8|2,3:2|0:2,0:0:0:0:
136,314,174685,1,8,3:2:0:0:
136,314,174835,1,8,3:2:0:0:
45,314,174985,1,8,3:2:0:0:
45,314,175135,1,8,3:2:0:0:
3,238,175285,5,2,0:0:0:0:
103,97,175585,5,2,0:0:0:0:
252,183,175885,5,2,0:0:0:0:
136,314,176185,5,2,0:0:0:0:
103,97,176485,5,6,0:0:0:0:
349,275,186085,6,0,B|250:263|277:329|170:316,1,181.999994445801,6|0,3:2|0:0,0:0:0:0:
58,216,186985,2,0,P|62:188|66:161,1,45.4999986114502,8|2,0:0|0:0,0:0:0:0:
73,93,187285,6,0,P|123:72|245:120,1,181.999994445801,2|2,3:2|0:0,0:0:0:0:
341,230,188185,2,0,P|345:257|349:285,1,45.4999986114502,8|0,0:0|0:0,0:0:0:0:
350,352,188485,6,0,P|260:337|163:322,1,181.999994445801,2|0,3:2|0:0,0:0:0:0:
58,216,189385,2,0,P|81:213|113:208,1,45.4999986114502,8|0,0:0|0:0,0:0:0:0:
178,192,189685,6,0,P|230:217|341:173,1,181.999994445801,2|2,3:2|0:0,0:0:0:0:
284,29,190585,2,0,P|254:26|228:22,1,45.4999986114502,8|0,0:0|0:0,0:0:0:0:
161,20,190885,6,0,P|120:43|67:43,1,90.9999972229005,2|2,3:2|0:0,0:0:0:0:
2,148,191485,2,0,P|6:177|9:197,1,45.4999986114502,2|0,0:0|0:0,0:0:0:0:
79,225,191785,2,0,P|75:254|72:274,1,45.4999986114502,8|0,0:0|0:0,0:0:0:0:
115,335,192085,6,0,B|130:350|136:365|136:365|138:343|147:323,1,77.999997619629,2|0,3:2|0:0,0:0:0:0:
178,254,192385,2,0,P|201:257|228:261,1,45.4999986114502,2|0,0:0|3:0,0:0:0:0:
299,276,192685,2,0,P|306:319|312:378,1,90.9999972229005,2|8,0:0|0:0,0:0:0:0:
474,369,193285,5,6,3:2:0:0:
474,369,193435,2,0,P|488:315|462:247,1,116.999996429443,2|2,0:0|0:0,0:0:0:0:
414,197,193885,2,0,P|418:136|424:73,1,116.999996429443,2|2,3:2|0:0,0:0:0:0:
246,27,194485,6,0,P|203:38|159:38,1,65,2|0,0:0|1:0,0:0:0:0:
155,32,194710,1,0,1:0:0:0:
155,32,194785,2,0,P|146:66|141:96,1,65,0|0,1:0|1:0,0:0:0:0:
126,185,195085,2,0,P|154:196|197:199,1,65,2|0,1:2|1:2,1:2:0:0:
253,136,195385,1,2,1:2:0:0:
306,209,195535,1,0,1:0:0:0:
355,122,195685,6,0,B|437:97|437:97|455:117|496:128,1,143.000004364014,6|2,3:2|0:0,0:0:0:0:
480,225,196135,2,0,P|441:283|472:363,1,143.000004364014,0|2,3:0|0:0,0:0:0:0:
367,384,196585,1,0,3:0:0:0:
367,384,196735,1,2,0:0:0:0:
276,342,196885,6,0,P|279:281|286:196,1,143.000004364014,0|2,3:0|0:0,0:0:0:0:
220,129,197335,1,0,3:0:0:0:
220,129,197485,2,0,P|176:142|138:138,1,71.5000021820069,2|0,0:0|3:0,0:0:0:0:
69,91,197785,1,8,0:0:0:0:
69,91,197935,1,2,0:0:0:0:
14,173,198085,6,0,B|44:255|44:255|28:279|28:315,1,143.000004364014,6|2,3:2|0:0,0:0:0:0:
116,356,198535,2,0,P|186:343|256:332,1,143.000004364014,0|2,3:0|0:0,0:0:0:0:
355,316,198985,1,0,3:0:0:0:
355,316,199135,1,2,0:0:0:0:
302,230,199285,6,0,P|231:235|165:208,2,143.000004364014,0|2|2,3:0|0:0|0:0,0:0:0:0:
390,181,200035,1,0,3:0:0:0:
348,90,200185,2,0,P|310:95|271:99,1,71.5000021820069,8|2,0:0|0:0,0:0:0:0:
178,116,200485,5,6,3:2:0:0:
178,116,200635,1,0,0:0:0:0:
105,46,200785,2,0,P|62:44|27:59,1,71.5000021820069,2|0,0:0|3:0,0:0:0:0:
4,149,201085,1,2,0:0:0:0:
4,149,201235,2,0,P|12:222|21:293,1,143.000004364014,0|2,0:0|0:0,0:0:0:0:
110,337,201685,6,0,P|114:301|118:265,1,71.5000021820069,0|0,3:0|0:0,0:0:0:0:
197,204,201985,1,2,0:0:0:0:
197,204,202135,2,0,B|279:193|259:244|344:227,1,143.000004364014,0|0,3:0|3:0,0:0:0:0:
431,203,202585,2,0,P|437:248|441:279,1,71.5000021820069,8|2,0:0|0:0,0:0:0:0:
504,136,202885,5,2,3:2:0:0:
504,136,203035,1,0,0:0:0:0:
421,78,203185,2,0,P|383:91|346:91,1,71.5000021820069,2|0,0:0|3:0,0:0:0:0:
254,67,203485,1,0,0:0:0:0:
254,67,203635,1,2,0:0:0:0:
192,145,203785,2,0,P|197:182|201:221,1,71.5000021820069,0|2,3:0|0:0,0:0:0:0:
210,316,204085,6,0,B|177:331|177:331|139:329,1,71.5000021820069,0|0,3:0|0:0,0:0:0:0:
43,309,204385,1,2,0:0:0:0:
90,220,204535,2,0,B|98:169|98:169|84:139,1,71.5000021820069,0|2,3:0|0:0,0:0:0:0:
74,129,204760,1,2,0:0:0:0:
74,129,204835,1,0,3:0:0:0:
117,38,204985,2,0,P|154:29|196:38,1,71.5000021820069,8|2,0:0|0:0,0:0:0:0:
238,120,205285,6,0,B|322:139|322:139|353:122|354:80,1,143.000004364014,6|2,3:2|0:0,0:0:0:0:
434,34,205735,2,0,P|476:88|467:173,1,143.000004364014,0|2,3:0|0:0,0:0:0:0:
448,257,206185,1,0,3:0:0:0:
448,257,206335,1,2,0:0:0:0:
355,222,206485,6,0,P|276:238|211:251,1,143.000004364014,0|2,3:0|0:0,0:0:0:0:
156,331,206935,1,0,3:0:0:0:
156,331,207085,2,0,P|195:339|228:345,1,71.5000021820069,2|0,0:0|3:0,0:0:0:0:
324,368,207385,1,8,0:0:0:0:
324,368,207535,1,2,0:0:0:0:
393,295,207685,6,0,B|402:244|402:244|388:208|388:208|401:148,1,143.000004364014,6|2,3:2|0:0,0:0:0:0:
411,56,208135,2,0,B|321:78|321:78|305:59|274:42,1,143.000004364014,0|2,3:0|0:0,0:0:0:0:
184,20,208585,1,0,3:0:0:0:
184,20,208735,1,2,0:0:0:0:
101,76,208885,6,0,P|71:144|90:217,2,143.000004364014,0|2|2,3:0|0:0|0:0,0:0:0:0:
184,20,209635,1,0,3:0:0:0:
282,46,209785,2,0,P|274:96|271:123,1,71.5000021820069,8|2,0:0|0:0,0:0:0:0:
199,185,210085,6,0,B|214:215|230:229|230:229|200:266|220:329,1,143.000004364014,6|2,3:2|0:0,0:0:0:0:
297,374,210535,1,0,3:0:0:0:
297,374,210685,2,0,P|332:368|377:362,1,71.5000021820069,2|0,0:0|0:0,0:0:0:0:
409,272,210985,2,0,P|373:267|338:261,1,71.5000021820069,0|2,3:0|0:0,0:0:0:0:
293,171,211285,5,0,3:0:0:0:
392,159,211435,1,0,0:0:0:0:
377,60,211585,2,0,P|344:51|294:54,1,71.5000021820069,2|0,0:0|3:0,0:0:0:0:
225,105,211885,1,2,0:0:0:0:
225,105,211960,1,2,0:0:0:0:
225,105,212035,1,0,3:0:0:0:
159,29,212185,2,0,P|118:22|81:18,1,71.5000021820069,8|2,0:0|0:0,0:0:0:0:
3,71,212485,5,2,3:2:0:0:
14,170,212635,2,0,B|94:180|72:215|151:224,1,143.000004364014,2|0,0:0|3:0,0:0:0:0:
248,231,213085,1,2,0:0:0:0:
248,231,213235,1,0,0:0:0:0:
316,157,213385,2,0,P|350:161|393:166,1,71.5000021820069,0|2,3:0|0:0,0:0:0:0:
468,223,213685,6,0,B|430:260|430:260|460:367,1,143.000004364014,0|2,3:0|0:0,0:0:0:0:
360,370,214135,1,0,3:0:0:0:
360,370,214285,2,0,P|322:356|279:354,1,71.5000021820069,2|0,0:0|3:0,0:0:0:0:
190,360,214585,1,8,0:0:0:0:
227,267,214735,1,2,0:0:0:0:
144,218,214885,6,0,P|149:183|157:137,1,68.2499979171754,6|0,3:2|0:0,0:0:0:0:
238,103,215185,2,0,P|243:136|248:170,1,68.2499979171754,2|0,0:0|3:0,0:0:0:0:
330,218,215485,2,0,P|335:183|343:137,1,68.2499979171754,2|0,0:0|0:0,0:0:0:0:
369,58,215785,2,0,P|412:86|464:82,1,102.374996875763,0|0,3:0|0:0,0:0:0:0:
494,73,216085,6,0,P|499:106|504:142,1,68.2499979171754,0|0,3:0|0:0,0:0:0:0:
426,198,216385,2,0,P|420:231|416:267,1,68.2499979171754,2|0,0:0|3:0,0:0:0:0:
333,311,216685,1,2,0:0:0:0:
333,311,216835,2,0,P|293:314|247:332,2,68.2499979171754,0|8|2,3:0|0:0|0:0,0:0:0:0:
423,358,217285,5,6,3:2:0:0:
423,358,217435,1,0,0:0:0:0:
502,304,217585,2,0,P|512:267|507:229,1,68.2499979171754,2|0,0:0|3:0,0:0:0:0:
492,151,217885,1,2,0:0:0:0:
492,151,218035,1,0,0:0:0:0:
408,197,218185,2,0,P|371:207|333:202,1,68.2499979171754,0|2,3:0|0:0,0:0:0:0:
251,172,218485,5,0,3:0:0:0:
251,172,218635,1,0,0:0:0:0:
187,243,218785,2,0,P|182:278|176:316,1,68.2499979171754,2|0,0:0|3:0,0:0:0:0:
111,380,219085,1,2,0:0:0:0:
111,380,219235,1,0,3:0:0:0:
45,310,219385,2,0,P|39:276|34:242,1,68.2499979171754,8|2,0:0|0:0,0:0:0:0:
15,148,219685,6,0,P|44:137|86:137,1,68.2499979171754,6|0,3:2|0:0,0:0:0:0:
126,51,219985,2,0,P|150:70|171:106,1,68.2499979171754,2|0,0:0|3:0,0:0:0:0:
264,101,220285,2,0,P|259:131|238:167,1,68.2499979171754,2|0,0:0|0:0,0:0:0:0:
168,226,220585,2,0,P|176:301|179:332,1,102.374996875763,0|0,3:0|0:0,0:0:0:0:
178,361,220885,6,0,P|234:366|255:359,1,68.2499979171754,0|0,3:0|0:0,0:0:0:0:
296,281,221185,2,0,P|329:274|362:279,1,68.2499979171754,2|0,0:0|3:0,0:0:0:0:
456,311,221485,1,2,0:0:0:0:
456,311,221635,2,0,P|450:345|444:388,2,68.2499979171754,0|8|2,3:0|0:0|0:0,0:0:0:0:
489,220,222085,6,0,P|494:186|485:149,1,68.2499979171754,2|0,3:2|0:0,0:0:0:0:
398,190,222385,1,2,0:0:0:0:
398,190,222535,2,0,P|370:168|333:157,1,68.2499979171754,0|0,3:0|0:0,0:0:0:0:
327,253,222835,1,2,0:0:0:0:
327,253,222985,2,0,P|294:266|266:292,1,68.2499979171754,0|2,3:0|0:0,0:0:0:0:
190,340,223285,5,0,3:0:0:0:
190,340,223435,2,0,P|146:308|66:306,1,136.499995834351,0|0,0:0|3:0,0:0:0:0:
6,230,223885,1,2,0:0:0:0:
6,230,224035,1,0,3:0:0:0:
50,145,224185,2,0,P|84:141|130:137,1,68.2499979171754,8|2,0:0|0:0,0:0:0:0:
212,127,224485,6,0,P|229:161|232:193,1,68.2499979171754,6|0,3:2|0:0,0:0:0:0:
320,227,224785,2,0,P|340:195|367:176,1,68.2499979171754,2|0,0:0|3:0,0:0:0:0:
353,82,225085,2,0,P|315:79|285:66,1,68.2499979171754,2|0,0:0|0:0,0:0:0:0:
205,18,225385,2,0,P|148:25|81:31,1,102.374996875763,0|0,3:0|0:0,0:0:0:0:
69,34,225685,6,0,P|60:71|64:104,1,68.2499979171754,0|0,3:0|0:0,0:0:0:0:
119,177,225985,2,0,P|128:214|124:247,1,68.2499979171754,2|0,0:0|3:0,0:0:0:0:
94,334,226285,1,2,0:0:0:0:
94,334,226435,1,0,3:0:0:0:
188,319,226585,2,0,P|221:316|254:324,1,68.2499979171754,8|2,0:0|0:0,0:0:0:0:
345,355,226885,5,6,3:2:0:0:
418,293,227035,2,0,P|431:258|429:225,1,68.2499979171754,0|2,0:0|0:0,0:0:0:0:
331,178,227335,2,0,P|330:211|342:243,1,68.2499979171754,0|0,3:0|0:0,0:0:0:0:
417,137,227635,1,2,0:0:0:0:
338,81,227785,2,0,P|301:88|259:94,1,68.2499979171754,0|2,3:0|0:0,0:0:0:0:
176,111,228085,5,0,3:0:0:0:
234,186,228235,1,0,0:0:0:0:
140,205,228385,2,0,P|127:247|125:280,1,68.2499979171754,2|0,0:0|3:0,0:0:0:0:
138,366,228685,1,2,0:0:0:0:
214,308,228835,1,0,3:0:0:0:
284,372,228985,2,0,P|316:360|350:356,1,68.2499979171754,8|2,0:0|0:0,0:0:0:0:
435,314,229285,6,0,P|436:278|421:242,1,68.2499979171754,6|0,3:2|0:0,0:0:0:0:
487,176,229585,2,0,P|456:157|417:152,1,68.2499979171754,2|0,0:0|3:0,0:0:0:0:
394,61,229885,2,0,P|362:78|338:109,1,68.2499979171754,2|0,0:0|0:0,0:0:0:0:
293,184,230185,2,0,P|239:177|178:169,1,102.374996875763,0|0,3:0|0:0,0:0:0:0:
157,165,230485,6,0,P|155:204|145:233,1,68.2499979171754,0|0,3:0|0:0,0:0:0:0:
49,231,230785,2,0,P|38:198|37:164,1,68.2499979171754,2|0,0:0|3:0,0:0:0:0:
97,90,231085,1,2,0:0:0:0:
97,90,231235,2,0,P|91:53|85:9,2,68.2499979171754,0|8|2,3:0|0:0|0:0,0:0:0:0:
157,165,231685,6,0,B|187:180|187:180|221:173|264:172,2,102.374996875763,2|2|0,3:2|0:0|3:2,0:0:0:0:
207,83,232285,2,0,P|241:72|290:81,1,68.2499979171754,2|0,0:0|0:0,0:0:0:0:
357,129,232585,1,0,3:0:0:0:
357,129,232735,1,2,0:0:0:0:
390,218,232885,6,0,P|375:272|365:334,1,102.374996875763,0|2,3:0|0:0,0:0:0:0:
361,351,233185,2,0,P|328:362|289:361,1,68.2499979171754,2|0,0:0|3:0,0:0:0:0:
200,343,233485,6,0,P|201:302|158:243,1,102.374996875763,2|0,0:0|0:0,0:0:0:0:
143,229,233785,2,0,P|183:230|242:187,1,102.374996875763,8|0,0:0|0:0,0:0:0:0:
255,172,234085,5,6,3:2:0:0:
