osu file format v14

[General]
AudioFilename: audio.mp3
AudioLeadIn: 0
PreviewTime: 50035
Countdown: 0
SampleSet: Soft
StackLeniency: 0.7
Mode: 0
LetterboxInBreaks: 0
WidescreenStoryboard: 1

[Editor]
Bookmarks: 234125
DistanceSpacing: 1
BeatDivisor: 4
GridSize: 32
TimelineZoom: 1.1

[Metadata]
Title:No title
TitleUnicode:No title
Artist:FantasticYouth
ArtistUnicode:FantasticYouth
Creator:Akitoshi
Version:Easy
Source:
Tags:Corinn -Laura- Kowari Reol LowFat Onyu おん湯(♨) cover utaite japanese pop jpop GigaP Fantastic Youth
BeatmapID:2115518
BeatmapSetID:1009447

[Difficulty]
HPDrainRate:2
CircleSize:2.6
OverallDifficulty:2
ApproachRate:4
SliderMultiplier:0.85
SliderTickRate:1

[Events]
//Background and Video events
0,0,"summr.jpg",0,0
//Break Periods
2,176485,184765
//Storyboard Layer 0 (Background)
//Storyboard Layer 1 (Fail)
//Storyboard Layer 2 (Pass)
//Storyboard Layer 3 (Foreground)
//Storyboard Layer 4 (Overlay)
//Storyboard Sound Samples

[TimingPoints]
2485,300,4,2,1,40,1,0
7285,-100,4,2,1,60,0,0
12085,-100,4,2,1,60,0,0
31135,-100,4,2,1,60,0,0
31435,-100,4,2,1,60,0,0
32335,-100,4,2,1,60,0,0
32635,-100,4,2,1,60,0,0
33535,-100,4,2,1,60,0,0
33835,-100,4,2,1,60,0,0
34735,-100,4,2,1,60,0,0
35035,-100,4,2,1,60,0,0
35935,-100,4,2,1,60,0,0
36235,-100,4,2,1,60,0,0
37135,-100,4,2,1,60,0,0
37435,-100,4,2,1,60,0,0
38335,-100,4,2,1,60,0,0
38635,-100,4,2,1,60,0,0
40735,-100,4,2,1,60,0,0
41035,-100,4,2,1,60,0,0
41935,-100,4,2,1,60,0,0
42235,-100,4,2,1,60,0,0
43135,-100,4,2,1,60,0,0
43435,-100,4,2,1,60,0,0
45535,-100,4,2,1,60,0,0
45835,-100,4,2,1,60,0,0
47935,-100,4,2,1,60,0,0
48235,-100,4,2,1,60,0,0
50485,-100,4,2,1,80,0,1
69685,-100,4,2,1,80,0,0
76885,-100,4,2,1,60,0,0
79285,-100,4,2,1,60,0,0
96085,-100,4,2,1,60,0,0
98485,-100,4,2,1,60,0,0
115285,-100,4,2,1,60,0,0
117685,-100,4,2,1,80,0,1
135685,-100,4,2,1,80,0,0
136285,-100,4,2,1,60,0,0
136885,-100,4,2,1,80,0,1
156085,-100,4,2,69,60,0,0
165685,-100,4,2,1,60,0,0
172885,-100,4,2,1,60,0,0
174085,-100,4,2,1,60,0,0
175285,-100,4,2,1,60,0,0
175585,-100,4,2,1,60,0,0
175885,-100,4,2,1,60,0,0
176185,-100,4,2,1,60,0,0
176485,-1000,4,2,1,40,0,0
186085,-100,4,2,1,50,0,0
192085,-100,4,2,1,50,0,0
192385,-100,4,2,1,50,0,0
193285,-100,4,2,1,60,0,0
194485,-100,4,2,1,70,0,0
195685,-100,4,2,1,80,0,1
214885,-100,4,2,1,80,0,0

[Colours]
Combo1 : 255,220,113
Combo2 : 0,255,255
Combo3 : 0,125,251
Combo4 : 43,255,96

[HitObjects]
168,166,2485,6,0,P|101:157|38:190,2,127.5,0|0|0,3:0|3:0|3:0,0:0:0:0:
238,213,3685,2,0,L|375:200,1,127.5,0|0,3:0|3:0,0:0:0:0:
449,190,4435,1,0,3:0:0:0:
387,78,4885,6,0,P|346:58|263:61,1,127.5,0|0,3:0|3:0,0:0:0:0:
188,95,5635,1,0,3:0:0:0:
123,205,6085,2,0,B|74:224|36:215|36:215|21:200|-1:186,2,127.5,0|0|0,3:0|3:0|3:0,0:0:0:0:
204,179,7285,6,0,L|383:193,1,170,6|2,3:2|0:0,0:0:0:0:
496,309,8485,2,0,P|435:356|334:349,1,170,2|2,3:2|0:0,0:0:0:0:
262,335,9385,1,8,0:0:0:0:
203,273,9685,6,0,L|212:183,2,85,2|2|2,3:2|0:0|0:0,0:0:0:0:
130,318,10585,1,0,3:0:0:0:
52,282,10885,2,0,P|42:240|52:198,1,85,0|2,3:0|0:0,0:0:0:0:
114,143,11485,2,0,P|124:101|114:59,1,85,2|2,0:0|0:0,0:0:0:0:
190,22,12085,6,0,P|265:58|355:44,1,170,6|2,3:2|0:2,0:0:0:0:
431,25,12985,1,0,3:0:0:0:
495,80,13285,2,0,L|506:220,2,127.5,0|0|8,3:0|3:0|0:0,0:0:0:0:
431,25,14485,6,0,P|343:28|258:66,1,170,0|2,3:0|0:0,0:0:0:0:
210,121,15385,1,0,3:0:0:0:
224,204,15685,2,0,P|261:215|316:214,1,85,0|2,3:0|0:0,0:0:0:0:
390,198,16285,2,0,P|401:235|400:290,1,85,2|8,0:0|0:0,0:0:0:0:
339,339,16885,6,0,B|247:321|267:371|167:355,1,170,0|2,3:0|0:0,0:0:0:0:
112,295,17785,1,0,3:0:0:0:
113,210,18085,2,0,P|72:201|29:204,2,85,0|2|0,3:0|0:0|3:0,0:0:0:0:
188,250,18985,1,8,0:0:0:0:
263,211,19285,6,0,P|270:126|278:42,1,170,0|2,3:0|0:0,0:0:0:0:
360,20,20185,1,0,3:0:0:0:
415,84,20485,2,0,P|426:128|419:170,1,85,0|0,3:0|0:0,0:0:0:0:
348,213,21085,1,2,0:0:0:0:
263,211,21385,2,0,P|219:200|177:207,1,85,8|2,0:0|3:2,0:0:0:0:
119,264,21985,6,0,P|145:218|117:105,1,170,2|0,0:2|3:0,0:0:0:0:
36,95,22885,2,0,P|32:137|26:187,1,85,0|2,3:0|0:0,0:0:0:0:
15,263,23485,1,2,0:0:0:0:
52,339,23785,2,0,P|88:360|141:362,1,85,8|0,0:0|3:0,0:0:0:0:
213,347,24385,6,0,P|277:295|363:289,1,170,2|0,0:0|3:0,0:0:0:0:
446,299,25285,2,0,P|450:255|455:208,1,85,0|2,3:0|0:0,0:0:0:0:
462,129,25885,1,2,0:0:0:0:
386,89,26185,2,0,P|332:95|288:81,1,85,8|0,0:0|3:0,0:0:0:0:
229,44,26785,5,2,0:0:0:0:
164,98,27085,2,0,P|167:140|171:182,1,85,2|0,0:0|3:0,0:0:0:0:
223,249,27685,2,0,P|219:291|215:333,2,85,0|2|0,3:0|0:0|3:0,0:0:0:0:
283,189,28585,2,0,P|323:182|378:195,1,85,8|0,0:0|3:0,0:0:0:0:
428,249,29185,5,2,0:0:0:0:
385,322,29485,2,0,P|342:328|300:333,1,85,2|0,0:0|3:0,0:0:0:0:
215,333,30085,2,0,P|173:327|118:320,1,85,0|2,3:0|0:0,0:0:0:0:
47,304,30685,1,2,0:0:0:0:
63,177,31135,6,0,B|125:165|125:165|168:182|168:182|242:167,1,170,6|0,0:0|3:0,0:0:0:0:
309,145,32035,1,2,0:0:0:0:
273,67,32335,2,0,B|213:54|213:54|170:71|170:71|108:59,1,170,2|0,0:0|3:0,0:0:0:0:
25,42,33235,1,0,3:0:0:0:
0,123,33535,6,0,B|28:162|28:162|16:246,1,127.5,2|2,0:0|0:0,0:0:0:0:
3,324,34285,1,2,0:0:0:0:
124,361,34735,2,0,B|163:333|163:333|247:345,1,127.5,2|2,0:0|0:0,0:0:0:0:
326,353,35485,1,2,0:0:0:0:
414,261,35935,6,0,B|432:182|432:182|409:130,1,127.5,6|2,0:0|0:0,0:0:0:0:
366,68,36685,1,2,0:0:0:0:
241,40,37135,2,0,B|222:82|222:82|240:161,1,127.5,2|2,0:0|0:0,0:0:0:0:
254,245,37885,1,2,0:0:0:0:
380,227,38335,6,0,B|430:225|458:218|458:218|486:241|497:263,1,127.5,2|2,0:0|0:0,0:0:0:0:
465,334,39085,2,0,P|410:348|370:342,1,85,2|0,0:0|3:0,0:0:0:0:
310,302,39685,2,0,P|262:285|216:289,1,85,0|2,3:0|0:0,0:0:0:0:
144,303,40285,1,2,0:0:0:0:
158,175,40735,6,0,B|206:167|206:167|238:180|238:180|296:171,1,127.5,6|2,0:0|0:0,0:0:0:0:
365,160,41485,1,2,0:0:0:0:
352,284,41935,2,0,B|304:292|304:292|272:279|272:279|214:288,1,127.5,2|2,0:0|0:0,0:0:0:0:
144,302,42685,1,2,0:0:0:0:
89,186,43135,6,0,P|82:144|96:100,1,85,2|2,0:0|0:0,0:0:0:0:
162,53,43735,2,0,P|214:88|291:82,1,127.5,0|0,3:0|3:0,0:0:0:0:
355,55,44485,2,0,P|397:59|439:64,1,85,0|2,3:0|0:0,0:0:0:0:
511,109,45085,1,2,0:0:0:0:
512,237,45535,6,0,B|429:253|429:253|382:232,1,127.5,6|2,0:0|0:0,0:0:0:0:
311,202,46285,2,0,P|292:241|288:285,1,85,2|0,0:0|3:0,0:0:0:0:
228,343,46885,1,0,3:0:0:0:
167,282,47185,2,0,P|162:239|143:202,1,85,2|2,0:0|0:0,0:0:0:0:
84,88,47935,6,0,B|168:100|168:100|213:71,1,127.5,2|2,0:0|0:0,0:0:0:0:
267,20,48685,2,0,P|309:23|351:28,1,85,2|0,0:0|3:0,0:0:0:0:
436,38,49285,1,0,3:0:0:0:
495,99,49585,2,0,P|509:140|497:187,1,85,2|2,0:0|0:0,0:0:0:0:
436,235,50185,1,8,0:0:0:0:
362,192,50485,6,0,B|269:174|289:227|197:209,1,170,6|0,3:2|0:0,0:0:0:0:
117,177,51385,1,0,3:0:0:0:
45,222,51685,2,0,P|34:260|39:309,1,85,0|2,3:0|0:0,0:0:0:0:
97,364,52285,1,2,0:0:0:0:
182,364,52585,1,8,0:0:0:0:
242,303,52885,6,0,B|335:285|315:338|407:320,1,170,6|0,3:2|0:0,0:0:0:0:
487,291,53785,1,0,3:0:0:0:
467,208,54085,2,0,P|472:165|480:117,2,85,0|2|2,3:0|0:0|0:0,0:0:0:0:
385,234,54985,1,8,0:0:0:0:
311,190,55285,6,0,B|259:193|232:216|232:216|199:186|153:186,1,170,6|2,3:2|0:0,0:0:0:0:
70,201,56185,1,0,3:0:0:0:
4,254,56485,2,0,P|11:317|54:362,2,127.5,0|0|8,3:0|3:0|0:0,0:0:0:0:
70,201,57685,6,0,L|63:102,2,85,2|2|2,3:2|0:0|0:0,0:0:0:0:
134,257,58585,1,0,3:0:0:0:
209,217,58885,2,0,B|293:232|293:232|319:221|337:198,2,127.5,0|0|8,3:0|3:0|0:0,0:0:0:0:
158,149,60085,6,0,P|192:109|317:98,1,170,6|0,3:2|0:0,0:0:0:0:
375,136,60985,1,0,3:0:0:0:
418,209,61285,2,0,P|412:251|408:294,1,85,0|2,3:0|0:0,0:0:0:0:
347,353,61885,1,2,0:0:0:0:
262,353,62185,1,8,0:0:0:0:
201,292,62485,6,0,P|167:252|42:241,1,170,6|0,3:2|0:0,0:0:0:0:
0,170,63385,1,0,3:0:0:0:
53,103,63685,2,0,P|49:59|45:11,2,85,0|2|2,3:0|0:0|0:0,0:0:0:0:
127,144,64585,1,8,0:0:0:0:
202,105,64885,6,0,P|280:75|373:97,1,170,6|2,3:2|0:0,0:0:0:0:
429,143,65785,1,0,3:0:0:0:
468,218,66085,2,0,P|464:260|456:317,1,85,0|2,3:0|0:0,0:0:0:0:
398,362,66685,1,2,0:0:0:0:
313,362,66985,1,8,0:0:0:0:
252,301,67285,6,0,P|167:309|74:318,1,170,2|2,3:2|0:0,0:0:0:0:
18,261,68185,1,0,3:0:0:0:
66,191,68485,2,0,P|80:140|81:104,1,85,0|2,3:0|0:0,0:0:0:0:
166,108,69085,2,0,P|168:150|181:190,1,85,2|8,0:0|0:0,0:0:0:0:
231,259,69685,6,0,B|325:247|304:298|412:275,1,170,6|2,3:2|0:0,0:0:0:0:
469,233,70585,1,0,3:0:0:0:
439,153,70885,2,0,L|449:64,2,85,0|2|2,3:0|0:0|0:0,0:0:0:0:
362,191,71785,1,8,0:0:0:0:
289,146,72085,6,0,P|204:132|123:174,1,170,2|2,3:2|0:0,0:0:0:0:
76,232,72985,1,0,3:0:0:0:
110,309,73285,2,0,P|153:312|203:318,1,85,0|2,3:0|0:0,0:0:0:0:
277,338,73885,1,2,0:0:0:0:
360,353,74185,2,0,P|403:350|453:344,1,85,8|2,0:0|3:2,0:0:0:0:
501,281,74785,6,0,P|507:237|496:183,1,85,2|2,0:0|0:0,0:0:0:0:
456,124,75385,1,0,3:0:0:0:
395,184,75685,2,0,P|349:179|295:174,1,85,0|2,3:0|0:0,0:0:0:0:
234,136,76285,2,0,P|188:141|134:146,1,85,2|8,0:0|0:0,0:0:0:0:
82,92,76885,6,0,B|116:128|125:165|125:165|99:202|93:255,2,170,4|4|4,3:0|3:0|3:0,0:0:0:0:
140,29,78385,2,0,P|180:42|232:38,1,85,8|4,0:0|3:0,0:0:0:0:
391,20,79285,6,0,P|399:104|408:195,1,170,6|2,3:2|0:2,0:0:0:0:
301,321,80485,2,0,P|221:288|129:306,1,170,0|2,3:0|0:0,0:0:0:0:
65,341,81385,1,8,0:0:0:0:
9,276,81685,6,0,P|19:190|28:103,1,170,0|2,3:0|0:0,0:0:0:0:
183,37,82885,2,0,P|266:24|343:57,1,170,0|2,3:0|0:0,0:0:0:0:
404,117,83785,1,8,0:0:0:0:
355,186,84085,6,0,P|270:194|172:203,1,170,0|2,3:0|0:0,0:0:0:0:
93,344,85285,2,0,P|178:352|276:361,1,170,0|2,3:0|0:0,0:0:0:0:
346,367,86185,1,8,0:0:0:0:
426,339,86485,6,0,P|460:274|448:166,1,170,0|2,3:0|0:0,0:0:0:0:
411,105,87385,1,0,3:0:0:0:
334,68,87685,2,0,P|293:79|251:75,1,85,0|0,3:0|0:0,0:0:0:0:
175,37,88285,2,0,P|135:26|86:31,1,85,2|8,0:0|0:0,0:0:0:0:
20,75,88885,6,0,B|13:133|13:133|35:182|35:182|25:256,1,170,2|2,3:2|0:2,0:0:0:0:
15,323,89785,1,0,3:0:0:0:
90,362,90085,2,0,P|149:366|214:331,2,127.5,0|0|8,3:0|3:0|0:0,0:0:0:0:
15,323,91285,6,0,B|0:211|0:211|40:160,1,170,0|2,3:0|0:0,0:0:0:0:
98,109,92185,1,0,3:0:0:0:
180,135,92485,2,0,P|242:157|302:141,2,127.5,0|0|8,3:0|3:0|0:0,0:0:0:0:
98,109,93685,6,0,B|133:153|133:153|118:265,1,170,0|2,3:0|0:0,0:0:0:0:
185,317,94585,1,0,3:0:0:0:
253,267,94885,2,0,L|386:283,2,127.5,0|0|8,3:0|3:0|0:0,0:0:0:0:
226,186,96085,6,0,P|267:170|316:170,1,85,0|2,3:0|0:0,0:0:0:0:
369,109,96685,2,0,P|410:125|459:125,1,85,2|0,0:0|3:0,0:0:0:0:
511,66,97285,2,0,P|472:138|485:239,1,170,0|2,3:0|0:0,0:0:0:0:
506,303,98185,1,8,0:0:0:0:
433,346,98485,6,0,P|388:343|340:340,1,85,6|2,3:2|0:2,0:0:0:0:
278,291,99085,2,0,P|235:293|185:297,1,85,2|0,0:2|3:0,0:0:0:0:
128,352,99685,2,0,P|74:371|8:354,2,127.5,0|0|8,3:0|3:0|0:0,0:0:0:0:
193,296,100885,6,0,P|190:250|188:203,1,85,0|2,3:0|0:0,0:0:0:0:
257,162,101485,2,0,P|260:116|262:69,1,85,2|0,0:0|3:0,0:0:0:0:
194,25,102085,2,0,P|138:24|66:69,2,127.5,2|0|8,3:2|3:0|0:0,0:0:0:0:
261,77,103285,6,0,B|308:85|341:59|341:59|382:59|420:87,1,170,0|2,3:0|0:0,0:0:0:0:
476,151,104185,1,0,3:0:0:0:
420,215,104485,2,0,B|373:207|340:233|340:233|299:233|260:204,1,170,0|0,3:0|3:0,0:0:0:0:
201,143,105385,1,8,0:0:0:0:
122,175,105685,6,0,P|110:230|120:267,1,85,0|2,3:0|0:0,0:0:0:0:
172,320,106285,2,0,P|227:308|264:318,1,85,2|0,0:0|3:0,0:0:0:0:
336,337,106885,2,0,B|420:353|420:353|459:324,2,127.5,0|0|8,3:0|3:0|0:0,0:0:0:0:
254,313,108085,6,0,P|260:267|273:135,1,170,2|2,3:2|0:2,0:0:0:0:
289,60,108985,1,0,3:0:0:0:
366,25,109285,2,0,P|404:21|492:59,2,127.5,0|0|8,3:0|3:0|0:0,0:0:0:0:
289,60,110485,6,0,B|228:53|228:53|188:29|188:29|122:24,1,170,0|2,3:0|0:0,0:0:0:0:
41,15,111385,1,0,3:0:0:0:
0,89,111685,2,0,P|4:133|8:192,1,85,0|2,3:0|0:0,0:0:0:0:
86,205,112285,2,0,P|82:249|78:308,1,85,2|8,0:0|0:0,0:0:0:0:
10,340,112885,6,0,B|101:319|83:379|189:346,1,170,0|2,3:0|0:0,0:0:0:0:
249,307,113785,1,0,3:0:0:0:
199,237,114085,2,0,P|182:175|205:107,2,127.5,0|0|8,3:0|3:0|0:0,0:0:0:0:
249,307,115285,6,0,P|293:302|351:295,1,85,0|10,3:0|0:0,0:0:0:0:
417,283,115885,2,0,P|422:239|429:181,1,85,2|0,0:0|3:0,0:0:0:0:
395,119,116485,2,0,P|390:75|383:17,2,85,8|8|8,0:0|0:0|0:0,0:0:0:0:
341,184,117385,1,0,1:0:0:0:
278,126,117685,6,0,B|186:115|207:167|103:153,1,170,6|0,3:2|0:0,0:0:0:0:
32,126,118585,1,0,3:0:0:0:
0,204,118885,2,0,P|4:246|8:288,1,85,0|2,3:0|0:0,0:0:0:0:
68,348,119485,1,2,0:0:0:0:
153,348,119785,1,8,0:0:0:0:
213,287,120085,6,0,B|305:276|284:328|388:314,1,170,6|0,3:2|0:0,0:0:0:0:
443,262,120985,1,0,3:0:0:0:
408,184,121285,2,0,P|411:139|417:87,2,85,0|2|2,3:0|0:0|0:0,0:0:0:0:
332,222,122185,1,8,0:0:0:0:
261,175,122485,6,0,B|226:154|179:159|179:159|150:196|90:201,1,170,6|2,3:2|0:0,0:0:0:0:
22,184,123385,1,0,3:0:0:0:
44,265,123685,2,0,P|103:288|170:270,2,127.5,0|0|8,3:0|3:0|0:0,0:0:0:0:
22,184,124885,6,0,L|13:84,2,85,2|2|2,3:2|0:0|0:0,0:0:0:0:
106,198,125785,1,0,3:0:0:0:
165,137,126085,2,0,B|206:117|249:120|249:120|265:136|288:144,2,127.5,0|0|8,3:0|3:0|0:0,0:0:0:0:
105,198,127285,6,0,P|82:279|115:357,1,170,6|0,3:2|0:0,0:0:0:0:
195,379,128185,1,0,3:0:0:0:
263,328,128485,2,0,P|304:330|352:335,1,85,0|2,3:0|0:0,0:0:0:0:
432,337,129085,1,2,0:0:0:0:
489,274,129385,1,8,0:0:0:0:
471,190,129685,6,0,P|393:158|313:181,1,170,6|0,3:2|0:0,0:0:0:0:
254,243,130585,1,0,3:0:0:0:
176,207,130885,2,0,P|132:211|78:217,2,85,0|2|2,3:0|0:0|0:0,0:0:0:0:
236,147,131785,1,8,0:0:0:0:
226,62,132085,6,0,P|146:35|61:60,1,170,6|2,3:2|0:0,0:0:0:0:
10,121,132985,1,0,3:0:0:0:
76,174,133285,2,0,P|72:217|65:272,1,85,0|2,3:0|0:0,0:0:0:0:
53,342,133885,1,2,0:0:0:0:
129,378,134185,1,8,0:0:0:0:
201,334,134485,6,0,P|286:323|372:314,1,170,2|2,3:2|0:0,0:0:0:0:
454,303,135385,1,0,3:0:0:0:
496,229,135685,2,0,P|503:180|494:143,1,85,0|2,3:0|0:0,0:0:0:0:
434,85,136285,1,2,0:0:0:0:
349,85,136585,1,8,0:0:0:0:
288,145,136885,6,0,B|195:133|217:189|105:169,1,170,6|0,3:2|0:0,0:0:0:0:
48,130,137785,1,0,3:0:0:0:
9,205,138085,2,0,P|12:248|17:298,1,85,0|2,3:0|0:0,0:0:0:0:
76,349,138685,1,2,0:0:0:0:
161,349,138985,1,8,0:0:0:0:
221,288,139285,6,0,B|314:276|292:332|404:312,1,170,6|0,3:2|0:0,0:0:0:0:
460,274,140185,1,0,3:0:0:0:
433,193,140485,2,0,P|438:149|443:104,2,85,0|2|2,3:0|0:0|0:0,0:0:0:0:
353,224,141385,1,8,0:0:0:0:
283,174,141685,6,0,B|237:185|199:172|199:172|180:208|132:225,1,170,6|2,3:2|0:0,0:0:0:0:
49,229,142585,1,0,3:0:0:0:
6,155,142885,2,0,P|6:97|45:35,2,127.5,0|0|8,3:0|3:0|0:0,0:0:0:0:
49,229,144085,6,0,P|42:273|36:324,2,85,2|2|2,3:2|0:0|0:0,0:0:0:0:
119,181,144985,1,0,3:0:0:0:
195,144,145285,2,0,P|185:76|180:15,2,127.5,0|0|8,3:0|3:0|0:0,0:0:0:0:
270,182,146485,6,0,P|341:138|432:157,1,170,6|0,3:2|0:0,0:0:0:0:
475,217,147385,1,0,3:0:0:0:
476,301,147685,2,0,P|432:304|377:309,1,85,0|2,3:0|0:0,0:0:0:0:
306,312,148285,1,2,0:0:0:0:
238,260,148585,1,8,0:0:0:0:
270,182,148885,6,0,P|199:138|108:157,1,170,6|0,3:2|0:0,0:0:0:0:
48,201,149785,1,0,3:0:0:0:
83,278,150085,2,0,P|76:321|71:375,2,85,0|2|2,3:0|0:0|0:0,0:0:0:0:
157,235,150985,1,8,0:0:0:0:
238,260,151285,6,0,P|314:276|391:228,1,170,6|2,3:2|0:0,0:0:0:0:
418,150,152185,1,0,3:0:0:0:
360,87,152485,2,0,P|315:73|261:81,1,85,0|2,3:0|0:0,0:0:0:0:
200,112,153085,1,2,0:0:0:0:
183,195,153385,1,8,0:0:0:0:
238,260,153685,6,0,P|324:249|415:238,1,170,2|2,3:2|0:0,0:0:0:0:
479,283,154585,1,0,3:0:0:0:
432,353,154885,2,0,P|386:345|346:345,1,85,0|2,3:0|0:0,0:0:0:0:
264,362,155485,2,0,P|218:370|178:370,1,85,2|2,0:0|0:0,0:0:0:0:
108,323,156085,6,0,P|102:239|97:147,1,170,4|2,3:2|0:0,0:0:0:0:
92,68,156985,1,8,3:2:0:0:
169,33,157285,2,0,P|235:28|291:62,2,127.5,0|0|8,3:0|3:0|0:0,0:0:0:0:
92,68,158485,6,0,P|45:66|-1:62,2,85,0|2|2,3:2|0:0|0:0,0:0:0:0:
161,117,159385,1,8,3:2:0:0:
230,165,159685,2,0,P|285:142|356:155,2,127.5,0|0|8,3:0|3:0|0:0,0:0:0:0:
210,247,160885,6,0,P|294:254|387:261,1,170,0|2,3:2|0:0,0:0:0:0:
464,268,161785,1,8,3:2:0:0:
509,196,162085,2,0,P|511:146|491:103,1,85,0|2,3:0|0:0,0:0:0:0:
427,66,162685,2,0,P|377:64|334:84,1,85,2|8,0:0|0:0,0:0:0:0:
280,131,163285,6,0,L|182:120,2,85,0|2|2,3:2|0:0|0:0,0:0:0:0:
338,192,164185,1,8,3:2:0:0:
270,243,164485,2,0,P|205:231|115:279,1,170,0|2,3:0|0:0,0:0:0:0:
58,340,165385,1,8,0:0:0:0:
0,277,165685,6,0,P|8:192|15:100,1,170,4|2,3:2|0:0,0:0:0:0:
60,35,166585,1,0,3:2:0:0:
145,42,166885,2,0,P|201:18|283:37,2,127.5,0|0|8,3:0|3:0|0:0,0:0:0:0:
99,115,168085,6,0,P|55:111|8:106,2,85,0|2|2,3:2|0:0|0:0,0:0:0:0:
178,145,168985,1,0,3:2:0:0:
256,178,169285,2,0,P|326:171|402:163,2,127.5,0|0|8,3:0|3:0|0:0,0:0:0:0:
187,228,170485,6,0,P|178:269|196:320,1,85,0|2,3:2|0:0,0:0:0:0:
251,364,171085,2,0,P|293:373|333:362,1,85,2|0,0:0|3:2,0:0:0:0:
393,301,171685,2,0,P|433:304|489:308,2,85,0|2|2,3:0|0:0|0:0,0:0:0:0:
333,240,172585,1,8,0:0:0:0:
256,192,172885,12,2,175285,0:0:0:0:
136,179,186085,6,0,B|230:168|202:224|301:207,1,170,6|2,3:2|0:0,0:0:0:0:
435,308,187285,2,0,B|341:297|369:353|270:336,1,170,2|2,3:2|0:0,0:0:0:0:
116,265,188485,6,0,P|121:177|128:95,1,170,2|2,3:2|0:0,0:0:0:0:
287,37,189685,2,0,P|293:121|298:206,1,170,2|2,3:2|0:0,0:0:0:0:
435,308,190885,6,0,P|450:236|415:142,1,170,2|2,3:2|0:0,0:0:0:0:
287,37,192085,2,0,B|252:35|237:25|237:25|207:38|207:38|172:26|172:26|152:40|117:45,1,170,2|2,3:2|0:0,0:0:0:0:
21,176,193285,6,0,P|7:260|43:341,2,170,6|2|2,3:2|3:2|0:0,0:0:0:0:
71,107,194785,1,0,1:0:0:0:
138,159,195085,1,2,1:2:0:0:
223,159,195385,1,2,1:2:0:0:
283,98,195685,6,0,B|388:83|388:83|415:89|446:118,1,170,6|0,3:2|0:0,0:0:0:0:
483,189,196585,1,0,3:0:0:0:
422,248,196885,2,0,P|378:244|330:240,1,85,0|2,3:0|0:0,0:0:0:0:
253,229,197485,1,2,0:0:0:0:
197,164,197785,1,8,0:0:0:0:
197,79,198085,6,0,B|92:64|92:64|65:70|34:99,1,170,6|0,3:2|0:0,0:0:0:0:
3,173,198985,1,0,3:0:0:0:
55,239,199285,2,0,P|49:283|45:331,2,85,0|2|2,3:0|0:0|0:0,0:0:0:0:
113,177,200185,1,8,0:0:0:0:
181,226,200485,6,0,B|229:233|261:209|261:209|296:235|343:229,1,170,6|2,3:2|0:0,0:0:0:0:
422,201,201385,1,0,3:0:0:0:
484,143,201685,2,0,P|495:83|467:19,2,127.5,0|0|8,3:0|3:0|0:0,0:0:0:0:
422,201,202885,6,0,P|425:243|431:298,2,85,2|2|2,3:2|0:0|0:0,0:0:0:0:
362,139,203785,1,0,3:0:0:0:
284,174,204085,2,0,B|243:195|201:191|201:191|188:174|163:158,2,127.5,0|0|8,3:0|3:0|0:0,0:0:0:0:
362,139,205285,6,0,B|395:184|395:184|367:298,1,170,6|0,3:2|0:0,0:0:0:0:
338,374,206185,1,0,3:0:0:0:
257,345,206485,2,0,P|207:335|167:344,1,85,0|2,3:0|0:0,0:0:0:0:
92,367,207085,1,2,0:0:0:0:
46,295,207385,1,8,0:0:0:0:
103,232,207685,6,0,B|136:187|136:187|108:76,1,170,6|0,3:2|0:0,0:0:0:0:
167,14,208585,1,0,3:0:0:0:
250,32,208885,2,0,P|294:22|344:28,2,85,0|2|2,3:0|0:0|0:0,0:0:0:0:
207,105,209785,1,8,0:0:0:0:
251,177,210085,6,0,B|293:203|331:187|331:187|356:151|403:144,1,170,6|2,3:2|0:0,0:0:0:0:
484,167,210985,1,0,3:0:0:0:
508,247,211285,2,0,P|503:291|498:336,1,85,0|2,3:0|0:0,0:0:0:0:
424,374,211885,1,2,0:0:0:0:
339,374,212185,1,8,0:0:0:0:
288,305,212485,6,0,P|202:312|109:320,1,170,2|2,3:2|0:0,0:0:0:0:
45,274,213385,1,0,3:0:0:0:
91,202,213685,2,0,P|103:161|92:113,1,85,0|2,3:0|0:0,0:0:0:0:
171,82,214285,2,0,P|212:94|260:83,1,85,2|8,0:0|0:0,0:0:0:0:
336,69,214885,6,0,P|338:111|343:167,2,85,6|2|2,3:2|0:0|0:0,0:0:0:0:
402,16,215785,1,0,3:0:0:0:
473,61,216085,2,0,P|484:104|473:157,1,85,0|2,3:0|0:0,0:0:0:0:
427,211,216685,2,0,P|416:254|427:307,1,85,2|8,0:0|0:0,0:0:0:0:
475,359,217285,6,0,P|403:328|306:346,1,170,6|2,3:2|0:0,0:0:0:0:
238,380,218185,1,0,3:0:0:0:
157,353,218485,2,0,P|153:314|149:266,1,85,0|2,3:0|0:0,0:0:0:0:
89,208,219085,2,0,P|93:169|97:121,1,85,2|8,0:0|0:0,0:0:0:0:
106,38,219685,6,0,P|66:28|15:39,2,85,6|2|2,3:2|0:0|0:0,0:0:0:0:
176,86,220585,1,0,3:0:0:0:
214,162,220885,2,0,P|204:202|215:253,1,85,0|2,3:0|0:0,0:0:0:0:
251,319,221485,2,0,P|291:329|342:318,1,85,2|8,0:0|0:0,0:0:0:0:
383,252,222085,6,0,P|441:257|509:263,2,127.5,2|0|0,3:2|3:0|3:0,0:0:0:0:
330,184,223285,2,0,P|323:142|335:98,1,85,0|2,3:0|0:0,0:0:0:0:
287,29,223885,2,0,P|245:22|201:34,1,85,2|8,0:0|0:0,0:0:0:0:
126,65,224485,6,0,P|82:60|32:55,2,85,6|2|2,3:2|0:0|0:0,0:0:0:0:
191,119,225385,1,0,3:0:0:0:
131,179,225685,2,0,P|118:246|128:276,1,85,0|2,3:0|0:0,0:0:0:0:
164,334,226285,2,0,P|231:347|261:337,1,85,2|8,0:0|0:0,0:0:0:0:
312,290,226885,6,0,B|362:297|362:297|385:316|385:316|450:326,2,127.5,6|0|0,3:2|3:0|3:0,0:0:0:0:
242,240,228085,2,0,P|230:199|239:154,1,85,0|2,3:0|0:0,0:0:0:0:
269,78,228685,1,2,0:0:0:0:
351,58,228985,1,8,0:0:0:0:
423,101,229285,6,0,P|465:96|507:92,2,85,6|2|2,3:2|0:0|0:0,0:0:0:0:
356,154,230185,1,0,3:0:0:0:
292,210,230485,2,0,P|249:205|207:201,1,85,0|2,3:0|0:0,0:0:0:0:
138,151,231085,2,0,P|95:155|53:159,1,85,2|8,0:0|0:0,0:0:0:0:
3,228,231685,6,0,P|42:317|117:339,1,170,2|2,3:2|0:0,0:0:0:0:
191,335,232585,1,0,3:0:0:0:
264,292,232885,2,0,P|261:251|258:202,1,85,0|2,3:0|0:0,0:0:0:0:
322,151,233485,2,0,P|325:110|328:61,1,85,2|8,0:0|0:0,0:0:0:0:
396,15,234085,5,6,3:2:0:0:
