osu file format v14

[General]
AudioFilename: audio.mp3
AudioLeadIn: 0
PreviewTime: -1
Countdown: 0
SampleSet: Soft
StackLeniency: 0.7
Mode: 3
LetterboxInBreaks: 0
SpecialStyle: 0
WidescreenStoryboard: 0

[Editor]
Bookmarks: 7064,20037,28685,33010,37319,39481,54616,69767,71914,89257,106554,123856,132500,149802,167095,184397,201708,219005,236302,253600
DistanceSpacing: 0.9
BeatDivisor: 3
GridSize: 32
TimelineZoom: 2.3

[Metadata]
Title:Unknown Mother-Goose
TitleUnicode:アンノウンマザーグース
Artist:Fantastic Youth
ArtistUnicode:Fantastic Youth
Creator:Div
Version:goose goes quack
Source:
Tags:
BeatmapID:2048937
BeatmapSetID:979065

[Difficulty]
HPDrainRate:8
CircleSize:4
OverallDifficulty:8
ApproachRate:5
SliderMultiplier:1.7
SliderTickRate:1

[Events]
//Background and Video events
0,0,"bg.png",0,0
//Break Periods
//Storyboard Layer 0 (Background)
//Storyboard Layer 1 (Fail)
//Storyboard Layer 2 (Pass)
//Storyboard Layer 3 (Foreground)
//Storyboard Sound Samples

[TimingPoints]
2740,270.27027027027,4,2,0,31,1,0
71960,270.27027027027,4,2,0,31,1,0
184411,270.27027027027,4,2,0,31,1,0

[HitObjects]
320,192,2334,5,0,0:0:0:0:
320,192,2469,1,0,0:0:0:0:
192,192,2604,1,0,0:0:0:0:
64,192,2740,1,0,0:0:0:0:
448,192,2740,1,0,0:0:0:0:
320,192,2740,1,0,0:0:0:0:
64,192,3010,1,0,0:0:0:0:
192,192,3010,1,0,0:0:0:0:
64,192,3145,1,0,0:0:0:0:
448,192,3145,1,0,0:0:0:0:
320,192,3415,1,0,0:0:0:0:
448,192,3415,1,0,0:0:0:0:
448,192,3550,1,0,0:0:0:0:
64,192,3550,1,0,0:0:0:0:
64,192,3685,1,0,0:0:0:0:
192,192,3821,1,0,0:0:0:0:
320,192,3821,1,0,0:0:0:0:
320,192,3956,1,0,0:0:0:0:
64,192,4091,1,0,0:0:0:0:
448,192,4091,1,0,0:0:0:0:
192,192,4226,1,0,0:0:0:0:
64,192,4226,1,0,0:0:0:0:
448,192,4496,1,0,0:0:0:0:
320,192,4496,1,0,0:0:0:0:
64,192,4631,1,0,0:0:0:0:
320,192,4631,1,0,0:0:0:0:
192,192,4767,1,0,0:0:0:0:
64,192,4902,1,0,0:0:0:0:
448,192,4902,1,0,0:0:0:0:
320,192,5037,1,0,0:0:0:0:
192,192,5172,1,0,0:0:0:0:
448,192,5172,1,0,0:0:0:0:
192,192,5307,1,0,0:0:0:0:
64,192,5307,1,0,0:0:0:0:
320,192,5442,1,0,0:0:0:0:
64,192,5577,1,0,0:0:0:0:
448,192,5577,1,0,0:0:0:0:
448,192,5712,1,0,0:0:0:0:
192,192,5712,1,0,0:0:0:0:
320,192,5848,1,0,0:0:0:0:
192,192,5983,1,0,0:0:0:0:
64,192,5983,1,0,0:0:0:0:
64,192,6118,1,0,0:0:0:0:
192,192,6253,1,0,0:0:0:0:
448,192,6253,1,0,0:0:0:0:
320,192,6388,1,0,0:0:0:0:
64,192,6523,1,0,0:0:0:0:
448,192,6523,1,0,0:0:0:0:
64,192,6658,1,0,0:0:0:0:
448,192,6658,1,0,0:0:0:0:
192,192,6794,1,0,0:0:0:0:
320,192,6794,1,0,0:0:0:0:
64,192,6929,1,0,0:0:0:0:
320,192,7064,1,0,0:0:0:0:
448,192,7064,1,0,0:0:0:0:
320,192,7199,1,0,0:0:0:0:
64,192,7334,1,0,0:0:0:0:
448,192,7334,1,0,0:0:0:0:
64,192,7469,1,0,0:0:0:0:
192,192,7469,1,0,0:0:0:0:
192,192,7739,1,0,0:0:0:0:
64,192,7739,1,0,0:0:0:0:
192,192,7875,1,0,0:0:0:0:
448,192,7875,1,0,0:0:0:0:
448,192,8010,1,0,0:0:0:0:
64,192,8145,1,0,0:0:0:0:
192,192,8145,1,0,0:0:0:0:
64,192,8280,1,0,0:0:0:0:
448,192,8415,1,0,0:0:0:0:
192,192,8415,1,0,0:0:0:0:
320,192,8550,1,0,0:0:0:0:
448,192,8550,1,0,0:0:0:0:
64,192,8821,1,0,0:0:0:0:
192,192,8821,1,0,0:0:0:0:
448,192,8956,1,0,0:0:0:0:
192,192,8956,1,0,0:0:0:0:
320,192,9091,1,0,0:0:0:0:
448,192,9226,1,0,0:0:0:0:
64,192,9226,1,0,0:0:0:0:
192,192,9361,1,0,0:0:0:0:
320,192,9496,1,0,0:0:0:0:
64,192,9496,1,0,0:0:0:0:
320,192,9631,1,0,0:0:0:0:
448,192,9631,1,0,0:0:0:0:
192,192,9767,1,0,0:0:0:0:
448,192,9902,1,0,0:0:0:0:
64,192,9902,1,0,0:0:0:0:
64,192,10037,1,0,0:0:0:0:
320,192,10037,1,0,0:0:0:0:
192,192,10172,1,0,0:0:0:0:
320,192,10307,1,0,0:0:0:0:
448,192,10307,1,0,0:0:0:0:
448,192,10442,1,0,0:0:0:0:
320,192,10577,1,0,0:0:0:0:
64,192,10577,1,0,0:0:0:0:
192,192,10712,1,0,0:0:0:0:
448,192,10848,1,0,0:0:0:0:
64,192,10848,1,0,0:0:0:0:
448,192,10983,1,0,0:0:0:0:
64,192,10983,1,0,0:0:0:0:
320,192,11118,1,0,0:0:0:0:
192,192,11118,1,0,0:0:0:0:
320,192,11253,1,0,0:0:0:0:
192,192,11388,1,0,0:0:0:0:
64,192,11388,1,0,0:0:0:0:
448,192,11388,1,0,0:0:0:0:
448,192,11658,1,0,0:0:0:0:
320,192,11658,1,0,0:0:0:0:
448,192,11794,1,0,0:0:0:0:
64,192,11794,1,0,0:0:0:0:
192,192,12064,1,0,0:0:0:0:
64,192,12064,1,0,0:0:0:0:
64,192,12199,1,0,0:0:0:0:
448,192,12199,1,0,0:0:0:0:
448,192,12334,1,0,0:0:0:0:
320,192,12469,1,0,0:0:0:0:
192,192,12469,1,0,0:0:0:0:
192,192,12604,1,0,0:0:0:0:
448,192,12739,1,0,0:0:0:0:
64,192,12739,1,0,0:0:0:0:
320,192,12875,1,0,0:0:0:0:
448,192,12875,1,0,0:0:0:0:
64,192,13145,1,0,0:0:0:0:
192,192,13145,1,0,0:0:0:0:
448,192,13280,1,0,0:0:0:0:
192,192,13280,1,0,0:0:0:0:
320,192,13415,1,0,0:0:0:0:
448,192,13550,1,0,0:0:0:0:
64,192,13550,1,0,0:0:0:0:
192,192,13685,1,0,0:0:0:0:
320,192,13821,1,0,0:0:0:0:
64,192,13821,1,0,0:0:0:0:
320,192,13956,1,0,0:0:0:0:
448,192,13956,1,0,0:0:0:0:
192,192,14091,1,0,0:0:0:0:
448,192,14226,1,0,0:0:0:0:
64,192,14226,1,0,0:0:0:0:
64,192,14361,1,0,0:0:0:0:
320,192,14361,1,0,0:0:0:0:
192,192,14496,1,0,0:0:0:0:
320,192,14631,1,0,0:0:0:0:
448,192,14631,1,0,0:0:0:0:
448,192,14767,1,0,0:0:0:0:
320,192,14902,1,0,0:0:0:0:
64,192,14902,1,0,0:0:0:0:
192,192,15037,1,0,0:0:0:0:
448,192,15172,1,0,0:0:0:0:
64,192,15172,1,0,0:0:0:0:
448,192,15307,1,0,0:0:0:0:
64,192,15307,1,0,0:0:0:0:
320,192,15442,1,0,0:0:0:0:
192,192,15442,1,0,0:0:0:0:
448,192,15577,1,0,0:0:0:0:
192,192,15712,1,0,0:0:0:0:
64,192,15712,1,0,0:0:0:0:
192,192,15848,1,0,0:0:0:0:
448,192,15983,1,0,0:0:0:0:
64,192,15983,1,0,0:0:0:0:
448,192,16118,1,0,0:0:0:0:
320,192,16118,1,0,0:0:0:0:
320,192,16388,1,0,0:0:0:0:
448,192,16388,1,0,0:0:0:0:
320,192,16523,1,0,0:0:0:0:
64,192,16523,1,0,0:0:0:0:
64,192,16658,1,0,0:0:0:0:
448,192,16794,1,0,0:0:0:0:
320,192,16794,1,0,0:0:0:0:
448,192,16929,1,0,0:0:0:0:
64,192,17064,1,0,0:0:0:0:
320,192,17064,1,0,0:0:0:0:
192,192,17199,1,0,0:0:0:0:
64,192,17199,1,0,0:0:0:0:
448,192,17469,1,0,0:0:0:0:
320,192,17469,1,0,0:0:0:0:
64,192,17604,1,0,0:0:0:0:
320,192,17604,1,0,0:0:0:0:
192,192,17739,1,0,0:0:0:0:
64,192,17875,1,0,0:0:0:0:
448,192,17875,1,0,0:0:0:0:
320,192,18010,1,0,0:0:0:0:
192,192,18145,1,0,0:0:0:0:
448,192,18145,1,0,0:0:0:0:
192,192,18280,1,0,0:0:0:0:
64,192,18280,1,0,0:0:0:0:
320,192,18415,1,0,0:0:0:0:
64,192,18550,1,0,0:0:0:0:
448,192,18550,1,0,0:0:0:0:
448,192,18685,1,0,0:0:0:0:
192,192,18685,1,0,0:0:0:0:
320,192,18821,1,0,0:0:0:0:
192,192,18956,1,0,0:0:0:0:
64,192,18956,1,0,0:0:0:0:
448,192,19023,1,0,0:0:0:0:
320,192,19091,1,0,0:0:0:0:
192,192,19158,1,0,0:0:0:0:
64,192,19226,1,0,0:0:0:0:
320,192,19294,1,0,0:0:0:0:
448,192,19361,1,0,0:0:0:0:
64,192,19429,1,0,0:0:0:0:
192,192,19496,1,0,0:0:0:0:
320,192,19564,1,0,0:0:0:0:
448,192,19631,1,0,0:0:0:0:
64,192,19699,1,0,0:0:0:0:
192,192,19767,1,0,0:0:0:0:
448,192,19834,1,0,0:0:0:0:
320,192,19902,1,0,0:0:0:0:
192,192,19969,1,0,0:0:0:0:
64,192,20037,1,0,0:0:0:0:
448,192,20037,1,0,0:0:0:0:
64,192,20307,1,0,0:0:0:0:
448,192,20307,1,0,0:0:0:0:
320,192,20442,1,0,0:0:0:0:
64,192,20442,1,0,0:0:0:0:
64,192,20712,1,0,0:0:0:0:
320,192,20712,1,0,0:0:0:0:
320,192,20848,1,0,0:0:0:0:
448,192,20848,1,0,0:0:0:0:
448,192,20983,1,0,0:0:0:0:
192,192,21118,1,0,0:0:0:0:
64,192,21118,1,0,0:0:0:0:
64,192,21253,1,0,0:0:0:0:
448,192,21253,1,0,0:0:0:0:
320,192,21388,1,0,0:0:0:0:
64,192,21658,1,0,0:0:0:0:
192,192,21658,1,0,0:0:0:0:
192,192,21794,1,0,0:0:0:0:
64,192,21929,1,0,0:0:0:0:
448,192,21929,1,0,0:0:0:0:
448,192,22064,1,0,0:0:0:0:
320,192,22199,1,0,0:0:0:0:
64,192,22199,1,0,0:0:0:0:
320,192,22469,1,0,0:0:0:0:
448,192,22469,1,0,0:0:0:0:
64,192,22604,1,0,0:0:0:0:
320,192,22604,1,0,0:0:0:0:
64,192,22739,1,0,0:0:0:0:
192,192,22875,1,0,0:0:0:0:
448,192,22875,1,0,0:0:0:0:
64,192,23010,1,0,0:0:0:0:
448,192,23010,1,0,0:0:0:0:
320,192,23145,1,0,0:0:0:0:
64,192,23280,1,0,0:0:0:0:
192,192,23415,1,0,0:0:0:0:
64,192,23415,1,0,0:0:0:0:
448,192,23550,1,0,0:0:0:0:
192,192,23550,1,0,0:0:0:0:
64,192,23821,1,0,0:0:0:0:
448,192,23821,1,0,0:0:0:0:
192,192,24091,1,0,0:0:0:0:
320,192,24091,1,0,0:0:0:0:
64,192,24361,1,0,0:0:0:0:
448,192,24361,1,0,0:0:0:0:
192,192,24631,1,0,0:0:0:0:
64,192,24631,1,0,0:0:0:0:
192,192,24767,1,0,0:0:0:0:
448,192,24767,1,0,0:0:0:0:
448,192,24902,1,0,0:0:0:0:
320,192,25037,1,0,0:0:0:0:
64,192,25037,1,0,0:0:0:0:
64,192,25172,1,0,0:0:0:0:
448,192,25172,1,0,0:0:0:0:
192,192,25307,1,0,0:0:0:0:
320,192,25442,1,0,0:0:0:0:
64,192,25577,1,0,0:0:0:0:
448,192,25577,1,0,0:0:0:0:
64,192,25712,1,0,0:0:0:0:
192,192,25712,1,0,0:0:0:0:
448,192,25848,1,0,0:0:0:0:
320,192,25983,1,0,0:0:0:0:
64,192,25983,1,0,0:0:0:0:
192,192,26253,1,0,0:0:0:0:
448,192,26253,1,0,0:0:0:0:
64,192,26523,1,0,0:0:0:0:
320,192,26523,1,0,0:0:0:0:
64,192,26794,1,0,0:0:0:0:
448,192,26794,1,0,0:0:0:0:
320,192,26929,1,0,0:0:0:0:
448,192,26929,1,0,0:0:0:0:
192,192,27064,1,0,0:0:0:0:
64,192,27064,1,0,0:0:0:0:
64,192,27199,1,0,0:0:0:0:
192,192,27199,1,0,0:0:0:0:
448,192,27334,1,0,0:0:0:0:
64,192,27334,1,0,0:0:0:0:
320,192,27469,1,0,0:0:0:0:
320,192,27604,1,0,0:0:0:0:
64,192,27739,1,0,0:0:0:0:
448,192,27739,1,0,0:0:0:0:
192,192,27875,1,0,0:0:0:0:
64,192,27875,1,0,0:0:0:0:
192,192,28010,1,0,0:0:0:0:
320,192,28145,1,0,0:0:0:0:
448,192,28145,1,0,0:0:0:0:
64,192,28415,1,0,0:0:0:0:
448,192,28415,1,0,0:0:0:0:
64,192,28685,1,0,0:0:0:0:
448,192,28685,1,0,0:0:0:0:
320,192,28776,1,0,0:0:0:0:
192,192,28866,1,0,0:0:0:0:
64,192,28956,1,0,0:0:0:0:
448,192,28956,1,0,0:0:0:0:
320,192,29046,1,0,0:0:0:0:
192,192,29136,1,0,0:0:0:0:
448,192,29226,1,0,0:0:0:0:
64,192,29226,1,0,0:0:0:0:
192,192,29316,1,0,0:0:0:0:
320,192,29406,1,0,0:0:0:0:
64,192,29496,1,0,0:0:0:0:
448,192,29496,1,0,0:0:0:0:
448,192,29767,1,0,0:0:0:0:
64,192,29767,1,0,0:0:0:0:
192,192,29857,1,0,0:0:0:0:
320,192,29947,1,0,0:0:0:0:
448,192,30037,1,0,0:0:0:0:
64,192,30037,1,0,0:0:0:0:
192,192,30127,1,0,0:0:0:0:
320,192,30217,1,0,0:0:0:0:
64,192,30307,1,0,0:0:0:0:
448,192,30307,1,0,0:0:0:0:
320,192,30397,1,0,0:0:0:0:
192,192,30487,1,0,0:0:0:0:
64,192,30577,1,0,0:0:0:0:
448,192,30577,1,0,0:0:0:0:
64,192,30848,1,0,0:0:0:0:
448,192,30848,1,0,0:0:0:0:
320,192,31028,1,0,0:0:0:0:
192,192,31118,1,0,0:0:0:0:
64,192,31118,1,0,0:0:0:0:
448,192,31208,1,0,0:0:0:0:
320,192,31298,1,0,0:0:0:0:
448,192,31388,1,0,0:0:0:0:
64,192,31388,1,0,0:0:0:0:
192,192,31478,1,0,0:0:0:0:
320,192,31568,1,0,0:0:0:0:
448,192,31658,1,0,0:0:0:0:
64,192,31658,1,0,0:0:0:0:
192,192,31749,1,0,0:0:0:0:
64,192,31839,1,0,0:0:0:0:
320,192,31929,1,0,0:0:0:0:
448,192,31929,1,0,0:0:0:0:
192,192,32019,1,0,0:0:0:0:
64,192,32109,1,0,0:0:0:0:
448,192,32199,1,0,0:0:0:0:
320,192,32199,1,0,0:0:0:0:
192,192,32289,1,0,0:0:0:0:
320,192,32379,1,0,0:0:0:0:
448,192,32469,1,0,0:0:0:0:
64,192,32469,1,0,0:0:0:0:
192,192,32559,1,0,0:0:0:0:
320,192,32649,1,0,0:0:0:0:
64,192,32739,1,0,0:0:0:0:
448,192,32739,1,0,0:0:0:0:
64,192,33010,1,0,0:0:0:0:
448,192,33010,1,0,0:0:0:0:
192,192,33280,1,0,0:0:0:0:
64,192,33280,1,0,0:0:0:0:
64,192,33415,1,0,0:0:0:0:
320,192,33415,1,0,0:0:0:0:
320,192,33550,1,0,0:0:0:0:
448,192,33550,1,0,0:0:0:0:
64,192,33821,1,0,0:0:0:0:
448,192,33821,1,0,0:0:0:0:
448,192,33956,1,0,0:0:0:0:
320,192,34091,1,0,0:0:0:0:
192,192,34091,1,0,0:0:0:0:
192,192,34226,1,0,0:0:0:0:
64,192,34226,1,0,0:0:0:0:
64,192,34361,1,0,0:0:0:0:
448,192,34361,1,0,0:0:0:0:
320,192,34496,1,0,0:0:0:0:
64,192,34631,1,0,0:0:0:0:
192,192,34631,1,0,0:0:0:0:
448,192,34767,1,0,0:0:0:0:
448,192,34902,1,0,0:0:0:0:
64,192,34902,1,0,0:0:0:0:
192,192,35172,1,0,0:0:0:0:
320,192,35172,1,0,0:0:0:0:
64,192,35442,1,0,0:0:0:0:
448,192,35442,1,0,0:0:0:0:
192,192,35577,1,0,0:0:0:0:
64,192,35577,1,0,0:0:0:0:
320,192,35712,1,0,0:0:0:0:
64,192,35848,1,0,0:0:0:0:
448,192,35848,1,0,0:0:0:0:
448,192,35983,1,0,0:0:0:0:
192,192,35983,1,0,0:0:0:0:
192,192,36118,1,0,0:0:0:0:
320,192,36253,1,0,0:0:0:0:
320,192,36388,1,0,0:0:0:0:
64,192,36388,1,0,0:0:0:0:
192,192,36523,1,0,0:0:0:0:
448,192,36523,1,0,0:0:0:0:
64,192,36658,1,0,0:0:0:0:
320,192,36794,1,0,0:0:0:0:
448,192,36794,1,0,0:0:0:0:
192,192,36929,1,0,0:0:0:0:
192,192,37064,1,0,0:0:0:0:
320,192,37199,1,0,0:0:0:0:
64,192,37334,1,0,0:0:0:0:
448,192,37334,1,0,0:0:0:0:
192,192,37334,1,0,0:0:0:0:
64,192,39496,1,0,0:0:0:0:
448,192,39496,1,0,0:0:0:0:
320,192,39496,1,0,0:0:0:0:
320,192,39631,1,0,0:0:0:0:
64,192,39767,1,0,0:0:0:0:
192,192,39767,1,0,0:0:0:0:
64,192,39902,1,0,0:0:0:0:
448,192,39902,1,0,0:0:0:0:
192,192,40037,1,0,0:0:0:0:
320,192,40172,1,0,0:0:0:0:
448,192,40172,1,0,0:0:0:0:
320,192,40307,1,0,0:0:0:0:
64,192,40307,1,0,0:0:0:0:
192,192,40442,1,0,0:0:0:0:
64,192,40577,1,0,0:0:0:0:
448,192,40577,1,0,0:0:0:0:
448,192,40712,1,0,0:0:0:0:
192,192,40848,1,0,0:0:0:0:
64,192,40848,1,0,0:0:0:0:
320,192,40983,1,0,0:0:0:0:
64,192,41118,1,0,0:0:0:0:
448,192,41118,1,0,0:0:0:0:
448,192,41253,1,0,0:0:0:0:
64,192,41253,1,0,0:0:0:0:
192,192,41388,1,0,0:0:0:0:
320,192,41388,1,0,0:0:0:0:
448,192,41523,1,0,0:0:0:0:
192,192,41658,1,0,0:0:0:0:
64,192,41658,1,0,0:0:0:0:
192,192,41794,1,0,0:0:0:0:
320,192,41929,1,0,0:0:0:0:
448,192,41929,1,0,0:0:0:0:
448,192,42064,1,0,0:0:0:0:
64,192,42064,1,0,0:0:0:0:
64,192,42334,1,0,0:0:0:0:
448,192,42334,1,0,0:0:0:0:
64,192,42469,1,0,0:0:0:0:
192,192,42469,1,0,0:0:0:0:
448,192,42604,1,0,0:0:0:0:
320,192,42739,1,0,0:0:0:0:
64,192,42739,1,0,0:0:0:0:
320,192,42875,1,0,0:0:0:0:
192,192,43010,1,0,0:0:0:0:
64,192,43010,1,0,0:0:0:0:
448,192,43145,1,0,0:0:0:0:
320,192,43280,1,0,0:0:0:0:
192,192,43280,1,0,0:0:0:0:
320,192,43415,1,0,0:0:0:0:
192,192,43415,1,0,0:0:0:0:
64,192,43550,1,0,0:0:0:0:
448,192,43550,1,0,0:0:0:0:
192,192,43685,1,0,0:0:0:0:
320,192,43821,1,0,0:0:0:0:
448,192,43821,1,0,0:0:0:0:
64,192,43956,1,0,0:0:0:0:
320,192,44091,1,0,0:0:0:0:
448,192,44091,1,0,0:0:0:0:
64,192,44226,1,0,0:0:0:0:
320,192,44226,1,0,0:0:0:0:
64,192,44496,1,0,0:0:0:0:
320,192,44496,1,0,0:0:0:0:
64,192,44631,1,0,0:0:0:0:
448,192,44631,1,0,0:0:0:0:
192,192,44767,1,0,0:0:0:0:
320,192,44902,1,0,0:0:0:0:
448,192,44902,1,0,0:0:0:0:
448,192,45037,1,0,0:0:0:0:
320,192,45172,1,0,0:0:0:0:
64,192,45172,1,0,0:0:0:0:
64,192,45307,1,0,0:0:0:0:
320,192,45442,1,0,0:0:0:0:
448,192,45442,1,0,0:0:0:0:
448,192,45577,1,0,0:0:0:0:
192,192,45577,1,0,0:0:0:0:
64,192,45712,1,0,0:0:0:0:
320,192,45712,1,0,0:0:0:0:
192,192,45848,1,0,0:0:0:0:
64,192,45848,1,0,0:0:0:0:
192,192,45983,1,0,0:0:0:0:
320,192,45983,1,0,0:0:0:0:
448,192,45983,1,0,0:0:0:0:
448,192,46118,1,0,0:0:0:0:
320,192,46253,1,0,0:0:0:0:
64,192,46253,1,0,0:0:0:0:
192,192,46388,1,0,0:0:0:0:
64,192,46388,1,0,0:0:0:0:
448,192,46523,1,0,0:0:0:0:
64,192,46658,1,0,0:0:0:0:
320,192,46658,1,0,0:0:0:0:
320,192,46794,1,0,0:0:0:0:
192,192,46794,1,0,0:0:0:0:
448,192,46929,1,0,0:0:0:0:
192,192,47064,1,0,0:0:0:0:
64,192,47064,1,0,0:0:0:0:
64,192,47199,1,0,0:0:0:0:
192,192,47334,1,0,0:0:0:0:
448,192,47334,1,0,0:0:0:0:
64,192,47469,1,0,0:0:0:0:
320,192,47604,1,0,0:0:0:0:
448,192,47604,1,0,0:0:0:0:
320,192,47739,1,0,0:0:0:0:
448,192,47739,1,0,0:0:0:0:
64,192,47875,1,0,0:0:0:0:
320,192,47875,1,0,0:0:0:0:
192,192,48010,1,0,0:0:0:0:
64,192,48145,1,0,0:0:0:0:
448,192,48145,1,0,0:0:0:0:
448,192,48280,1,0,0:0:0:0:
192,192,48415,1,0,0:0:0:0:
64,192,48415,1,0,0:0:0:0:
64,192,48550,1,0,0:0:0:0:
448,192,48550,1,0,0:0:0:0:
320,192,48685,1,0,0:0:0:0:
192,192,48821,1,0,0:0:0:0:
64,192,48821,1,0,0:0:0:0:
192,192,48956,1,0,0:0:0:0:
448,192,48956,1,0,0:0:0:0:
448,192,49091,1,0,0:0:0:0:
320,192,49226,1,0,0:0:0:0:
64,192,49226,1,0,0:0:0:0:
64,192,49361,1,0,0:0:0:0:
192,192,49496,1,0,0:0:0:0:
448,192,49496,1,0,0:0:0:0:
320,192,49631,1,0,0:0:0:0:
192,192,49767,1,0,0:0:0:0:
64,192,49767,1,0,0:0:0:0:
64,192,49902,1,0,0:0:0:0:
320,192,49902,1,0,0:0:0:0:
192,192,50037,1,0,0:0:0:0:
448,192,50037,1,0,0:0:0:0:
320,192,50172,1,0,0:0:0:0:
448,192,50172,1,0,0:0:0:0:
192,192,50307,1,0,0:0:0:0:
64,192,50307,1,0,0:0:0:0:
192,192,50442,1,0,0:0:0:0:
64,192,50577,1,0,0:0:0:0:
448,192,50577,1,0,0:0:0:0:
320,192,50712,1,0,0:0:0:0:
448,192,50712,1,0,0:0:0:0:
320,192,50983,1,0,0:0:0:0:
448,192,50983,1,0,0:0:0:0:
320,192,51118,1,0,0:0:0:0:
64,192,51118,1,0,0:0:0:0:
192,192,51253,1,0,0:0:0:0:
64,192,51388,1,0,0:0:0:0:
448,192,51388,1,0,0:0:0:0:
320,192,51523,1,0,0:0:0:0:
192,192,51658,1,0,0:0:0:0:
64,192,51658,1,0,0:0:0:0:
448,192,51794,1,0,0:0:0:0:
320,192,51929,1,0,0:0:0:0:
64,192,51929,1,0,0:0:0:0:
64,192,52064,1,0,0:0:0:0:
320,192,52064,1,0,0:0:0:0:
448,192,52199,1,0,0:0:0:0:
192,192,52199,1,0,0:0:0:0:
64,192,52334,1,0,0:0:0:0:
320,192,52469,1,0,0:0:0:0:
448,192,52469,1,0,0:0:0:0:
192,192,52604,1,0,0:0:0:0:
64,192,52739,1,0,0:0:0:0:
448,192,52739,1,0,0:0:0:0:
320,192,52875,1,0,0:0:0:0:
64,192,52875,1,0,0:0:0:0:
192,192,53010,1,0,0:0:0:0:
320,192,53145,1,0,0:0:0:0:
448,192,53145,1,0,0:0:0:0:
448,192,53280,1,0,0:0:0:0:
64,192,53280,1,0,0:0:0:0:
192,192,53415,1,0,0:0:0:0:
320,192,53415,1,0,0:0:0:0:
64,192,53550,1,0,0:0:0:0:
448,192,53550,1,0,0:0:0:0:
192,192,53730,1,0,0:0:0:0:
64,192,53730,1,0,0:0:0:0:
448,192,53911,1,0,0:0:0:0:
320,192,53911,1,0,0:0:0:0:
320,192,54091,1,0,0:0:0:0:
64,192,54091,1,0,0:0:0:0:
64,192,54271,1,0,0:0:0:0:
448,192,54271,1,0,0:0:0:0:
192,192,54271,1,0,0:0:0:0:
64,192,54631,1,0,0:0:0:0:
448,192,54631,1,0,0:0:0:0:
320,192,54699,1,0,0:0:0:0:
192,192,54767,1,0,0:0:0:0:
64,192,54834,1,0,0:0:0:0:
320,192,54902,1,0,0:0:0:0:
448,192,54969,1,0,0:0:0:0:
64,192,55037,1,0,0:0:0:0:
192,192,55104,1,0,0:0:0:0:
320,192,55172,1,0,0:0:0:0:
448,192,55239,1,0,0:0:0:0:
192,192,55307,1,0,0:0:0:0:
64,192,55375,1,0,0:0:0:0:
448,192,55442,1,0,0:0:0:0:
320,192,55510,1,0,0:0:0:0:
64,192,55577,1,0,0:0:0:0:
192,192,55645,1,0,0:0:0:0:
320,192,55712,1,0,0:0:0:0:
448,192,55712,1,0,0:0:0:0:
64,192,55780,1,0,0:0:0:0:
192,192,55848,1,0,0:0:0:0:
320,192,55915,1,0,0:0:0:0:
448,192,55983,1,0,0:0:0:0:
192,192,56050,1,0,0:0:0:0:
64,192,56118,1,0,0:0:0:0:
448,192,56185,1,0,0:0:0:0:
320,192,56253,1,0,0:0:0:0:
192,192,56321,1,0,0:0:0:0:
64,192,56388,1,0,0:0:0:0:
320,192,56456,1,0,0:0:0:0:
448,192,56523,1,0,0:0:0:0:
64,192,56591,1,0,0:0:0:0:
192,192,56658,1,0,0:0:0:0:
320,192,56726,1,0,0:0:0:0:
64,192,56794,1,0,0:0:0:0:
448,192,56794,1,0,0:0:0:0:
192,192,56861,1,0,0:0:0:0:
448,192,56929,1,0,0:0:0:0:
320,192,56996,1,0,0:0:0:0:
192,192,57064,1,0,0:0:0:0:
64,192,57131,1,0,0:0:0:0:
320,192,57199,1,0,0:0:0:0:
448,192,57267,1,0,0:0:0:0:
64,192,57334,1,0,0:0:0:0:
192,192,57402,1,0,0:0:0:0:
320,192,57469,1,0,0:0:0:0:
448,192,57537,1,0,0:0:0:0:
64,192,57604,1,0,0:0:0:0:
192,192,57672,1,0,0:0:0:0:
448,192,57739,1,0,0:0:0:0:
320,192,57807,1,0,0:0:0:0:
192,192,57875,1,0,0:0:0:0:
64,192,57875,1,0,0:0:0:0:
448,192,57942,1,0,0:0:0:0:
64,192,58010,1,0,0:0:0:0:
192,192,58077,1,0,0:0:0:0:
448,192,58145,1,0,0:0:0:0:
320,192,58212,1,0,0:0:0:0:
192,192,58280,1,0,0:0:0:0:
64,192,58348,1,0,0:0:0:0:
320,192,58415,1,0,0:0:0:0:
448,192,58483,1,0,0:0:0:0:
64,192,58550,1,0,0:0:0:0:
192,192,58618,1,0,0:0:0:0:
320,192,58685,1,0,0:0:0:0:
448,192,58753,1,0,0:0:0:0:
192,192,58821,1,0,0:0:0:0:
64,192,58888,1,0,0:0:0:0:
448,192,58956,1,0,0:0:0:0:
320,192,58956,1,0,0:0:0:0:
64,192,59023,1,0,0:0:0:0:
192,192,59091,1,0,0:0:0:0:
320,192,59158,1,0,0:0:0:0:
448,192,59226,1,0,0:0:0:0:
192,192,59294,1,0,0:0:0:0:
64,192,59361,1,0,0:0:0:0:
448,192,59429,1,0,0:0:0:0:
320,192,59496,1,0,0:0:0:0:
192,192,59564,1,0,0:0:0:0:
64,192,59631,1,0,0:0:0:0:
448,192,59699,1,0,0:0:0:0:
320,192,59767,1,0,0:0:0:0:
64,192,59834,1,0,0:0:0:0:
192,192,59902,1,0,0:0:0:0:
320,192,59969,1,0,0:0:0:0:
448,192,60037,1,0,0:0:0:0:
64,192,60037,1,0,0:0:0:0:
192,192,60104,1,0,0:0:0:0:
448,192,60172,1,0,0:0:0:0:
320,192,60239,1,0,0:0:0:0:
192,192,60307,1,0,0:0:0:0:
64,192,60375,1,0,0:0:0:0:
320,192,60442,1,0,0:0:0:0:
448,192,60510,1,0,0:0:0:0:
64,192,60577,1,0,0:0:0:0:
192,192,60645,1,0,0:0:0:0:
448,192,60712,1,0,0:0:0:0:
320,192,60780,1,0,0:0:0:0:
64,192,60848,1,0,0:0:0:0:
192,192,60915,1,0,0:0:0:0:
448,192,60983,1,0,0:0:0:0:
320,192,61050,1,0,0:0:0:0:
64,192,61118,1,0,0:0:0:0:
192,192,61118,1,0,0:0:0:0:
448,192,61185,1,0,0:0:0:0:
320,192,61253,1,0,0:0:0:0:
192,192,61321,1,0,0:0:0:0:
64,192,61388,1,0,0:0:0:0:
320,192,61456,1,0,0:0:0:0:
448,192,61523,1,0,0:0:0:0:
64,192,61591,1,0,0:0:0:0:
192,192,61658,1,0,0:0:0:0:
320,192,61726,1,0,0:0:0:0:
448,192,61794,1,0,0:0:0:0:
64,192,61861,1,0,0:0:0:0:
192,192,61929,1,0,0:0:0:0:
448,192,61996,1,0,0:0:0:0:
320,192,62064,1,0,0:0:0:0:
192,192,62131,1,0,0:0:0:0:
64,192,62199,1,0,0:0:0:0:
448,192,62199,1,0,0:0:0:0:
320,192,62267,1,0,0:0:0:0:
64,192,62334,1,0,0:0:0:0:
192,192,62402,1,0,0:0:0:0:
320,192,62469,1,0,0:0:0:0:
448,192,62537,1,0,0:0:0:0:
192,192,62604,1,0,0:0:0:0:
64,192,62672,1,0,0:0:0:0:
448,192,62739,1,0,0:0:0:0:
320,192,62807,1,0,0:0:0:0:
192,192,62875,1,0,0:0:0:0:
64,192,62942,1,0,0:0:0:0:
320,192,63010,1,0,0:0:0:0:
448,192,63077,1,0,0:0:0:0:
64,192,63145,1,0,0:0:0:0:
192,192,63212,1,0,0:0:0:0:
320,192,63280,1,0,0:0:0:0:
448,192,63280,1,0,0:0:0:0:
192,192,63348,1,0,0:0:0:0:
64,192,63415,1,0,0:0:0:0:
448,192,63483,1,0,0:0:0:0:
320,192,63550,1,0,0:0:0:0:
64,192,63618,1,0,0:0:0:0:
192,192,63685,1,0,0:0:0:0:
320,192,63753,1,0,0:0:0:0:
448,192,63821,1,0,0:0:0:0:
64,192,63821,1,0,0:0:0:0:
192,192,63888,1,0,0:0:0:0:
448,192,63956,1,0,0:0:0:0:
320,192,64023,1,0,0:0:0:0:
192,192,64091,1,0,0:0:0:0:
64,192,64158,1,0,0:0:0:0:
448,192,64226,1,0,0:0:0:0:
320,192,64294,1,0,0:0:0:0:
192,192,64361,1,0,0:0:0:0:
64,192,64361,1,0,0:0:0:0:
320,192,64429,1,0,0:0:0:0:
448,192,64496,1,0,0:0:0:0:
64,192,64564,1,0,0:0:0:0:
192,192,64631,1,0,0:0:0:0:
320,192,64699,1,0,0:0:0:0:
448,192,64767,1,0,0:0:0:0:
64,192,64834,1,0,0:0:0:0:
192,192,64902,1,0,0:0:0:0:
448,192,64902,1,0,0:0:0:0:
320,192,64969,1,0,0:0:0:0:
192,192,65037,1,0,0:0:0:0:
64,192,65104,1,0,0:0:0:0:
320,192,65172,1,0,0:0:0:0:
448,192,65239,1,0,0:0:0:0:
64,192,65307,1,0,0:0:0:0:
192,192,65375,1,0,0:0:0:0:
320,192,65442,1,0,0:0:0:0:
448,192,65442,1,0,0:0:0:0:
192,192,65510,1,0,0:0:0:0:
64,192,65577,1,0,0:0:0:0:
448,192,65645,1,0,0:0:0:0:
320,192,65712,1,0,0:0:0:0:
64,192,65780,1,0,0:0:0:0:
192,192,65848,1,0,0:0:0:0:
320,192,65915,1,0,0:0:0:0:
448,192,65983,1,0,0:0:0:0:
64,192,65983,1,0,0:0:0:0:
192,192,66050,1,0,0:0:0:0:
448,192,66118,1,0,0:0:0:0:
320,192,66185,1,0,0:0:0:0:
192,192,66253,1,0,0:0:0:0:
64,192,66321,1,0,0:0:0:0:
448,192,66388,1,0,0:0:0:0:
320,192,66456,1,0,0:0:0:0:
192,192,66523,1,0,0:0:0:0:
64,192,66523,1,0,0:0:0:0:
320,192,66591,1,0,0:0:0:0:
448,192,66658,1,0,0:0:0:0:
64,192,66726,1,0,0:0:0:0:
192,192,66794,1,0,0:0:0:0:
448,192,66861,1,0,0:0:0:0:
320,192,66929,1,0,0:0:0:0:
192,192,66996,1,0,0:0:0:0:
64,192,67064,1,0,0:0:0:0:
448,192,67064,1,0,0:0:0:0:
320,192,67131,1,0,0:0:0:0:
64,192,67199,1,0,0:0:0:0:
192,192,67267,1,0,0:0:0:0:
320,192,67334,1,0,0:0:0:0:
448,192,67402,1,0,0:0:0:0:
64,192,67469,1,0,0:0:0:0:
192,192,67537,1,0,0:0:0:0:
320,192,67604,1,0,0:0:0:0:
448,192,67604,1,0,0:0:0:0:
192,192,67672,1,0,0:0:0:0:
64,192,67739,1,0,0:0:0:0:
448,192,67807,1,0,0:0:0:0:
320,192,67875,1,0,0:0:0:0:
64,192,67942,1,0,0:0:0:0:
192,192,68010,1,0,0:0:0:0:
320,192,68077,1,0,0:0:0:0:
448,192,68145,1,0,0:0:0:0:
64,192,68145,1,0,0:0:0:0:
192,192,68212,1,0,0:0:0:0:
448,192,68280,1,0,0:0:0:0:
320,192,68348,1,0,0:0:0:0:
192,192,68415,1,0,0:0:0:0:
64,192,68483,1,0,0:0:0:0:
320,192,68550,1,0,0:0:0:0:
448,192,68618,1,0,0:0:0:0:
192,192,68685,1,0,0:0:0:0:
64,192,68685,1,0,0:0:0:0:
448,192,68753,1,0,0:0:0:0:
64,192,68821,1,0,0:0:0:0:
192,192,68888,1,0,0:0:0:0:
320,192,68956,1,0,0:0:0:0:
448,192,69023,1,0,0:0:0:0:
192,192,69091,1,0,0:0:0:0:
64,192,69158,1,0,0:0:0:0:
448,192,69226,1,0,0:0:0:0:
320,192,69226,1,0,0:0:0:0:
64,192,69294,1,0,0:0:0:0:
192,192,69361,1,0,0:0:0:0:
320,192,69429,1,0,0:0:0:0:
448,192,69496,1,0,0:0:0:0:
64,192,69564,1,0,0:0:0:0:
192,192,69631,1,0,0:0:0:0:
320,192,69699,1,0,0:0:0:0:
64,192,69767,1,0,0:0:0:0:
448,192,69767,1,0,0:0:0:0:
192,192,69767,1,0,0:0:0:0:
64,192,69902,1,0,0:0:0:0:
320,192,70037,1,0,0:0:0:0:
448,192,70037,1,0,0:0:0:0:
192,192,70037,1,0,0:0:0:0:
448,192,70172,1,0,0:0:0:0:
320,192,70307,1,0,0:0:0:0:
192,192,70307,1,0,0:0:0:0:
64,192,70307,1,0,0:0:0:0:
192,192,70442,1,0,0:0:0:0:
64,192,70577,1,0,0:0:0:0:
320,192,70577,1,0,0:0:0:0:
448,192,70577,1,0,0:0:0:0:
320,192,70712,1,0,0:0:0:0:
192,192,70848,1,0,0:0:0:0:
64,192,70848,1,0,0:0:0:0:
448,192,70848,1,0,0:0:0:0:
64,192,70983,1,0,0:0:0:0:
320,192,71118,1,0,0:0:0:0:
448,192,71118,1,0,0:0:0:0:
320,192,71253,1,0,0:0:0:0:
448,192,71253,1,0,0:0:0:0:
64,192,71388,1,0,0:0:0:0:
448,192,71388,1,0,0:0:0:0:
64,192,71960,1,0,0:0:0:0:
192,192,71960,1,0,0:0:0:0:
320,192,72365,1,0,0:0:0:0:
448,192,72500,1,0,0:0:0:0:
64,192,72500,1,0,0:0:0:0:
192,192,72770,1,0,0:0:0:0:
320,192,73041,1,0,0:0:0:0:
448,192,73041,1,0,0:0:0:0:
320,192,73311,1,0,0:0:0:0:
448,192,73311,1,0,0:0:0:0:
64,192,73581,1,0,0:0:0:0:
448,192,73581,1,0,0:0:0:0:
192,192,73716,1,0,0:0:0:0:
192,192,73851,1,0,0:0:0:0:
320,192,73987,1,0,0:0:0:0:
448,192,74122,1,0,0:0:0:0:
64,192,74122,1,0,0:0:0:0:
192,192,74527,1,0,0:0:0:0:
320,192,74662,1,0,0:0:0:0:
448,192,74662,1,0,0:0:0:0:
448,192,75068,1,0,0:0:0:0:
192,192,75203,1,0,0:0:0:0:
64,192,75203,1,0,0:0:0:0:
64,192,75473,1,0,0:0:0:0:
448,192,75473,1,0,0:0:0:0:
320,192,75743,1,0,0:0:0:0:
448,192,75743,1,0,0:0:0:0:
64,192,76284,1,0,0:0:0:0:
320,192,76284,1,0,0:0:0:0:
192,192,76689,1,0,0:0:0:0:
320,192,76824,1,0,0:0:0:0:
448,192,76824,1,0,0:0:0:0:
448,192,77095,1,0,0:0:0:0:
192,192,77365,1,0,0:0:0:0:
64,192,77365,1,0,0:0:0:0:
192,192,77635,1,0,0:0:0:0:
64,192,77635,1,0,0:0:0:0:
64,192,77905,1,0,0:0:0:0:
448,192,77905,1,0,0:0:0:0:
320,192,78041,1,0,0:0:0:0:
320,192,78176,1,0,0:0:0:0:
192,192,78311,1,0,0:0:0:0:
64,192,78446,1,0,0:0:0:0:
448,192,78446,1,0,0:0:0:0:
192,192,78851,1,0,0:0:0:0:
64,192,78851,1,0,0:0:0:0:
320,192,78987,1,0,0:0:0:0:
448,192,78987,1,0,0:0:0:0:
64,192,79257,1,0,0:0:0:0:
448,192,79392,1,0,0:0:0:0:
192,192,79527,1,0,0:0:0:0:
64,192,79527,1,0,0:0:0:0:
448,192,79932,1,0,0:0:0:0:
320,192,80000,1,0,0:0:0:0:
192,192,80068,1,0,0:0:0:0:
64,192,80068,1,0,0:0:0:0:
64,192,80608,1,0,0:0:0:0:
448,192,80608,1,0,0:0:0:0:
320,192,81014,1,0,0:0:0:0:
192,192,81149,1,0,0:0:0:0:
64,192,81149,1,0,0:0:0:0:
448,192,81419,1,0,0:0:0:0:
192,192,81689,1,0,0:0:0:0:
64,192,81689,1,0,0:0:0:0:
192,192,81959,1,0,0:0:0:0:
64,192,81959,1,0,0:0:0:0:
448,192,82230,1,0,0:0:0:0:
64,192,82230,1,0,0:0:0:0:
320,192,82365,1,0,0:0:0:0:
320,192,82500,1,0,0:0:0:0:
64,192,82635,1,0,0:0:0:0:
192,192,82770,1,0,0:0:0:0:
448,192,82770,1,0,0:0:0:0:
320,192,83176,1,0,0:0:0:0:
64,192,83311,1,0,0:0:0:0:
448,192,83311,1,0,0:0:0:0:
192,192,83581,1,0,0:0:0:0:
64,192,83716,1,0,0:0:0:0:
320,192,83851,1,0,0:0:0:0:
448,192,83851,1,0,0:0:0:0:
320,192,84122,1,0,0:0:0:0:
448,192,84122,1,0,0:0:0:0:
448,192,84392,1,0,0:0:0:0:
64,192,84392,1,0,0:0:0:0:
192,192,84527,1,0,0:0:0:0:
320,192,84662,1,0,0:0:0:0:
448,192,84932,1,0,0:0:0:0:
64,192,84932,1,0,0:0:0:0:
320,192,85338,1,0,0:0:0:0:
192,192,85473,1,0,0:0:0:0:
64,192,85473,1,0,0:0:0:0:
320,192,85743,1,0,0:0:0:0:
448,192,86014,1,0,0:0:0:0:
64,192,86014,1,0,0:0:0:0:
64,192,86284,1,0,0:0:0:0:
448,192,86284,1,0,0:0:0:0:
320,192,86554,1,0,0:0:0:0:
64,192,86554,1,0,0:0:0:0:
192,192,86689,1,0,0:0:0:0:
192,192,86824,1,0,0:0:0:0:
320,192,86959,1,0,0:0:0:0:
448,192,87095,1,0,0:0:0:0:
64,192,87095,1,0,0:0:0:0:
64,192,87500,1,0,0:0:0:0:
448,192,87500,1,0,0:0:0:0:
320,192,87635,1,0,0:0:0:0:
192,192,87635,1,0,0:0:0:0:
64,192,87905,1,0,0:0:0:0:
448,192,88041,1,0,0:0:0:0:
64,192,88176,1,0,0:0:0:0:
192,192,88176,1,0,0:0:0:0:
448,192,88581,1,0,0:0:0:0:
320,192,88649,1,0,0:0:0:0:
192,192,88716,1,0,0:0:0:0:
64,192,88716,1,0,0:0:0:0:
448,192,89257,1,0,0:0:0:0:
64,192,89257,1,0,0:0:0:0:
320,192,89257,1,0,0:0:0:0:
192,192,89527,1,0,0:0:0:0:
192,192,89662,1,0,0:0:0:0:
64,192,89797,1,0,0:0:0:0:
448,192,89797,1,0,0:0:0:0:
320,192,90068,1,0,0:0:0:0:
320,192,90203,1,0,0:0:0:0:
192,192,90338,1,0,0:0:0:0:
64,192,90338,1,0,0:0:0:0:
320,192,90473,1,0,0:0:0:0:
448,192,90608,1,0,0:0:0:0:
448,192,90743,1,0,0:0:0:0:
64,192,90878,1,0,0:0:0:0:
320,192,90878,1,0,0:0:0:0:
192,192,91014,1,0,0:0:0:0:
192,192,91149,1,0,0:0:0:0:
64,192,91419,1,0,0:0:0:0:
448,192,91419,1,0,0:0:0:0:
320,192,91689,1,0,0:0:0:0:
320,192,91824,1,0,0:0:0:0:
192,192,91959,1,0,0:0:0:0:
64,192,91959,1,0,0:0:0:0:
448,192,92230,1,0,0:0:0:0:
64,192,92365,1,0,0:0:0:0:
192,192,92500,1,0,0:0:0:0:
320,192,92500,1,0,0:0:0:0:
320,192,92635,1,0,0:0:0:0:
64,192,92770,1,0,0:0:0:0:
64,192,92905,1,0,0:0:0:0:
192,192,93041,1,0,0:0:0:0:
448,192,93041,1,0,0:0:0:0:
320,192,93176,1,0,0:0:0:0:
320,192,93311,1,0,0:0:0:0:
192,192,93581,1,0,0:0:0:0:
64,192,93581,1,0,0:0:0:0:
448,192,93851,1,0,0:0:0:0:
320,192,94122,1,0,0:0:0:0:
64,192,94122,1,0,0:0:0:0:
192,192,94392,1,0,0:0:0:0:
192,192,94527,1,0,0:0:0:0:
320,192,94662,1,0,0:0:0:0:
448,192,94662,1,0,0:0:0:0:
64,192,94797,1,0,0:0:0:0:
192,192,94932,1,0,0:0:0:0:
320,192,95068,1,0,0:0:0:0:
448,192,95203,1,0,0:0:0:0:
64,192,95203,1,0,0:0:0:0:
320,192,95338,1,0,0:0:0:0:
192,192,95473,1,0,0:0:0:0:
64,192,95608,1,0,0:0:0:0:
320,192,95743,1,0,0:0:0:0:
448,192,95743,1,0,0:0:0:0:
192,192,96014,1,0,0:0:0:0:
64,192,96284,1,0,0:0:0:0:
448,192,96284,1,0,0:0:0:0:
320,192,96419,1,0,0:0:0:0:
192,192,96554,1,0,0:0:0:0:
448,192,96689,1,0,0:0:0:0:
64,192,96824,1,0,0:0:0:0:
192,192,96824,1,0,0:0:0:0:
320,192,97095,1,0,0:0:0:0:
192,192,97230,1,0,0:0:0:0:
448,192,97365,1,0,0:0:0:0:
64,192,97365,1,0,0:0:0:0:
320,192,97500,1,0,0:0:0:0:
192,192,97635,1,0,0:0:0:0:
320,192,97770,1,0,0:0:0:0:
64,192,97905,1,0,0:0:0:0:
448,192,97905,1,0,0:0:0:0:
192,192,98176,1,0,0:0:0:0:
192,192,98311,1,0,0:0:0:0:
320,192,98446,1,0,0:0:0:0:
448,192,98446,1,0,0:0:0:0:
64,192,98716,1,0,0:0:0:0:
192,192,98851,1,0,0:0:0:0:
448,192,98987,1,0,0:0:0:0:
320,192,98987,1,0,0:0:0:0:
64,192,99122,1,0,0:0:0:0:
448,192,99257,1,0,0:0:0:0:
320,192,99392,1,0,0:0:0:0:
192,192,99527,1,0,0:0:0:0:
64,192,99527,1,0,0:0:0:0:
448,192,99662,1,0,0:0:0:0:
448,192,99797,1,0,0:0:0:0:
320,192,100068,1,0,0:0:0:0:
64,192,100068,1,0,0:0:0:0:
192,192,100338,1,0,0:0:0:0:
192,192,100473,1,0,0:0:0:0:
64,192,100608,1,0,0:0:0:0:
448,192,100608,1,0,0:0:0:0:
320,192,100878,1,0,0:0:0:0:
192,192,101014,1,0,0:0:0:0:
320,192,101149,1,0,0:0:0:0:
448,192,101149,1,0,0:0:0:0:
64,192,101284,1,0,0:0:0:0:
64,192,101419,1,0,0:0:0:0:
448,192,101554,1,0,0:0:0:0:
64,192,101689,1,0,0:0:0:0:
192,192,101689,1,0,0:0:0:0:
320,192,101824,1,0,0:0:0:0:
320,192,101959,1,0,0:0:0:0:
64,192,102230,1,0,0:0:0:0:
448,192,102230,1,0,0:0:0:0:
192,192,102500,1,0,0:0:0:0:
192,192,102635,1,0,0:0:0:0:
320,192,102770,1,0,0:0:0:0:
448,192,102770,1,0,0:0:0:0:
64,192,102905,1,0,0:0:0:0:
192,192,103041,1,0,0:0:0:0:
320,192,103176,1,0,0:0:0:0:
448,192,103311,1,0,0:0:0:0:
64,192,103311,1,0,0:0:0:0:
192,192,103581,1,0,0:0:0:0:
320,192,103716,1,0,0:0:0:0:
64,192,103851,1,0,0:0:0:0:
448,192,103851,1,0,0:0:0:0:
320,192,103987,1,0,0:0:0:0:
192,192,104122,1,0,0:0:0:0:
64,192,104257,1,0,0:0:0:0:
320,192,104392,1,0,0:0:0:0:
448,192,104392,1,0,0:0:0:0:
64,192,104527,1,0,0:0:0:0:
192,192,104662,1,0,0:0:0:0:
320,192,104797,1,0,0:0:0:0:
448,192,104932,1,0,0:0:0:0:
64,192,104932,1,0,0:0:0:0:
320,192,105068,1,0,0:0:0:0:
192,192,105203,1,0,0:0:0:0:
64,192,105338,1,0,0:0:0:0:
320,192,105473,1,0,0:0:0:0:
448,192,105473,1,0,0:0:0:0:
64,192,105608,1,0,0:0:0:0:
192,192,105743,1,0,0:0:0:0:
320,192,105878,1,0,0:0:0:0:
64,192,106014,1,0,0:0:0:0:
448,192,106014,1,0,0:0:0:0:
320,192,106149,1,0,0:0:0:0:
192,192,106284,1,0,0:0:0:0:
192,192,106419,1,0,0:0:0:0:
64,192,106554,1,0,0:0:0:0:
448,192,106554,1,0,0:0:0:0:
320,192,106554,1,0,0:0:0:0:
192,192,106689,1,0,0:0:0:0:
192,192,106824,1,0,0:0:0:0:
192,192,106959,1,0,0:0:0:0:
320,192,107095,1,0,0:0:0:0:
448,192,107095,1,0,0:0:0:0:
64,192,107230,1,0,0:0:0:0:
64,192,107365,1,0,0:0:0:0:
64,192,107500,1,0,0:0:0:0:
192,192,107635,1,0,0:0:0:0:
448,192,107635,1,0,0:0:0:0:
320,192,107770,1,0,0:0:0:0:
320,192,107905,1,0,0:0:0:0:
320,192,108041,1,0,0:0:0:0:
192,192,108176,1,0,0:0:0:0:
64,192,108176,1,0,0:0:0:0:
448,192,108311,1,0,0:0:0:0:
448,192,108446,1,0,0:0:0:0:
448,192,108581,1,0,0:0:0:0:
320,192,108716,1,0,0:0:0:0:
64,192,108716,1,0,0:0:0:0:
64,192,108851,1,0,0:0:0:0:
320,192,108987,1,0,0:0:0:0:
448,192,108987,1,0,0:0:0:0:
448,192,109122,1,0,0:0:0:0:
192,192,109257,1,0,0:0:0:0:
64,192,109257,1,0,0:0:0:0:
192,192,109392,1,0,0:0:0:0:
320,192,109527,1,0,0:0:0:0:
448,192,109527,1,0,0:0:0:0:
64,192,109662,1,0,0:0:0:0:
320,192,109797,1,0,0:0:0:0:
448,192,109797,1,0,0:0:0:0:
192,192,109932,1,0,0:0:0:0:
64,192,109932,1,0,0:0:0:0:
64,192,110068,1,0,0:0:0:0:
448,192,110068,1,0,0:0:0:0:
448,192,110203,1,0,0:0:0:0:
320,192,110338,1,0,0:0:0:0:
64,192,110338,1,0,0:0:0:0:
320,192,110473,1,0,0:0:0:0:
64,192,110608,1,0,0:0:0:0:
448,192,110608,1,0,0:0:0:0:
64,192,110743,1,0,0:0:0:0:
320,192,110878,1,0,0:0:0:0:
448,192,110878,1,0,0:0:0:0:
192,192,111014,1,0,0:0:0:0:
192,192,111149,1,0,0:0:0:0:
192,192,111284,1,0,0:0:0:0:
64,192,111419,1,0,0:0:0:0:
448,192,111419,1,0,0:0:0:0:
320,192,111554,1,0,0:0:0:0:
320,192,111689,1,0,0:0:0:0:
320,192,111824,1,0,0:0:0:0:
192,192,111959,1,0,0:0:0:0:
64,192,111959,1,0,0:0:0:0:
448,192,112095,1,0,0:0:0:0:
448,192,112230,1,0,0:0:0:0:
448,192,112365,1,0,0:0:0:0:
320,192,112500,1,0,0:0:0:0:
192,192,112500,1,0,0:0:0:0:
64,192,112635,1,0,0:0:0:0:
64,192,112770,1,0,0:0:0:0:
64,192,112905,1,0,0:0:0:0:
192,192,113041,1,0,0:0:0:0:
448,192,113041,1,0,0:0:0:0:
448,192,113176,1,0,0:0:0:0:
64,192,113311,1,0,0:0:0:0:
320,192,113311,1,0,0:0:0:0:
64,192,113446,1,0,0:0:0:0:
320,192,113581,1,0,0:0:0:0:
448,192,113581,1,0,0:0:0:0:
448,192,113716,1,0,0:0:0:0:
64,192,113851,1,0,0:0:0:0:
192,192,113851,1,0,0:0:0:0:
448,192,113987,1,0,0:0:0:0:
192,192,114122,1,0,0:0:0:0:
64,192,114122,1,0,0:0:0:0:
320,192,114257,1,0,0:0:0:0:
448,192,114257,1,0,0:0:0:0:
64,192,114392,1,0,0:0:0:0:
448,192,114392,1,0,0:0:0:0:
64,192,114527,1,0,0:0:0:0:
192,192,114662,1,0,0:0:0:0:
448,192,114662,1,0,0:0:0:0:
192,192,114797,1,0,0:0:0:0:
448,192,114932,1,0,0:0:0:0:
64,192,114932,1,0,0:0:0:0:
448,192,115068,1,0,0:0:0:0:
192,192,115203,1,0,0:0:0:0:
64,192,115203,1,0,0:0:0:0:
320,192,115338,1,0,0:0:0:0:
320,192,115473,1,0,0:0:0:0:
320,192,115608,1,0,0:0:0:0:
64,192,115743,1,0,0:0:0:0:
192,192,115743,1,0,0:0:0:0:
448,192,115878,1,0,0:0:0:0:
448,192,116014,1,0,0:0:0:0:
448,192,116149,1,0,0:0:0:0:
320,192,116284,1,0,0:0:0:0:
64,192,116284,1,0,0:0:0:0:
192,192,116419,1,0,0:0:0:0:
192,192,116554,1,0,0:0:0:0:
192,192,116689,1,0,0:0:0:0:
320,192,116824,1,0,0:0:0:0:
448,192,116824,1,0,0:0:0:0:
64,192,116959,1,0,0:0:0:0:
64,192,117095,1,0,0:0:0:0:
64,192,117230,1,0,0:0:0:0:
448,192,117365,1,0,0:0:0:0:
192,192,117365,1,0,0:0:0:0:
448,192,117500,1,0,0:0:0:0:
192,192,117635,1,0,0:0:0:0:
64,192,117635,1,0,0:0:0:0:
64,192,117770,1,0,0:0:0:0:
448,192,117905,1,0,0:0:0:0:
320,192,117905,1,0,0:0:0:0:
320,192,118041,1,0,0:0:0:0:
192,192,118176,1,0,0:0:0:0:
64,192,118176,1,0,0:0:0:0:
448,192,118311,1,0,0:0:0:0:
64,192,118446,1,0,0:0:0:0:
192,192,118446,1,0,0:0:0:0:
320,192,118581,1,0,0:0:0:0:
448,192,118581,1,0,0:0:0:0:
448,192,118716,1,0,0:0:0:0:
64,192,118716,1,0,0:0:0:0:
64,192,118851,1,0,0:0:0:0:
192,192,118987,1,0,0:0:0:0:
448,192,118987,1,0,0:0:0:0:
192,192,119122,1,0,0:0:0:0:
64,192,119257,1,0,0:0:0:0:
448,192,119257,1,0,0:0:0:0:
448,192,119392,1,0,0:0:0:0:
192,192,119527,1,0,0:0:0:0:
64,192,119527,1,0,0:0:0:0:
320,192,119662,1,0,0:0:0:0:
320,192,119797,1,0,0:0:0:0:
320,192,119932,1,0,0:0:0:0:
448,192,120068,1,0,0:0:0:0:
64,192,120068,1,0,0:0:0:0:
192,192,120203,1,0,0:0:0:0:
192,192,120338,1,0,0:0:0:0:
192,192,120473,1,0,0:0:0:0:
320,192,120608,1,0,0:0:0:0:
448,192,120608,1,0,0:0:0:0:
64,192,120743,1,0,0:0:0:0:
64,192,120878,1,0,0:0:0:0:
64,192,121014,1,0,0:0:0:0:
192,192,121149,1,0,0:0:0:0:
320,192,121149,1,0,0:0:0:0:
448,192,121284,1,0,0:0:0:0:
448,192,121419,1,0,0:0:0:0:
448,192,121554,1,0,0:0:0:0:
320,192,121689,1,0,0:0:0:0:
64,192,121689,1,0,0:0:0:0:
64,192,121824,1,0,0:0:0:0:
448,192,121959,1,0,0:0:0:0:
192,192,121959,1,0,0:0:0:0:
448,192,122095,1,0,0:0:0:0:
192,192,122230,1,0,0:0:0:0:
64,192,122230,1,0,0:0:0:0:
64,192,122365,1,0,0:0:0:0:
448,192,122500,1,0,0:0:0:0:
320,192,122500,1,0,0:0:0:0:
64,192,122635,1,0,0:0:0:0:
320,192,122770,1,0,0:0:0:0:
448,192,122770,1,0,0:0:0:0:
64,192,122905,1,0,0:0:0:0:
192,192,122905,1,0,0:0:0:0:
448,192,123041,1,0,0:0:0:0:
64,192,123041,1,0,0:0:0:0:
448,192,123176,1,0,0:0:0:0:
64,192,123311,1,0,0:0:0:0:
320,192,123311,1,0,0:0:0:0:
320,192,123446,1,0,0:0:0:0:
448,192,123581,1,0,0:0:0:0:
64,192,123581,1,0,0:0:0:0:
64,192,123716,1,0,0:0:0:0:
320,192,123851,1,0,0:0:0:0:
448,192,123851,1,0,0:0:0:0:
64,192,124122,1,0,0:0:0:0:
320,192,124257,1,0,0:0:0:0:
192,192,124392,1,0,0:0:0:0:
448,192,124527,1,0,0:0:0:0:
64,192,124662,1,0,0:0:0:0:
192,192,124797,1,0,0:0:0:0:
448,192,124932,1,0,0:0:0:0:
192,192,125068,1,0,0:0:0:0:
448,192,125203,1,0,0:0:0:0:
320,192,125338,1,0,0:0:0:0:
64,192,125473,1,0,0:0:0:0:
192,192,125608,1,0,0:0:0:0:
320,192,125676,1,0,0:0:0:0:
448,192,125743,1,0,0:0:0:0:
64,192,126014,1,0,0:0:0:0:
448,192,126149,1,0,0:0:0:0:
320,192,126216,1,0,0:0:0:0:
64,192,126284,1,0,0:0:0:0:
320,192,126419,1,0,0:0:0:0:
192,192,126554,1,0,0:0:0:0:
448,192,126689,1,0,0:0:0:0:
64,192,126824,1,0,0:0:0:0:
192,192,126892,1,0,0:0:0:0:
448,192,126959,1,0,0:0:0:0:
192,192,127095,1,0,0:0:0:0:
320,192,127230,1,0,0:0:0:0:
64,192,127365,1,0,0:0:0:0:
448,192,127500,1,0,0:0:0:0:
192,192,127635,1,0,0:0:0:0:
192,192,127770,1,0,0:0:0:0:
320,192,127905,1,0,0:0:0:0:
320,192,128041,1,0,0:0:0:0:
64,192,128176,1,0,0:0:0:0:
448,192,128311,1,0,0:0:0:0:
320,192,128378,1,0,0:0:0:0:
192,192,128446,1,0,0:0:0:0:
448,192,128581,1,0,0:0:0:0:
64,192,128716,1,0,0:0:0:0:
320,192,128851,1,0,0:0:0:0:
64,192,128987,1,0,0:0:0:0:
192,192,129054,1,0,0:0:0:0:
320,192,129122,1,0,0:0:0:0:
448,192,129189,1,0,0:0:0:0:
64,192,129257,1,0,0:0:0:0:
448,192,129392,1,0,0:0:0:0:
192,192,129527,1,0,0:0:0:0:
448,192,129662,1,0,0:0:0:0:
320,192,129730,1,0,0:0:0:0:
64,192,129797,1,0,0:0:0:0:
64,192,129932,1,0,0:0:0:0:
320,192,130068,1,0,0:0:0:0:
320,192,130203,1,0,0:0:0:0:
192,192,130338,1,0,0:0:0:0:
448,192,130473,1,0,0:0:0:0:
320,192,130541,1,0,0:0:0:0:
64,192,130608,1,0,0:0:0:0:
448,192,130743,1,0,0:0:0:0:
192,192,130878,1,0,0:0:0:0:
320,192,131014,1,0,0:0:0:0:
64,192,131149,1,0,0:0:0:0:
192,192,131216,1,0,0:0:0:0:
448,192,131284,1,0,0:0:0:0:
64,192,131419,1,0,0:0:0:0:
320,192,131554,1,0,0:0:0:0:
192,192,131689,1,0,0:0:0:0:
448,192,131824,1,0,0:0:0:0:
448,192,131959,1,0,0:0:0:0:
64,192,132095,1,0,0:0:0:0:
320,192,132230,1,0,0:0:0:0:
64,192,132500,1,0,0:0:0:0:
448,192,132500,1,0,0:0:0:0:
192,192,132500,1,0,0:0:0:0:
64,192,132635,1,0,0:0:0:0:
320,192,132770,1,0,0:0:0:0:
448,192,132770,1,0,0:0:0:0:
448,192,132905,1,0,0:0:0:0:
64,192,132905,1,0,0:0:0:0:
320,192,133041,1,0,0:0:0:0:
64,192,133176,1,0,0:0:0:0:
192,192,133176,1,0,0:0:0:0:
192,192,133311,1,0,0:0:0:0:
448,192,133311,1,0,0:0:0:0:
320,192,133446,1,0,0:0:0:0:
64,192,133581,1,0,0:0:0:0:
448,192,133581,1,0,0:0:0:0:
64,192,133716,1,0,0:0:0:0:
192,192,133851,1,0,0:0:0:0:
320,192,133851,1,0,0:0:0:0:
448,192,133987,1,0,0:0:0:0:
192,192,134122,1,0,0:0:0:0:
64,192,134122,1,0,0:0:0:0:
64,192,134257,1,0,0:0:0:0:
192,192,134257,1,0,0:0:0:0:
448,192,134392,1,0,0:0:0:0:
320,192,134392,1,0,0:0:0:0:
192,192,134527,1,0,0:0:0:0:
64,192,134662,1,0,0:0:0:0:
448,192,134662,1,0,0:0:0:0:
320,192,134797,1,0,0:0:0:0:
64,192,134932,1,0,0:0:0:0:
192,192,134932,1,0,0:0:0:0:
64,192,135068,1,0,0:0:0:0:
448,192,135068,1,0,0:0:0:0:
192,192,135203,1,0,0:0:0:0:
320,192,135338,1,0,0:0:0:0:
448,192,135338,1,0,0:0:0:0:
320,192,135473,1,0,0:0:0:0:
64,192,135473,1,0,0:0:0:0:
192,192,135608,1,0,0:0:0:0:
64,192,135743,1,0,0:0:0:0:
448,192,135743,1,0,0:0:0:0:
448,192,135878,1,0,0:0:0:0:
192,192,136014,1,0,0:0:0:0:
64,192,136014,1,0,0:0:0:0:
320,192,136149,1,0,0:0:0:0:
64,192,136284,1,0,0:0:0:0:
448,192,136284,1,0,0:0:0:0:
448,192,136419,1,0,0:0:0:0:
64,192,136419,1,0,0:0:0:0:
192,192,136554,1,0,0:0:0:0:
320,192,136554,1,0,0:0:0:0:
448,192,136689,1,0,0:0:0:0:
192,192,136824,1,0,0:0:0:0:
64,192,136824,1,0,0:0:0:0:
192,192,136959,1,0,0:0:0:0:
320,192,137095,1,0,0:0:0:0:
448,192,137095,1,0,0:0:0:0:
448,192,137230,1,0,0:0:0:0:
64,192,137230,1,0,0:0:0:0:
64,192,137500,1,0,0:0:0:0:
448,192,137500,1,0,0:0:0:0:
64,192,137635,1,0,0:0:0:0:
192,192,137635,1,0,0:0:0:0:
448,192,137770,1,0,0:0:0:0:
320,192,137905,1,0,0:0:0:0:
64,192,137905,1,0,0:0:0:0:
320,192,138041,1,0,0:0:0:0:
192,192,138176,1,0,0:0:0:0:
64,192,138176,1,0,0:0:0:0:
448,192,138311,1,0,0:0:0:0:
320,192,138446,1,0,0:0:0:0:
192,192,138446,1,0,0:0:0:0:
320,192,138581,1,0,0:0:0:0:
192,192,138581,1,0,0:0:0:0:
64,192,138716,1,0,0:0:0:0:
448,192,138716,1,0,0:0:0:0:
192,192,138851,1,0,0:0:0:0:
320,192,138987,1,0,0:0:0:0:
448,192,138987,1,0,0:0:0:0:
64,192,139122,1,0,0:0:0:0:
320,192,139257,1,0,0:0:0:0:
448,192,139257,1,0,0:0:0:0:
64,192,139392,1,0,0:0:0:0:
320,192,139392,1,0,0:0:0:0:
64,192,139662,1,0,0:0:0:0:
320,192,139662,1,0,0:0:0:0:
64,192,139797,1,0,0:0:0:0:
448,192,139797,1,0,0:0:0:0:
192,192,139932,1,0,0:0:0:0:
320,192,140068,1,0,0:0:0:0:
448,192,140068,1,0,0:0:0:0:
448,192,140203,1,0,0:0:0:0:
320,192,140338,1,0,0:0:0:0:
64,192,140338,1,0,0:0:0:0:
64,192,140473,1,0,0:0:0:0:
320,192,140608,1,0,0:0:0:0:
448,192,140608,1,0,0:0:0:0:
448,192,140743,1,0,0:0:0:0:
192,192,140743,1,0,0:0:0:0:
64,192,140878,1,0,0:0:0:0:
320,192,140878,1,0,0:0:0:0:
192,192,141014,1,0,0:0:0:0:
64,192,141014,1,0,0:0:0:0:
192,192,141149,1,0,0:0:0:0:
320,192,141149,1,0,0:0:0:0:
448,192,141149,1,0,0:0:0:0:
448,192,141284,1,0,0:0:0:0:
320,192,141419,1,0,0:0:0:0:
64,192,141419,1,0,0:0:0:0:
192,192,141554,1,0,0:0:0:0:
64,192,141554,1,0,0:0:0:0:
448,192,141689,1,0,0:0:0:0:
64,192,141824,1,0,0:0:0:0:
320,192,141824,1,0,0:0:0:0:
320,192,141959,1,0,0:0:0:0:
192,192,141959,1,0,0:0:0:0:
448,192,142095,1,0,0:0:0:0:
192,192,142230,1,0,0:0:0:0:
64,192,142230,1,0,0:0:0:0:
64,192,142365,1,0,0:0:0:0:
192,192,142500,1,0,0:0:0:0:
448,192,142500,1,0,0:0:0:0:
64,192,142635,1,0,0:0:0:0:
320,192,142770,1,0,0:0:0:0:
448,192,142770,1,0,0:0:0:0:
320,192,142905,1,0,0:0:0:0:
448,192,142905,1,0,0:0:0:0:
64,192,143041,1,0,0:0:0:0:
320,192,143041,1,0,0:0:0:0:
192,192,143176,1,0,0:0:0:0:
64,192,143311,1,0,0:0:0:0:
448,192,143311,1,0,0:0:0:0:
448,192,143446,1,0,0:0:0:0:
192,192,143581,1,0,0:0:0:0:
64,192,143581,1,0,0:0:0:0:
64,192,143716,1,0,0:0:0:0:
448,192,143716,1,0,0:0:0:0:
320,192,143851,1,0,0:0:0:0:
192,192,143987,1,0,0:0:0:0:
64,192,143987,1,0,0:0:0:0:
192,192,144122,1,0,0:0:0:0:
448,192,144122,1,0,0:0:0:0:
448,192,144257,1,0,0:0:0:0:
320,192,144392,1,0,0:0:0:0:
64,192,144392,1,0,0:0:0:0:
64,192,144527,1,0,0:0:0:0:
192,192,144662,1,0,0:0:0:0:
448,192,144662,1,0,0:0:0:0:
320,192,144797,1,0,0:0:0:0:
192,192,144932,1,0,0:0:0:0:
64,192,144932,1,0,0:0:0:0:
64,192,145068,1,0,0:0:0:0:
320,192,145068,1,0,0:0:0:0:
192,192,145203,1,0,0:0:0:0:
448,192,145203,1,0,0:0:0:0:
320,192,145338,1,0,0:0:0:0:
448,192,145338,1,0,0:0:0:0:
192,192,145473,1,0,0:0:0:0:
64,192,145473,1,0,0:0:0:0:
192,192,145608,1,0,0:0:0:0:
64,192,145743,1,0,0:0:0:0:
448,192,145743,1,0,0:0:0:0:
320,192,145878,1,0,0:0:0:0:
448,192,145878,1,0,0:0:0:0:
320,192,146149,1,0,0:0:0:0:
448,192,146149,1,0,0:0:0:0:
320,192,146284,1,0,0:0:0:0:
64,192,146284,1,0,0:0:0:0:
192,192,146419,1,0,0:0:0:0:
64,192,146554,1,0,0:0:0:0:
448,192,146554,1,0,0:0:0:0:
320,192,146689,1,0,0:0:0:0:
192,192,146824,1,0,0:0:0:0:
64,192,146824,1,0,0:0:0:0:
448,192,146959,1,0,0:0:0:0:
320,192,147095,1,0,0:0:0:0:
64,192,147095,1,0,0:0:0:0:
64,192,147230,1,0,0:0:0:0:
320,192,147230,1,0,0:0:0:0:
448,192,147365,1,0,0:0:0:0:
192,192,147365,1,0,0:0:0:0:
64,192,147500,1,0,0:0:0:0:
320,192,147635,1,0,0:0:0:0:
448,192,147635,1,0,0:0:0:0:
192,192,147770,1,0,0:0:0:0:
64,192,147905,1,0,0:0:0:0:
448,192,147905,1,0,0:0:0:0:
320,192,148041,1,0,0:0:0:0:
64,192,148041,1,0,0:0:0:0:
192,192,148176,1,0,0:0:0:0:
320,192,148311,1,0,0:0:0:0:
448,192,148311,1,0,0:0:0:0:
448,192,148446,1,0,0:0:0:0:
64,192,148446,1,0,0:0:0:0:
192,192,148581,1,0,0:0:0:0:
320,192,148581,1,0,0:0:0:0:
64,192,148716,1,0,0:0:0:0:
448,192,148716,1,0,0:0:0:0:
192,192,148851,1,0,0:0:0:0:
64,192,148851,1,0,0:0:0:0:
192,192,148987,1,0,0:0:0:0:
320,192,148987,1,0,0:0:0:0:
320,192,149122,1,0,0:0:0:0:
448,192,149122,1,0,0:0:0:0:
64,192,149257,1,0,0:0:0:0:
448,192,149257,1,0,0:0:0:0:
320,192,149392,1,0,0:0:0:0:
64,192,149392,1,0,0:0:0:0:
192,192,149527,1,0,0:0:0:0:
320,192,149527,1,0,0:0:0:0:
448,192,149662,1,0,0:0:0:0:
192,192,149662,1,0,0:0:0:0:
448,192,149797,1,0,0:0:0:0:
64,192,149797,1,0,0:0:0:0:
320,192,149797,1,0,0:0:0:0:
320,192,149932,1,0,0:0:0:0:
192,192,150000,1,0,0:0:0:0:
64,192,150068,1,0,0:0:0:0:
448,192,150068,1,0,0:0:0:0:
64,192,150203,1,0,0:0:0:0:
192,192,150203,1,0,0:0:0:0:
320,192,150338,1,0,0:0:0:0:
320,192,150473,1,0,0:0:0:0:
64,192,150608,1,0,0:0:0:0:
448,192,150608,1,0,0:0:0:0:
192,192,150743,1,0,0:0:0:0:
448,192,150878,1,0,0:0:0:0:
320,192,150878,1,0,0:0:0:0:
64,192,150946,1,0,0:0:0:0:
192,192,151014,1,0,0:0:0:0:
320,192,151081,1,0,0:0:0:0:
448,192,151149,1,0,0:0:0:0:
64,192,151149,1,0,0:0:0:0:
192,192,151284,1,0,0:0:0:0:
320,192,151419,1,0,0:0:0:0:
448,192,151419,1,0,0:0:0:0:
320,192,151554,1,0,0:0:0:0:
448,192,151554,1,0,0:0:0:0:
192,192,151689,1,0,0:0:0:0:
64,192,151689,1,0,0:0:0:0:
192,192,151824,1,0,0:0:0:0:
64,192,151959,1,0,0:0:0:0:
448,192,151959,1,0,0:0:0:0:
192,192,152095,1,0,0:0:0:0:
320,192,152162,1,0,0:0:0:0:
448,192,152230,1,0,0:0:0:0:
64,192,152230,1,0,0:0:0:0:
320,192,152365,1,0,0:0:0:0:
448,192,152365,1,0,0:0:0:0:
192,192,152500,1,0,0:0:0:0:
64,192,152635,1,0,0:0:0:0:
448,192,152635,1,0,0:0:0:0:
64,192,152770,1,0,0:0:0:0:
320,192,152770,1,0,0:0:0:0:
448,192,152905,1,0,0:0:0:0:
192,192,153041,1,0,0:0:0:0:
64,192,153041,1,0,0:0:0:0:
192,192,153176,1,0,0:0:0:0:
320,192,153311,1,0,0:0:0:0:
448,192,153311,1,0,0:0:0:0:
192,192,153446,1,0,0:0:0:0:
64,192,153446,1,0,0:0:0:0:
320,192,153581,1,0,0:0:0:0:
448,192,153581,1,0,0:0:0:0:
320,192,153716,1,0,0:0:0:0:
448,192,153716,1,0,0:0:0:0:
64,192,153851,1,0,0:0:0:0:
448,192,153851,1,0,0:0:0:0:
192,192,153987,1,0,0:0:0:0:
64,192,153987,1,0,0:0:0:0:
192,192,154122,1,0,0:0:0:0:
448,192,154122,1,0,0:0:0:0:
64,192,154257,1,0,0:0:0:0:
192,192,154324,1,0,0:0:0:0:
320,192,154392,1,0,0:0:0:0:
448,192,154392,1,0,0:0:0:0:
320,192,154527,1,0,0:0:0:0:
64,192,154527,1,0,0:0:0:0:
192,192,154662,1,0,0:0:0:0:
448,192,154797,1,0,0:0:0:0:
64,192,154797,1,0,0:0:0:0:
64,192,154932,1,0,0:0:0:0:
192,192,154932,1,0,0:0:0:0:
320,192,155068,1,0,0:0:0:0:
64,192,155203,1,0,0:0:0:0:
448,192,155203,1,0,0:0:0:0:
448,192,155338,1,0,0:0:0:0:
320,192,155405,1,0,0:0:0:0:
192,192,155473,1,0,0:0:0:0:
64,192,155473,1,0,0:0:0:0:
320,192,155608,1,0,0:0:0:0:
64,192,155743,1,0,0:0:0:0:
448,192,155743,1,0,0:0:0:0:
64,192,155878,1,0,0:0:0:0:
448,192,155878,1,0,0:0:0:0:
192,192,156014,1,0,0:0:0:0:
320,192,156014,1,0,0:0:0:0:
64,192,156149,1,0,0:0:0:0:
320,192,156284,1,0,0:0:0:0:
448,192,156284,1,0,0:0:0:0:
64,192,156419,1,0,0:0:0:0:
192,192,156487,1,0,0:0:0:0:
320,192,156554,1,0,0:0:0:0:
448,192,156554,1,0,0:0:0:0:
64,192,156689,1,0,0:0:0:0:
448,192,156689,1,0,0:0:0:0:
192,192,156824,1,0,0:0:0:0:
64,192,156959,1,0,0:0:0:0:
320,192,156959,1,0,0:0:0:0:
64,192,157095,1,0,0:0:0:0:
448,192,157095,1,0,0:0:0:0:
320,192,157230,1,0,0:0:0:0:
192,192,157365,1,0,0:0:0:0:
64,192,157365,1,0,0:0:0:0:
192,192,157500,1,0,0:0:0:0:
320,192,157635,1,0,0:0:0:0:
448,192,157635,1,0,0:0:0:0:
192,192,157770,1,0,0:0:0:0:
64,192,157770,1,0,0:0:0:0:
320,192,157905,1,0,0:0:0:0:
448,192,157905,1,0,0:0:0:0:
320,192,158041,1,0,0:0:0:0:
448,192,158041,1,0,0:0:0:0:
192,192,158176,1,0,0:0:0:0:
64,192,158176,1,0,0:0:0:0:
64,192,158311,1,0,0:0:0:0:
448,192,158311,1,0,0:0:0:0:
320,192,158446,1,0,0:0:0:0:
448,192,158446,1,0,0:0:0:0:
192,192,158446,1,0,0:0:0:0:
192,192,158581,1,0,0:0:0:0:
320,192,158649,1,0,0:0:0:0:
448,192,158716,1,0,0:0:0:0:
64,192,158716,1,0,0:0:0:0:
448,192,158851,1,0,0:0:0:0:
320,192,158851,1,0,0:0:0:0:
192,192,158987,1,0,0:0:0:0:
192,192,159122,1,0,0:0:0:0:
448,192,159257,1,0,0:0:0:0:
64,192,159257,1,0,0:0:0:0:
320,192,159392,1,0,0:0:0:0:
64,192,159527,1,0,0:0:0:0:
192,192,159527,1,0,0:0:0:0:
448,192,159595,1,0,0:0:0:0:
320,192,159662,1,0,0:0:0:0:
192,192,159730,1,0,0:0:0:0:
64,192,159797,1,0,0:0:0:0:
448,192,159797,1,0,0:0:0:0:
320,192,159932,1,0,0:0:0:0:
192,192,160068,1,0,0:0:0:0:
64,192,160068,1,0,0:0:0:0:
192,192,160203,1,0,0:0:0:0:
64,192,160203,1,0,0:0:0:0:
320,192,160338,1,0,0:0:0:0:
448,192,160338,1,0,0:0:0:0:
320,192,160473,1,0,0:0:0:0:
448,192,160608,1,0,0:0:0:0:
64,192,160608,1,0,0:0:0:0:
320,192,160743,1,0,0:0:0:0:
192,192,160811,1,0,0:0:0:0:
64,192,160878,1,0,0:0:0:0:
448,192,160878,1,0,0:0:0:0:
192,192,161014,1,0,0:0:0:0:
64,192,161014,1,0,0:0:0:0:
320,192,161149,1,0,0:0:0:0:
448,192,161284,1,0,0:0:0:0:
64,192,161284,1,0,0:0:0:0:
448,192,161419,1,0,0:0:0:0:
192,192,161419,1,0,0:0:0:0:
64,192,161554,1,0,0:0:0:0:
320,192,161689,1,0,0:0:0:0:
448,192,161689,1,0,0:0:0:0:
320,192,161824,1,0,0:0:0:0:
192,192,161959,1,0,0:0:0:0:
64,192,161959,1,0,0:0:0:0:
320,192,162095,1,0,0:0:0:0:
448,192,162095,1,0,0:0:0:0:
192,192,162230,1,0,0:0:0:0:
64,192,162230,1,0,0:0:0:0:
192,192,162365,1,0,0:0:0:0:
64,192,162365,1,0,0:0:0:0:
448,192,162500,1,0,0:0:0:0:
64,192,162500,1,0,0:0:0:0:
320,192,162635,1,0,0:0:0:0:
448,192,162635,1,0,0:0:0:0:
320,192,162770,1,0,0:0:0:0:
64,192,162770,1,0,0:0:0:0:
448,192,162905,1,0,0:0:0:0:
320,192,162973,1,0,0:0:0:0:
192,192,163041,1,0,0:0:0:0:
64,192,163041,1,0,0:0:0:0:
192,192,163176,1,0,0:0:0:0:
448,192,163176,1,0,0:0:0:0:
320,192,163311,1,0,0:0:0:0:
64,192,163446,1,0,0:0:0:0:
448,192,163446,1,0,0:0:0:0:
448,192,163581,1,0,0:0:0:0:
320,192,163581,1,0,0:0:0:0:
192,192,163716,1,0,0:0:0:0:
448,192,163851,1,0,0:0:0:0:
64,192,163851,1,0,0:0:0:0:
64,192,163987,1,0,0:0:0:0:
192,192,164054,1,0,0:0:0:0:
320,192,164122,1,0,0:0:0:0:
448,192,164122,1,0,0:0:0:0:
192,192,164257,1,0,0:0:0:0:
448,192,164392,1,0,0:0:0:0:
64,192,164392,1,0,0:0:0:0:
448,192,164527,1,0,0:0:0:0:
64,192,164527,1,0,0:0:0:0:
320,192,164662,1,0,0:0:0:0:
192,192,164662,1,0,0:0:0:0:
448,192,164797,1,0,0:0:0:0:
192,192,164932,1,0,0:0:0:0:
64,192,164932,1,0,0:0:0:0:
448,192,165068,1,0,0:0:0:0:
320,192,165135,1,0,0:0:0:0:
192,192,165203,1,0,0:0:0:0:
64,192,165203,1,0,0:0:0:0:
448,192,165338,1,0,0:0:0:0:
64,192,165338,1,0,0:0:0:0:
192,192,165473,1,0,0:0:0:0:
448,192,165608,1,0,0:0:0:0:
320,192,165608,1,0,0:0:0:0:
448,192,165743,1,0,0:0:0:0:
64,192,165743,1,0,0:0:0:0:
192,192,165743,1,0,0:0:0:0:
64,192,165878,1,0,0:0:0:0:
320,192,166014,1,0,0:0:0:0:
448,192,166014,1,0,0:0:0:0:
192,192,166014,1,0,0:0:0:0:
320,192,166149,1,0,0:0:0:0:
448,192,166149,1,0,0:0:0:0:
192,192,166284,1,0,0:0:0:0:
64,192,166284,1,0,0:0:0:0:
64,192,166419,1,0,0:0:0:0:
448,192,166419,1,0,0:0:0:0:
192,192,166554,1,0,0:0:0:0:
448,192,166554,1,0,0:0:0:0:
320,192,166689,1,0,0:0:0:0:
192,192,166689,1,0,0:0:0:0:
64,192,166689,1,0,0:0:0:0:
448,192,167095,1,0,0:0:0:0:
64,192,167095,1,0,0:0:0:0:
192,192,167162,1,0,0:0:0:0:
320,192,167230,1,0,0:0:0:0:
448,192,167297,1,0,0:0:0:0:
192,192,167365,1,0,0:0:0:0:
64,192,167432,1,0,0:0:0:0:
448,192,167500,1,0,0:0:0:0:
320,192,167568,1,0,0:0:0:0:
192,192,167635,1,0,0:0:0:0:
64,192,167703,1,0,0:0:0:0:
320,192,167770,1,0,0:0:0:0:
448,192,167838,1,0,0:0:0:0:
64,192,167905,1,0,0:0:0:0:
192,192,167973,1,0,0:0:0:0:
448,192,168041,1,0,0:0:0:0:
320,192,168108,1,0,0:0:0:0:
192,192,168176,1,0,0:0:0:0:
64,192,168176,1,0,0:0:0:0:
448,192,168243,1,0,0:0:0:0:
320,192,168311,1,0,0:0:0:0:
192,192,168378,1,0,0:0:0:0:
64,192,168446,1,0,0:0:0:0:
320,192,168514,1,0,0:0:0:0:
448,192,168581,1,0,0:0:0:0:
64,192,168649,1,0,0:0:0:0:
192,192,168716,1,0,0:0:0:0:
320,192,168784,1,0,0:0:0:0:
448,192,168851,1,0,0:0:0:0:
192,192,168919,1,0,0:0:0:0:
64,192,168987,1,0,0:0:0:0:
448,192,169054,1,0,0:0:0:0:
320,192,169122,1,0,0:0:0:0:
192,192,169189,1,0,0:0:0:0:
448,192,169257,1,0,0:0:0:0:
64,192,169257,1,0,0:0:0:0:
320,192,169324,1,0,0:0:0:0:
64,192,169392,1,0,0:0:0:0:
192,192,169459,1,0,0:0:0:0:
320,192,169527,1,0,0:0:0:0:
448,192,169595,1,0,0:0:0:0:
192,192,169662,1,0,0:0:0:0:
64,192,169730,1,0,0:0:0:0:
448,192,169797,1,0,0:0:0:0:
320,192,169865,1,0,0:0:0:0:
192,192,169932,1,0,0:0:0:0:
64,192,170000,1,0,0:0:0:0:
448,192,170068,1,0,0:0:0:0:
320,192,170135,1,0,0:0:0:0:
64,192,170203,1,0,0:0:0:0:
192,192,170270,1,0,0:0:0:0:
320,192,170338,1,0,0:0:0:0:
448,192,170338,1,0,0:0:0:0:
64,192,170405,1,0,0:0:0:0:
448,192,170473,1,0,0:0:0:0:
320,192,170541,1,0,0:0:0:0:
64,192,170608,1,0,0:0:0:0:
192,192,170676,1,0,0:0:0:0:
320,192,170743,1,0,0:0:0:0:
448,192,170811,1,0,0:0:0:0:
192,192,170878,1,0,0:0:0:0:
64,192,170946,1,0,0:0:0:0:
448,192,171014,1,0,0:0:0:0:
320,192,171081,1,0,0:0:0:0:
192,192,171149,1,0,0:0:0:0:
64,192,171216,1,0,0:0:0:0:
320,192,171284,1,0,0:0:0:0:
448,192,171351,1,0,0:0:0:0:
64,192,171419,1,0,0:0:0:0:
192,192,171419,1,0,0:0:0:0:
448,192,171487,1,0,0:0:0:0:
320,192,171554,1,0,0:0:0:0:
192,192,171622,1,0,0:0:0:0:
64,192,171689,1,0,0:0:0:0:
320,192,171757,1,0,0:0:0:0:
448,192,171824,1,0,0:0:0:0:
64,192,171892,1,0,0:0:0:0:
192,192,171959,1,0,0:0:0:0:
320,192,172027,1,0,0:0:0:0:
448,192,172095,1,0,0:0:0:0:
64,192,172162,1,0,0:0:0:0:
192,192,172230,1,0,0:0:0:0:
448,192,172297,1,0,0:0:0:0:
320,192,172365,1,0,0:0:0:0:
192,192,172432,1,0,0:0:0:0:
64,192,172500,1,0,0:0:0:0:
448,192,172500,1,0,0:0:0:0:
320,192,172568,1,0,0:0:0:0:
64,192,172635,1,0,0:0:0:0:
192,192,172703,1,0,0:0:0:0:
320,192,172770,1,0,0:0:0:0:
448,192,172838,1,0,0:0:0:0:
192,192,172905,1,0,0:0:0:0:
64,192,172973,1,0,0:0:0:0:
448,192,173041,1,0,0:0:0:0:
320,192,173108,1,0,0:0:0:0:
64,192,173176,1,0,0:0:0:0:
192,192,173243,1,0,0:0:0:0:
448,192,173311,1,0,0:0:0:0:
320,192,173378,1,0,0:0:0:0:
64,192,173446,1,0,0:0:0:0:
192,192,173514,1,0,0:0:0:0:
448,192,173581,1,0,0:0:0:0:
320,192,173581,1,0,0:0:0:0:
64,192,173649,1,0,0:0:0:0:
192,192,173716,1,0,0:0:0:0:
320,192,173784,1,0,0:0:0:0:
448,192,173851,1,0,0:0:0:0:
192,192,173919,1,0,0:0:0:0:
64,192,173987,1,0,0:0:0:0:
448,192,174054,1,0,0:0:0:0:
320,192,174122,1,0,0:0:0:0:
192,192,174189,1,0,0:0:0:0:
64,192,174257,1,0,0:0:0:0:
448,192,174324,1,0,0:0:0:0:
320,192,174392,1,0,0:0:0:0:
64,192,174459,1,0,0:0:0:0:
192,192,174527,1,0,0:0:0:0:
320,192,174595,1,0,0:0:0:0:
448,192,174662,1,0,0:0:0:0:
64,192,174662,1,0,0:0:0:0:
192,192,174730,1,0,0:0:0:0:
448,192,174797,1,0,0:0:0:0:
320,192,174865,1,0,0:0:0:0:
192,192,174932,1,0,0:0:0:0:
64,192,175000,1,0,0:0:0:0:
320,192,175068,1,0,0:0:0:0:
448,192,175135,1,0,0:0:0:0:
64,192,175203,1,0,0:0:0:0:
192,192,175270,1,0,0:0:0:0:
320,192,175338,1,0,0:0:0:0:
448,192,175405,1,0,0:0:0:0:
192,192,175473,1,0,0:0:0:0:
64,192,175541,1,0,0:0:0:0:
448,192,175608,1,0,0:0:0:0:
320,192,175676,1,0,0:0:0:0:
192,192,175743,1,0,0:0:0:0:
64,192,175743,1,0,0:0:0:0:
320,192,175811,1,0,0:0:0:0:
448,192,175878,1,0,0:0:0:0:
64,192,175946,1,0,0:0:0:0:
192,192,176014,1,0,0:0:0:0:
448,192,176081,1,0,0:0:0:0:
320,192,176149,1,0,0:0:0:0:
192,192,176216,1,0,0:0:0:0:
64,192,176284,1,0,0:0:0:0:
448,192,176284,1,0,0:0:0:0:
320,192,176351,1,0,0:0:0:0:
64,192,176419,1,0,0:0:0:0:
192,192,176487,1,0,0:0:0:0:
320,192,176554,1,0,0:0:0:0:
448,192,176622,1,0,0:0:0:0:
64,192,176689,1,0,0:0:0:0:
192,192,176757,1,0,0:0:0:0:
320,192,176824,1,0,0:0:0:0:
448,192,176824,1,0,0:0:0:0:
192,192,176892,1,0,0:0:0:0:
64,192,176959,1,0,0:0:0:0:
448,192,177027,1,0,0:0:0:0:
320,192,177095,1,0,0:0:0:0:
192,192,177162,1,0,0:0:0:0:
64,192,177230,1,0,0:0:0:0:
448,192,177297,1,0,0:0:0:0:
320,192,177365,1,0,0:0:0:0:
64,192,177365,1,0,0:0:0:0:
192,192,177432,1,0,0:0:0:0:
320,192,177500,1,0,0:0:0:0:
448,192,177568,1,0,0:0:0:0:
192,192,177635,1,0,0:0:0:0:
64,192,177703,1,0,0:0:0:0:
448,192,177770,1,0,0:0:0:0:
320,192,177838,1,0,0:0:0:0:
192,192,177905,1,0,0:0:0:0:
64,192,177905,1,0,0:0:0:0:
320,192,177973,1,0,0:0:0:0:
448,192,178041,1,0,0:0:0:0:
64,192,178108,1,0,0:0:0:0:
192,192,178176,1,0,0:0:0:0:
448,192,178243,1,0,0:0:0:0:
320,192,178311,1,0,0:0:0:0:
192,192,178378,1,0,0:0:0:0:
64,192,178446,1,0,0:0:0:0:
448,192,178446,1,0,0:0:0:0:
320,192,178514,1,0,0:0:0:0:
64,192,178581,1,0,0:0:0:0:
192,192,178649,1,0,0:0:0:0:
320,192,178716,1,0,0:0:0:0:
448,192,178784,1,0,0:0:0:0:
64,192,178851,1,0,0:0:0:0:
192,192,178919,1,0,0:0:0:0:
320,192,178987,1,0,0:0:0:0:
448,192,178987,1,0,0:0:0:0:
192,192,179054,1,0,0:0:0:0:
64,192,179122,1,0,0:0:0:0:
448,192,179189,1,0,0:0:0:0:
320,192,179257,1,0,0:0:0:0:
64,192,179324,1,0,0:0:0:0:
192,192,179392,1,0,0:0:0:0:
320,192,179459,1,0,0:0:0:0:
448,192,179527,1,0,0:0:0:0:
64,192,179527,1,0,0:0:0:0:
192,192,179595,1,0,0:0:0:0:
448,192,179662,1,0,0:0:0:0:
320,192,179730,1,0,0:0:0:0:
192,192,179797,1,0,0:0:0:0:
64,192,179865,1,0,0:0:0:0:
448,192,179932,1,0,0:0:0:0:
320,192,180000,1,0,0:0:0:0:
192,192,180068,1,0,0:0:0:0:
64,192,180068,1,0,0:0:0:0:
320,192,180135,1,0,0:0:0:0:
448,192,180203,1,0,0:0:0:0:
64,192,180270,1,0,0:0:0:0:
192,192,180338,1,0,0:0:0:0:
448,192,180405,1,0,0:0:0:0:
320,192,180473,1,0,0:0:0:0:
192,192,180541,1,0,0:0:0:0:
64,192,180608,1,0,0:0:0:0:
448,192,180608,1,0,0:0:0:0:
320,192,180676,1,0,0:0:0:0:
64,192,180743,1,0,0:0:0:0:
192,192,180811,1,0,0:0:0:0:
320,192,180878,1,0,0:0:0:0:
448,192,180946,1,0,0:0:0:0:
192,192,181014,1,0,0:0:0:0:
64,192,181081,1,0,0:0:0:0:
320,192,181149,1,0,0:0:0:0:
448,192,181149,1,0,0:0:0:0:
64,192,181216,1,0,0:0:0:0:
448,192,181284,1,0,0:0:0:0:
320,192,181351,1,0,0:0:0:0:
192,192,181419,1,0,0:0:0:0:
64,192,181487,1,0,0:0:0:0:
320,192,181554,1,0,0:0:0:0:
448,192,181622,1,0,0:0:0:0:
64,192,181689,1,0,0:0:0:0:
192,192,181689,1,0,0:0:0:0:
448,192,181757,1,0,0:0:0:0:
320,192,181824,1,0,0:0:0:0:
192,192,181892,1,0,0:0:0:0:
64,192,181959,1,0,0:0:0:0:
448,192,182027,1,0,0:0:0:0:
320,192,182095,1,0,0:0:0:0:
192,192,182162,1,0,0:0:0:0:
448,192,182230,1,0,0:0:0:0:
64,192,182230,1,0,0:0:0:0:
320,192,182230,1,0,0:0:0:0:
448,192,182365,1,0,0:0:0:0:
192,192,182500,1,0,0:0:0:0:
64,192,182500,1,0,0:0:0:0:
320,192,182500,1,0,0:0:0:0:
64,192,182635,1,0,0:0:0:0:
192,192,182770,1,0,0:0:0:0:
320,192,182770,1,0,0:0:0:0:
448,192,182770,1,0,0:0:0:0:
320,192,182905,1,0,0:0:0:0:
448,192,183041,1,0,0:0:0:0:
192,192,183041,1,0,0:0:0:0:
64,192,183041,1,0,0:0:0:0:
192,192,183176,1,0,0:0:0:0:
320,192,183311,1,0,0:0:0:0:
448,192,183311,1,0,0:0:0:0:
448,192,183446,1,0,0:0:0:0:
320,192,183446,1,0,0:0:0:0:
192,192,183581,1,0,0:0:0:0:
64,192,183581,1,0,0:0:0:0:
192,192,183716,1,0,0:0:0:0:
64,192,183716,1,0,0:0:0:0:
448,192,183851,1,0,0:0:0:0:
64,192,183851,1,0,0:0:0:0:
448,192,184411,1,0,0:0:0:0:
320,192,184411,1,0,0:0:0:0:
192,192,184816,1,0,0:0:0:0:
64,192,184951,1,0,0:0:0:0:
448,192,184951,1,0,0:0:0:0:
320,192,185221,1,0,0:0:0:0:
192,192,185492,1,0,0:0:0:0:
64,192,185492,1,0,0:0:0:0:
192,192,185762,1,0,0:0:0:0:
64,192,185762,1,0,0:0:0:0:
448,192,186032,1,0,0:0:0:0:
64,192,186032,1,0,0:0:0:0:
320,192,186167,1,0,0:0:0:0:
320,192,186302,1,0,0:0:0:0:
192,192,186438,1,0,0:0:0:0:
64,192,186573,1,0,0:0:0:0:
448,192,186573,1,0,0:0:0:0:
320,192,186978,1,0,0:0:0:0:
192,192,187113,1,0,0:0:0:0:
64,192,187113,1,0,0:0:0:0:
64,192,187519,1,0,0:0:0:0:
320,192,187654,1,0,0:0:0:0:
448,192,187654,1,0,0:0:0:0:
448,192,187924,1,0,0:0:0:0:
64,192,187924,1,0,0:0:0:0:
192,192,188194,1,0,0:0:0:0:
64,192,188194,1,0,0:0:0:0:
448,192,188735,1,0,0:0:0:0:
192,192,188735,1,0,0:0:0:0:
320,192,189140,1,0,0:0:0:0:
192,192,189275,1,0,0:0:0:0:
64,192,189275,1,0,0:0:0:0:
64,192,189546,1,0,0:0:0:0:
320,192,189816,1,0,0:0:0:0:
448,192,189816,1,0,0:0:0:0:
320,192,190086,1,0,0:0:0:0:
448,192,190086,1,0,0:0:0:0:
448,192,190356,1,0,0:0:0:0:
64,192,190356,1,0,0:0:0:0:
192,192,190492,1,0,0:0:0:0:
192,192,190627,1,0,0:0:0:0:
320,192,190762,1,0,0:0:0:0:
448,192,190897,1,0,0:0:0:0:
64,192,190897,1,0,0:0:0:0:
320,192,191302,1,0,0:0:0:0:
448,192,191302,1,0,0:0:0:0:
192,192,191438,1,0,0:0:0:0:
64,192,191438,1,0,0:0:0:0:
448,192,191708,1,0,0:0:0:0:
64,192,191843,1,0,0:0:0:0:
320,192,191978,1,0,0:0:0:0:
448,192,191978,1,0,0:0:0:0:
64,192,192383,1,0,0:0:0:0:
192,192,192451,1,0,0:0:0:0:
320,192,192519,1,0,0:0:0:0:
448,192,192519,1,0,0:0:0:0:
448,192,193059,1,0,0:0:0:0:
64,192,193059,1,0,0:0:0:0:
192,192,193465,1,0,0:0:0:0:
320,192,193600,1,0,0:0:0:0:
448,192,193600,1,0,0:0:0:0:
64,192,193870,1,0,0:0:0:0:
320,192,194140,1,0,0:0:0:0:
448,192,194140,1,0,0:0:0:0:
320,192,194411,1,0,0:0:0:0:
448,192,194411,1,0,0:0:0:0:
64,192,194681,1,0,0:0:0:0:
448,192,194681,1,0,0:0:0:0:
192,192,194816,1,0,0:0:0:0:
192,192,194951,1,0,0:0:0:0:
448,192,195086,1,0,0:0:0:0:
320,192,195221,1,0,0:0:0:0:
64,192,195221,1,0,0:0:0:0:
192,192,195627,1,0,0:0:0:0:
448,192,195762,1,0,0:0:0:0:
64,192,195762,1,0,0:0:0:0:
320,192,196032,1,0,0:0:0:0:
448,192,196167,1,0,0:0:0:0:
192,192,196302,1,0,0:0:0:0:
64,192,196302,1,0,0:0:0:0:
192,192,196573,1,0,0:0:0:0:
64,192,196573,1,0,0:0:0:0:
64,192,196843,1,0,0:0:0:0:
448,192,196843,1,0,0:0:0:0:
320,192,196978,1,0,0:0:0:0:
192,192,197113,1,0,0:0:0:0:
64,192,197383,1,0,0:0:0:0:
448,192,197383,1,0,0:0:0:0:
192,192,197789,1,0,0:0:0:0:
320,192,197924,1,0,0:0:0:0:
448,192,197924,1,0,0:0:0:0:
192,192,198194,1,0,0:0:0:0:
64,192,198465,1,0,0:0:0:0:
448,192,198465,1,0,0:0:0:0:
448,192,198735,1,0,0:0:0:0:
64,192,198735,1,0,0:0:0:0:
192,192,199005,1,0,0:0:0:0:
448,192,199005,1,0,0:0:0:0:
320,192,199140,1,0,0:0:0:0:
320,192,199275,1,0,0:0:0:0:
192,192,199410,1,0,0:0:0:0:
64,192,199546,1,0,0:0:0:0:
448,192,199546,1,0,0:0:0:0:
448,192,199951,1,0,0:0:0:0:
64,192,199951,1,0,0:0:0:0:
192,192,200086,1,0,0:0:0:0:
320,192,200086,1,0,0:0:0:0:
448,192,200356,1,0,0:0:0:0:
64,192,200492,1,0,0:0:0:0:
448,192,200627,1,0,0:0:0:0:
320,192,200627,1,0,0:0:0:0:
64,192,201032,1,0,0:0:0:0:
192,192,201100,1,0,0:0:0:0:
320,192,201167,1,0,0:0:0:0:
448,192,201167,1,0,0:0:0:0:
192,192,201708,1,0,0:0:0:0:
448,192,201708,1,0,0:0:0:0:
64,192,201708,1,0,0:0:0:0:
320,192,201978,1,0,0:0:0:0:
320,192,202113,1,0,0:0:0:0:
64,192,202248,1,0,0:0:0:0:
448,192,202248,1,0,0:0:0:0:
192,192,202519,1,0,0:0:0:0:
192,192,202654,1,0,0:0:0:0:
448,192,202789,1,0,0:0:0:0:
320,192,202789,1,0,0:0:0:0:
192,192,202924,1,0,0:0:0:0:
64,192,203059,1,0,0:0:0:0:
64,192,203194,1,0,0:0:0:0:
192,192,203329,1,0,0:0:0:0:
448,192,203329,1,0,0:0:0:0:
320,192,203465,1,0,0:0:0:0:
320,192,203600,1,0,0:0:0:0:
64,192,203870,1,0,0:0:0:0:
448,192,203870,1,0,0:0:0:0:
192,192,204140,1,0,0:0:0:0:
192,192,204275,1,0,0:0:0:0:
448,192,204410,1,0,0:0:0:0:
320,192,204410,1,0,0:0:0:0:
64,192,204681,1,0,0:0:0:0:
448,192,204816,1,0,0:0:0:0:
192,192,204951,1,0,0:0:0:0:
320,192,204951,1,0,0:0:0:0:
192,192,205086,1,0,0:0:0:0:
448,192,205221,1,0,0:0:0:0:
448,192,205356,1,0,0:0:0:0:
64,192,205492,1,0,0:0:0:0:
320,192,205492,1,0,0:0:0:0:
192,192,205627,1,0,0:0:0:0:
192,192,205762,1,0,0:0:0:0:
448,192,206032,1,0,0:0:0:0:
320,192,206032,1,0,0:0:0:0:
64,192,206302,1,0,0:0:0:0:
448,192,206573,1,0,0:0:0:0:
192,192,206573,1,0,0:0:0:0:
320,192,206843,1,0,0:0:0:0:
320,192,206978,1,0,0:0:0:0:
64,192,207113,1,0,0:0:0:0:
192,192,207113,1,0,0:0:0:0:
320,192,207519,1,0,0:0:0:0:
448,192,207654,1,0,0:0:0:0:
64,192,207654,1,0,0:0:0:0:
192,192,207789,1,0,0:0:0:0:
320,192,207924,1,0,0:0:0:0:
448,192,208059,1,0,0:0:0:0:
64,192,208194,1,0,0:0:0:0:
192,192,208194,1,0,0:0:0:0:
320,192,208465,1,0,0:0:0:0:
320,192,208600,1,0,0:0:0:0:
64,192,208735,1,0,0:0:0:0:
448,192,208735,1,0,0:0:0:0:
192,192,209005,1,0,0:0:0:0:
192,192,209140,1,0,0:0:0:0:
320,192,209275,1,0,0:0:0:0:
448,192,209275,1,0,0:0:0:0:
64,192,209410,1,0,0:0:0:0:
192,192,209546,1,0,0:0:0:0:
320,192,209681,1,0,0:0:0:0:
448,192,209816,1,0,0:0:0:0:
64,192,209816,1,0,0:0:0:0:
192,192,209951,1,0,0:0:0:0:
320,192,210086,1,0,0:0:0:0:
192,192,210221,1,0,0:0:0:0:
64,192,210356,1,0,0:0:0:0:
448,192,210356,1,0,0:0:0:0:
320,192,210627,1,0,0:0:0:0:
320,192,210762,1,0,0:0:0:0:
64,192,210897,1,0,0:0:0:0:
192,192,210897,1,0,0:0:0:0:
448,192,211167,1,0,0:0:0:0:
320,192,211302,1,0,0:0:0:0:
192,192,211438,1,0,0:0:0:0:
64,192,211438,1,0,0:0:0:0:
448,192,211573,1,0,0:0:0:0:
64,192,211708,1,0,0:0:0:0:
192,192,211843,1,0,0:0:0:0:
448,192,211978,1,0,0:0:0:0:
320,192,211978,1,0,0:0:0:0:
64,192,212113,1,0,0:0:0:0:
64,192,212248,1,0,0:0:0:0:
448,192,212519,1,0,0:0:0:0:
192,192,212519,1,0,0:0:0:0:
320,192,212789,1,0,0:0:0:0:
320,192,212924,1,0,0:0:0:0:
64,192,213059,1,0,0:0:0:0:
448,192,213059,1,0,0:0:0:0:
192,192,213329,1,0,0:0:0:0:
320,192,213465,1,0,0:0:0:0:
64,192,213600,1,0,0:0:0:0:
192,192,213600,1,0,0:0:0:0:
448,192,213735,1,0,0:0:0:0:
448,192,213870,1,0,0:0:0:0:
64,192,214005,1,0,0:0:0:0:
320,192,214140,1,0,0:0:0:0:
448,192,214140,1,0,0:0:0:0:
192,192,214275,1,0,0:0:0:0:
192,192,214410,1,0,0:0:0:0:
64,192,214681,1,0,0:0:0:0:
448,192,214681,1,0,0:0:0:0:
320,192,214951,1,0,0:0:0:0:
320,192,215086,1,0,0:0:0:0:
64,192,215221,1,0,0:0:0:0:
192,192,215221,1,0,0:0:0:0:
448,192,215356,1,0,0:0:0:0:
320,192,215492,1,0,0:0:0:0:
192,192,215627,1,0,0:0:0:0:
448,192,215762,1,0,0:0:0:0:
64,192,215762,1,0,0:0:0:0:
320,192,215897,1,0,0:0:0:0:
320,192,216032,1,0,0:0:0:0:
192,192,216167,1,0,0:0:0:0:
64,192,216302,1,0,0:0:0:0:
448,192,216302,1,0,0:0:0:0:
192,192,216438,1,0,0:0:0:0:
320,192,216573,1,0,0:0:0:0:
448,192,216708,1,0,0:0:0:0:
64,192,216843,1,0,0:0:0:0:
192,192,216843,1,0,0:0:0:0:
448,192,216978,1,0,0:0:0:0:
320,192,217113,1,0,0:0:0:0:
192,192,217248,1,0,0:0:0:0:
448,192,217383,1,0,0:0:0:0:
64,192,217383,1,0,0:0:0:0:
192,192,217519,1,0,0:0:0:0:
320,192,217654,1,0,0:0:0:0:
448,192,217789,1,0,0:0:0:0:
64,192,217924,1,0,0:0:0:0:
192,192,217924,1,0,0:0:0:0:
448,192,218059,1,0,0:0:0:0:
320,192,218194,1,0,0:0:0:0:
192,192,218329,1,0,0:0:0:0:
64,192,218465,1,0,0:0:0:0:
448,192,218465,1,0,0:0:0:0:
192,192,218600,1,0,0:0:0:0:
320,192,218735,1,0,0:0:0:0:
192,192,218870,1,0,0:0:0:0:
64,192,219005,1,0,0:0:0:0:
448,192,219005,1,0,0:0:0:0:
320,192,219140,1,0,0:0:0:0:
320,192,219275,1,0,0:0:0:0:
192,192,219410,1,0,0:0:0:0:
64,192,219410,1,0,0:0:0:0:
320,192,219546,1,0,0:0:0:0:
448,192,219546,1,0,0:0:0:0:
192,192,219681,1,0,0:0:0:0:
64,192,219816,1,0,0:0:0:0:
448,192,219816,1,0,0:0:0:0:
320,192,219951,1,0,0:0:0:0:
192,192,220086,1,0,0:0:0:0:
64,192,220086,1,0,0:0:0:0:
448,192,220221,1,0,0:0:0:0:
448,192,220356,1,0,0:0:0:0:
320,192,220492,1,0,0:0:0:0:
64,192,220492,1,0,0:0:0:0:
192,192,220627,1,0,0:0:0:0:
448,192,220627,1,0,0:0:0:0:
320,192,220762,1,0,0:0:0:0:
192,192,220897,1,0,0:0:0:0:
64,192,220897,1,0,0:0:0:0:
320,192,221032,1,0,0:0:0:0:
448,192,221167,1,0,0:0:0:0:
64,192,221167,1,0,0:0:0:0:
192,192,221302,1,0,0:0:0:0:
192,192,221438,1,0,0:0:0:0:
320,192,221573,1,0,0:0:0:0:
448,192,221573,1,0,0:0:0:0:
192,192,221708,1,0,0:0:0:0:
64,192,221708,1,0,0:0:0:0:
448,192,221843,1,0,0:0:0:0:
320,192,221978,1,0,0:0:0:0:
64,192,221978,1,0,0:0:0:0:
192,192,222113,1,0,0:0:0:0:
320,192,222248,1,0,0:0:0:0:
448,192,222248,1,0,0:0:0:0:
64,192,222383,1,0,0:0:0:0:
64,192,222519,1,0,0:0:0:0:
192,192,222654,1,0,0:0:0:0:
448,192,222654,1,0,0:0:0:0:
320,192,222789,1,0,0:0:0:0:
64,192,222789,1,0,0:0:0:0:
192,192,222924,1,0,0:0:0:0:
320,192,223059,1,0,0:0:0:0:
448,192,223059,1,0,0:0:0:0:
64,192,223194,1,0,0:0:0:0:
448,192,223329,1,0,0:0:0:0:
192,192,223329,1,0,0:0:0:0:
320,192,223465,1,0,0:0:0:0:
320,192,223600,1,0,0:0:0:0:
192,192,223735,1,0,0:0:0:0:
64,192,223735,1,0,0:0:0:0:
320,192,223870,1,0,0:0:0:0:
448,192,223870,1,0,0:0:0:0:
192,192,224005,1,0,0:0:0:0:
64,192,224140,1,0,0:0:0:0:
448,192,224140,1,0,0:0:0:0:
320,192,224275,1,0,0:0:0:0:
192,192,224410,1,0,0:0:0:0:
64,192,224410,1,0,0:0:0:0:
448,192,224546,1,0,0:0:0:0:
448,192,224681,1,0,0:0:0:0:
320,192,224816,1,0,0:0:0:0:
64,192,224816,1,0,0:0:0:0:
192,192,224951,1,0,0:0:0:0:
448,192,224951,1,0,0:0:0:0:
320,192,225086,1,0,0:0:0:0:
192,192,225221,1,0,0:0:0:0:
64,192,225221,1,0,0:0:0:0:
320,192,225356,1,0,0:0:0:0:
448,192,225492,1,0,0:0:0:0:
64,192,225492,1,0,0:0:0:0:
192,192,225627,1,0,0:0:0:0:
192,192,225762,1,0,0:0:0:0:
320,192,225897,1,0,0:0:0:0:
448,192,225897,1,0,0:0:0:0:
192,192,226032,1,0,0:0:0:0:
64,192,226032,1,0,0:0:0:0:
448,192,226167,1,0,0:0:0:0:
320,192,226302,1,0,0:0:0:0:
64,192,226302,1,0,0:0:0:0:
192,192,226438,1,0,0:0:0:0:
320,192,226573,1,0,0:0:0:0:
448,192,226573,1,0,0:0:0:0:
64,192,226708,1,0,0:0:0:0:
64,192,226843,1,0,0:0:0:0:
192,192,226978,1,0,0:0:0:0:
320,192,226978,1,0,0:0:0:0:
64,192,227113,1,0,0:0:0:0:
448,192,227113,1,0,0:0:0:0:
192,192,227248,1,0,0:0:0:0:
448,192,227383,1,0,0:0:0:0:
320,192,227383,1,0,0:0:0:0:
320,192,227519,1,0,0:0:0:0:
448,192,227654,1,0,0:0:0:0:
64,192,227654,1,0,0:0:0:0:
192,192,227654,1,0,0:0:0:0:
320,192,227789,1,0,0:0:0:0:
320,192,227924,1,0,0:0:0:0:
64,192,228059,1,0,0:0:0:0:
192,192,228059,1,0,0:0:0:0:
448,192,228194,1,0,0:0:0:0:
320,192,228194,1,0,0:0:0:0:
192,192,228329,1,0,0:0:0:0:
448,192,228465,1,0,0:0:0:0:
64,192,228465,1,0,0:0:0:0:
320,192,228600,1,0,0:0:0:0:
64,192,228735,1,0,0:0:0:0:
192,192,228735,1,0,0:0:0:0:
448,192,228870,1,0,0:0:0:0:
448,192,229005,1,0,0:0:0:0:
64,192,229140,1,0,0:0:0:0:
320,192,229140,1,0,0:0:0:0:
448,192,229275,1,0,0:0:0:0:
192,192,229275,1,0,0:0:0:0:
320,192,229410,1,0,0:0:0:0:
64,192,229546,1,0,0:0:0:0:
192,192,229546,1,0,0:0:0:0:
320,192,229681,1,0,0:0:0:0:
64,192,229816,1,0,0:0:0:0:
448,192,229816,1,0,0:0:0:0:
192,192,229951,1,0,0:0:0:0:
192,192,230086,1,0,0:0:0:0:
448,192,230221,1,0,0:0:0:0:
320,192,230221,1,0,0:0:0:0:
64,192,230356,1,0,0:0:0:0:
192,192,230356,1,0,0:0:0:0:
448,192,230492,1,0,0:0:0:0:
64,192,230627,1,0,0:0:0:0:
320,192,230627,1,0,0:0:0:0:
192,192,230762,1,0,0:0:0:0:
448,192,230897,1,0,0:0:0:0:
320,192,230897,1,0,0:0:0:0:
64,192,231032,1,0,0:0:0:0:
64,192,231167,1,0,0:0:0:0:
448,192,231302,1,0,0:0:0:0:
192,192,231302,1,0,0:0:0:0:
64,192,231438,1,0,0:0:0:0:
320,192,231438,1,0,0:0:0:0:
192,192,231573,1,0,0:0:0:0:
448,192,231708,1,0,0:0:0:0:
320,192,231708,1,0,0:0:0:0:
64,192,231843,1,0,0:0:0:0:
192,192,231978,1,0,0:0:0:0:
448,192,231978,1,0,0:0:0:0:
320,192,232113,1,0,0:0:0:0:
320,192,232248,1,0,0:0:0:0:
192,192,232383,1,0,0:0:0:0:
64,192,232383,1,0,0:0:0:0:
320,192,232519,1,0,0:0:0:0:
448,192,232519,1,0,0:0:0:0:
192,192,232654,1,0,0:0:0:0:
64,192,232789,1,0,0:0:0:0:
448,192,232789,1,0,0:0:0:0:
320,192,232924,1,0,0:0:0:0:
192,192,233059,1,0,0:0:0:0:
64,192,233059,1,0,0:0:0:0:
448,192,233194,1,0,0:0:0:0:
448,192,233329,1,0,0:0:0:0:
320,192,233465,1,0,0:0:0:0:
64,192,233465,1,0,0:0:0:0:
192,192,233600,1,0,0:0:0:0:
448,192,233600,1,0,0:0:0:0:
320,192,233735,1,0,0:0:0:0:
192,192,233870,1,0,0:0:0:0:
64,192,233870,1,0,0:0:0:0:
320,192,234005,1,0,0:0:0:0:
448,192,234140,1,0,0:0:0:0:
64,192,234140,1,0,0:0:0:0:
192,192,234275,1,0,0:0:0:0:
192,192,234410,1,0,0:0:0:0:
320,192,234546,1,0,0:0:0:0:
448,192,234546,1,0,0:0:0:0:
192,192,234681,1,0,0:0:0:0:
64,192,234681,1,0,0:0:0:0:
448,192,234816,1,0,0:0:0:0:
320,192,234951,1,0,0:0:0:0:
64,192,234951,1,0,0:0:0:0:
192,192,235086,1,0,0:0:0:0:
320,192,235221,1,0,0:0:0:0:
448,192,235221,1,0,0:0:0:0:
64,192,235356,1,0,0:0:0:0:
64,192,235492,1,0,0:0:0:0:
192,192,235627,1,0,0:0:0:0:
320,192,235627,1,0,0:0:0:0:
64,192,235762,1,0,0:0:0:0:
448,192,235762,1,0,0:0:0:0:
320,192,235897,1,0,0:0:0:0:
192,192,236032,1,0,0:0:0:0:
64,192,236032,1,0,0:0:0:0:
192,192,236167,1,0,0:0:0:0:
448,192,236302,1,0,0:0:0:0:
64,192,236302,1,0,0:0:0:0:
320,192,236302,1,0,0:0:0:0:
192,192,236438,1,0,0:0:0:0:
192,192,236573,1,0,0:0:0:0:
192,192,236708,1,0,0:0:0:0:
320,192,236843,1,0,0:0:0:0:
448,192,236843,1,0,0:0:0:0:
64,192,236978,1,0,0:0:0:0:
64,192,237113,1,0,0:0:0:0:
64,192,237248,1,0,0:0:0:0:
192,192,237383,1,0,0:0:0:0:
448,192,237383,1,0,0:0:0:0:
320,192,237519,1,0,0:0:0:0:
320,192,237654,1,0,0:0:0:0:
320,192,237789,1,0,0:0:0:0:
192,192,237924,1,0,0:0:0:0:
64,192,237924,1,0,0:0:0:0:
448,192,238059,1,0,0:0:0:0:
448,192,238194,1,0,0:0:0:0:
448,192,238329,1,0,0:0:0:0:
320,192,238465,1,0,0:0:0:0:
64,192,238465,1,0,0:0:0:0:
64,192,238600,1,0,0:0:0:0:
320,192,238735,1,0,0:0:0:0:
448,192,238735,1,0,0:0:0:0:
448,192,238870,1,0,0:0:0:0:
192,192,239005,1,0,0:0:0:0:
64,192,239005,1,0,0:0:0:0:
192,192,239140,1,0,0:0:0:0:
320,192,239275,1,0,0:0:0:0:
448,192,239275,1,0,0:0:0:0:
64,192,239410,1,0,0:0:0:0:
320,192,239546,1,0,0:0:0:0:
448,192,239546,1,0,0:0:0:0:
192,192,239681,1,0,0:0:0:0:
64,192,239681,1,0,0:0:0:0:
64,192,239816,1,0,0:0:0:0:
448,192,239816,1,0,0:0:0:0:
448,192,239951,1,0,0:0:0:0:
320,192,240086,1,0,0:0:0:0:
64,192,240086,1,0,0:0:0:0:
320,192,240221,1,0,0:0:0:0:
64,192,240356,1,0,0:0:0:0:
448,192,240356,1,0,0:0:0:0:
64,192,240492,1,0,0:0:0:0:
320,192,240627,1,0,0:0:0:0:
448,192,240627,1,0,0:0:0:0:
192,192,240762,1,0,0:0:0:0:
192,192,240897,1,0,0:0:0:0:
192,192,241032,1,0,0:0:0:0:
64,192,241167,1,0,0:0:0:0:
448,192,241167,1,0,0:0:0:0:
320,192,241302,1,0,0:0:0:0:
320,192,241438,1,0,0:0:0:0:
320,192,241573,1,0,0:0:0:0:
192,192,241708,1,0,0:0:0:0:
64,192,241708,1,0,0:0:0:0:
448,192,241843,1,0,0:0:0:0:
448,192,241978,1,0,0:0:0:0:
448,192,242113,1,0,0:0:0:0:
320,192,242248,1,0,0:0:0:0:
192,192,242248,1,0,0:0:0:0:
64,192,242383,1,0,0:0:0:0:
64,192,242519,1,0,0:0:0:0:
64,192,242654,1,0,0:0:0:0:
192,192,242789,1,0,0:0:0:0:
448,192,242789,1,0,0:0:0:0:
448,192,242924,1,0,0:0:0:0:
64,192,243059,1,0,0:0:0:0:
320,192,243059,1,0,0:0:0:0:
64,192,243194,1,0,0:0:0:0:
320,192,243329,1,0,0:0:0:0:
448,192,243329,1,0,0:0:0:0:
448,192,243465,1,0,0:0:0:0:
64,192,243600,1,0,0:0:0:0:
192,192,243600,1,0,0:0:0:0:
448,192,243735,1,0,0:0:0:0:
192,192,243870,1,0,0:0:0:0:
64,192,243870,1,0,0:0:0:0:
320,192,244005,1,0,0:0:0:0:
448,192,244005,1,0,0:0:0:0:
64,192,244140,1,0,0:0:0:0:
448,192,244140,1,0,0:0:0:0:
64,192,244275,1,0,0:0:0:0:
192,192,244410,1,0,0:0:0:0:
448,192,244410,1,0,0:0:0:0:
192,192,244546,1,0,0:0:0:0:
448,192,244681,1,0,0:0:0:0:
64,192,244681,1,0,0:0:0:0:
448,192,244816,1,0,0:0:0:0:
192,192,244951,1,0,0:0:0:0:
64,192,244951,1,0,0:0:0:0:
320,192,245086,1,0,0:0:0:0:
320,192,245221,1,0,0:0:0:0:
320,192,245356,1,0,0:0:0:0:
64,192,245492,1,0,0:0:0:0:
192,192,245492,1,0,0:0:0:0:
448,192,245627,1,0,0:0:0:0:
448,192,245762,1,0,0:0:0:0:
448,192,245897,1,0,0:0:0:0:
320,192,246032,1,0,0:0:0:0:
64,192,246032,1,0,0:0:0:0:
192,192,246167,1,0,0:0:0:0:
192,192,246302,1,0,0:0:0:0:
192,192,246438,1,0,0:0:0:0:
320,192,246573,1,0,0:0:0:0:
448,192,246573,1,0,0:0:0:0:
64,192,246708,1,0,0:0:0:0:
64,192,246843,1,0,0:0:0:0:
64,192,246978,1,0,0:0:0:0:
448,192,247113,1,0,0:0:0:0:
192,192,247113,1,0,0:0:0:0:
448,192,247248,1,0,0:0:0:0:
192,192,247383,1,0,0:0:0:0:
64,192,247383,1,0,0:0:0:0:
64,192,247519,1,0,0:0:0:0:
448,192,247654,1,0,0:0:0:0:
320,192,247654,1,0,0:0:0:0:
320,192,247789,1,0,0:0:0:0:
192,192,247924,1,0,0:0:0:0:
64,192,247924,1,0,0:0:0:0:
448,192,248059,1,0,0:0:0:0:
64,192,248194,1,0,0:0:0:0:
192,192,248194,1,0,0:0:0:0:
320,192,248329,1,0,0:0:0:0:
448,192,248329,1,0,0:0:0:0:
448,192,248465,1,0,0:0:0:0:
64,192,248465,1,0,0:0:0:0:
64,192,248600,1,0,0:0:0:0:
192,192,248735,1,0,0:0:0:0:
448,192,248735,1,0,0:0:0:0:
192,192,248870,1,0,0:0:0:0:
64,192,249005,1,0,0:0:0:0:
448,192,249005,1,0,0:0:0:0:
448,192,249140,1,0,0:0:0:0:
192,192,249275,1,0,0:0:0:0:
64,192,249275,1,0,0:0:0:0:
320,192,249410,1,0,0:0:0:0:
320,192,249546,1,0,0:0:0:0:
320,192,249681,1,0,0:0:0:0:
448,192,249816,1,0,0:0:0:0:
64,192,249816,1,0,0:0:0:0:
192,192,249951,1,0,0:0:0:0:
192,192,250086,1,0,0:0:0:0:
192,192,250221,1,0,0:0:0:0:
320,192,250356,1,0,0:0:0:0:
448,192,250356,1,0,0:0:0:0:
64,192,250492,1,0,0:0:0:0:
64,192,250627,1,0,0:0:0:0:
64,192,250762,1,0,0:0:0:0:
192,192,250897,1,0,0:0:0:0:
320,192,250897,1,0,0:0:0:0:
448,192,251032,1,0,0:0:0:0:
448,192,251167,1,0,0:0:0:0:
448,192,251302,1,0,0:0:0:0:
320,192,251438,1,0,0:0:0:0:
64,192,251438,1,0,0:0:0:0:
64,192,251573,1,0,0:0:0:0:
448,192,251708,1,0,0:0:0:0:
192,192,251708,1,0,0:0:0:0:
448,192,251843,1,0,0:0:0:0:
192,192,251978,1,0,0:0:0:0:
64,192,251978,1,0,0:0:0:0:
64,192,252113,1,0,0:0:0:0:
448,192,252248,1,0,0:0:0:0:
320,192,252248,1,0,0:0:0:0:
64,192,252383,1,0,0:0:0:0:
320,192,252519,1,0,0:0:0:0:
448,192,252519,1,0,0:0:0:0:
64,192,252654,1,0,0:0:0:0:
192,192,252654,1,0,0:0:0:0:
448,192,252789,1,0,0:0:0:0:
64,192,252789,1,0,0:0:0:0:
448,192,252924,1,0,0:0:0:0:
64,192,253059,1,0,0:0:0:0:
320,192,253059,1,0,0:0:0:0:
320,192,253194,1,0,0:0:0:0:
448,192,253329,1,0,0:0:0:0:
64,192,253329,1,0,0:0:0:0:
64,192,253465,1,0,0:0:0:0:
320,192,253600,1,0,0:0:0:0:
448,192,253600,1,0,0:0:0:0:
192,192,253600,1,0,0:0:0:0:
64,192,254005,1,0,0:0:0:0:
320,192,254005,1,0,0:0:0:0:
64,192,254275,1,0,0:0:0:0:
320,192,254410,1,0,0:0:0:0:
448,192,254410,1,0,0:0:0:0:
320,192,254546,1,0,0:0:0:0:
192,192,254681,1,0,0:0:0:0:
448,192,254816,1,0,0:0:0:0:
64,192,254951,1,0,0:0:0:0:
192,192,254951,1,0,0:0:0:0:
320,192,255086,1,0,0:0:0:0:
448,192,255221,1,0,0:0:0:0:
64,192,255221,1,0,0:0:0:0:
64,192,255762,1,0,0:0:0:0:
448,192,255762,1,0,0:0:0:0:
320,192,255897,1,0,0:0:0:0:
320,192,256032,1,0,0:0:0:0:
192,192,256167,1,0,0:0:0:0:
64,192,256167,1,0,0:0:0:0:
320,192,256438,1,0,0:0:0:0:
64,192,256573,1,0,0:0:0:0:
448,192,256573,1,0,0:0:0:0:
192,192,256708,1,0,0:0:0:0:
320,192,256843,1,0,0:0:0:0:
448,192,256978,1,0,0:0:0:0:
192,192,257113,1,0,0:0:0:0:
64,192,257113,1,0,0:0:0:0:
448,192,257248,1,0,0:0:0:0:
320,192,257383,1,0,0:0:0:0:
64,192,257383,1,0,0:0:0:0:
192,192,257519,1,0,0:0:0:0:
64,192,257654,1,0,0:0:0:0:
448,192,257654,1,0,0:0:0:0:
64,192,257924,1,0,0:0:0:0:
320,192,257924,1,0,0:0:0:0:
448,192,257924,1,0,0:0:0:0:
192,192,258329,1,0,0:0:0:0:
320,192,258329,1,0,0:0:0:0:
192,192,258600,1,0,0:0:0:0:
64,192,258735,1,0,0:0:0:0:
448,192,258735,1,0,0:0:0:0:
320,192,258870,1,0,0:0:0:0:
320,192,259005,1,0,0:0:0:0:
192,192,259140,1,0,0:0:0:0:
64,192,259275,1,0,0:0:0:0:
448,192,259275,1,0,0:0:0:0:
320,192,259410,1,0,0:0:0:0:
192,192,259546,1,0,0:0:0:0:
64,192,259546,1,0,0:0:0:0:
448,192,260086,1,0,0:0:0:0:
192,192,260086,1,0,0:0:0:0:
320,192,260221,1,0,0:0:0:0:
192,192,260356,1,0,0:0:0:0:
320,192,260492,1,0,0:0:0:0:
64,192,260492,1,0,0:0:0:0:
64,192,260762,1,0,0:0:0:0:
320,192,260897,1,0,0:0:0:0:
448,192,260897,1,0,0:0:0:0:
192,192,261167,1,0,0:0:0:0:
64,192,261438,1,0,0:0:0:0:
448,192,261438,1,0,0:0:0:0:
320,192,261573,1,0,0:0:0:0:
192,192,261708,1,0,0:0:0:0:
448,192,261708,1,0,0:0:0:0:
64,192,261843,1,0,0:0:0:0:
320,192,261978,1,0,0:0:0:0:
448,192,261978,1,0,0:0:0:0:
192,192,262248,1,0,0:0:0:0:
64,192,262248,1,0,0:0:0:0:
448,192,262248,1,0,0:0:0:0:
320,192,262654,1,0,0:0:0:0:
192,192,262654,1,0,0:0:0:0:
64,192,262924,1,0,0:0:0:0:
320,192,263059,1,0,0:0:0:0:
448,192,263059,1,0,0:0:0:0:
192,192,263194,1,0,0:0:0:0:
192,192,263329,1,0,0:0:0:0:
320,192,263465,1,0,0:0:0:0:
448,192,263600,1,0,0:0:0:0:
64,192,263600,1,0,0:0:0:0:
192,192,263735,1,0,0:0:0:0:
320,192,263870,1,0,0:0:0:0:
448,192,263870,1,0,0:0:0:0:
64,192,264410,1,0,0:0:0:0:
320,192,264410,1,0,0:0:0:0:
448,192,264546,1,0,0:0:0:0:
320,192,264816,1,0,0:0:0:0:
448,192,264816,1,0,0:0:0:0:
64,192,264951,1,0,0:0:0:0:
192,192,265086,1,0,0:0:0:0:
448,192,265221,1,0,0:0:0:0:
64,192,265221,1,0,0:0:0:0:
320,192,265356,1,0,0:0:0:0:
192,192,265492,1,0,0:0:0:0:
192,192,265627,1,0,0:0:0:0:
320,192,265762,1,0,0:0:0:0:
448,192,265762,1,0,0:0:0:0:
64,192,265897,1,0,0:0:0:0:
192,192,266032,1,0,0:0:0:0:
448,192,266032,1,0,0:0:0:0:
320,192,266167,1,0,0:0:0:0:
192,192,266302,1,0,0:0:0:0:
64,192,266302,1,0,0:0:0:0:
192,192,266438,1,0,0:0:0:0:
64,192,266573,1,0,0:0:0:0:
448,192,266573,1,0,0:0:0:0:
320,192,266573,1,0,0:0:0:0:
320,192,266843,1,0,0:0:0:0:
192,192,266978,1,0,0:0:0:0:
64,192,266978,1,0,0:0:0:0:
320,192,267248,1,0,0:0:0:0:
64,192,267383,1,0,0:0:0:0:
448,192,267383,1,0,0:0:0:0:
192,192,267519,1,0,0:0:0:0:
192,192,267654,1,0,0:0:0:0:
320,192,267789,1,0,0:0:0:0:
448,192,267924,1,0,0:0:0:0:
64,192,267924,1,0,0:0:0:0:
192,192,268059,1,0,0:0:0:0:
320,192,268194,1,0,0:0:0:0:
448,192,268194,1,0,0:0:0:0:
64,192,268329,1,0,0:0:0:0:
320,192,268465,1,0,0:0:0:0:
320,192,268600,1,0,0:0:0:0:
64,192,268735,1,0,0:0:0:0:
448,192,268735,1,0,0:0:0:0:
448,192,269005,1,0,0:0:0:0:
320,192,269140,1,0,0:0:0:0:
64,192,269140,1,0,0:0:0:0:
64,192,269410,1,0,0:0:0:0:
320,192,269546,1,0,0:0:0:0:
448,192,269546,1,0,0:0:0:0:
192,192,269726,1,0,0:0:0:0:
64,192,269951,1,0,0:0:0:0:
320,192,270086,1,0,0:0:0:0:
448,192,270086,1,0,0:0:0:0:
192,192,270266,1,0,0:0:0:0:
64,192,270356,1,0,0:0:0:0:
448,192,270356,1,0,0:0:0:0:
320,192,270627,1,0,0:0:0:0:
192,192,270627,1,0,0:0:0:0:
448,192,270897,1,0,0:0:0:0:
320,192,270942,1,0,0:0:0:0:
64,192,270987,1,0,0:0:0:0:
448,192,271100,1,0,0:0:0:0:
