osu file format v14

[General]
AudioFilename: audio.mp3
AudioLeadIn: 0
PreviewTime: 76481
Countdown: 1
SampleSet: Normal
StackLeniency: 0.7
Mode: 3
LetterboxInBreaks: 0
SpecialStyle: 0
WidescreenStoryboard: 0

[Editor]
Bookmarks: 18766,37052,59909,78195,114623
DistanceSpacing: 1.1
BeatDivisor: 4
GridSize: 4
TimelineZoom: 1.6

[Metadata]
Title:BAVEL (Akira Complex Remix)
TitleUnicode:BAVEL (Akira Complex Remix)
Artist:Fang feat. Kanae Asaba
ArtistUnicode:Fang feat. Kanae Asaba
Creator:Azubeur
Version:Arashi
Source:
Tags:
BeatmapID:1534762
BeatmapSetID:726938

[Difficulty]
HPDrainRate:5
CircleSize:4
OverallDifficulty:5
ApproachRate:5
SliderMultiplier:1.4
SliderTickRate:1

[Events]
//Background and Video events
0,0,"wallhaven-618817.jpg",0,0
//Break Periods
//Storyboard Layer 0 (Background)
//Storyboard Layer 1 (Fail)
//Storyboard Layer 2 (Pass)
//Storyboard Layer 3 (Foreground)
//Storyboard Sound Samples

[TimingPoints]
481,571.428571428571,4,1,0,100,1,0

[HitObjects]
448,192,481,5,0,0:0:0:0:
64,192,481,1,0,0:0:0:0:
192,192,623,1,0,0:0:0:0:
320,192,766,1,0,0:0:0:0:
192,192,909,1,0,0:0:0:0:
64,192,1052,1,0,0:0:0:0:
320,192,1052,1,0,0:0:0:0:
448,192,1195,1,0,0:0:0:0:
192,192,1338,1,0,0:0:0:0:
448,192,1481,1,0,0:0:0:0:
64,192,1623,1,0,0:0:0:0:
192,192,1623,1,0,0:0:0:0:
320,192,1766,1,0,0:0:0:0:
192,192,1909,1,0,0:0:0:0:
320,192,2052,1,0,0:0:0:0:
64,192,2195,1,0,0:0:0:0:
192,192,2195,1,0,0:0:0:0:
448,192,2338,1,0,0:0:0:0:
64,192,2481,1,0,0:0:0:0:
320,192,2766,1,0,0:0:0:0:
64,192,2766,1,0,0:0:0:0:
192,192,2909,1,0,0:0:0:0:
448,192,3052,1,0,0:0:0:0:
192,192,3195,1,0,0:0:0:0:
320,192,3338,1,0,0:0:0:0:
448,192,3338,1,0,0:0:0:0:
64,192,3481,1,0,0:0:0:0:
320,192,3623,1,0,0:0:0:0:
64,192,3766,1,0,0:0:0:0:
192,192,3909,1,0,0:0:0:0:
320,192,3909,1,0,0:0:0:0:
448,192,4052,1,0,0:0:0:0:
64,192,4195,1,0,0:0:0:0:
448,192,4338,1,0,0:0:0:0:
320,192,4481,1,0,0:0:0:0:
64,192,4481,1,0,0:0:0:0:
192,192,4623,1,0,0:0:0:0:
320,192,4766,1,0,0:0:0:0:
192,192,5052,1,0,0:0:0:0:
320,192,5052,1,0,0:0:0:0:
448,192,5195,1,0,0:0:0:0:
192,192,5338,1,0,0:0:0:0:
448,192,5481,1,0,0:0:0:0:
320,192,5623,1,0,0:0:0:0:
64,192,5623,1,0,0:0:0:0:
192,192,5766,1,0,0:0:0:0:
320,192,5909,1,0,0:0:0:0:
192,192,6052,1,0,0:0:0:0:
448,192,6195,1,0,0:0:0:0:
64,192,6195,1,0,0:0:0:0:
320,192,6338,1,0,0:0:0:0:
448,192,6481,1,0,0:0:0:0:
320,192,6623,1,0,0:0:0:0:
192,192,6766,1,0,0:0:0:0:
64,192,6766,1,0,0:0:0:0:
448,192,6909,1,0,0:0:0:0:
192,192,7052,1,0,0:0:0:0:
192,192,7338,1,0,0:0:0:0:
448,192,7338,1,0,0:0:0:0:
320,192,7481,1,0,0:0:0:0:
64,192,7623,1,0,0:0:0:0:
320,192,7766,1,0,0:0:0:0:
192,192,7909,1,0,0:0:0:0:
448,192,7909,1,0,0:0:0:0:
64,192,8052,1,0,0:0:0:0:
448,192,8195,1,0,0:0:0:0:
64,192,8338,1,0,0:0:0:0:
320,192,8481,1,0,0:0:0:0:
192,192,8481,1,0,0:0:0:0:
448,192,8623,1,0,0:0:0:0:
320,192,8766,1,0,0:0:0:0:
448,192,8909,1,0,0:0:0:0:
320,192,9052,1,0,0:0:0:0:
64,192,9052,1,0,0:0:0:0:
192,192,9195,1,0,0:0:0:0:
320,192,9338,1,0,0:0:0:0:
64,192,9481,1,0,0:0:0:0:
64,192,9623,1,0,0:0:0:0:
192,192,9623,1,0,0:0:0:0:
320,192,9623,1,0,0:0:0:0:
448,192,9766,1,0,0:0:0:0:
320,192,9909,1,0,0:0:0:0:
448,192,10052,1,0,0:0:0:0:
64,192,10195,1,0,0:0:0:0:
320,192,10195,1,0,0:0:0:0:
192,192,10338,1,0,0:0:0:0:
320,192,10481,1,0,0:0:0:0:
192,192,10623,1,0,0:0:0:0:
448,192,10766,1,0,0:0:0:0:
64,192,10766,1,0,0:0:0:0:
320,192,10909,1,0,0:0:0:0:
64,192,11052,1,0,0:0:0:0:
320,192,11195,1,0,0:0:0:0:
192,192,11338,1,0,0:0:0:0:
448,192,11338,1,0,0:0:0:0:
64,192,11481,1,0,0:0:0:0:
192,192,11623,1,0,0:0:0:0:
192,192,11909,1,0,0:0:0:0:
320,192,11909,1,0,0:0:0:0:
448,192,12052,1,0,0:0:0:0:
320,192,12195,1,0,0:0:0:0:
448,192,12338,1,0,0:0:0:0:
64,192,12481,1,0,0:0:0:0:
320,192,12481,1,0,0:0:0:0:
192,192,12623,1,0,0:0:0:0:
64,192,12766,1,0,0:0:0:0:
192,192,12909,1,0,0:0:0:0:
320,192,13052,1,0,0:0:0:0:
448,192,13052,1,0,0:0:0:0:
64,192,13195,1,0,0:0:0:0:
448,192,13338,1,0,0:0:0:0:
64,192,13481,1,0,0:0:0:0:
192,192,13623,1,0,0:0:0:0:
320,192,13623,1,0,0:0:0:0:
448,192,13766,1,0,0:0:0:0:
320,192,13909,1,0,0:0:0:0:
320,192,14195,1,0,0:0:0:0:
64,192,14195,1,0,0:0:0:0:
192,192,14338,1,0,0:0:0:0:
64,192,14481,1,0,0:0:0:0:
192,192,14623,1,0,0:0:0:0:
320,192,14766,1,0,0:0:0:0:
448,192,14766,1,0,0:0:0:0:
64,192,14909,1,0,0:0:0:0:
320,192,15052,1,0,0:0:0:0:
64,192,15195,1,0,0:0:0:0:
192,192,15338,1,0,0:0:0:0:
448,192,15338,1,0,0:0:0:0:
320,192,15481,1,0,0:0:0:0:
448,192,15623,1,0,0:0:0:0:
320,192,15766,1,0,0:0:0:0:
192,192,15909,1,0,0:0:0:0:
64,192,15909,1,0,0:0:0:0:
448,192,16052,1,0,0:0:0:0:
64,192,16195,1,0,0:0:0:0:
64,192,16481,1,0,0:0:0:0:
448,192,16481,1,0,0:0:0:0:
320,192,16623,1,0,0:0:0:0:
192,192,16766,1,0,0:0:0:0:
320,192,16909,1,0,0:0:0:0:
64,192,17052,1,0,0:0:0:0:
192,192,17052,1,0,0:0:0:0:
448,192,17195,1,0,0:0:0:0:
192,192,17338,1,0,0:0:0:0:
448,192,17481,1,0,0:0:0:0:
320,192,17623,1,0,0:0:0:0:
64,192,17623,1,0,0:0:0:0:
192,192,17766,1,0,0:0:0:0:
64,192,17909,1,0,0:0:0:0:
192,192,18052,1,0,0:0:0:0:
320,192,18195,1,0,0:0:0:0:
448,192,18195,1,0,0:0:0:0:
64,192,18338,1,0,0:0:0:0:
192,192,18481,1,0,0:0:0:0:
448,192,18623,1,0,0:0:0:0:
448,192,18766,1,0,0:0:0:0:
320,192,18766,128,0,19052:0:0:0:0:
64,192,18766,1,0,0:0:0:0:
192,192,18909,1,0,0:0:0:0:
64,192,19052,128,0,19338:0:0:0:0:
448,192,19052,1,0,0:0:0:0:
192,192,19195,1,0,0:0:0:0:
448,192,19338,128,0,19623:0:0:0:0:
320,192,19338,1,0,0:0:0:0:
64,192,19480,1,0,0:0:0:0:
192,192,19623,128,0,19909:0:0:0:0:
320,192,19623,1,0,0:0:0:0:
448,192,19766,1,0,0:0:0:0:
320,192,19909,128,0,20195:0:0:0:0:
64,192,19909,1,0,0:0:0:0:
192,192,20052,1,0,0:0:0:0:
64,192,20195,128,0,20481:0:0:0:0:
448,192,20195,1,0,0:0:0:0:
320,192,20338,1,0,0:0:0:0:
192,192,20480,128,0,20766:0:0:0:0:
448,192,20480,1,0,0:0:0:0:
320,192,20623,1,0,0:0:0:0:
448,192,20766,1,0,0:0:0:0:
64,192,20766,1,0,0:0:0:0:
448,192,20909,1,0,0:0:0:0:
64,192,20909,1,0,0:0:0:0:
448,192,21052,1,0,0:0:0:0:
64,192,21052,128,0,21338:0:0:0:0:
320,192,21052,1,0,0:0:0:0:
192,192,21195,1,0,0:0:0:0:
320,192,21338,128,0,21623:0:0:0:0:
448,192,21338,1,0,0:0:0:0:
64,192,21480,1,0,0:0:0:0:
448,192,21623,128,0,21909:0:0:0:0:
192,192,21623,1,0,0:0:0:0:
320,192,21766,1,0,0:0:0:0:
64,192,21909,128,0,22195:0:0:0:0:
192,192,21909,1,0,0:0:0:0:
448,192,22052,1,0,0:0:0:0:
192,192,22195,128,0,22480:0:0:0:0:
320,192,22195,1,0,0:0:0:0:
64,192,22338,1,0,0:0:0:0:
320,192,22480,128,0,22766:0:0:0:0:
448,192,22480,1,0,0:0:0:0:
192,192,22623,1,0,0:0:0:0:
64,192,22766,128,0,23052:0:0:0:0:
448,192,22766,1,0,0:0:0:0:
320,192,22909,1,0,0:0:0:0:
192,192,23052,1,0,0:0:0:0:
448,192,23052,1,0,0:0:0:0:
192,192,23195,1,0,0:0:0:0:
448,192,23195,1,0,0:0:0:0:
192,192,23338,1,0,0:0:0:0:
448,192,23338,128,0,23623:0:0:0:0:
64,192,23338,1,0,0:0:0:0:
320,192,23480,1,0,0:0:0:0:
192,192,23623,128,0,23909:0:0:0:0:
64,192,23623,1,0,0:0:0:0:
448,192,23766,1,0,0:0:0:0:
64,192,23909,128,0,24195:0:0:0:0:
320,192,23909,1,0,0:0:0:0:
448,192,24052,1,0,0:0:0:0:
320,192,24195,128,0,24481:0:0:0:0:
192,192,24195,1,0,0:0:0:0:
64,192,24338,1,0,0:0:0:0:
448,192,24480,1,0,0:0:0:0:
192,192,24481,128,0,24766:0:0:0:0:
64,192,24623,1,0,0:0:0:0:
448,192,24766,128,0,25052:0:0:0:0:
320,192,24766,1,0,0:0:0:0:
192,192,24909,1,0,0:0:0:0:
320,192,25052,128,0,25338:0:0:0:0:
64,192,25052,1,0,0:0:0:0:
448,192,25195,1,0,0:0:0:0:
192,192,25338,1,0,0:0:0:0:
64,192,25338,1,0,0:0:0:0:
192,192,25481,1,0,0:0:0:0:
64,192,25481,1,0,0:0:0:0:
64,192,25623,1,0,0:0:0:0:
192,192,25623,128,0,25909:0:0:0:0:
448,192,25623,1,0,0:0:0:0:
320,192,25766,1,0,0:0:0:0:
448,192,25909,128,0,26195:0:0:0:0:
64,192,25909,1,0,0:0:0:0:
192,192,26052,1,0,0:0:0:0:
64,192,26195,128,0,26481:0:0:0:0:
320,192,26195,1,0,0:0:0:0:
448,192,26338,1,0,0:0:0:0:
192,192,26480,1,0,0:0:0:0:
320,192,26481,128,0,26766:0:0:0:0:
448,192,26623,1,0,0:0:0:0:
192,192,26766,128,0,27052:0:0:0:0:
64,192,26766,1,0,0:0:0:0:
320,192,26909,1,0,0:0:0:0:
448,192,27052,128,0,27338:0:0:0:0:
64,192,27052,1,0,0:0:0:0:
192,192,27195,1,0,0:0:0:0:
64,192,27338,128,0,27623:0:0:0:0:
320,192,27338,1,0,0:0:0:0:
448,192,27480,1,0,0:0:0:0:
320,192,27623,1,0,0:0:0:0:
192,192,27623,1,0,0:0:0:0:
320,192,27766,1,0,0:0:0:0:
192,192,27766,1,0,0:0:0:0:
192,192,27909,1,0,0:0:0:0:
320,192,27909,1,0,0:0:0:0:
448,192,27909,1,0,0:0:0:0:
448,192,28052,1,0,0:0:0:0:
448,192,28195,1,0,0:0:0:0:
448,192,28338,1,0,0:0:0:0:
448,192,28481,1,0,0:0:0:0:
192,192,28481,1,0,0:0:0:0:
192,192,28623,1,0,0:0:0:0:
192,192,28766,1,0,0:0:0:0:
192,192,28909,1,0,0:0:0:0:
192,192,29052,1,0,0:0:0:0:
320,192,29052,1,0,0:0:0:0:
320,192,29195,1,0,0:0:0:0:
320,192,29338,1,0,0:0:0:0:
320,192,29481,1,0,0:0:0:0:
320,192,29623,1,0,0:0:0:0:
64,192,29623,1,0,0:0:0:0:
64,192,29766,1,0,0:0:0:0:
64,192,29909,1,0,0:0:0:0:
64,192,30052,1,0,0:0:0:0:
64,192,30195,1,0,0:0:0:0:
448,192,30195,1,0,0:0:0:0:
448,192,30338,1,0,0:0:0:0:
448,192,30481,1,0,0:0:0:0:
448,192,30623,1,0,0:0:0:0:
448,192,30766,1,0,0:0:0:0:
192,192,30766,1,0,0:0:0:0:
192,192,30909,1,0,0:0:0:0:
192,192,31052,1,0,0:0:0:0:
192,192,31195,1,0,0:0:0:0:
192,192,31338,1,0,0:0:0:0:
320,192,31338,1,0,0:0:0:0:
320,192,31481,1,0,0:0:0:0:
320,192,31623,1,0,0:0:0:0:
320,192,31766,1,0,0:0:0:0:
320,192,31909,1,0,0:0:0:0:
64,192,31909,1,0,0:0:0:0:
64,192,32052,1,0,0:0:0:0:
64,192,32195,1,0,0:0:0:0:
64,192,32338,1,0,0:0:0:0:
448,192,32481,1,0,0:0:0:0:
64,192,32481,1,0,0:0:0:0:
320,192,32552,1,0,0:0:0:0:
192,192,32671,1,0,0:0:0:0:
320,192,32766,1,0,0:0:0:0:
448,192,32766,1,0,0:0:0:0:
64,192,32838,1,0,0:0:0:0:
448,192,32957,1,0,0:0:0:0:
192,192,33052,1,0,0:0:0:0:
320,192,33052,1,0,0:0:0:0:
64,192,33123,1,0,0:0:0:0:
192,192,33242,1,0,0:0:0:0:
320,192,33338,1,0,0:0:0:0:
448,192,33338,1,0,0:0:0:0:
64,192,33409,1,0,0:0:0:0:
448,192,33528,1,0,0:0:0:0:
320,192,33623,1,0,0:0:0:0:
64,192,33623,1,0,0:0:0:0:
192,192,33695,1,0,0:0:0:0:
448,192,33814,1,0,0:0:0:0:
320,192,33909,1,0,0:0:0:0:
192,192,33909,1,0,0:0:0:0:
64,192,33980,1,0,0:0:0:0:
320,192,34100,1,0,0:0:0:0:
192,192,34195,1,0,0:0:0:0:
448,192,34195,1,0,0:0:0:0:
64,192,34266,1,0,0:0:0:0:
192,192,34385,1,0,0:0:0:0:
320,192,34481,1,0,0:0:0:0:
448,192,34481,1,0,0:0:0:0:
64,192,34552,1,0,0:0:0:0:
320,192,34671,1,0,0:0:0:0:
192,192,34766,1,0,0:0:0:0:
448,192,34766,1,0,0:0:0:0:
64,192,34838,1,0,0:0:0:0:
320,192,34909,1,0,0:0:0:0:
448,192,34909,1,0,0:0:0:0:
192,192,34980,1,0,0:0:0:0:
64,192,35052,1,0,0:0:0:0:
320,192,35052,1,0,0:0:0:0:
448,192,35123,1,0,0:0:0:0:
192,192,35195,1,0,0:0:0:0:
64,192,35195,1,0,0:0:0:0:
320,192,35266,1,0,0:0:0:0:
192,192,35338,1,0,0:0:0:0:
448,192,35338,1,0,0:0:0:0:
64,192,35409,1,0,0:0:0:0:
320,192,35480,1,0,0:0:0:0:
448,192,35480,1,0,0:0:0:0:
192,192,35552,1,0,0:0:0:0:
64,192,35623,1,0,0:0:0:0:
320,192,35623,1,0,0:0:0:0:
448,192,35695,1,0,0:0:0:0:
192,192,35766,1,0,0:0:0:0:
64,192,35766,1,0,0:0:0:0:
320,192,35838,1,0,0:0:0:0:
192,192,35909,1,0,0:0:0:0:
448,192,35909,1,0,0:0:0:0:
64,192,35980,1,0,0:0:0:0:
320,192,36052,1,0,0:0:0:0:
448,192,36052,1,0,0:0:0:0:
192,192,36123,1,0,0:0:0:0:
64,192,36195,1,0,0:0:0:0:
448,192,36195,1,0,0:0:0:0:
320,192,36266,1,0,0:0:0:0:
192,192,36338,1,0,0:0:0:0:
64,192,36338,1,0,0:0:0:0:
448,192,36409,1,0,0:0:0:0:
320,192,36480,1,0,0:0:0:0:
192,192,36552,1,0,0:0:0:0:
320,192,36623,1,0,0:0:0:0:
192,192,36695,1,0,0:0:0:0:
320,192,36766,1,0,0:0:0:0:
192,192,36838,1,0,0:0:0:0:
320,192,36909,1,0,0:0:0:0:
192,192,36980,1,0,0:0:0:0:
64,192,37052,1,0,0:0:0:0:
448,192,37052,1,0,0:0:0:0:
320,192,37052,1,0,0:0:0:0:
192,192,37195,1,0,0:0:0:0:
320,192,37338,1,0,0:0:0:0:
64,192,37480,1,0,0:0:0:0:
192,192,37623,1,0,0:0:0:0:
320,192,37766,1,0,0:0:0:0:
192,192,37909,1,0,0:0:0:0:
448,192,38052,1,0,0:0:0:0:
320,192,38195,1,0,0:0:0:0:
64,192,38338,1,0,0:0:0:0:
320,192,38480,1,0,0:0:0:0:
192,192,38623,1,0,0:0:0:0:
320,192,38766,1,0,0:0:0:0:
448,192,38909,1,0,0:0:0:0:
192,192,39052,1,0,0:0:0:0:
192,192,39338,1,0,0:0:0:0:
448,192,39480,1,0,0:0:0:0:
320,192,39623,1,0,0:0:0:0:
64,192,39766,1,0,0:0:0:0:
192,192,39909,1,0,0:0:0:0:
448,192,40052,1,0,0:0:0:0:
192,192,40195,1,0,0:0:0:0:
320,192,40338,1,0,0:0:0:0:
64,192,40480,1,0,0:0:0:0:
320,192,40623,1,0,0:0:0:0:
448,192,40766,128,0,41623:0:0:0:0:
192,192,40909,1,0,0:0:0:0:
64,192,41052,1,0,0:0:0:0:
320,192,41195,1,0,0:0:0:0:
192,192,41338,1,0,0:0:0:0:
64,192,41623,128,0,42052:0:0:0:0:
320,192,41623,1,0,0:0:0:0:
320,192,42052,128,0,42766:0:0:0:0:
64,192,42480,128,0,43052:0:0:0:0:
448,192,42766,128,0,43480:0:0:0:0:
192,192,43195,128,0,43480:0:0:0:0:
320,192,43623,1,0,0:0:0:0:
192,192,43766,1,0,0:0:0:0:
64,192,43909,128,0,44623:0:0:0:0:
320,192,44338,128,0,44623:0:0:0:0:
192,192,44766,128,0,45766:0:0:0:0:
320,192,45052,128,0,45338:0:0:0:0:
64,192,45480,128,0,45766:0:0:0:0:
448,192,45909,128,0,46623:0:0:0:0:
192,192,46195,128,0,48052:0:0:0:0:
320,192,46623,128,0,48052:0:0:0:0:
64,192,48195,1,0,0:0:0:0:
192,192,48338,1,0,0:0:0:0:
448,192,48480,128,0,50195:0:0:0:0:
192,192,48909,128,0,49338:0:0:0:0:
320,192,49338,128,0,50195:0:0:0:0:
64,192,50338,1,0,0:0:0:0:
320,192,50480,1,0,0:0:0:0:
192,192,50623,1,0,0:0:0:0:
64,192,50766,128,0,51480:0:0:0:0:
448,192,51195,128,0,51480:0:0:0:0:
192,192,51623,128,0,52623:0:0:0:0:
320,192,51909,128,0,52195:0:0:0:0:
64,192,52338,128,0,52623:0:0:0:0:
448,192,52766,1,0,0:0:0:0:
320,192,52909,1,0,0:0:0:0:
192,192,53052,128,0,53480:0:0:0:0:
320,192,53480,128,0,54480:0:0:0:0:
192,192,53909,128,0,54195:0:0:0:0:
448,192,54195,128,0,54480:0:0:0:0:
64,192,54623,128,0,55338:0:0:0:0:
192,192,55052,128,0,55338:0:0:0:0:
448,192,55338,128,0,57195:0:0:0:0:
320,192,55766,128,0,57195:0:0:0:0:
448,192,57338,1,0,0:0:0:0:
64,192,57480,1,0,0:0:0:0:
320,192,57623,128,0,58052:0:0:0:0:
192,192,58052,128,0,58909:0:0:0:0:
448,192,58480,1,0,0:0:0:0:
448,192,58623,128,0,59623:0:0:0:0:
64,192,58909,128,0,59623:0:0:0:0:
448,192,59909,1,0,0:0:0:0:
64,192,59909,1,0,0:0:0:0:
192,192,59909,1,0,0:0:0:0:
320,192,59909,1,0,0:0:0:0:
320,192,60195,1,0,0:0:0:0:
448,192,60195,1,0,0:0:0:0:
320,192,60480,1,0,0:0:0:0:
64,192,60480,1,0,0:0:0:0:
192,192,60766,128,0,61480:0:0:0:0:
448,192,60766,1,0,0:0:0:0:
320,192,61052,1,0,0:0:0:0:
64,192,61052,1,0,0:0:0:0:
320,192,61338,1,0,0:0:0:0:
448,192,61338,1,0,0:0:0:0:
320,192,61623,128,0,62052:0:0:0:0:
192,192,61623,1,0,0:0:0:0:
64,192,61909,1,0,0:0:0:0:
448,192,61909,1,0,0:0:0:0:
64,192,62052,1,0,0:0:0:0:
448,192,62052,1,0,0:0:0:0:
192,192,62195,128,0,62766:0:0:0:0:
448,192,62195,1,0,0:0:0:0:
64,192,62195,1,0,0:0:0:0:
320,192,62480,1,0,0:0:0:0:
448,192,62480,1,0,0:0:0:0:
320,192,62766,1,0,0:0:0:0:
64,192,62766,1,0,0:0:0:0:
64,192,63052,128,0,63123:0:0:0:0:
192,192,63052,1,0,0:0:0:0:
320,192,63195,128,0,63266:0:0:0:0:
64,192,63338,1,0,0:0:0:0:
448,192,63338,1,0,0:0:0:0:
448,192,63623,1,0,0:0:0:0:
192,192,63623,1,0,0:0:0:0:
192,192,63909,128,0,63980:0:0:0:0:
64,192,63909,1,0,0:0:0:0:
320,192,64052,128,0,64123:0:0:0:0:
64,192,64195,128,0,64266:0:0:0:0:
448,192,64195,1,0,0:0:0:0:
192,192,64338,128,0,64623:0:0:0:0:
448,192,64338,1,0,0:0:0:0:
320,192,64480,1,0,0:0:0:0:
64,192,64480,1,0,0:0:0:0:
448,192,64623,128,0,64909:0:0:0:0:
320,192,64766,1,0,0:0:0:0:
192,192,64766,1,0,0:0:0:0:
64,192,64909,128,0,65052:0:0:0:0:
192,192,65052,1,0,0:0:0:0:
448,192,65052,1,0,0:0:0:0:
320,192,65195,128,0,65266:0:0:0:0:
448,192,65338,128,0,65409:0:0:0:0:
64,192,65338,1,0,0:0:0:0:
192,192,65480,128,0,65766:0:0:0:0:
320,192,65623,1,0,0:0:0:0:
64,192,65623,1,0,0:0:0:0:
448,192,65909,128,0,66195:0:0:0:0:
64,192,65909,1,0,0:0:0:0:
192,192,66195,128,0,66480:0:0:0:0:
320,192,66195,1,0,0:0:0:0:
320,192,66480,128,0,66766:0:0:0:0:
64,192,66480,1,0,0:0:0:0:
64,192,66623,1,0,0:0:0:0:
448,192,66623,1,0,0:0:0:0:
192,192,66766,128,0,67338:0:0:0:0:
448,192,66766,1,0,0:0:0:0:
320,192,67052,1,0,0:0:0:0:
64,192,67052,1,0,0:0:0:0:
320,192,67338,1,0,0:0:0:0:
448,192,67338,1,0,0:0:0:0:
192,192,67623,128,0,67909:0:0:0:0:
320,192,67623,1,0,0:0:0:0:
448,192,67909,128,0,68338:0:0:0:0:
64,192,67909,1,0,0:0:0:0:
192,192,68195,1,0,0:0:0:0:
64,192,68195,1,0,0:0:0:0:
320,192,68338,128,0,68623:0:0:0:0:
192,192,68480,1,0,0:0:0:0:
448,192,68480,1,0,0:0:0:0:
64,192,68766,1,0,0:0:0:0:
448,192,68766,1,0,0:0:0:0:
448,192,68909,1,0,0:0:0:0:
64,192,68909,1,0,0:0:0:0:
64,192,69052,1,0,0:0:0:0:
448,192,69052,1,0,0:0:0:0:
192,192,69052,1,0,0:0:0:0:
320,192,69195,1,0,0:0:0:0:
192,192,69338,1,0,0:0:0:0:
320,192,69480,1,0,0:0:0:0:
192,192,69623,1,0,0:0:0:0:
448,192,69623,1,0,0:0:0:0:
64,192,69766,1,0,0:0:0:0:
192,192,69909,128,0,70052:0:0:0:0:
64,192,70052,1,0,0:0:0:0:
448,192,70195,1,0,0:0:0:0:
192,192,70195,1,0,0:0:0:0:
320,192,70338,1,0,0:0:0:0:
192,192,70480,1,0,0:0:0:0:
320,192,70623,1,0,0:0:0:0:
64,192,70766,128,0,70909:0:0:0:0:
448,192,70766,1,0,0:0:0:0:
192,192,70909,1,0,0:0:0:0:
448,192,71052,1,0,0:0:0:0:
192,192,71195,1,0,0:0:0:0:
320,192,71338,128,0,71480:0:0:0:0:
64,192,71338,1,0,0:0:0:0:
448,192,71480,1,0,0:0:0:0:
192,192,71623,1,0,0:0:0:0:
448,192,71766,1,0,0:0:0:0:
320,192,71909,1,0,0:0:0:0:
64,192,71909,1,0,0:0:0:0:
192,192,72052,1,0,0:0:0:0:
64,192,72195,128,0,72338:0:0:0:0:
448,192,72338,128,0,72480:0:0:0:0:
192,192,72480,1,0,0:0:0:0:
320,192,72480,1,0,0:0:0:0:
64,192,72623,1,0,0:0:0:0:
192,192,72766,1,0,0:0:0:0:
64,192,72909,1,0,0:0:0:0:
320,192,73052,128,0,73195:0:0:0:0:
448,192,73052,1,0,0:0:0:0:
192,192,73195,128,0,73338:0:0:0:0:
448,192,73338,128,0,73480:0:0:0:0:
192,192,73480,128,0,73623:0:0:0:0:
448,192,73623,1,0,0:0:0:0:
64,192,73623,1,0,0:0:0:0:
320,192,73719,1,0,0:0:0:0:
192,192,73814,1,0,0:0:0:0:
320,192,73909,1,0,0:0:0:0:
448,192,73909,1,0,0:0:0:0:
64,192,74004,1,0,0:0:0:0:
192,192,74100,1,0,0:0:0:0:
320,192,74195,1,0,0:0:0:0:
64,192,74195,1,0,0:0:0:0:
448,192,74290,1,0,0:0:0:0:
320,192,74385,1,0,0:0:0:0:
192,192,74480,1,0,0:0:0:0:
64,192,74480,1,0,0:0:0:0:
448,192,74576,1,0,0:0:0:0:
64,192,74671,1,0,0:0:0:0:
192,192,74766,1,0,0:0:0:0:
320,192,74766,1,0,0:0:0:0:
448,192,74861,1,0,0:0:0:0:
192,192,74957,1,0,0:0:0:0:
320,192,75052,1,0,0:0:0:0:
448,192,75052,1,0,0:0:0:0:
64,192,75147,1,0,0:0:0:0:
192,192,75242,1,0,0:0:0:0:
320,192,75338,1,0,0:0:0:0:
64,192,75338,1,0,0:0:0:0:
448,192,75433,1,0,0:0:0:0:
192,192,75528,1,0,0:0:0:0:
320,192,75623,1,0,0:0:0:0:
448,192,75623,1,0,0:0:0:0:
64,192,75719,1,0,0:0:0:0:
192,192,75814,1,0,0:0:0:0:
448,192,75909,1,0,0:0:0:0:
320,192,75909,1,0,0:0:0:0:
64,192,75980,1,0,0:0:0:0:
320,192,76052,1,0,0:0:0:0:
192,192,76052,1,0,0:0:0:0:
448,192,76123,1,0,0:0:0:0:
192,192,76195,1,0,0:0:0:0:
64,192,76195,1,0,0:0:0:0:
320,192,76266,1,0,0:0:0:0:
448,192,76338,1,0,0:0:0:0:
192,192,76338,1,0,0:0:0:0:
64,192,76409,1,0,0:0:0:0:
320,192,76480,1,0,0:0:0:0:
448,192,76480,1,0,0:0:0:0:
192,192,76552,1,0,0:0:0:0:
64,192,76623,1,0,0:0:0:0:
320,192,76623,1,0,0:0:0:0:
448,192,76695,1,0,0:0:0:0:
192,192,76766,1,0,0:0:0:0:
64,192,76766,1,0,0:0:0:0:
320,192,76838,1,0,0:0:0:0:
448,192,76909,1,0,0:0:0:0:
192,192,76909,1,0,0:0:0:0:
64,192,76980,1,0,0:0:0:0:
448,192,77052,1,0,0:0:0:0:
320,192,77052,1,0,0:0:0:0:
192,192,77123,1,0,0:0:0:0:
64,192,77195,1,0,0:0:0:0:
448,192,77195,1,0,0:0:0:0:
320,192,77266,1,0,0:0:0:0:
192,192,77338,1,0,0:0:0:0:
64,192,77338,1,0,0:0:0:0:
448,192,77409,1,0,0:0:0:0:
320,192,77480,1,0,0:0:0:0:
192,192,77480,1,0,0:0:0:0:
64,192,77552,1,0,0:0:0:0:
448,192,77623,1,0,0:0:0:0:
320,192,77671,1,0,0:0:0:0:
64,192,77719,1,0,0:0:0:0:
192,192,77766,1,0,0:0:0:0:
448,192,77814,1,0,0:0:0:0:
320,192,77861,1,0,0:0:0:0:
64,192,77909,1,0,0:0:0:0:
192,192,77957,1,0,0:0:0:0:
320,192,78052,1,0,0:0:0:0:
448,192,78052,1,0,0:0:0:0:
64,192,78195,1,0,0:0:0:0:
448,192,78195,1,0,0:0:0:0:
320,192,78242,1,0,0:0:0:0:
192,192,78290,1,0,0:0:0:0:
64,192,78338,1,0,0:0:0:0:
320,192,78385,1,0,0:0:0:0:
192,192,78433,1,0,0:0:0:0:
448,192,78480,1,0,0:0:0:0:
320,192,78528,1,0,0:0:0:0:
192,192,78576,1,0,0:0:0:0:
64,192,78623,1,0,0:0:0:0:
448,192,78766,1,0,0:0:0:0:
192,192,78766,1,0,0:0:0:0:
320,192,78814,1,0,0:0:0:0:
64,192,78861,1,0,0:0:0:0:
192,192,79052,1,0,0:0:0:0:
448,192,79100,1,0,0:0:0:0:
320,192,79147,1,0,0:0:0:0:
320,192,79338,1,0,0:0:0:0:
64,192,79338,1,0,0:0:0:0:
192,192,79385,1,0,0:0:0:0:
448,192,79433,1,0,0:0:0:0:
192,192,79623,1,0,0:0:0:0:
64,192,79671,1,0,0:0:0:0:
320,192,79719,1,0,0:0:0:0:
448,192,79909,1,0,0:0:0:0:
192,192,79909,1,0,0:0:0:0:
64,192,79957,1,0,0:0:0:0:
320,192,80004,1,0,0:0:0:0:
64,192,80195,1,0,0:0:0:0:
192,192,80338,1,0,0:0:0:0:
320,192,80385,1,0,0:0:0:0:
192,192,80480,1,0,0:0:0:0:
64,192,80480,1,0,0:0:0:0:
320,192,80528,1,0,0:0:0:0:
448,192,80576,1,0,0:0:0:0:
192,192,80671,1,0,0:0:0:0:
64,192,80719,1,0,0:0:0:0:
320,192,80766,1,0,0:0:0:0:
448,192,80861,1,0,0:0:0:0:
320,192,80909,1,0,0:0:0:0:
192,192,80957,1,0,0:0:0:0:
64,192,81052,1,0,0:0:0:0:
448,192,81052,1,0,0:0:0:0:
192,192,81100,1,0,0:0:0:0:
320,192,81147,1,0,0:0:0:0:
192,192,81338,1,0,0:0:0:0:
320,192,81385,1,0,0:0:0:0:
448,192,81433,1,0,0:0:0:0:
64,192,81480,1,0,0:0:0:0:
320,192,81623,1,0,0:0:0:0:
448,192,81623,1,0,0:0:0:0:
192,192,81671,1,0,0:0:0:0:
64,192,81719,1,0,0:0:0:0:
192,192,81861,1,0,0:0:0:0:
320,192,81909,1,0,0:0:0:0:
64,192,81957,1,0,0:0:0:0:
448,192,82052,1,0,0:0:0:0:
320,192,82100,1,0,0:0:0:0:
192,192,82195,1,0,0:0:0:0:
64,192,82195,1,0,0:0:0:0:
448,192,82242,1,0,0:0:0:0:
320,192,82290,1,0,0:0:0:0:
64,192,82480,1,0,0:0:0:0:
320,192,82480,1,0,0:0:0:0:
448,192,82480,128,0,82766:0:0:0:0:
192,192,82623,1,0,0:0:0:0:
64,192,82766,1,0,0:0:0:0:
192,192,82766,1,0,0:0:0:0:
320,192,82814,1,0,0:0:0:0:
448,192,82861,1,0,0:0:0:0:
192,192,82909,1,0,0:0:0:0:
64,192,82957,1,0,0:0:0:0:
320,192,83004,1,0,0:0:0:0:
192,192,83052,1,0,0:0:0:0:
448,192,83100,1,0,0:0:0:0:
320,192,83147,1,0,0:0:0:0:
64,192,83195,1,0,0:0:0:0:
320,192,83338,1,0,0:0:0:0:
448,192,83338,1,0,0:0:0:0:
192,192,83385,1,0,0:0:0:0:
64,192,83433,1,0,0:0:0:0:
448,192,83623,1,0,0:0:0:0:
192,192,83671,1,0,0:0:0:0:
320,192,83719,1,0,0:0:0:0:
320,192,83909,1,0,0:0:0:0:
448,192,83909,1,0,0:0:0:0:
64,192,83957,1,0,0:0:0:0:
192,192,84004,1,0,0:0:0:0:
320,192,84195,1,0,0:0:0:0:
448,192,84242,1,0,0:0:0:0:
192,192,84290,1,0,0:0:0:0:
64,192,84480,1,0,0:0:0:0:
320,192,84480,1,0,0:0:0:0:
448,192,84528,1,0,0:0:0:0:
192,192,84576,1,0,0:0:0:0:
320,192,84766,1,0,0:0:0:0:
64,192,84909,1,0,0:0:0:0:
192,192,84957,1,0,0:0:0:0:
320,192,85052,1,0,0:0:0:0:
448,192,85052,1,0,0:0:0:0:
192,192,85100,1,0,0:0:0:0:
64,192,85147,1,0,0:0:0:0:
448,192,85242,1,0,0:0:0:0:
320,192,85290,1,0,0:0:0:0:
192,192,85338,1,0,0:0:0:0:
448,192,85433,1,0,0:0:0:0:
192,192,85480,1,0,0:0:0:0:
64,192,85528,1,0,0:0:0:0:
320,192,85623,1,0,0:0:0:0:
448,192,85623,1,0,0:0:0:0:
192,192,85671,1,0,0:0:0:0:
64,192,85719,1,0,0:0:0:0:
192,192,85909,1,0,0:0:0:0:
320,192,85957,1,0,0:0:0:0:
448,192,86004,1,0,0:0:0:0:
64,192,86052,1,0,0:0:0:0:
320,192,86195,1,0,0:0:0:0:
192,192,86195,1,0,0:0:0:0:
448,192,86242,1,0,0:0:0:0:
64,192,86290,1,0,0:0:0:0:
320,192,86433,1,0,0:0:0:0:
192,192,86480,1,0,0:0:0:0:
448,192,86528,1,0,0:0:0:0:
320,192,86623,1,0,0:0:0:0:
192,192,86671,1,0,0:0:0:0:
320,192,86766,1,0,0:0:0:0:
448,192,86766,1,0,0:0:0:0:
64,192,86814,1,0,0:0:0:0:
192,192,86861,1,0,0:0:0:0:
448,192,87052,1,0,0:0:0:0:
64,192,87052,1,0,0:0:0:0:
320,192,87100,1,0,0:0:0:0:
192,192,87147,1,0,0:0:0:0:
64,192,87195,1,0,0:0:0:0:
448,192,87338,1,0,0:0:0:0:
320,192,87338,1,0,0:0:0:0:
192,192,87385,1,0,0:0:0:0:
64,192,87433,1,0,0:0:0:0:
320,192,87480,1,0,0:0:0:0:
448,192,87528,1,0,0:0:0:0:
192,192,87576,1,0,0:0:0:0:
64,192,87623,1,0,0:0:0:0:
320,192,87671,1,0,0:0:0:0:
192,192,87719,1,0,0:0:0:0:
64,192,87766,1,0,0:0:0:0:
320,192,87909,1,0,0:0:0:0:
448,192,87909,1,0,0:0:0:0:
192,192,87957,1,0,0:0:0:0:
64,192,88004,1,0,0:0:0:0:
448,192,88195,1,0,0:0:0:0:
192,192,88242,1,0,0:0:0:0:
320,192,88290,1,0,0:0:0:0:
64,192,88480,1,0,0:0:0:0:
448,192,88480,1,0,0:0:0:0:
192,192,88528,1,0,0:0:0:0:
320,192,88576,1,0,0:0:0:0:
64,192,88766,1,0,0:0:0:0:
320,192,88814,1,0,0:0:0:0:
192,192,88861,1,0,0:0:0:0:
64,192,89052,1,0,0:0:0:0:
448,192,89052,1,0,0:0:0:0:
320,192,89100,1,0,0:0:0:0:
192,192,89147,1,0,0:0:0:0:
448,192,89338,1,0,0:0:0:0:
320,192,89480,1,0,0:0:0:0:
192,192,89528,1,0,0:0:0:0:
320,192,89623,1,0,0:0:0:0:
448,192,89623,1,0,0:0:0:0:
64,192,89671,1,0,0:0:0:0:
192,192,89719,1,0,0:0:0:0:
448,192,89814,1,0,0:0:0:0:
320,192,89861,1,0,0:0:0:0:
192,192,89909,1,0,0:0:0:0:
64,192,90004,1,0,0:0:0:0:
192,192,90052,1,0,0:0:0:0:
320,192,90100,1,0,0:0:0:0:
448,192,90195,1,0,0:0:0:0:
64,192,90195,1,0,0:0:0:0:
192,192,90242,1,0,0:0:0:0:
320,192,90290,1,0,0:0:0:0:
320,192,90480,1,0,0:0:0:0:
192,192,90528,1,0,0:0:0:0:
64,192,90576,1,0,0:0:0:0:
448,192,90623,1,0,0:0:0:0:
192,192,90766,1,0,0:0:0:0:
64,192,90766,1,0,0:0:0:0:
320,192,90814,1,0,0:0:0:0:
448,192,90861,1,0,0:0:0:0:
320,192,91004,1,0,0:0:0:0:
192,192,91052,1,0,0:0:0:0:
448,192,91100,1,0,0:0:0:0:
64,192,91195,1,0,0:0:0:0:
192,192,91242,1,0,0:0:0:0:
320,192,91338,1,0,0:0:0:0:
448,192,91338,1,0,0:0:0:0:
64,192,91385,1,0,0:0:0:0:
192,192,91433,1,0,0:0:0:0:
448,192,91623,1,0,0:0:0:0:
192,192,91623,1,0,0:0:0:0:
64,192,91623,128,0,91909:0:0:0:0:
320,192,91766,1,0,0:0:0:0:
448,192,91909,1,0,0:0:0:0:
320,192,91909,1,0,0:0:0:0:
192,192,91957,1,0,0:0:0:0:
64,192,92004,1,0,0:0:0:0:
320,192,92052,1,0,0:0:0:0:
448,192,92100,1,0,0:0:0:0:
192,192,92147,1,0,0:0:0:0:
320,192,92195,1,0,0:0:0:0:
448,192,92242,1,0,0:0:0:0:
64,192,92290,1,0,0:0:0:0:
192,192,92338,1,0,0:0:0:0:
320,192,92480,1,0,0:0:0:0:
448,192,92480,1,0,0:0:0:0:
192,192,92528,1,0,0:0:0:0:
64,192,92576,1,0,0:0:0:0:
64,192,92766,1,0,0:0:0:0:
320,192,92814,1,0,0:0:0:0:
192,192,92861,1,0,0:0:0:0:
320,192,92909,1,0,0:0:0:0:
448,192,92957,1,0,0:0:0:0:
192,192,93052,1,0,0:0:0:0:
64,192,93052,1,0,0:0:0:0:
448,192,93100,1,0,0:0:0:0:
320,192,93147,1,0,0:0:0:0:
192,192,93338,1,0,0:0:0:0:
64,192,93385,1,0,0:0:0:0:
320,192,93433,1,0,0:0:0:0:
448,192,93623,1,0,0:0:0:0:
64,192,93623,1,0,0:0:0:0:
192,192,93671,1,0,0:0:0:0:
320,192,93719,1,0,0:0:0:0:
64,192,93909,1,0,0:0:0:0:
192,192,94052,1,0,0:0:0:0:
320,192,94100,1,0,0:0:0:0:
192,192,94195,1,0,0:0:0:0:
64,192,94195,1,0,0:0:0:0:
448,192,94242,1,0,0:0:0:0:
320,192,94290,1,0,0:0:0:0:
64,192,94385,1,0,0:0:0:0:
192,192,94433,1,0,0:0:0:0:
320,192,94480,1,0,0:0:0:0:
192,192,94576,1,0,0:0:0:0:
320,192,94623,1,0,0:0:0:0:
64,192,94671,1,0,0:0:0:0:
320,192,94766,1,0,0:0:0:0:
448,192,94766,1,0,0:0:0:0:
192,192,94814,1,0,0:0:0:0:
64,192,94861,1,0,0:0:0:0:
192,192,95052,1,0,0:0:0:0:
320,192,95100,1,0,0:0:0:0:
448,192,95147,1,0,0:0:0:0:
64,192,95195,1,0,0:0:0:0:
320,192,95338,1,0,0:0:0:0:
448,192,95338,1,0,0:0:0:0:
192,192,95385,1,0,0:0:0:0:
64,192,95433,1,0,0:0:0:0:
192,192,95576,1,0,0:0:0:0:
320,192,95623,1,0,0:0:0:0:
448,192,95671,1,0,0:0:0:0:
192,192,95766,1,0,0:0:0:0:
320,192,95814,1,0,0:0:0:0:
192,192,95909,1,0,0:0:0:0:
64,192,95909,1,0,0:0:0:0:
448,192,95957,1,0,0:0:0:0:
320,192,96004,1,0,0:0:0:0:
64,192,96195,1,0,0:0:0:0:
448,192,96195,1,0,0:0:0:0:
192,192,96242,1,0,0:0:0:0:
320,192,96290,1,0,0:0:0:0:
448,192,96338,1,0,0:0:0:0:
64,192,96480,1,0,0:0:0:0:
192,192,96480,1,0,0:0:0:0:
448,192,96528,1,0,0:0:0:0:
320,192,96576,1,0,0:0:0:0:
192,192,96623,1,0,0:0:0:0:
64,192,96671,1,0,0:0:0:0:
320,192,96719,1,0,0:0:0:0:
192,192,96766,1,0,0:0:0:0:
448,192,96814,1,0,0:0:0:0:
320,192,96861,1,0,0:0:0:0:
192,192,96909,1,0,0:0:0:0:
64,192,97052,1,0,0:0:0:0:
192,192,97052,1,0,0:0:0:0:
320,192,97100,1,0,0:0:0:0:
448,192,97147,1,0,0:0:0:0:
64,192,97338,1,0,0:0:0:0:
320,192,97385,1,0,0:0:0:0:
192,192,97433,1,0,0:0:0:0:
448,192,97623,1,0,0:0:0:0:
64,192,97623,1,0,0:0:0:0:
192,192,97671,1,0,0:0:0:0:
320,192,97719,1,0,0:0:0:0:
448,192,97909,1,0,0:0:0:0:
192,192,97957,1,0,0:0:0:0:
320,192,98004,1,0,0:0:0:0:
192,192,98195,1,0,0:0:0:0:
64,192,98195,1,0,0:0:0:0:
448,192,98242,1,0,0:0:0:0:
320,192,98290,1,0,0:0:0:0:
64,192,98480,1,0,0:0:0:0:
192,192,98623,1,0,0:0:0:0:
320,192,98671,1,0,0:0:0:0:
64,192,98766,1,0,0:0:0:0:
192,192,98766,1,0,0:0:0:0:
448,192,98814,1,0,0:0:0:0:
320,192,98861,1,0,0:0:0:0:
64,192,98957,1,0,0:0:0:0:
192,192,99004,1,0,0:0:0:0:
320,192,99052,1,0,0:0:0:0:
192,192,99147,1,0,0:0:0:0:
320,192,99195,1,0,0:0:0:0:
64,192,99242,1,0,0:0:0:0:
448,192,99338,1,0,0:0:0:0:
320,192,99338,1,0,0:0:0:0:
192,192,99385,1,0,0:0:0:0:
64,192,99433,1,0,0:0:0:0:
192,192,99623,1,0,0:0:0:0:
320,192,99671,1,0,0:0:0:0:
448,192,99719,1,0,0:0:0:0:
64,192,99766,1,0,0:0:0:0:
448,192,99909,1,0,0:0:0:0:
320,192,99909,1,0,0:0:0:0:
192,192,99957,1,0,0:0:0:0:
64,192,100004,1,0,0:0:0:0:
192,192,100147,1,0,0:0:0:0:
320,192,100195,1,0,0:0:0:0:
64,192,100242,1,0,0:0:0:0:
448,192,100338,1,0,0:0:0:0:
320,192,100385,1,0,0:0:0:0:
64,192,100480,1,0,0:0:0:0:
192,192,100480,1,0,0:0:0:0:
448,192,100528,1,0,0:0:0:0:
320,192,100576,1,0,0:0:0:0:
448,192,100766,128,0,101052:0:0:0:0:
320,192,100766,1,0,0:0:0:0:
64,192,100766,1,0,0:0:0:0:
192,192,100909,1,0,0:0:0:0:
192,192,101052,1,0,0:0:0:0:
64,192,101052,1,0,0:0:0:0:
320,192,101100,1,0,0:0:0:0:
448,192,101147,1,0,0:0:0:0:
192,192,101195,1,0,0:0:0:0:
64,192,101242,1,0,0:0:0:0:
448,192,101290,1,0,0:0:0:0:
320,192,101338,1,0,0:0:0:0:
192,192,101385,1,0,0:0:0:0:
64,192,101433,1,0,0:0:0:0:
448,192,101480,1,0,0:0:0:0:
64,192,101623,1,0,0:0:0:0:
192,192,101623,1,0,0:0:0:0:
320,192,101671,1,0,0:0:0:0:
448,192,101719,1,0,0:0:0:0:
320,192,101909,1,0,0:0:0:0:
64,192,101957,1,0,0:0:0:0:
192,192,102004,1,0,0:0:0:0:
448,192,102195,1,0,0:0:0:0:
64,192,102195,1,0,0:0:0:0:
320,192,102242,1,0,0:0:0:0:
192,192,102290,1,0,0:0:0:0:
320,192,102480,1,0,0:0:0:0:
448,192,102528,1,0,0:0:0:0:
192,192,102576,1,0,0:0:0:0:
320,192,102766,1,0,0:0:0:0:
64,192,102766,1,0,0:0:0:0:
448,192,102814,1,0,0:0:0:0:
192,192,102861,1,0,0:0:0:0:
64,192,103052,1,0,0:0:0:0:
448,192,103195,1,0,0:0:0:0:
320,192,103242,1,0,0:0:0:0:
448,192,103338,1,0,0:0:0:0:
64,192,103338,1,0,0:0:0:0:
192,192,103385,1,0,0:0:0:0:
320,192,103433,1,0,0:0:0:0:
64,192,103528,1,0,0:0:0:0:
192,192,103576,1,0,0:0:0:0:
320,192,103623,1,0,0:0:0:0:
448,192,103719,1,0,0:0:0:0:
320,192,103766,1,0,0:0:0:0:
192,192,103814,1,0,0:0:0:0:
448,192,103909,1,0,0:0:0:0:
320,192,103909,1,0,0:0:0:0:
192,192,103957,1,0,0:0:0:0:
64,192,104004,1,0,0:0:0:0:
320,192,104195,1,0,0:0:0:0:
192,192,104242,1,0,0:0:0:0:
64,192,104290,1,0,0:0:0:0:
448,192,104338,1,0,0:0:0:0:
64,192,104480,1,0,0:0:0:0:
192,192,104480,1,0,0:0:0:0:
320,192,104528,1,0,0:0:0:0:
448,192,104576,1,0,0:0:0:0:
320,192,104719,1,0,0:0:0:0:
192,192,104766,1,0,0:0:0:0:
448,192,104814,1,0,0:0:0:0:
64,192,104909,1,0,0:0:0:0:
192,192,104957,1,0,0:0:0:0:
448,192,105052,1,0,0:0:0:0:
320,192,105052,1,0,0:0:0:0:
64,192,105100,1,0,0:0:0:0:
192,192,105147,1,0,0:0:0:0:
64,192,105338,1,0,0:0:0:0:
448,192,105338,1,0,0:0:0:0:
320,192,105385,1,0,0:0:0:0:
192,192,105433,1,0,0:0:0:0:
448,192,105480,1,0,0:0:0:0:
192,192,105623,1,0,0:0:0:0:
64,192,105623,1,0,0:0:0:0:
320,192,105671,1,0,0:0:0:0:
448,192,105719,1,0,0:0:0:0:
192,192,105766,1,0,0:0:0:0:
64,192,105814,1,0,0:0:0:0:
448,192,105861,1,0,0:0:0:0:
320,192,105909,1,0,0:0:0:0:
192,192,105957,1,0,0:0:0:0:
64,192,106004,1,0,0:0:0:0:
320,192,106052,1,0,0:0:0:0:
64,192,106195,1,0,0:0:0:0:
448,192,106195,1,0,0:0:0:0:
192,192,106242,1,0,0:0:0:0:
320,192,106290,1,0,0:0:0:0:
448,192,106338,1,0,0:0:0:0:
320,192,106480,1,0,0:0:0:0:
192,192,106528,1,0,0:0:0:0:
64,192,106576,1,0,0:0:0:0:
320,192,106623,1,0,0:0:0:0:
448,192,106766,1,0,0:0:0:0:
64,192,106766,1,0,0:0:0:0:
320,192,106814,1,0,0:0:0:0:
192,192,106861,1,0,0:0:0:0:
64,192,106909,1,0,0:0:0:0:
320,192,107052,1,0,0:0:0:0:
192,192,107100,1,0,0:0:0:0:
448,192,107147,1,0,0:0:0:0:
320,192,107195,1,0,0:0:0:0:
64,192,107338,1,0,0:0:0:0:
448,192,107338,1,0,0:0:0:0:
320,192,107385,1,0,0:0:0:0:
192,192,107433,1,0,0:0:0:0:
64,192,107480,1,0,0:0:0:0:
320,192,107623,1,0,0:0:0:0:
448,192,107623,1,0,0:0:0:0:
192,192,107766,1,0,0:0:0:0:
320,192,107814,1,0,0:0:0:0:
448,192,107909,1,0,0:0:0:0:
64,192,107909,1,0,0:0:0:0:
192,192,107957,1,0,0:0:0:0:
320,192,108004,1,0,0:0:0:0:
64,192,108100,1,0,0:0:0:0:
192,192,108147,1,0,0:0:0:0:
448,192,108195,1,0,0:0:0:0:
320,192,108266,1,0,0:0:0:0:
192,192,108338,1,0,0:0:0:0:
320,192,108409,1,0,0:0:0:0:
64,192,108480,1,0,0:0:0:0:
448,192,108480,1,0,0:0:0:0:
192,192,108528,1,0,0:0:0:0:
320,192,108576,1,0,0:0:0:0:
448,192,108623,1,0,0:0:0:0:
64,192,108719,1,0,0:0:0:0:
192,192,108766,1,0,0:0:0:0:
448,192,108838,1,0,0:0:0:0:
320,192,108909,1,0,0:0:0:0:
448,192,108980,1,0,0:0:0:0:
192,192,109052,1,0,0:0:0:0:
64,192,109052,1,0,0:0:0:0:
320,192,109100,1,0,0:0:0:0:
64,192,109195,1,0,0:0:0:0:
192,192,109242,1,0,0:0:0:0:
448,192,109338,1,0,0:0:0:0:
320,192,109409,1,0,0:0:0:0:
64,192,109480,1,0,0:0:0:0:
192,192,109552,1,0,0:0:0:0:
64,192,109623,1,0,0:0:0:0:
320,192,109623,1,0,0:0:0:0:
448,192,109671,1,0,0:0:0:0:
192,192,109719,1,0,0:0:0:0:
320,192,109766,1,0,0:0:0:0:
448,192,109861,1,0,0:0:0:0:
64,192,109909,1,0,0:0:0:0:
320,192,109980,1,0,0:0:0:0:
192,192,110052,1,0,0:0:0:0:
320,192,110123,1,0,0:0:0:0:
64,192,110195,1,0,0:0:0:0:
448,192,110195,1,0,0:0:0:0:
192,192,110242,1,0,0:0:0:0:
320,192,110290,1,0,0:0:0:0:
448,192,110338,1,0,0:0:0:0:
192,192,110385,1,0,0:0:0:0:
64,192,110433,1,0,0:0:0:0:
320,192,110480,1,0,0:0:0:0:
192,192,110552,1,0,0:0:0:0:
448,192,110623,1,0,0:0:0:0:
192,192,110695,1,0,0:0:0:0:
448,192,110766,1,0,0:0:0:0:
320,192,110766,1,0,0:0:0:0:
64,192,110814,1,0,0:0:0:0:
192,192,110861,1,0,0:0:0:0:
320,192,110909,1,0,0:0:0:0:
192,192,111052,1,0,0:0:0:0:
448,192,111123,1,0,0:0:0:0:
64,192,111195,1,0,0:0:0:0:
320,192,111266,1,0,0:0:0:0:
192,192,111338,1,0,0:0:0:0:
64,192,111338,1,0,0:0:0:0:
448,192,111385,1,0,0:0:0:0:
320,192,111433,1,0,0:0:0:0:
192,192,111480,1,0,0:0:0:0:
64,192,111623,1,0,0:0:0:0:
320,192,111695,1,0,0:0:0:0:
192,192,111766,1,0,0:0:0:0:
320,192,111838,1,0,0:0:0:0:
64,192,111909,1,0,0:0:0:0:
448,192,111909,1,0,0:0:0:0:
192,192,111957,1,0,0:0:0:0:
320,192,112004,1,0,0:0:0:0:
64,192,112052,1,0,0:0:0:0:
448,192,112195,1,0,0:0:0:0:
192,192,112266,1,0,0:0:0:0:
320,192,112338,1,0,0:0:0:0:
192,192,112409,1,0,0:0:0:0:
320,192,112480,1,0,0:0:0:0:
448,192,112480,1,0,0:0:0:0:
64,192,112528,1,0,0:0:0:0:
192,192,112576,1,0,0:0:0:0:
448,192,112671,1,0,0:0:0:0:
320,192,112719,1,0,0:0:0:0:
192,192,112766,1,0,0:0:0:0:
64,192,112838,1,0,0:0:0:0:
192,192,112909,1,0,0:0:0:0:
64,192,112980,1,0,0:0:0:0:
192,192,113052,1,0,0:0:0:0:
320,192,113052,1,0,0:0:0:0:
448,192,113100,1,0,0:0:0:0:
64,192,113147,1,0,0:0:0:0:
320,192,113195,1,0,0:0:0:0:
192,192,113338,1,0,0:0:0:0:
448,192,113409,1,0,0:0:0:0:
64,192,113480,1,0,0:0:0:0:
320,192,113552,1,0,0:0:0:0:
64,192,113623,1,0,0:0:0:0:
192,192,113623,1,0,0:0:0:0:
448,192,113671,1,0,0:0:0:0:
320,192,113719,1,0,0:0:0:0:
64,192,113814,1,0,0:0:0:0:
320,192,113861,1,0,0:0:0:0:
448,192,113909,1,0,0:0:0:0:
192,192,113980,1,0,0:0:0:0:
64,192,114052,1,0,0:0:0:0:
192,192,114123,1,0,0:0:0:0:
64,192,114195,1,0,0:0:0:0:
320,192,114195,1,0,0:0:0:0:
448,192,114242,1,0,0:0:0:0:
192,192,114290,1,0,0:0:0:0:
320,192,114338,1,0,0:0:0:0:
192,192,114480,1,0,0:0:0:0:
448,192,114552,1,0,0:0:0:0:
320,192,114623,1,0,0:0:0:0:
64,192,114623,1,0,0:0:0:0:
64,192,114766,1,0,0:0:0:0:
448,192,114766,1,0,0:0:0:0:
192,192,114766,1,0,0:0:0:0:
