osu file format v14

[General]
AudioFilename: Fan Christine.mp3
AudioLeadIn: 0
PreviewTime: 68423
Countdown: 0
SampleSet: Soft
StackLeniency: 0.7
Mode: 0
LetterboxInBreaks: 0
WidescreenStoryboard: 0

[Editor]
DistanceSpacing: 1.2
BeatDivisor: 4
GridSize: 4
TimelineZoom: 1

[Metadata]
Title:Qiao Qiao Gao Su Ni
TitleUnicode:悄悄告訴你
Artist:FanFan
ArtistUnicode:范瑋琪
Creator:bossandy
Version:Regraz's Normal
Source:被偷走的那五年
Tags:The Stolen Years Telling you quietly Christine Fan Wei Qi Chi Regraz
BeatmapID:504720
BeatmapSetID:203094

[Difficulty]
HPDrainRate:3
CircleSize:3
OverallDifficulty:3
ApproachRate:4
SliderMultiplier:1.4
SliderTickRate:1

[Events]
//Background and Video events
0,0,"BG.jpg",0,0
Video,0,"video.avi"
//Break Periods
//Storyboard Layer 0 (Background)
//Storyboard Layer 1 (Fail)
//Storyboard Layer 2 (Pass)
//Storyboard Layer 3 (Foreground)
//Storyboard Sound Samples

[TimingPoints]
453,754.716981132075,4,2,1,30,1,0
1207,754.716981132075,4,2,1,60,1,0
4226,769.230769230769,4,2,1,60,1,0
4995,740.740740740741,4,2,1,60,1,0
5735,789.473684210526,4,2,1,60,1,0
6524,759.493670886076,4,2,1,60,1,0
7283,759.493670886076,4,2,1,60,1,0
17916,740.740740740741,4,2,1,60,1,0
17916,-100,4,2,1,60,0,0
19397,779.220779220779,4,2,1,60,1,0
19397,-100,4,2,1,60,0,0
20955,-100,4,2,1,40,0,0
21734,731.707317073171,4,2,1,40,1,0
22465,-100,4,2,1,30,0,0
23197,821.917808219178,4,2,1,30,1,0
24018,789.473684210526,4,2,1,30,1,0
24018,-100,4,2,1,60,0,0
25202,618.556701030928,4,2,1,60,1,0
25511,759.493670886076,4,2,1,60,1,0
28548,745.341614906832,4,2,1,60,1,0
30038,774.193548387097,4,2,1,60,1,0
31586,745.341614906832,4,2,1,60,1,0
33076,816.326530612245,4,2,1,60,1,0
33892,759.493670886076,4,2,1,60,1,0
34271,705.882352941176,4,2,1,60,1,0
34623,769.230769230769,4,2,1,60,1,0
36930,730.371272063299,4,2,1,60,1,0
37660,759.493670886076,4,2,1,60,1,0
40700,740.740740740741,4,2,1,60,1,0
42181,741.656365883807,4,2,1,60,1,0
42181,-100,4,2,1,60,0,0
42922,808.080808080808,4,2,1,60,1,0
43730,759.493670886076,4,2,1,60,1,0
46767,-100,4,2,1,30,0,0
48286,-100,4,2,1,40,0,0
52843,766.773162939297,4,2,1,60,1,0
52843,-100,4,2,1,60,0,0
55143,757.097791798107,4,2,1,60,1,0
57400,779.220779220779,4,2,1,60,1,0
58193,726.392251815981,4,2,1,60,1,0
58919,769.230769230769,4,2,1,60,1,0
61995,759.493670886076,4,2,1,60,1,0
63513,750,4,2,1,60,1,0
63700,-100,4,2,0,30,0,0
66513,764.331210191083,4,2,0,30,1,0
68805,-100,4,2,1,60,0,0
69570,759.493670886076,4,2,1,60,1,0
72607,750,4,2,1,60,1,0
74107,810.810810810811,4,2,1,60,1,0
74917,728.155339805825,4,2,1,60,1,0
75645,750,4,2,1,60,1,0
78645,769.230769230769,4,2,1,60,1,0
81721,759.493670886076,4,2,1,60,1,0
84758,731.707317073171,4,2,1,60,1,0
86221,789.473684210526,4,2,1,60,1,0
86221,-100,4,2,1,60,0,0
87799,779.220779220779,4,2,1,60,1,0
89357,736.196319018405,4,2,1,60,1,0
90829,759.493670886076,4,2,1,60,1,0
96904,769.230769230769,4,2,1,60,1,0
98442,759.974667511083,4,2,1,60,1,0
99961,754.716981132075,4,2,1,60,1,0
101460,810.810810810811,4,2,1,60,1,0
102270,710.059171597633,4,2,1,60,1,0
102980,750,4,2,1,60,1,0
104480,759.493670886076,4,2,1,60,1,0
105998,779.220779220779,4,2,1,60,1,0
107556,745.341614906832,4,2,1,60,1,0
108301,784.313725490196,4,2,1,60,1,0
109085,750,4,2,1,60,1,0
112085,731.707317073171,4,2,1,60,1,0
113548,794.701986754967,4,2,1,60,1,0
113548,-100,4,2,1,60,0,0
114342,-100,4,2,1,60,0,0
115137,779.220779220779,4,2,1,60,1,0
116695,759.493670886076,4,2,1,60,1,0
117454,689.655172413793,4,2,1,60,1,0
118143,769.230769230769,4,2,1,60,1,0
121219,759.493670886076,4,2,1,60,1,0
127294,-100,4,2,0,30,0,0
128813,740.740740740741,4,2,0,30,1,0

[Colours]
Combo1 : 255,255,70
Combo2 : 66,160,255
Combo3 : 255,55,55

[HitObjects]
47,58,453,6,0,L|121:50,1,70
194,82,1207,2,0,P|221:152|190:220,1,140,0|2,0:0|0:0,0:0:0:0:
138,267,2339,1,0,0:0:0:0:
217,292,2716,2,0,B|290:303|290:303|365:285,1,140,0|2,0:0|0:0,0:0:0:0:
416,230,3848,1,0,0:0:0:0:
477,287,4226,6,0,P|485:328|473:371,2,70,0|0|2,0:0|0:0|0:0,0:0:0:0:
416,230,5365,1,0,0:0:0:0:
481,177,5735,2,0,P|419:144|347:185,1,140,0|2,0:0|0:0,0:0:0:0:
285,211,6903,1,0,0:0:0:0:
227,271,7283,6,0,B|121:279|121:279|136:243,1,140,0|2,0:0|0:0,0:0:0:0:
175,174,8422,1,0,0:0:0:0:
228,109,8801,2,0,B|307:102|307:102|355:109|376:130,1,140,0|2,0:0|0:0,0:0:0:0:
401,196,9941,1,0,0:0:0:0:
479,167,10320,6,0,P|485:202|476:235,2,70,0|0|2,0:0|0:0|0:0,0:0:0:0:
502,86,11460,1,0,0:0:0:0:
434,35,11839,2,0,B|328:36|328:36|280:46,1,140,0|2,0:0|0:0,0:0:0:0:
242,109,12979,1,0,0:0:0:0:
188,44,13358,6,0,B|154:37|154:37|48:36,1,140,0|2,0:0|0:0,0:0:0:0:
8,110,14498,1,0,0:0:0:0:
51,181,14877,2,0,P|61:219|50:265,1,70,0|0,0:0|0:0,0:0:0:0:
132,286,15637,2,0,P|159:258|205:244,1,70,2|0,0:0|0:0,0:0:0:0:
183,162,16396,6,0,P|145:151|110:119,1,70,0|0,0:0|0:0,0:0:0:0:
100,51,17156,1,2,0:0:0:0:
174,11,17536,1,0,0:0:0:0:
249,46,17916,2,0,B|301:46|301:46|333:78|393:79,1,140,0|2,0:0|0:0,0:0:0:0:
451,123,19027,1,0,0:0:0:0:
395,186,19397,6,0,P|365:251|392:312,1,140,0|2,0:0|0:0,0:0:0:0:
471,333,20565,1,0,0:0:0:0:
452,251,20955,2,0,B|290:241,1,140,0|2,0:0|0:0,0:0:0:0:
155,302,22465,1,0,0:0:0:0:
196,158,23197,1,0,0:0:0:0:
306,43,24018,1,0,0:0:0:0:
463,82,24807,6,0,L|376:87,1,70
356,161,25511,6,0,P|369:218|322:287,1,140,0|2,0:0|0:0,0:0:0:0:
255,326,26650,1,0,0:0:0:0:
182,283,27029,2,0,P|142:227|153:160,1,140,0|2,0:0|0:0,0:0:0:0:
229,123,28169,1,0,0:0:0:0:
178,55,28548,6,0,L|95:58,2,70,0|0|2,0:0|0:0|0:0,0:0:0:0:
258,29,29666,1,0,0:0:0:0:
329,73,30038,2,0,B|401:71|401:71|474:97,1,140,0|2,0:0|0:0,0:0:0:0:
494,172,31199,1,0,0:0:0:0:
413,196,31586,6,0,P|386:257|423:320,1,140,0|2,0:0|0:0,0:0:0:0:
502,308,32704,1,0,0:0:0:0:
418,317,33076,2,0,L|275:322,1,140,0|2,0:0|0:0,0:0:0:0:
201,355,34271,1,0,0:0:0:0:
129,310,34623,6,0,P|124:261|135:224,1,70,0|0,0:0|0:0,0:0:0:0:
205,207,35392,2,0,P|210:158|199:121,1,70,2|0,0:0|0:0,0:0:0:0:
176,59,36161,2,0,P|248:87|332:68,1,140,0|2,0:0|0:0,0:0:0:0:
384,43,37295,1,0,0:0:0:0:
445,99,37660,6,0,B|443:216|443:216|406:204,1,140,0|2,0:0|0:0,0:0:0:0:
337,196,38799,1,0,0:0:0:0:
292,128,39178,2,0,P|237:131|198:141,1,70
153,182,39938,2,0,P|118:187|83:187,1,70,2|0,0:0|0:0,0:0:0:0:
7,222,40700,6,0,B|-8:245|-8:287|-8:287|8:357,1,140,2|2,0:0|0:0,0:0:0:0:
165,356,42181,1,2,0:0:0:0:
115,210,42922,2,0,L|197:209,1,70
250,276,43730,6,0,P|321:255|408:284,1,140,0|2,0:0|0:0,0:0:0:0:
441,332,44869,1,0,0:0:0:0:
484,259,45248,2,0,B|499:213|473:161|490:107,1,140,0|2,0:0|0:0,0:0:0:0:
256,192,46767,12,0,49805,0:0:0:0:
66,129,51704,6,0,L|55:49,2,70,0|0|0,0:0|0:0|0:0,0:0:0:0:
114,197,52843,6,0,P|178:218|254:193,1,140,0|2,0:0|0:0,0:0:0:0:
303,137,53993,1,0,0:0:0:0:
350,68,54376,2,0,P|428:57|502:87,1,140,0|2,0:0|0:0,0:0:0:0:
465,242,55900,6,0,L|475:318,2,70,0|0|2,0:0|0:0|0:0,0:0:0:0:
392,198,57035,1,0,0:0:0:0:
317,236,57400,2,0,B|246:251|246:251|165:233,1,140,0|2,0:0|0:0,0:0:0:0:
80,100,58919,6,0,B|135:53|135:53|186:64|233:59,1,140,0|2,0:0|0:0,0:0:0:0:
284,42,60072,1,0,0:0:0:0:
365,62,60457,2,0,B|381:65|432:54|432:54|487:101,1,140,0|2,0:0|0:0,0:0:0:0:
441,265,61995,6,0,P|354:291|288:270,1,140,0|2,0:0|0:0,0:0:0:0:
240,230,63134,1,0,0:0:0:0:
157,249,63513,1,0,0:0:0:0:
256,192,63700,12,0,66513,0:0:0:0:
64,127,68805,6,0,L|141:114,1,70,0|0,0:0|0:0,0:0:0:0:
217,114,69570,6,0,P|255:166|214:252,1,140,0|2,0:0|0:0,0:0:0:0:
309,276,70709,1,0,0:0:0:0:
373,227,71088,2,0,P|351:162|390:107,1,140,0|2,0:0|0:0,0:0:0:0:
474,103,72228,1,0,0:0:0:0:
475,186,72607,6,0,B|487:250|460:292|460:292|468:333,1,140,0|2,0:0|0:0,0:0:0:0:
385,347,73732,1,0,0:0:0:0:
310,308,74107,2,0,B|223:313|223:313|180:297|168:266,1,140,0|2,0:0|0:0,0:0:0:0:
105,242,75281,1,0,0:0:0:0:
133,163,75645,6,0,P|185:136|265:168,1,140,0|2,0:0|0:0,0:0:0:0:
323,213,76770,1,0,0:0:0:0:
387,159,77145,2,0,P|450:133|512:161,1,140,0|2,0:0|0:0,0:0:0:0:
485,241,78270,1,0,0:0:0:0:
422,296,78645,6,0,L|328:304,1,70,0|0,0:0|0:0,0:0:0:0:
268,305,79414,2,0,L|198:299,1,70,2|0,0:0|0:0,0:0:0:0:
116,279,80183,2,0,P|98:207|122:129,1,140,0|2,0:0|0:0,0:0:0:0:
172,84,81337,1,0,0:0:0:0:
238,134,81721,6,0,B|310:140|310:140|388:125,1,140,0|2,0:0|0:0,0:0:0:0:
448,82,82860,1,0,0:0:0:0:
497,149,83239,2,0,P|506:195|494:229,1,70,0|0,0:0|0:0,0:0:0:0:
420,242,83999,2,0,P|411:288|423:322,1,70,2|0,0:0|0:0,0:0:0:0:
345,360,84758,6,0,B|268:340|268:340|236:354|191:335,1,140,0|2,0:0|0:0,0:0:0:0:
154,276,85855,1,0,0:0:0:0:
234,251,86221,2,0,P|255:190|216:115,1,140,0|2,0:0|0:0,0:0:0:0:
152,82,87405,1,0,0:0:0:0:
221,34,87799,6,0,B|326:36|326:36|360:52,1,140,0|2,0:0|0:0,0:0:0:0:
416,111,88967,1,0,0:0:0:0:
329,131,89357,2,0,P|310:189|354:266,1,140,0|2,0:0|0:0,0:0:0:0:
424,275,90461,1,0,0:0:0:0:
373,338,90829,6,0,L|289:343,1,70
227,311,91588,2,0,L|157:306,1,70,2|0,0:0|0:0,0:0:0:0:
84,264,92347,2,0,P|70:195|97:115,1,140,0|2,0:0|0:0,0:0:0:0:
230,219,93866,2,0,L|403:234,2,140,0|2|0,0:0|0:0|0:0,0:0:0:0:
70,302,96145,5,0,0:0:0:0:
136,353,96525,1,0,0:0:0:0:
210,309,96904,6,0,B|283:313|283:313|368:288,1,140,0|2,0:0|0:0,0:0:0:0:
427,318,98057,1,0,0:0:0:0:
481,255,98442,2,0,P|486:220|478:186,1,70
418,127,99201,2,0,P|413:92|421:58,1,70,2|0,0:0|0:0,0:0:0:0:
341,28,99961,6,0,P|274:43|205:30,1,140,0|2,0:0|0:0,0:0:0:0:
145,89,101093,1,0,0:0:0:0:
198,153,101460,2,0,P|226:211|192:275,1,140,0|2,0:0|0:0,0:0:0:0:
124,321,102625,1,0,0:0:0:0:
49,360,102980,6,0,B|26:302|68:258|68:258|63:206,1,140,0|2,0:0|0:0,0:0:0:0:
110,157,104105,1,0,0:0:0:0:
193,148,104480,2,0,B|306:149|306:149|350:132,1,140,0|2,0:0|0:0,0:0:0:0:
400,91,105619,1,0,0:0:0:0:
469,137,105998,6,0,P|481:184|470:228,2,70,0|0|2,0:0|0:0|0:0,0:0:0:0:
400,91,107166,1,0,0:0:0:0:
329,45,107556,2,0,L|157:49,1,140,0|2,0:0|0:0,0:0:0:0:
108,23,108693,1,0,0:0:0:0:
85,104,109085,6,0,P|107:177|73:253,1,140,0|2,0:0|0:0,0:0:0:0:
41,305,110210,1,0,0:0:0:0:
123,316,110585,2,0,P|157:306|192:308,1,70
232,234,111335,2,0,P|266:231|300:241,1,70,2|0,0:0|0:0,0:0:0:0:
377,279,112085,6,0,B|398:233|371:189|371:189|370:129,1,140,2|2,0:0|0:0,0:0:0:0:
400,64,113182,1,0,0:0:0:0:
477,39,113548,1,2,0:0:0:0:
497,205,114342,2,0,L|407:199,1,70
352,242,115137,6,0,P|288:286|225:262,1,140,0|2,0:0|0:0,0:0:0:0:
167,217,116305,1,0,0:0:0:0:
77,220,116695,2,0,P|56:155|80:89,1,140,0|2,0:0|0:0,0:0:0:0:
161,106,117798,1,0,0:0:0:0:
230,58,118143,6,0,L|309:60,1,70
384,59,118912,2,0,L|453:57,1,70,2|0,0:0|0:0,0:0:0:0:
494,130,119681,2,0,B|497:229|497:229|479:245|441:251,1,140,0|2,0:0|0:0,0:0:0:0:
381,274,120835,1,0,0:0:0:0:
300,250,121219,6,0,P|218:226|158:253,1,140,0|2,0:0|0:0,0:0:0:0:
111,304,122358,1,0,0:0:0:0:
41,257,122737,2,0,B|31:185|31:185|45:111,1,140,0|2,0:0|0:0,0:0:0:0:
121,88,123877,1,0,0:0:0:0:
201,111,124256,6,0,B|260:118|260:118|303:87|363:99,1,140,0|2,0:0|0:0,0:0:0:0:
400,149,125396,1,0,0:0:0:0:
325,187,125775,2,0,P|299:251|342:320,1,140,0|2,0:0|0:0,0:0:0:0:
407,342,126915,1,0,0:0:0:0:
256,192,127294,12,0,130294,0:0:0:0:
