osu file format v14

[General]
AudioFilename: Fan Christine.mp3
AudioLeadIn: 0
PreviewTime: 68423
Countdown: 0
SampleSet: Soft
StackLeniency: 0.7
Mode: 0
LetterboxInBreaks: 0
WidescreenStoryboard: 0

[Editor]
DistanceSpacing: 0.9
BeatDivisor: 4
GridSize: 4
TimelineZoom: 1

[Metadata]
Title:Qiao Qiao Gao Su Ni
TitleUnicode:悄悄告訴你
Artist:FanFan
ArtistUnicode:范瑋琪
Creator:bossandy
Version:Hard
Source:被偷走的那五年
Tags:The Stolen Years Telling you quietly Christine Fan Wei Qi Chi Regraz
BeatmapID:480188
BeatmapSetID:203094

[Difficulty]
HPDrainRate:6
CircleSize:4
OverallDifficulty:5
ApproachRate:6
SliderMultiplier:1.8
SliderTickRate:1

[Events]
//Background and Video events
0,0,"BG.jpg",0,0
Video,0,"video.avi"
//Break Periods
//Storyboard Layer 0 (Background)
//Storyboard Layer 1 (Fail)
//Storyboard Layer 2 (Pass)
//Storyboard Layer 3 (Foreground)
//Storyboard Sound Samples

[TimingPoints]
453,754.716981132075,4,2,1,30,1,0
1207,754.716981132075,4,2,1,60,1,0
4226,769.230769230769,4,2,1,60,1,0
4995,740.740740740741,4,2,1,60,1,0
5735,789.473684210526,4,2,1,60,1,0
6524,759.493670886076,4,2,1,60,1,0
7283,759.493670886076,4,2,1,60,1,0
17916,740.740740740741,4,2,1,60,1,0
17916,-200,4,2,1,60,0,0
19397,779.220779220779,4,2,1,60,1,0
19397,-100,4,2,1,60,0,0
20955,-100,4,2,1,40,0,0
21734,731.707317073171,4,2,1,40,1,0
22465,-100,4,2,1,30,0,0
23197,821.917808219178,4,2,1,30,1,0
24018,789.473684210526,4,2,1,30,1,0
24018,-100,4,2,1,60,0,0
25202,618.556701030928,4,2,1,60,1,0
25511,759.493670886076,4,2,1,60,1,0
28548,745.341614906832,4,2,1,60,1,0
30038,774.193548387097,4,2,1,60,1,0
31586,745.341614906832,4,2,1,60,1,0
33076,816.326530612245,4,2,1,60,1,0
33892,759.493670886076,4,2,1,60,1,0
34271,705.882352941176,4,2,1,60,1,0
34623,769.230769230769,4,2,1,60,1,0
36930,730.371272063299,4,2,1,60,1,0
37660,759.493670886076,4,2,1,60,1,0
40700,740.740740740741,4,2,1,60,1,0
42181,741.656365883807,4,2,1,60,1,0
42181,-200,4,2,1,60,0,0
42922,808.080808080808,4,2,1,60,1,0
43730,759.493670886076,4,2,1,60,1,0
46767,-100,4,2,1,30,0,0
48286,-100,4,2,1,40,0,0
52843,766.773162939297,4,2,1,60,1,0
52843,-100,4,2,1,60,0,0
55143,757.097791798107,4,2,1,60,1,0
57400,779.220779220779,4,2,1,60,1,0
58193,726.392251815981,4,2,1,60,1,0
58919,769.230769230769,4,2,1,60,1,0
61995,759.493670886076,4,2,1,60,1,0
63513,750,4,2,1,60,1,0
63700,-100,4,2,0,30,0,0
66513,764.331210191083,4,2,0,30,1,0
68805,-100,4,2,1,60,0,0
69570,759.493670886076,4,2,1,60,1,0
72607,750,4,2,1,60,1,0
74107,810.810810810811,4,2,1,60,1,0
74917,728.155339805825,4,2,1,60,1,0
75645,750,4,2,1,60,1,0
78645,769.230769230769,4,2,1,60,1,0
81721,759.493670886076,4,2,1,60,1,0
84758,731.707317073171,4,2,1,60,1,0
86221,789.473684210526,4,2,1,60,1,0
86221,-200,4,2,1,60,0,0
87799,779.220779220779,4,2,1,60,1,0
89357,736.196319018405,4,2,1,60,1,0
90829,759.493670886076,4,2,1,60,1,0
96904,769.230769230769,4,2,1,60,1,0
98442,759.974667511083,4,2,1,60,1,0
99961,754.716981132075,4,2,1,60,1,0
101460,810.810810810811,4,2,1,60,1,0
102270,710.059171597633,4,2,1,60,1,0
102980,750,4,2,1,60,1,0
104480,759.493670886076,4,2,1,60,1,0
105998,779.220779220779,4,2,1,60,1,0
107556,745.341614906832,4,2,1,60,1,0
108301,784.313725490196,4,2,1,60,1,0
109085,750,4,2,1,60,1,0
112085,731.707317073171,4,2,1,60,1,0
113548,794.701986754967,4,2,1,60,1,0
113548,-200,4,2,1,60,0,0
114342,-100,4,2,1,60,0,0
115137,779.220779220779,4,2,1,60,1,0
116695,759.493670886076,4,2,1,60,1,0
117454,689.655172413793,4,2,1,60,1,0
118143,769.230769230769,4,2,1,60,1,0
121219,759.493670886076,4,2,1,60,1,0
127294,-100,4,2,0,30,0,0
128813,740.740740740741,4,2,0,30,1,0

[Colours]
Combo1 : 255,255,70
Combo2 : 66,160,255
Combo3 : 255,55,55

[HitObjects]
392,192,453,5,0,0:0:0:0:
392,192,830,1,0,0:0:0:0:
344,256,1207,6,0,P|256:272|168:256,1,180,0|2,0:0|0:0,0:0:0:0:
120,192,2339,1,0,0:0:0:0:
168,128,2716,2,0,P|256:112|344:128,1,180,0|2,0:0|0:0,0:0:0:0:
392,192,3848,1,0,0:0:0:0:
344,256,4226,6,0,B|316:288|316:288|316:336,1,90
168,256,4995,2,0,B|196:288|196:288|196:336,1,90,2|0,0:0|0:0,0:0:0:0:
316,176,5735,2,0,B|316:132|256:120|256:120|196:132|196:176,1,180,0|2,0:0|0:0,0:0:0:0:
256,228,6903,1,0,0:0:0:0:
400,176,7283,6,0,P|368:88|296:48,1,180,0|2,0:0|0:0,0:0:0:0:
256,228,8422,1,0,0:0:0:0:
112,176,8801,2,0,P|144:88|216:48,1,180,0|2,0:0|0:0,0:0:0:0:
256,136,9941,1,0,0:0:0:0:
256,228,10320,5,0,0:0:0:0:
316,328,10700,1,0,0:0:0:0:
196,328,11080,1,2,0:0:0:0:
256,228,11460,1,0,0:0:0:0:
336,144,11839,2,0,P|256:108|176:144,1,180,0|2,0:0|0:0,0:0:0:0:
256,228,12979,1,0,0:0:0:0:
96,228,13358,6,0,P|176:264|256:228,1,180,0|2,0:0|0:0,0:0:0:0:
196,100,14498,2,0,P|148:68|104:72,1,90
316,100,15257,2,0,P|364:68|408:72,2,90,0|2|0,0:0|0:0|0:0,0:0:0:0:
308,180,16396,5,0,0:0:0:0:
328,260,16776,1,0,0:0:0:0:
184,260,17156,1,2,0:0:0:0:
204,180,17536,1,0,0:0:0:0:
256,316,17916,6,0,P|220:344|168:348,1,90
80,312,19027,1,0,0:0:0:0:
80,192,19397,5,0,0:0:0:0:
128,120,19786,2,0,B|152:96|152:96|168:104|192:104|208:96,1,90,0|2,0:0|0:0,0:0:0:0:
256,32,20565,1,0,0:0:0:0:
305,96,20955,2,0,B|320:104|344:104|360:96|360:96|384:120,1,90
300,184,21734,2,0,P|256:192|212:184,1,90,2|0,0:0|0:0,0:0:0:0:
256,192,22465,12,0,24018,0:0:0:0:
132,300,24807,6,0,P|148:259|184:232,1,90,2|0,0:0|0:0,0:0:0:0:
212,308,25511,6,0,B|232:328|272:328|292:304|292:304|312:328|352:328|376:308,1,180,0|2,0:0|0:0,0:0:0:0:
400,192,26650,1,0,0:0:0:0:
374,74,27029,2,0,B|352:56|312:56|292:80|292:80|272:56|232:56|212:76,1,180,0|2,0:0|0:0,0:0:0:0:
168,144,28169,6,0,P|124:144|88:112,1,90
24,192,28920,1,0,0:0:0:0:
89,268,29293,2,0,P|123:240|168:240,1,90,2|0,0:0|0:0,0:0:0:0:
321,242,30038,2,0,P|328:156|256:111,1,180,0|2,0:0|0:0,0:0:0:0:
255,192,31199,1,0,0:0:0:0:
256,111,31586,6,0,P|183:156|191:242,1,180,0|2,0:0|0:0,0:0:0:0:
256,288,32704,2,0,B|268:316|268:348|248:376,1,90
184,328,33484,2,0,B|156:340|124:340|96:328,1,90,0|2,0:0|0:0,0:0:0:0:
140,252,34271,2,0,L|140:204,1,45
96,140,34623,6,0,B|124:128|156:128|184:140,1,90
416,140,35392,2,0,B|388:128|356:128|328:140,1,90,2|0,0:0|0:0,0:0:0:0:
256,40,36161,6,0,L|256:228,1,180,0|2,0:0|0:0,0:0:0:0:
188,264,37295,1,0,0:0:0:0:
256,308,37660,6,0,P|344:308|416:256,1,180,0|2,0:0|0:0,0:0:0:0:
432,176,38799,1,0,0:0:0:0:
356,208,39178,2,0,P|320:234|275:234,1,90
296,156,39938,2,0,P|331:129|376:129,1,90,2|0,0:0|0:0,0:0:0:0:
448,172,40700,6,0,L|464:84,1,90
356,208,41440,2,0,L|372:296,1,90,2|0,0:0|0:0,0:0:0:0:
216,360,42181,6,0,L|240:272,1,90
256,191,43326,1,0,0:0:0:0:
256,112,43730,5,0,0:0:0:0:
212,45,44109,2,0,P|176:21|124:13,1,90,0|2,0:0|0:0,0:0:0:0:
256,112,44869,2,0,L|256:164,2,45
300,45,45628,2,0,P|336:21|388:13,2,90,0|2|0,0:0|0:0|0:0,0:0:0:0:
256,236,46767,6,0,P|196:236|124:148,2,180,0|2|0,0:0|0:0|0:0,0:0:0:0:
300,168,48666,1,0,0:0:0:0:
372,204,49046,1,2,0:0:0:0:
416,136,49426,1,0,0:0:0:0:
344,96,49805,6,0,P|421:53|496:116,2,180,0|2|0,0:0|0:0|0:0,0:0:0:0:
300,168,51704,1,0,0:0:0:0:
256,100,52084,1,2,0:0:0:0:
212,168,52464,1,0,0:0:0:0:
164,104,52843,6,0,P|84:72|0:108,1,180,0|2,0:0|0:0,0:0:0:0:
80,196,53993,1,0,0:0:0:0:
1,277,54376,2,0,P|82:311|164:280,1,180,0|2,0:0|0:0,0:0:0:0:
316,332,55900,5,0,0:0:0:0:
392,356,56278,1,0,0:0:0:0:
440,292,56657,1,2,0:0:0:0:
393,227,57035,1,0,0:0:0:0:
316,252,57400,2,0,P|212:232|168:164,1,180,0|2,0:0|0:0,0:0:0:0:
247,30,58919,6,0,P|237:117|171:175,1,180,0|2,0:0|0:0,0:0:0:0:
96,204,60072,1,0,0:0:0:0:
20,236,60457,2,0,P|10:285|28:342,2,90,0|0|2,0:0|0:0|0:0,0:0:0:0:
176,284,61995,6,0,P|281:272|328:212,1,180,0|2,0:0|0:0,0:0:0:0:
337,139,63134,1,0,0:0:0:0:
324,58,63513,1,0,0:0:0:0:
256,192,63700,12,2,66513,0:0:0:0:
256,64,68805,5,2,0:0:0:0:
256,144,69188,1,0,0:0:0:0:
232,220,69570,6,0,B|200:216|168:176|176:136|176:136|100:120,1,180,0|2,0:0|0:0,0:0:0:0:
124,44,70709,2,0,L|211:64,1,90
256,144,71468,1,0,0:0:0:0:
300,64,71848,2,0,L|388:44,1,90,2|0,0:0|0:0,0:0:0:0:
402,121,72607,6,0,B|336:136|336:136|344:176|312:216|280:220,1,180,0|2,0:0|0:0,0:0:0:0:
256,144,73732,1,0,0:0:0:0:
256,296,74107,1,0,0:0:0:0:
256,296,74917,1,2,0:0:0:0:
256,376,75281,1,0,0:0:0:0:
328,264,75645,6,0,P|255:218|184:264,1,180,0|2,0:0|0:0,0:0:0:0:
112,220,76770,2,0,L|136:128,1,90
256,96,77520,1,0,0:0:0:0:
377,132,77895,2,0,L|400:220,1,90,2|0,0:0|0:0,0:0:0:0:
300,120,78645,5,0,0:0:0:0:
352,56,79029,1,0,0:0:0:0:
212,120,79414,1,2,0:0:0:0:
160,56,79798,1,0,0:0:0:0:
256,192,80183,2,0,B|274:219|277:247|256:275|256:275|236:303|239:330|256:358,1,180,0|2,0:0|0:0,0:0:0:0:
328,308,81337,1,0,0:0:0:0:
188,236,81721,6,0,P|128:192|152:100,1,180,0|2,0:0|0:0,0:0:0:0:
200,36,82860,2,0,P|160:20|112:32,1,90
256,96,83619,1,0,0:0:0:0:
312,36,83999,2,0,P|353:21|396:30,1,90,2|0,0:0|0:0,0:0:0:0:
361,100,84758,5,0,0:0:0:0:
204,180,85123,1,0,0:0:0:0:
308,180,85489,1,2,0:0:0:0:
151,100,85855,1,0,0:0:0:0:
256,268,86221,6,0,B|281:280|316:280|342:268,1,90,0|2,0:0|0:0,0:0:0:0:
256,188,87405,1,0,0:0:0:0:
184,224,87799,6,0,P|184:314|256:354,1,180,0|2,0:0|0:0,0:0:0:0:
256,268,88967,1,0,0:0:0:0:
326,223,89357,2,0,P|328:308|255:353,1,180,0|2,0:0|0:0,0:0:0:0:
256,268,90461,1,0,0:0:0:0:
184,224,90829,6,0,L|104:180,1,90
328,224,91588,2,0,L|408:180,1,90,2|0,0:0|0:0,0:0:0:0:
256,192,92347,1,0,0:0:0:0:
256,192,93107,2,0,B|269:171|271:150|256:129|256:129|240:108|243:88|256:67,1,135,2|0,0:0|0:0,0:0:0:0:
284,40,93866,6,0,P|333:34|388:42,1,90
420,108,94626,2,0,P|370:113|316:106,2,90,2|0|0,0:0|0:0|0:0,0:0:0:0:
89,190,96145,2,0,L|89:94,1,90
0,189,96904,6,0,P|38:266|124:274,1,180,0|2,0:0|0:0,0:0:0:0:
192,225,98057,1,0,0:0:0:0:
256,176,98442,2,0,B|280:156|316:156|339:175,1,90
384,244,99201,2,0,B|360:264|324:264|301:245,1,90,2|0,0:0|0:0,0:0:0:0:
440,332,99961,6,0,P|480:280|440:156,1,180,0|2,0:0|0:0,0:0:0:0:
391,130,101093,1,0,0:0:0:0:
424,60,101460,1,0,0:0:0:0:
424,60,102270,2,0,P|376:52|340:72,1,90,2|0,0:0|0:0,0:0:0:0:
288,128,102980,6,0,P|204:132|117:82,1,180,0|2,0:0|0:0,0:0:0:0:
48,120,104105,1,0,0:0:0:0:
32,200,104480,2,0,L|8:288,1,90
176,236,105239,2,0,L|111:171,1,90,2|0,0:0|0:0,0:0:0:0:
68,340,105998,6,0,L|156:316,1,90
232,296,106777,1,2,0:0:0:0:
312,312,107166,1,0,0:0:0:0:
392,288,107556,2,0,P|460:244|432:140,1,180,0|2,0:0|0:0,0:0:0:0:
388,208,108693,1,0,0:0:0:0:
388,104,109085,6,0,B|351:81|312:80|276:96|276:96|216:80,1,180,0|2,0:0|0:0,0:0:0:0:
162,143,110210,2,0,L|263:171,2,90
92,185,111335,2,0,L|69:98,1,90,2|0,0:0|0:0,0:0:0:0:
165,222,112085,6,0,L|90:295,1,90
162,143,112816,2,0,L|263:171,1,90,2|0,0:0|0:0,0:0:0:0:
92,185,113548,6,0,L|69:98,1,90,0|2,0:0|0:0,0:0:0:0:
162,143,114740,1,0,0:0:0:0:
247,203,115137,6,0,P|333:213|383:143,1,180,0|2,0:0|0:0,0:0:0:0:
344,72,116305,1,0,0:0:0:0:
292,136,116695,2,0,L|388:316,1,180,0|2,0:0|0:0,0:0:0:0:
416,364,117798,1,0,0:0:0:0:
336,364,118143,6,0,P|290:349|257:314,1,90
313,172,118912,2,0,P|324:216|308:263,1,90,2|0,0:0|0:0,0:0:0:0:
261,320,119681,2,0,P|184:312|128:224,1,180,0|2,0:0|0:0,0:0:0:0:
136,152,120835,1,0,0:0:0:0:
184,84,121219,6,0,P|213:49|257:30,1,90
258,114,121978,2,0,P|300:97|348:103,1,90,2|0,0:0|0:0,0:0:0:0:
312,179,122737,2,0,P|356:186|395:215,1,90
327,260,123497,2,0,P|362:288|380:333,1,90,2|0,0:0|0:0,0:0:0:0:
296,335,124256,5,0,0:0:0:0:
221,366,124636,1,0,0:0:0:0:
231,286,125016,1,2,0:0:0:0:
154,317,125396,1,0,0:0:0:0:
158,235,125775,2,0,P|195:167|285:113,1,180,0|2,0:0|0:0,0:0:0:0:
360,116,126915,1,0,0:0:0:0:
256,192,127294,12,2,130294,0:0:0:0:
