osu file format v14

[General]
AudioFilename: audio.mp3
AudioLeadIn: 0
PreviewTime: 60524
Countdown: 0
SampleSet: Soft
StackLeniency: 0.7
Mode: 0
LetterboxInBreaks: 0
WidescreenStoryboard: 1

[Editor]
DistanceSpacing: 0.9
BeatDivisor: 8
GridSize: 32
TimelineZoom: 1.6

[Metadata]
Title:THE TIDES (TV Size)
TitleUnicode:THE TIDES (TV Size)
Artist:Fan Ka, Bai Sha JAWS
ArtistUnicode:饭卡 、白鲨JAWS
Creator:KaedeharaKazuha
Version:Drop's Extra
Source:时光代理人
Tags:Addy2607 Kaedehara Kazuha Drop [Drop] [_Drop_] Kyouren KittyAdventure gokugohan12468 Ascended -ascended- -_ascended_- arronchu1207 AirinCat Shiguang Shi guang Dailiren Dai li ren II Link Click Season 2 2nd second s2 ending ed outro theme song english chinese pop cpop c-pop hiphop hip hop 时光代理人第二季 第二季 cheng xiaoshi lu 程 小时 陆 光 time agents donghua dong hua anime
BeatmapID:4217875
BeatmapSetID:2021899

[Difficulty]
HPDrainRate:5
CircleSize:4
OverallDifficulty:8
ApproachRate:9
SliderMultiplier:1.6
SliderTickRate:1

[Events]
//Background and Video events
Video,0,"video.mp4"
0,0,"BG 3.jpg",0,0
//Break Periods
2,47296,56719
//Storyboard Layer 0 (Background)
//Storyboard Layer 1 (Fail)
//Storyboard Layer 2 (Pass)
//Storyboard Layer 3 (Foreground)
//Storyboard Layer 4 (Overlay)
//Storyboard Sound Samples

[TimingPoints]
5662,416.666666666667,4,2,1,30,1,0
5662,-666.666666666667,4,2,1,30,0,0
8995,-666.666666666667,4,2,1,30,0,0
11912,389.61038961039,4,2,1,30,1,0
11912,-100,4,2,1,30,0,0
12304,468.75,4,2,1,40,1,0
12304,-93.4579439252336,4,2,1,40,0,0
12538,451.127819548872,4,2,1,40,1,0
12538,-100,4,2,1,40,0,0
12763,416.666666666667,4,2,1,40,1,0
12763,-333.333333333333,4,2,1,40,0,0
13596,377.358490566038,4,2,1,40,1,0
13596,-100,4,2,1,40,0,0
13973,451.127819548872,4,2,1,40,1,0
13973,-100.502512562814,4,2,1,40,0,0
14198,338.983050847458,4,2,1,40,1,0
14198,-100,4,2,1,40,0,0
14367,437.956204379562,4,2,1,40,1,0
14367,-200,4,2,1,40,0,0
14804,416.666666666667,4,2,1,40,1,0
14804,-100,4,2,1,40,0,0
15637,416.666666666667,4,2,1,40,1,0
15637,-100,4,2,1,40,0,0
17720,434.782608695653,4,2,1,40,1,0
17720,-100,4,2,1,40,0,0
18154,416.666666666667,4,2,1,40,1,0
18154,-100,4,2,1,40,0,0
18987,410.958904109589,4,2,1,40,1,0
18987,-500,4,2,1,40,0,0
20630,416.666666666667,4,2,1,60,1,0
20630,-250,4,2,1,60,0,0
26880,-66.6666666666667,4,2,1,60,0,0
27088,-100,4,2,1,60,0,0
27296,-1000,4,2,1,60,0,0
28130,-250,4,2,1,60,0,0
30630,-250,4,2,1,70,0,0
32296,-100,4,2,1,80,0,0
33963,-166.666666666667,4,2,1,70,0,0
43130,-250.000000000001,4,2,1,70,0,0
43963,-166.666666666667,4,2,1,70,0,0
45630,-1000,4,2,1,60,0,0
47296,377.358490566038,4,2,1,50,1,0
47296,-105.263157894737,4,2,1,50,0,0
47673,416.666666666667,4,2,1,50,1,0
47673,-100,4,2,1,50,0,0
48714,434.782608695652,4,2,1,50,1,0
48714,-100,4,2,1,50,0,0
49583,397.350993377483,4,2,1,50,1,0
49583,-100,4,2,1,50,0,0
49781,416.666666666667,4,2,1,50,1,0
49781,-100,4,2,1,50,0,0
52072,-104.166666666667,4,2,1,50,0,0
52281,458.015267175573,4,2,1,50,1,0
52281,-100,4,2,1,50,0,0
52739,416.666666666667,4,2,1,50,1,0
52739,-100,4,2,1,50,0,0
53989,357.142857142857,4,2,1,55,1,0
53989,-105.263157894737,4,2,1,55,0,0
54524,431.654676258993,4,2,1,55,1,0
54524,-100,4,2,1,55,0,0
54739,424.028268551237,4,2,1,55,1,0
54739,-100,4,2,1,55,0,0
55375,512.820512820513,4,2,1,55,1,0
55375,-100,4,2,1,55,0,0
55631,416.666666666667,4,2,1,55,1,0
55631,-100,4,2,1,55,0,0
57089,461.538461538462,4,2,1,55,1,0
57089,-100,4,2,1,55,0,0
57319,395.387149917628,4,2,1,60,1,0
57319,-102.564102564103,4,2,1,60,0,0
57714,416.666666666667,4,2,1,60,1,0
57714,-100,4,2,1,60,0,0
58964,416.666666666667,4,2,2,70,1,0
60214,-55.5555555555556,4,2,2,70,0,0
60630,416.666666666667,4,2,2,85,1,0
60630,-62.5,4,2,2,85,0,1
68546,-100,4,2,2,70,0,0
69380,-166.666666666667,4,2,2,70,0,0
69796,-55.5555555555556,4,2,2,70,0,0
70213,-50,4,2,2,70,0,0
70630,-62.5,4,2,2,85,0,1
83546,-55.5555555555556,4,2,2,85,0,1
83963,-62.5,4,2,2,85,0,1
84380,-62.5,4,2,3,85,0,1
85630,-62.5,4,2,2,85,0,1
86463,-50,4,2,2,85,0,1
87192,-50,4,2,2,5,0,1
87296,-1000,4,2,2,50,0,0
88963,-100,4,2,1,5,0,0

[Colours]
Combo1 : 114,74,35
Combo2 : 192,192,192
Combo3 : 191,115,30
Combo4 : 128,128,128

[HitObjects]
50,350,5662,6,0,P|57:349|65:335,1,23.9999992675781,2|0,0:0|0:0,0:0:0:0:
122,286,6495,2,0,P|122:278|109:268,1,23.9999992675781,2|0,0:0|0:0,0:0:0:0:
86,97,7328,6,0,L|82:120,2,23.9999992675781,2|2|2,0:0|0:0|0:0,0:0:0:0:
50,350,8995,6,0,P|57:349|65:335,1,23.9999992675781,2|0,0:0|0:0,0:0:0:0:
122,286,9828,2,0,P|122:278|109:268,1,23.9999992675781,2|0,0:0|0:0,0:0:0:0:
88,84,10662,6,0,L|92:61,2,23.9999992675781,2|2|2,0:0|0:0|0:0,0:0:0:0:
88,84,11912,1,0,0:0:0:0:
150,374,12304,5,0,3:0:0:0:
150,374,12538,1,0,3:0:0:0:
150,374,12763,2,0,P|178:359|197:354,1,47.9999985351563,2|2,0:0|0:0,0:0:0:0:
226,290,13388,2,0,P|228:282|223:291,1,23.9999992675781,0|2,0:0|0:3,0:0:0:0:
216,285,13973,5,0,3:0:0:0:
216,285,14198,1,0,3:0:0:0:
216,285,14367,6,0,L|224:319,1,20,2|0,0:0|0:0,0:0:0:0:
274,356,14585,2,0,L|269:375,1,20
280,348,14804,6,0,B|312:360|312:360|317:372|317:372|356:388,1,80,2|0,0:0|0:0,0:0:0:0:
395,269,15220,2,0,B|427:256|427:256|432:244|432:244|471:228,1,80,2|2,0:0|0:0,0:0:0:0:
492,160,15637,5,2,3:2:0:0:
492,160,15845,1,2,3:2:0:0:
492,160,16053,2,0,L|496:142,1,10,2|0,0:3|0:0,0:0:0:0:
415,137,16262,5,2,0:0:0:0:
415,137,16470,1,2,0:0:0:0:
415,137,16678,2,0,L|419:119,1,10,2|0,0:3|0:0,0:0:0:0:
347,23,16887,5,2,0:0:0:0:
347,23,17095,1,0,0:0:0:0:
270,46,17304,5,2,3:2:0:0:
270,46,17512,1,2,3:2:0:0:
270,46,17720,2,0,L|274:64,1,10,2|0,0:3|0:0,0:0:0:0:
270,46,17937,2,0,L|274:64,1,10,2|0,0:3|0:0,0:0:0:0:
226,129,18154,6,0,B|208:132|208:132|196:111,1,40,2|0,0:0|0:0,0:0:0:0:
126,68,18362,2,0,B|108:65|108:65|96:86,1,40
19,25,18570,6,0,L|22:15,1,10,2|0,0:0|0:0,0:0:0:0:
19,25,18779,2,0,L|16:35,1,10,2|0,0:3|0:0,0:0:0:0:
75,307,20425,5,0,0:0:0:0:
75,307,20528,1,0,0:0:0:0:
120,365,20630,6,0,P|137:363|153:346,1,32,2|0,3:2|0:0,0:0:0:0:
197,296,20942,2,0,P|212:297|225:306,1,32
225,306,21255,6,0,P|232:282|249:263,1,48,2|0,0:0|0:0,0:0:0:0:
148,232,21671,6,0,P|148:240|143:247,1,16,2|0,3:2|0:0,0:0:0:0:
203,69,21880,2,0,L|199:47,1,16,2|0,3:2|0:0,0:0:0:0:
208,73,22088,1,0,0:0:0:0:
111,112,22296,6,0,P|131:117|150:130,1,32,2|0,0:0|0:0,0:0:0:0:
196,173,22609,2,0,P|203:169|210:167,1,16,0|0,0:0|3:0,0:0:0:0:
312,8,22921,6,0,P|296:26|290:49,1,48,2|0,0:0|0:0,0:0:0:0:
293,62,23338,2,0,P|300:63|314:73,2,24,2|0|2,3:2|0:0|0:0,0:0:0:0:
360,287,23963,6,0,L|370:324,1,32,2|0,3:2|0:0,0:0:0:0:
439,295,24327,2,0,L|431:272,1,24
446,300,24588,6,0,L|465:306,1,16,2|0,0:0|0:0,0:0:0:0:
291,249,24796,2,0,L|272:243,1,16,10|0,0:0|0:0,0:0:0:0:
467,94,25005,5,2,3:2:0:0:
469,84,25109,1,0,0:0:0:0:
394,72,25213,5,2,3:2:0:0:
387,66,25317,1,0,0:0:0:0:
348,127,25421,5,0,0:0:0:0:
340,129,25630,5,2,0:0:0:0:
116,83,25838,1,0,0:0:0:0:
187,45,26046,6,0,P|196:35|202:16,1,32,2|0,3:2|0:0,0:0:0:0:
286,181,26463,2,0,P|275:193|271:208,1,32,10|0,0:0|3:2,0:0:0:0:
118,365,26880,6,0,P|109:339|76:306,1,60.0000022888184,2|0,0:0|0:0,0:0:0:0:
183,317,27088,2,0,P|189:301|189:276,1,40,2|0,3:2|0:0,0:0:0:0:
43,215,27296,6,0,P|37:224|49:219,1,28
89,155,28130,6,0,P|81:144|79:132,1,16,10|0,0:0|0:0,0:0:0:0:
155,35,28338,2,0,L|162:15,1,16,2|0,3:2|0:0,0:0:0:0:
239,138,28546,6,0,P|261:143|271:152,1,32,2|0,3:2|0:0,0:0:0:0:
296,75,28963,2,0,P|274:70|264:61,1,32,2|0,0:0|0:0,0:0:0:0:
309,3,29380,1,2,3:2:0:0:
388,307,29588,5,0,0:0:0:0:
388,307,29692,1,0,0:0:0:0:
388,307,29796,2,0,L|379:347,1,32,10|0,0:0|3:2,0:0:0:0:
460,328,30109,5,0,0:0:0:0:
460,328,30213,2,0,L|454:350,1,16,2|0,0:0|0:0,0:0:0:0:
323,252,30421,6,0,L|307:256,1,16,2|0,3:2|0:0,0:0:0:0:
426,117,30630,2,0,L|410:112,1,16,0|0,3:0|0:0,0:0:0:0:
367,52,30838,6,0,P|366:45|361:38,2,16,2|0|2,0:0|0:0|0:0,0:0:0:0:
478,183,31255,6,0,P|473:189|471:197,2,16,2|0|10,0:0|0:0|0:0,0:0:0:0:
418,121,31671,6,0,L|404:127,1,16,2|0,3:2|0:0,0:0:0:0:
473,45,31880,2,0,L|459:39,1,16,2|0,3:2|0:0,0:0:0:0:
478,53,32088,1,2,0:0:0:0:
310,192,32296,5,2,3:2:0:0:
293,121,32400,1,2,3:2:0:0:
277,49,32504,1,2,3:2:0:0:
277,49,32609,1,2,0:0:0:0:
277,49,32713,1,2,0:0:0:0:
369,255,32921,5,2,0:0:0:0:
387,251,33025,1,0,0:0:0:0:
398,267,33129,1,10,0:0:0:0:
460,327,33338,5,2,3:2:0:0:
391,351,33442,1,0,3:2:0:0:
321,374,33546,1,2,3:2:0:0:
199,297,33755,5,2,3:2:0:0:
130,273,33859,1,0,3:0:0:0:
60,250,33963,1,6,3:2:0:0:
55,254,34380,6,0,P|48:227|33:195,1,47.9999985351563,2|0,0:0|0:0,0:0:0:0:
40,208,34692,2,0,L|46:180,1,23.9999992675781,2|8,0:0|0:0,0:0:0:0:
172,74,35005,6,0,L|165:46,1,23.9999992675781,2|0,3:2|0:0,0:0:0:0:
92,122,35213,2,0,P|119:132|140:149,1,47.9999985351563,2|0,3:2|0:0,0:0:0:0:
292,119,35630,6,0,L|314:38,1,71.9999978027344,2|0,3:2|0:0,0:0:0:0:
308,43,36046,2,0,L|354:55,1,47.9999985351563,2|0,3:2|0:0,0:0:0:0:
422,20,36359,2,0,P|413:10|412:-6,1,23.9999992675781,2|8,0:0|0:0,0:0:0:0:
380,241,36671,6,0,P|389:251|390:267,1,23.9999992675781,2|0,3:2|0:0,0:0:0:0:
450,307,36880,1,2,0:0:0:0:
467,229,37088,6,0,P|458:219|457:203,1,23.9999992675781,0|0,3:2|0:0,0:0:0:0:
356,361,37296,6,0,B|322:348|322:348|318:341|318:341|284:329,1,71.9999978027344,2|0,3:2|0:0,0:0:0:0:
287,335,37713,2,0,L|233:350,1,47.9999985351563,2|0,0:0|0:0,0:0:0:0:
195,288,38025,2,0,L|202:253,1,23.9999992675781,2|8,0:0|0:0,0:0:0:0:
42,79,38338,6,0,L|37:55,1,23.9999992675781,2|0,3:2|0:0,0:0:0:0:
93,6,38546,1,2,3:2:0:0:
40,172,38755,5,0,0:0:0:0:
40,172,38859,1,0,0:0:0:0:
40,172,38963,2,0,P|72:158|119:147,1,71.9999978027344,2|0,3:2|0:0,0:0:0:0:
113,141,39380,2,0,B|128:120|128:120|121:94,1,47.9999985351563,2|0,0:0|0:0,0:0:0:0:
185,53,39692,2,0,L|223:68,1,23.9999992675781,2|8,0:0|0:0,0:0:0:0:
337,301,40005,6,0,L|375:286,1,23.9999992675781,2|0,3:2|0:0,0:0:0:0:
404,359,40213,2,0,B|438:375|438:375|413:346,1,71.9999978027344,2|2,0:0|0:0,0:0:0:0:
457,280,41255,5,2,0:0:0:0:
491,171,41463,1,10,0:0:0:0:
321,56,41671,6,0,L|326:83,1,23.9999992675781,0|0,3:2|0:0,0:0:0:0:
321,87,41880,2,0,P|359:103|395:126,1,71.9999978027344,2|0,3:2|0:0,0:0:0:0:
437,64,42296,5,2,0:0:0:0:
258,167,42505,1,0,0:0:0:0:
379,6,42713,1,2,3:2:0:0:
414,218,42921,1,2,0:0:0:0:
212,333,43130,6,0,L|205:308,1,16,10|0,0:0|0:0,0:0:0:0:
217,328,43338,2,0,L|210:303,1,16,0|0,3:0|0:0,0:0:0:0:
144,220,43546,6,0,L|137:245,1,16,2|0,0:0|0:0,0:0:0:0:
149,225,43754,2,0,L|142:250,1,16,0|0,3:0|0:0,0:0:0:0:
100,305,43963,6,0,P|68:316|39:336,1,47.9999985351563,0|2,3:0|0:0,0:0:0:0:
0,189,44380,2,0,P|22:182|44:171,1,47.9999985351563,2|0,0:0|0:0,0:0:0:0:
68,9,44796,1,10,0:0:0:0:
26,74,45005,6,0,P|33:91|47:91,1,23.9999992675781,2|0,3:2|0:0,0:0:0:0:
117,209,45213,2,0,P|133:200|133:186,1,23.9999992675781,0|0,3:2|0:0,0:0:0:0:
275,153,45421,2,0,P|268:135|254:133,1,23.9999992675781,2|0,3:2|0:0,0:0:0:0:
280,160,45630,5,2,0:3:0:0:
472,356,57319,5,2,0:0:0:0:
392,331,57714,1,2,0:3:0:0:
299,76,58130,5,2,0:0:0:0:
219,101,58547,1,2,0:0:0:0:
133,293,58964,5,2,0:0:0:0:
106,370,59172,1,8,0:3:0:0:
63,222,59380,5,2,0:0:0:0:
36,145,59588,1,4,0:3:0:0:
15,298,59797,5,14,0:0:0:0:
240,365,60005,1,0,3:0:0:0:
346,52,60214,6,0,B|312:46|270:9|270:9|312:73|319:155,1,215.999993408203,2|0,0:3|0:0,0:0:0:0:
313,210,60630,6,0,B|333:226|364:223|383:201|384:178|384:178|385:151|409:131|436:131|455:146,1,192,4|0,3:1|0:0,0:0:0:0:
473,17,61046,2,0,B|435:30|427:61|427:61|434:29|409:4,1,128,2|0,0:0|3:0,0:0:0:0:
470,262,61359,1,0,0:0:0:0:
470,262,61463,2,0,P|414:279|342:322,1,128,10|2,0:0|0:3,0:0:0:0:
224,269,61880,6,0,B|205:369|320:382|320:382|272:365|274:288,1,256,2|0,3:2|0:0,0:0:0:0:
279,311,62505,6,0,P|247:308|222:275,1,64,2|0,3:0|0:0,0:0:0:0:
320,230,62713,2,0,P|312:197|334:164,1,64,2|0,3:0|0:0,0:0:0:0:
409,247,62921,1,2,0:3:0:0:
172,23,63130,5,10,0:0:0:0:
192,47,63234,1,2,0:3:0:0:
208,75,63338,1,2,3:0:0:0:
221,104,63442,1,2,0:3:0:0:
229,135,63546,2,0,P|219:164|186:176,1,64,2|0,0:3|0:0,0:0:0:0:
116,101,63755,2,0,P|90:83|86:52,1,64,2|0,3:0|0:0,0:0:0:0:
21,211,63963,6,0,P|96:227|199:294,1,192,6|0,3:2|0:0,0:0:0:0:
252,363,64380,2,0,B|266:324|311:321|311:321|283:328|272:360,1,128,2|0,0:0|3:0,0:0:0:0:
245,372,64796,6,0,L|262:310,1,64,10|0,0:0|0:0,0:0:0:0:
285,236,65005,2,0,L|302:174,1,64,0|0,3:0|0:0,0:0:0:0:
229,137,65213,2,0,B|274:85|257:21|257:21|276:82|352:104,1,256,2|0,3:2|0:0,0:0:0:0:
357,112,65838,6,0,P|397:97|454:86,1,64,2|0,3:0|0:0,0:0:0:0:
411,5,66046,2,0,P|451:20|508:31,1,64,2|0,3:0|0:0,0:0:0:0:
476,37,66255,1,0,0:0:0:0:
409,247,66463,5,10,0:0:0:0:
330,31,66671,1,0,3:0:0:0:
462,322,66880,5,2,0:0:0:0:
512,172,67088,1,2,0:3:0:0:
318,373,67296,6,0,L|296:294,1,64,2|0,3:2|0:0,0:0:0:0:
239,255,67505,1,8,0:3:0:0:
198,268,67609,1,8,0:3:0:0:
174,234,67713,1,4,0:3:0:0:
177,194,67817,1,4,0:3:0:0:
153,160,67921,1,4,0:3:0:0:
112,173,68025,1,4,0:3:0:0:
71,236,68130,6,0,P|44:218|14:207,1,64,10|0,0:0|0:0,0:0:0:0:
160,363,68338,2,0,P|186:345|216:334,1,64,0|0,3:0|0:0,0:0:0:0:
239,255,68546,1,2,0:0:0:0:
160,104,69380,6,0,L|151:71,1,23.9999992675781,2|2,0:0|0:3,0:0:0:0:
214,31,69588,2,0,L|220:7,1,23.9999992675781,2|0,3:2|0:0,0:0:0:0:
39,50,69796,6,0,P|73:40|113:15,1,71.9999978027344,14|0,0:0|0:0,0:0:0:0:
234,146,70005,2,0,P|268:156|299:174,1,71.9999978027344,0|0,3:0|0:0,0:0:0:0:
383,14,70213,6,0,B|474:37|482:122|429:170|371:137|372:92,1,240,8|0,0:3|0:0,0:0:0:0:
497,180,70630,5,4,3:2:0:0:
493,188,70838,2,0,P|464:207|437:244,1,64,2|0,0:0|0:0,0:0:0:0:
425,321,71046,2,0,P|400:300|371:287,1,64,2|0,0:0|0:0,0:0:0:0:
331,203,71255,2,0,P|316:230|271:232,1,64,2|0,3:2|0:0,0:0:0:0:
141,316,71463,6,0,B|132:280|102:260|102:260|242:311,1,192,10|0,0:0|0:0,0:0:0:0:
225,298,71880,2,0,P|235:358|300:347,1,128,2|0,0:0|3:0,0:0:0:0:
186,196,72296,5,2,3:2:0:0:
64,331,72505,2,0,P|51:281|10:202,1,128,8|0,0:0|0:0,0:0:0:0:
96,129,72921,5,0,3:0:0:0:
96,129,73025,1,0,3:0:0:0:
96,129,73130,2,0,P|130:121|139:77,1,64,14|0,0:0|0:0,0:0:0:0:
219,67,73338,2,0,P|222:32|183:10,1,64,2|2,3:0|0:3,0:0:0:0:
97,18,73546,6,0,B|105:38|105:38|209:57|257:175,1,192,6|0,0:3|0:0,0:0:0:0:
370,111,73963,6,0,B|385:96|385:96|374:22|374:22|320:75|320:75|323:107,1,192,6|0,3:2|0:0,0:0:0:0:
229,247,74380,2,0,B|313:225|247:184|355:172,1,128,2|0,0:0|3:0,0:0:0:0:
348,251,74692,1,0,0:0:0:0:
348,251,74796,2,0,P|394:268|419:286,1,64,10|0,0:0|0:0,0:0:0:0:
247,114,75005,2,0,P|237:83|222:55,1,64,0|0,3:0|0:0,0:0:0:0:
436,195,75213,6,0,P|387:264|351:378,1,192,2|0,3:2|0:0,0:0:0:0:
185,348,75630,6,0,B|124:375|124:375|166:331,1,128,2|10,0:0|0:0,0:0:0:0:
236,292,75942,1,2,0:0:0:0:
240,284,76046,2,0,B|270:270|270:270|244:297,1,64
243,373,76255,5,2,3:2:0:0:
243,373,76359,1,2,0:0:0:0:
243,373,76463,2,0,B|220:367|220:367|212:357|212:357|159:340,1,64,10|0,0:0|0:0,0:0:0:0:
93,291,76671,5,2,3:2:0:0:
93,291,76775,1,2,0:0:0:0:
93,291,76880,2,0,P|86:260|74:228,1,64
176,193,77088,2,0,P|183:162|195:130,1,64,2|0,3:2|0:0,0:0:0:0:
47,55,77296,6,0,B|19:113|19:113|181:56,1,192,6|0,3:2|0:0,0:0:0:0:
188,7,77713,2,0,B|235:22|235:22|243:52|243:52|294:71,1,128,2|0,0:0|3:0,0:0:0:0:
455,151,78130,6,0,B|460:116|460:116|426:88,1,64,10|0,0:0|0:0,0:0:0:0:
359,119,78338,2,0,B|353:153|353:153|387:181,1,64,0|0,3:0|0:0,0:0:0:0:
418,302,78546,6,0,B|416:328|465:356|510:316|503:244|431:226,1,192,2|0,3:2|0:0,0:0:0:0:
381,382,78963,6,0,P|352:367|322:357,1,64,2|0,0:0|0:0,0:0:0:0:
314,268,79171,1,10,0:0:0:0:
305,263,79275,2,0,P|276:277|246:287,1,64,2|0,0:0|0:0,0:0:0:0:
199,352,79484,2,0,P|196:377|210:355,1,64,2|0,0:0|3:0,0:0:0:0:
141,261,79692,5,2,3:2:0:0:
147,265,79796,2,0,P|173:250|178:200,1,64,10|0,0:0|0:0,0:0:0:0:
46,195,80005,2,0,P|41:165|-2:141,1,64,2|2,3:2|0:0,0:0:0:0:
71,307,80213,6,0,P|84:336|94:366,1,64
157,147,80421,2,0,P|168:115|191:68,1,64,2|0,3:2|0:0,0:0:0:0:
96,70,80630,6,0,B|81:0|6:-1|6:-1|48:13|50:44,1,192,6|0,3:2|0:0,0:0:0:0:
17,131,81046,2,0,P|79:144|137:179,1,128,2|0,0:0|3:0,0:0:0:0:
245,15,81463,2,0,B|220:39|227:71|227:71|219:40|181:27,1,128,10|0,0:0|3:0,0:0:0:0:
71,344,81880,6,0,P|154:267|299:235,1,256,2|0,3:2|0:0,0:0:0:0:
342,87,82505,6,0,P|348:64|336:84,1,64,10|0,0:0|0:0,0:0:0:0:
284,150,82713,5,2,0:0:0:0:
284,150,82817,1,2,0:3:0:0:
284,150,82921,2,0,P|317:158|349:174,1,64,2|0,0:0|0:0,0:0:0:0:
365,309,83130,5,14,0:0:0:0:
392,292,83234,1,2,0:3:0:0:
421,278,83338,1,2,3:0:0:0:
451,268,83442,1,2,0:3:0:0:
482,262,83546,6,0,P|491:228|503:194,1,71.9999978027344,2|0,0:3|0:0,0:0:0:0:
398,42,83755,2,0,P|410:75|420:110,1,71.9999978027344,2|0,0:3|0:0,0:0:0:0:
358,169,83963,5,4,3:2:0:0:
354,175,84171,2,0,P|317:173|298:143,1,64,2|0,0:0|0:0,0:0:0:0:
262,67,84380,2,0,P|225:69|206:99,1,64,6|0,0:0|0:0,0:0:0:0:
155,144,84588,1,2,3:2:0:0:
3,98,84796,6,0,B|45:78|77:38|77:38|43:86|37:158,1,192,14|8,0:0|0:0,0:0:0:0:
89,194,85213,2,0,B|82:214|82:214|21:233|3:308,1,128,6|0,0:0|3:0,0:0:0:0:
2,292,85630,6,0,P|43:309|76:331,1,64,6|0,3:2|0:0,0:0:0:0:
124,377,85838,2,0,P|151:361|181:349,1,64,12|0,0:0|0:0,0:0:0:0:
241,260,86046,5,4,0:3:0:0:
244,244,86150,1,4,0:3:0:0:
247,228,86254,1,0,3:0:0:0:
250,212,86358,1,0,3:0:0:0:
223,141,86463,5,14,0:0:0:0:
295,117,86567,1,0,0:0:0:0:
349,170,86671,1,2,3:0:0:0:
328,243,86775,1,2,0:3:0:0:
334,251,86880,6,0,B|359:233|393:248|415:277|404:315|404:315|398:343|410:374|445:390|475:378,1,240,8|0,0:0|0:0,0:0:0:0:
256,192,87296,12,0,88963,0:0:0:0:
