osu file format v14

[General]
AudioFilename: audio.mp3
AudioLeadIn: 0
PreviewTime: 60524
Countdown: 0
SampleSet: Soft
StackLeniency: 0.7
Mode: 0
LetterboxInBreaks: 0
WidescreenStoryboard: 1

[Editor]
DistanceSpacing: 0.9
BeatDivisor: 4
GridSize: 8
TimelineZoom: 1

[Metadata]
Title:THE TIDES (TV Size)
TitleUnicode:THE TIDES (TV Size)
Artist:Fan Ka, Bai Sha JAWS
ArtistUnicode:饭卡 、白鲨JAWS
Creator:KaedeharaKazuha
Version:Airin's Insane
Source:时光代理人
Tags:Addy2607 Kaedehara Kazuha Drop [Drop] [_Drop_] Kyouren KittyAdventure gokugohan12468 Ascended -ascended- -_ascended_- arronchu1207 AirinCat Shiguang Shi guang Dailiren Dai li ren II Link Click Season 2 2nd second s2 ending ed outro theme song english chinese pop cpop c-pop hiphop hip hop 时光代理人第二季 第二季 cheng xiaoshi lu 程 小时 陆 光 time agents donghua dong hua anime
BeatmapID:4346607
BeatmapSetID:2021899

[Difficulty]
HPDrainRate:5
CircleSize:3
OverallDifficulty:7
ApproachRate:9
SliderMultiplier:1.9
SliderTickRate:1

[Events]
//Background and Video events
Video,0,"video.mp4"
0,0,"BG 2.jpg",0,0
//Break Periods
//Storyboard Layer 0 (Background)
//Storyboard Layer 1 (Fail)
//Storyboard Layer 2 (Pass)
//Storyboard Layer 3 (Foreground)
//Storyboard Layer 4 (Overlay)
//Storyboard Sound Samples

[TimingPoints]
5662,416.666666666667,4,2,1,30,1,0
5662,-333.333333333333,4,2,1,30,0,0
8995,-333.333333333333,4,2,1,30,0,0
11912,389.61038961039,4,2,1,30,1,0
11912,-200,4,2,1,30,0,0
12301,-200,4,2,1,40,0,0
12304,468.75,4,2,1,40,1,0
12304,-153.846153846154,4,2,1,40,0,0
12538,451.127819548872,4,2,1,40,1,0
12538,-153.846153846154,4,2,1,40,0,0
12763,416.666666666667,4,2,1,40,1,0
12763,-153.846153846154,4,2,1,40,0,0
13596,377.358490566038,4,2,1,40,1,0
13596,-153.846153846154,4,2,1,40,0,0
13973,451.127819548872,4,2,1,40,1,0
13973,-153.846153846154,4,2,1,40,0,0
14198,338.983050847458,4,2,1,40,1,0
14198,-153.846153846154,4,2,1,40,0,0
14367,437.956204379562,4,2,1,40,1,0
14367,-153.846153846154,4,2,1,40,0,0
14804,416.666666666667,4,2,1,40,1,0
14804,-153.846153846154,4,2,1,40,0,0
15637,416.666666666667,4,2,1,40,1,0
15637,-153.846153846154,4,2,1,40,0,0
17720,434.782608695653,4,2,1,40,1,0
17720,-153.846153846154,4,2,1,40,0,0
18154,416.666666666667,4,2,1,40,1,0
18154,-153.846153846154,4,2,1,40,0,0
18987,410.958904109589,4,2,1,40,1,0
18987,-200,4,2,1,40,0,0
20630,416.666666666667,4,2,1,60,1,0
20630,-105.263157894737,4,2,1,60,0,0
27296,-1000,4,2,1,60,0,0
28130,-133.333333333333,4,2,1,60,0,0
30630,-133.333333333333,4,2,1,70,0,0
32296,-133.333333333333,4,2,1,80,0,0
33963,-86.9565217391302,4,2,1,70,0,0
34380,-117.647058823529,4,2,1,70,0,0
34692,-153.846153846153,4,2,1,70,0,0
35005,-117.647058823529,4,2,1,70,0,0
35630,-86.9565217391302,4,2,1,70,0,0
36046,-117.647058823529,4,2,1,70,0,0
36359,-153.846153846153,4,2,1,70,0,0
37296,-86.9565217391302,4,2,1,70,0,0
37713,-117.647058823529,4,2,1,70,0,0
38025,-153.846153846153,4,2,1,70,0,0
38338,-117.647058823529,4,2,1,70,0,0
38963,-86.9565217391302,4,2,1,70,0,0
39380,-117.647058823529,4,2,1,70,0,0
39692,-222.22222222222,4,2,1,70,0,0
41880,-133.333333333333,4,2,1,70,0,0
45630,-500,4,2,1,60,0,0
47296,377.358490566038,4,2,1,50,1,0
47296,-142.857142857143,4,2,1,50,0,0
47673,416.666666666667,4,2,1,50,1,0
47673,-142.857142857143,4,2,1,50,0,0
48714,434.782608695652,4,2,1,50,1,0
48714,-142.857142857143,4,2,1,50,0,0
49583,397.350993377483,4,2,1,50,1,0
49583,-142.857142857143,4,2,1,50,0,0
49781,416.666666666667,4,2,1,50,1,0
49781,-142.857142857143,4,2,1,50,0,0
52281,458.015267175573,4,2,1,50,1,0
52281,-142.857142857143,4,2,1,50,0,0
52739,416.666666666667,4,2,1,50,1,0
52739,-142.857142857143,4,2,1,50,0,0
53989,357.142857142857,4,2,1,55,1,0
53989,-125,4,2,1,55,0,0
54524,431.654676258993,4,2,1,55,1,0
54524,-125,4,2,1,55,0,0
54739,424.028268551237,4,2,1,55,1,0
54739,-142.857142857143,4,2,1,55,0,0
55375,512.820512820513,4,2,1,55,1,0
55375,-142.857142857143,4,2,1,55,0,0
55631,416.666666666667,4,2,1,55,1,0
55631,-142.857142857143,4,2,1,55,0,0
56464,-142.857142857143,4,2,1,55,0,0
57089,461.538461538462,4,2,1,55,1,0
57089,-125,4,2,1,55,0,0
57319,395.387149917628,4,2,1,60,1,0
57319,-111.111111111111,4,2,1,60,0,0
57714,416.666666666667,4,2,1,60,1,0
57714,-111.111111111111,4,2,1,60,0,0
58964,416.666666666667,4,2,2,70,1,0
58964,-100,4,2,2,70,0,0
60630,416.666666666667,4,2,2,85,1,0
60630,-86.9565217391304,4,2,2,85,0,1
68546,-500,4,2,2,70,0,0
69380,-111.111111111111,4,2,2,70,0,0
69796,-100,4,2,2,70,0,0
70213,-111.111111111111,4,2,2,70,0,0
70630,-86.9565217391304,4,2,2,85,0,1
84380,-86.9565217391304,4,2,3,85,0,1
85630,-86.9565217391304,4,2,2,85,0,1
87296,-200,4,2,2,50,0,0
88963,-200,4,2,1,5,0,0

[Colours]
Combo1 : 114,74,35
Combo2 : 192,192,192
Combo3 : 191,115,30
Combo4 : 128,128,128

[HitObjects]
28,325,5662,6,0,L|36:268,2,56.9999982604981,2|0|2,0:0|0:0|0:0,0:0:0:0:
28,325,6912,1,0,0:0:0:0:
131,280,7328,2,0,L|187:291,1,56.9999982604981,2|2,0:0|0:0,0:0:0:0:
418,327,8162,2,0,L|309:361,1,113.999996520996,2|2,0:0|0:0,0:0:0:0:
309,361,9412,1,0,0:0:0:0:
253,270,9828,2,0,L|261:213,1,56.9999982604981,2|0,0:0|0:0,0:0:0:0:
384,49,10662,2,0,L|395:104,1,56.9999982604981,2|2,0:0|0:0,0:0:0:0:
74,275,11495,2,0,L|85:219,1,56.9999982604981,2|0,0:0|0:0,0:0:0:0:
488,116,12304,5,0,3:0:0:0:
290,69,12538,2,0,L|349:54,1,61.7499971733095,0|2,3:0|0:0,0:0:0:0:
201,332,13973,1,0,3:0:0:0:
403,364,14198,2,0,L|343:380,1,61.7499971733095,0|2,3:0|0:0,0:0:0:0:
44,61,15637,5,2,3:2:0:0:
161,190,15845,1,2,3:2:0:0:
161,190,16262,1,2,0:0:0:0:
259,102,16470,1,2,0:0:0:0:
259,102,16887,1,2,0:0:0:0:
326,162,17095,1,0,0:0:0:0:
409,90,17303,1,2,3:2:0:0:
467,148,17512,1,2,3:2:0:0:
512,49,18154,6,0,L|482:39,1,30.8749985866547,2|0,0:0|0:0,0:0:0:0:
436,254,18362,2,0,L|465:244,1,30.8749985866547
303,81,18570,2,0,L|293:110,1,30.8749985866547,2|0,0:0|0:0,0:0:0:0:
224,181,20630,5,2,3:2:0:0:
224,181,20942,1,0,0:0:0:0:
116,364,21255,2,0,P|111:315|99:271,2,90.2499975900651,2|8|2,0:0|0:0|3:2,0:0:0:0:
373,325,21880,2,0,P|367:280|351:223,1,90.2499975900651,2|0,3:2|0:0,0:0:0:0:
107,47,22296,5,2,0:0:0:0:
107,47,22609,1,0,0:0:0:0:
153,204,22921,2,0,P|108:194|68:175,1,90.2499975900651,2|8,0:0|0:0,0:0:0:0:
276,20,23338,1,2,3:2:0:0:
280,14,23442,2,0,P|295:57|305:110,1,90.2499975900651,0|2,0:0|0:0,0:0:0:0:
172,368,23963,5,2,3:2:0:0:
172,368,24275,1,0,0:0:0:0:
0,240,24588,2,0,P|43:226|110:217,1,90.2499975900651,2|10,0:0|0:0,0:0:0:0:
375,327,25005,1,2,3:2:0:0:
371,341,25109,1,0,0:0:0:0:
360,351,25213,2,0,P|338:345|317:335,2,45.1249987950325,2|0|0,3:2|0:0|0:0,0:0:0:0:
268,107,25630,5,2,0:0:0:0:
171,306,25838,1,0,0:0:0:0:
363,197,26046,1,2,3:2:0:0:
162,186,26255,1,0,0:0:0:0:
266,252,26463,1,10,0:0:0:0:
266,252,26671,1,0,3:2:0:0:
371,52,26880,6,0,L|385:105,1,45.1249987950325,2|0,0:0|0:0,0:0:0:0:
506,263,27088,2,0,L|514:207,1,45.1249987950325,2|0,3:2|0:0,0:0:0:0:
291,242,27296,2,0,L|307:238,2,14.25
53,278,28130,5,10,0:0:0:0:
178,126,28338,2,0,P|182:138|191:167,1,35.625001358986,2|0,3:2|0:0,0:0:0:0:
170,370,28546,2,0,P|155:332|149:292,1,71.2500027179719,2|0,3:2|0:0,0:0:0:0:
433,200,28963,1,2,0:0:0:0:
286,364,29171,1,0,0:0:0:0:
493,303,29380,5,2,3:2:0:0:
291,148,29588,2,0,L|313:200,1,35.625001358986
365,300,29796,1,10,0:0:0:0:
512,61,30005,1,0,3:2:0:0:
505,95,30109,1,0,0:0:0:0:
499,133,30213,1,2,0:0:0:0:
336,46,30421,2,0,P|369:34|402:20,2,71.2500027179719,2|0|2,3:2|3:0|0:0,0:0:0:0:
97,119,31046,6,0,P|132:132|172:142,1,71.2500027179719,2|2,0:0|0:0,0:0:0:0:
240,106,31359,1,0,0:0:0:0:
244,90,31463,1,10,0:0:0:0:
126,230,31671,1,2,3:2:0:0:
135,238,31775,1,0,0:0:0:0:
143,248,31880,2,0,L|158:298,1,35.625001358986,2|0,3:2|0:0,0:0:0:0:
250,370,32088,2,0,L|260:330,1,35.625001358986,2|0,0:0|0:0,0:0:0:0:
48,312,32296,5,2,3:2:0:0:
30,329,32400,1,2,3:2:0:0:
19,316,32505,1,2,3:2:0:0:
8,334,32609,1,2,0:0:0:0:
0,323,32713,1,2,0:0:0:0:
172,147,32921,2,0,L|221:156,1,35.625001358986,2|0,0:0|0:0,0:0:0:0:
405,272,33130,2,0,P|372:287|338:295,1,71.2500027179719,10|2,0:0|3:2,0:0:0:0:
249,354,33442,1,0,3:2:0:0:
231,344,33546,2,0,P|227:320|221:295,1,35.625001358986,2|0,3:2|0:0,0:0:0:0:
318,160,33755,2,0,P|310:132|307:109,1,35.625001358986,2|0,3:2|3:0,0:0:0:0:
0,258,33963,6,0,P|86:222|164:239,1,163.875003125668,6|0,3:2|0:0,0:0:0:0:
214,165,34380,2,0,P|248:180|296:192,1,80.750001540184,2|0,0:0|0:0,0:0:0:0:
340,269,34692,2,0,P|371:257|403:250,1,61.7499971733095,2|0,0:0|0:0,0:0:0:0:
434,171,35005,1,2,3:2:0:0:
476,168,35109,1,0,0:0:0:0:
500,189,35213,1,2,3:2:0:0:
483,283,35421,5,0,0:0:0:0:
441,55,35630,2,0,P|350:50|282:107,1,163.875003125668,2|0,3:2|0:0,0:0:0:0:
221,159,36046,2,0,P|181:154|146:134,1,80.750001540184,2|0,3:2|0:0,0:0:0:0:
0,104,36359,2,0,P|27:90|57:84,1,61.7499971733095,2|0,0:0|0:0,0:0:0:0:
145,2,36671,1,2,3:2:0:0:
169,23,36775,1,0,0:0:0:0:
155,44,36880,1,2,0:0:0:0:
45,0,37088,5,0,3:2:0:0:
350,9,37296,2,0,P|385:96|387:178,1,163.875003125668,2|0,3:2|0:0,0:0:0:0:
293,183,37713,2,0,P|278:220|275:260,1,80.750001540184,2|0,0:0|0:0,0:0:0:0:
382,302,38025,2,0,P|392:330|398:361,1,61.7499971733095,2|0,0:0|0:0,0:0:0:0:
310,379,38338,1,2,3:2:0:0:
291,361,38442,1,0,0:0:0:0:
275,379,38546,1,2,3:2:0:0:
431,170,38755,6,0,P|454:177|483:183,1,40.375000770092
215,254,38963,2,0,B|133:236|157:209|62:197,1,163.875003125668,2|0,3:2|0:0,0:0:0:0:
71,224,39380,2,0,B|28:235|31:250|-12:265,1,80.750001540184,2|0,0:0|0:0,0:0:0:0:
21,277,39692,2,0,B|14:312|3:310|-4:353,1,64.1249980430604,2|2,0:0|3:2,0:0:0:0:
241,133,40213,2,0,L|231:96,2,21.3749993476868,2|0|0,0:0|0:0|3:0,0:0:0:0:
216,358,40630,5,0,0:0:0:0:
216,358,41255,1,2,0:0:0:0:
332,265,41463,1,10,0:0:0:0:
160,246,41671,1,0,3:2:0:0:
365,128,41880,2,0,P|433:137|510:167,1,142.500005435944,2|2,3:2|0:0,0:0:0:0:
501,162,42713,1,2,3:2:0:0:
501,162,42921,1,2,0:0:0:0:
397,325,43130,2,0,P|387:284|383:255,1,71.2500027179719,10|0,0:0|3:0,0:0:0:0:
431,9,43546,6,0,P|434:28|440:58,1,35.625001358986,2|0,0:0|0:0,0:0:0:0:
302,145,43755,2,0,P|334:130|372:123,2,71.2500027179719,0|0|2,3:0|3:0|0:0,0:0:0:0:
60,30,44380,2,0,P|93:45|136:53,1,71.2500027179719,2|0,0:0|0:0,0:0:0:0:
248,0,44796,1,10,0:0:0:0:
127,52,45005,1,2,3:2:0:0:
238,242,45213,1,0,3:2:0:0:
391,106,45421,1,2,3:2:0:0:
265,116,45630,5,2,0:3:0:0:
269,121,46046,2,0,L|271:147,1,19
343,379,46463,2,0,L|349:339,1,38,2|2,0:0|0:0,0:0:0:0:
486,163,47296,6,0,P|428:181|344:201,1,132.999995941162,2|0,0:0|0:0,0:0:0:0:
64,173,48089,2,0,P|34:162|0:156,2,66.4999979705811,2|0|0,0:0|0:0|0:0,0:0:0:0:
159,119,48714,2,0,P|183:50|183:-14,2,132.999995941162,2|2|2,0:0|0:0|0:0,0:0:0:0:
117,380,49989,2,0,P|106:348|102:316,2,66.4999979705811,2|2|0,0:0|0:0|0:0,0:0:0:0:
226,228,50614,6,0,P|290:216|354:235,1,132.999995941162,2|0,0:0|0:0,0:0:0:0:
424,292,51239,1,0,0:0:0:0:
498,247,51447,2,0,P|509:209|513:169,2,66.4999979705811,2|0|2,0:0|0:0|0:0,0:0:0:0:
429,123,52072,1,2,0:0:0:0:
304,78,52510,1,0,0:0:0:0:
143,211,52947,2,0,P|143:249|149:281,1,66.4999979705811,0|2,0:0|0:3,0:0:0:0:
366,384,53364,2,0,P|376:318|360:254,1,132.999995941162
297,198,53989,5,2,0:3:0:0:
121,370,54524,2,0,P|96:364|74:362,1,38
16,293,54739,2,0,P|21:243|37:196,2,99.7499969558717,2|0|2,0:0|0:0|0:0,0:0:0:0:
284,348,55631,2,0,P|298:292|299:245,2,99.7499969558717,2|0|2,0:0|0:0|0:0,0:0:0:0:
107,122,56464,2,0,P|168:124|227:142,1,99.7499969558717,2|0,0:0|0:0,0:0:0:0:
481,332,57089,2,0,P|444:328|425:321,1,38,2|0,0:0|0:0,0:0:0:0:
352,214,57319,6,0,B|368:119|411:127|415:53,1,170.999994781494,2|2,0:0|0:3,0:0:0:0:
336,18,57922,1,0,0:0:0:0:
412,85,58130,2,0,P|451:100|493:106,1,85.4999973907472,2|0,0:0|0:0,0:0:0:0:
225,101,58547,2,0,P|183:112|145:130,1,85.4999973907472,2|0,0:0|0:0,0:0:0:0:
376,366,58964,6,0,P|372:312|358:261,1,95,2|8,0:0|0:3,0:0:0:0:
103,214,59380,1,2,0:0:0:0:
103,214,59589,1,4,0:3:0:0:
281,373,59797,1,14,0:0:0:0:
352,90,60005,1,0,3:0:0:0:
223,259,60214,1,2,0:3:0:0:
494,200,60422,1,0,0:0:0:0:
187,89,60630,6,0,P|267:181|363:186,1,218.500004167557,4|2,3:1|0:0,0:0:0:0:
327,80,61255,1,0,3:0:0:0:
129,311,61463,2,0,P|79:331|27:318,1,109.250002083778,10|2,0:0|0:3,0:0:0:0:
56,52,61880,2,0,P|160:75|209:169,1,218.500004167557,2|0,3:2|0:0,0:0:0:0:
11,205,62505,2,0,P|44:194|75:179,1,54.6250010418892,2|0,3:0|0:0,0:0:0:0:
336,338,62713,2,0,P|285:317|232:305,1,109.250002083778,2|2,3:0|0:3,0:0:0:0:
79,367,63130,2,0,P|89:340|94:305,1,54.6250010418892,10|2,0:0|0:3,0:0:0:0:
238,131,63338,2,0,P|228:162|224:203,1,54.6250010418892,2|2,3:0|0:3,0:0:0:0:
432,384,63546,2,0,P|454:325|457:269,1,109.250002083778,2|2,0:3|3:0,0:0:0:0:
123,301,63963,6,0,P|191:217|300:216,1,218.500004167557,6|2,3:2|0:0,0:0:0:0:
273,299,64588,1,0,3:0:0:0:
164,85,64796,1,10,0:0:0:0:
273,299,65005,1,0,3:0:0:0:
491,42,65213,2,0,P|369:35|299:116,1,218.500004167557,2|0,3:2|0:0,0:0:0:0:
488,304,65838,2,0,P|499:279|503:252,1,54.6250010418892,2|0,3:0|0:0,0:0:0:0:
241,171,66046,2,0,P|287:233|390:231,1,163.875003125668,2|0,3:0|0:0,0:0:0:0:
430,185,66463,2,0,P|400:193|351:203,1,54.6250010418892,10|0,0:0|0:0,0:0:0:0:
174,336,66671,2,0,P|200:321|242:315,1,54.6250010418892,0|0,3:0|0:0,0:0:0:0:
202,69,66880,2,0,P|226:113|241:184,1,109.250002083778,2|2,0:0|0:3,0:0:0:0:
11,384,67296,6,0,P|50:287|110:262,1,163.875003125668,2|8,3:2|0:3,0:0:0:0:
104,112,67713,2,0,P|117:140|122:177,1,54.6250010418892,4|4,0:3|0:3,0:0:0:0:
99,263,67921,1,4,0:3:0:0:
54,257,68025,1,4,0:3:0:0:
27,206,68130,1,10,0:0:0:0:
262,153,68338,1,0,3:0:0:0:
94,384,68546,2,0,P|135:361|169:348,1,76,2|2,0:0|0:0,0:0:0:0:
388,356,69588,5,2,3:2:0:0:
82,182,69796,2,0,P|131:207|192:219,1,95,14|0,0:0|3:0,0:0:0:0:
442,44,70213,2,0,P|408:107|399:168,1,128.249996086121,8|0,0:3|0:0,0:0:0:0:
436,251,70630,5,4,3:2:0:0:
238,119,70838,1,2,0:0:0:0:
512,147,71046,1,2,0:0:0:0:
290,260,71255,1,2,3:2:0:0:
332,0,71463,5,10,0:0:0:0:
413,165,71671,1,0,3:0:0:0:
368,330,71880,1,2,0:0:0:0:
257,356,72088,5,0,3:0:0:0:
126,170,72296,2,0,P|142:110|151:64,1,109.250002083778,2|8,3:2|0:0,0:0:0:0:
14,75,72713,1,0,0:0:0:0:
294,163,72921,1,0,3:0:0:0:
313,176,73025,1,0,3:0:0:0:
306,195,73130,1,14,0:0:0:0:
142,330,73338,1,2,3:0:0:0:
115,42,73546,1,6,0:3:0:0:
115,42,73963,6,0,P|218:63|341:94,1,218.500004167557,6|2,3:2|0:0,0:0:0:0:
382,16,74588,1,0,3:0:0:0:
231,167,74796,2,0,P|223:214|205:282,1,109.250002083778,10|0,0:0|3:0,0:0:0:0:
511,333,75213,2,0,P|444:252|338:249,1,218.500004167557,2|2,3:2|0:0,0:0:0:0:
372,360,75838,1,10,0:0:0:0:
501,175,76046,2,0,P|442:151|395:131,1,109.250002083778,0|2,0:0|3:2,0:0:0:0:
308,163,76359,1,2,0:0:0:0:
319,179,76463,1,10,0:0:0:0:
278,0,76671,2,0,L|258:55,1,54.6250010418892,2|2,3:2|0:0,0:0:0:0:
133,205,76880,2,0,P|103:159|105:106,1,109.250002083778,0|2,0:0|3:2,0:0:0:0:
512,254,77296,6,0,P|438:327|321:325,1,218.500004167557,6|2,3:2|0:0,0:0:0:0:
277,244,77921,1,0,3:0:0:0:
455,104,78130,1,10,0:0:0:0:
277,244,78338,1,0,3:0:0:0:
110,17,78546,2,0,P|151:100|275:133,1,218.500004167557,2|2,3:2|0:0,0:0:0:0:
405,0,79171,2,0,P|395:28|384:64,1,54.6250010418892,10|2,0:0|0:0,0:0:0:0:
460,265,79380,2,0,P|507:219|509:165,1,109.250002083778,0|0,0:0|3:0,0:0:0:0:
206,132,79796,1,10,0:0:0:0:
348,218,80005,1,2,3:2:0:0:
214,235,80213,1,0,0:0:0:0:
429,122,80421,1,2,3:2:0:0:
121,236,80630,6,0,P|31:179|19:65,1,218.500004167557,6|2,3:2|0:0,0:0:0:0:
128,84,81255,1,0,3:0:0:0:
121,331,81463,2,0,P|46:344|6:364,1,109.250002083778,10|0,0:0|3:0,0:0:0:0:
237,110,81880,2,0,B|355:116|340:176|453:190,1,218.500004167557,2|0,3:2|0:0,0:0:0:0:
511,100,82505,1,10,0:0:0:0:
354,261,82713,2,0,P|363:288|366:316,1,54.6250010418892,2|2,0:0|0:3,0:0:0:0:
511,100,82921,2,0,P|504:73|499:46,1,54.6250010418892,2|0,0:0|0:0,0:0:0:0:
190,57,83130,2,0,P|232:103|291:109,1,109.250002083778,14|2,0:0|3:0,0:0:0:0:
401,45,83442,1,2,0:3:0:0:
388,41,83546,2,0,P|373:93|361:157,1,109.250002083778,2|2,0:3|0:3,0:0:0:0:
187,370,83963,5,4,3:2:0:0:
243,125,84171,1,2,0:0:0:0:
316,307,84380,1,6,0:0:0:0:
99,167,84588,1,2,3:2:0:0:
465,105,84796,2,0,P|410:164|331:178,1,163.875003125668,14|8,0:0|0:0,0:0:0:0:
271,31,85213,2,0,P|282:97|291:156,1,109.250002083778,6|0,0:0|3:0,0:0:0:0:
297,384,85630,5,6,3:2:0:0:
452,184,85838,1,12,0:0:0:0:
169,180,86046,1,4,0:3:0:0:
183,224,86150,1,4,0:3:0:0:
215,263,86254,1,0,3:0:0:0:
258,276,86359,1,0,3:0:0:0:
310,274,86463,5,14,0:0:0:0:
278,148,86671,1,2,3:0:0:0:
151,354,86880,1,8,0:0:0:0:
183,35,87400,5,2,0:0:0:0:
256,192,87505,12,0,88963,0:0:0:0:
