osu file format v14

[General]
AudioFilename: audio.mp3
AudioLeadIn: 0
PreviewTime: 414
Countdown: 0
SampleSet: Soft
StackLeniency: 0.7
Mode: 0
LetterboxInBreaks: 0
WidescreenStoryboard: 0

[Editor]
Bookmarks: 15498,27498,39498,54498,88263,93513,105513,129513,135513
DistanceSpacing: 1.4
BeatDivisor: 8
GridSize: 16
TimelineZoom: 2.599999

[Metadata]
Title:OverThink
TitleUnicode:OverThink
Artist:Fan Ka
ArtistUnicode:饭卡
Creator:AirinCat
Version:Insane
Source:时光代理人
Tags:Shiguang Dailiren Link Click Shi Guang Dai Li Ren chinese hip-hop rap pop anime ending ed english Cheng Xiaoshi Lu Guang 程 小时 陆 光 time agents donghua dong hua
BeatmapID:3442773
BeatmapSetID:1684961

[Difficulty]
HPDrainRate:5
CircleSize:4
OverallDifficulty:7.2
ApproachRate:8.8
SliderMultiplier:1.4
SliderTickRate:1

[Events]
//Background and Video events
0,0,"link.jpg",0,0
//Break Periods
//Storyboard Layer 0 (Background)
//Storyboard Layer 1 (Fail)
//Storyboard Layer 2 (Pass)
//Storyboard Layer 3 (Foreground)
//Storyboard Layer 4 (Overlay)
//Storyboard Sound Samples

[TimingPoints]
508,375,4,2,1,40,1,0
508,-111.111111111111,4,2,1,40,0,0
12133,-166.666666666666,4,2,1,40,0,0
15508,-90.9090909090909,4,2,1,50,0,0
27508,-90.9090909090909,4,2,1,60,0,0
33508,-83.3333333333333,4,2,1,70,0,0
35758,-125,4,2,1,50,0,0
36508,-83.3333333333333,4,2,1,60,0,0
38758,-83.3333333333333,4,2,1,50,0,0
39508,-125,4,2,1,40,0,0
50008,-125,4,2,1,50,0,0
54508,-125,4,2,1,70,0,0
54883,-76.9230769230769,4,2,1,70,0,1
56008,-250,4,2,1,70,0,0
56383,-76.9230769230769,4,2,1,70,0,1
65008,-250,4,2,1,70,0,0
65383,-76.9230769230769,4,2,1,70,0,1
66508,-250,4,2,1,70,0,0
66883,-76.9230769230769,4,2,1,70,0,1
67633,-250,4,2,1,70,0,0
68008,-250,4,2,1,70,0,0
68383,-76.9230769230769,4,2,1,70,0,1
76258,-100,4,2,1,70,0,1
76633,-76.9230769230769,4,2,1,40,0,0
81414,-76.9230769230769,4,2,1,5,0,0
81508,750,4,2,1,40,1,0
81508,-100,4,2,1,50,0,0
82258,-50,4,2,1,50,0,0
92008,714.285714285714,4,2,1,40,1,0
92722,857.142857142857,4,2,1,40,1,0
92722,-41.6666666666667,4,2,1,50,0,0
93150,705.882352941176,4,2,1,40,1,0
93150,-50,4,2,1,50,0,0
93502,750,4,2,1,40,1,0
93502,-50,4,2,1,50,0,0
103627,762.388818297332,4,2,1,40,1,0
103627,-71.4285714285714,4,2,1,60,0,0
104008,375,4,2,1,40,1,0
105508,-125,4,2,1,60,0,0
107008,-90.9090909090909,4,2,1,60,0,0
114133,-111.111111111111,4,2,1,60,0,0
114508,-90.9090909090908,4,2,1,60,0,0
122383,-111.111111111111,4,2,1,60,0,0
122758,-90.9090909090908,4,2,1,60,0,0
123508,-90.9090909090909,4,2,1,60,0,0
129414,-90.9090909090909,4,2,1,50,0,0
135508,-76.9230769230769,4,2,1,70,0,1
137758,-90.9090909090909,4,2,1,70,0,0
138508,-76.9230769230769,4,2,1,70,0,1
141508,-250,4,2,1,70,0,0
141883,-76.9230769230769,4,2,1,70,0,1
143008,-250,4,2,1,70,0,0
143383,-76.9230769230769,4,2,1,70,0,1
144508,-250,4,2,1,70,0,0
144883,-76.9230769230769,4,2,1,70,0,1
153508,-111.111111111111,4,2,1,70,0,0
153883,-76.9230769230769,4,2,1,70,0,1
155008,-250,4,2,1,70,0,0
155383,-76.9230769230769,4,2,1,70,0,1
156508,-250,4,2,1,70,0,0
156883,-76.9230769230769,4,2,1,70,0,1
159508,-250,4,2,1,50,0,0

[Colours]
Combo1 : 222,205,203
Combo2 : 151,159,217
Combo3 : 129,214,228
Combo4 : 160,203,189

[HitObjects]
57,371,508,6,0,P|102:330|162:338,1,125.999996154785,0|0,1:2|3:2,0:2:0:0:
236,275,1070,1,0,3:2:0:0:
188,213,1258,2,0,P|200:145|215:79,1,125.999996154785,0|0,3:2|3:2,0:2:0:0:
279,46,1820,1,0,3:2:0:0:
336,100,2008,1,0,3:2:0:0:
336,100,2758,1,0,3:2:0:0:
412,65,2945,1,0,3:2:0:0:
488,112,3133,1,0,3:2:0:0:
412,65,3320,1,0,3:2:0:0:
488,112,3508,6,0,L|465:235,1,125.999996154785,0|0,1:2|3:2,0:2:0:0:
377,331,4070,1,0,3:2:0:0:
306,289,4258,2,0,B|241:292|255:318|187:328,1,125.999996154785,0|0,3:2|3:2,0:2:0:0:
112,290,4820,1,0,3:2:0:0:
165,224,5008,1,0,3:2:0:0:
165,224,5383,6,0,L|149:156,1,62.9999980773926,0|0,3:2|0:2,0:2:0:0:
0,76,5758,1,0,3:2:0:0:
47,176,5945,1,0,3:2:0:0:
178,77,6133,1,0,3:2:0:0:
100,33,6320,1,0,3:2:0:0:
178,77,6508,6,0,B|243:82|232:105|299:111,1,125.999996154785,0|0,1:2|3:2,0:2:0:0:
414,37,7070,1,0,3:2:0:0:
461,99,7258,2,0,P|444:159|433:221,1,125.999996154785,0|0,3:2|3:2,0:2:0:0:
348,282,7820,1,0,3:2:0:0:
410,361,8008,1,0,3:2:0:0:
410,361,8758,1,0,3:2:0:0:
348,282,8945,1,0,3:2:0:0:
254,302,9133,1,0,3:2:0:0:
224,384,9320,1,0,3:2:0:0:
254,302,9508,6,0,B|247:239|216:249|207:186,1,125.999996154785,0|0,1:2|3:2,0:2:0:0:
271,50,10070,1,0,3:2:0:0:
212,0,10258,2,0,P|150:15|90:31,1,125.999996154785,0|0,3:2|3:2,0:2:0:0:
32,83,10820,1,0,3:2:0:0:
129,180,11008,1,0,3:2:0:0:
129,180,11383,6,0,L|145:250,1,62.9999980773926,0|0,3:2|0:2,0:2:0:0:
121,381,11758,1,0,3:2:0:0:
12,302,11945,1,0,3:2:0:0:
121,381,12133,6,0,P|155:372|190:368,1,62.9999980773926,2|0,3:3|0:2,0:2:0:0:
245,313,12508,2,0,P|327:330|408:352,2,167.999994873047,2|2|2,0:2|0:2|0:2,0:2:0:0:
40,2,14758,2,0,L|34:25,4,23.9999992675781,2|0|0|0|0,3:2|3:2|3:2|3:2|3:2,0:2:0:0:
110,95,15320,5,0,3:2:0:0:
110,95,15414,1,0,3:2:0:0:
110,95,15508,1,2,3:2:0:0:
222,71,15695,1,2,0:2:0:0:
222,71,15789,1,2,0:2:0:0:
222,71,15883,2,0,P|214:108|206:153,1,77.0000023498536,2|0,3:3|0:2,0:2:0:0:
73,257,16258,2,0,B|51:224|51:224|72:194,1,77.0000023498536,10|2,0:2|0:2,0:2:0:0:
92,180,16539,2,0,B|150:194|129:216|190:236,1,115.50000352478,2|2,0:2|3:2,0:2:0:0:
190,236,16914,5,2,3:2:0:0:
190,236,17008,1,2,3:2:0:0:
353,176,17195,1,0,3:2:0:0:
278,149,17383,1,2,3:2:0:0:
361,275,17570,1,2,0:2:0:0:
361,275,17664,1,2,0:2:0:0:
361,275,17758,2,0,P|400:264|444:254,2,77.0000023498536,10|0|0,0:2|3:2|3:2,0:2:0:0:
391,79,18320,5,2,3:2:0:0:
503,150,18508,1,2,3:2:0:0:
503,150,18601,1,2,0:2:0:0:
503,150,18695,1,2,0:2:0:0:
503,150,18789,1,2,0:2:0:0:
503,150,18883,2,0,P|494:115|486:67,1,77.0000023498536,2|0,3:3|3:2,0:2:0:0:
267,116,19258,2,0,P|276:151|284:199,1,77.0000023498536,10|2,0:2|0:2,0:2:0:0:
278,208,19539,2,0,P|234:243|179:234,1,115.50000352478,2|2,0:2|3:2,0:2:0:0:
178,233,19914,5,2,3:2:0:0:
178,233,20008,1,2,3:2:0:0:
397,370,20195,1,0,1:2:0:0:
423,333,20289,1,0,1:2:0:0:
415,287,20383,1,2,1:2:0:0:
336,311,20570,1,2,0:2:0:0:
468,215,20758,1,10,0:2:0:0:
336,311,20945,1,2,3:2:0:0:
288,149,21133,2,0,P|327:161|363:171,1,77.0000023498536,2|0,1:2|0:2,0:2:0:0:
200,333,21508,5,2,1:2:0:0:
116,193,21695,1,2,1:2:0:0:
200,333,21883,2,0,P|209:295|219:257,1,77.0000023498536,2|2,3:3|0:2,0:2:0:0:
219,257,22164,1,2,0:2:0:0:
219,257,22258,1,10,0:2:0:0:
43,357,22445,1,2,0:2:0:0:
17,268,22633,2,0,L|91:286,1,77.0000023498536,2|0,0:2|3:2,0:2:0:0:
357,286,23008,5,2,3:2:0:0:
292,344,23195,1,0,1:2:0:0:
177,196,23383,1,2,1:2:0:0:
301,153,23570,1,2,0:2:0:0:
232,30,23758,2,0,P|221:67|214:104,1,77.0000023498536,10|0,0:2|3:2,0:2:0:0:
463,233,24133,1,10,0:2:0:0:
425,134,24320,1,0,3:2:0:0:
425,134,24414,1,0,3:2:0:0:
425,134,24508,5,0,1:2:0:0:
349,283,24695,1,0,1:2:0:0:
273,189,24883,1,2,3:3:0:0:
273,189,24976,1,2,0:2:0:0:
273,189,25070,1,2,0:2:0:0:
273,189,25164,1,2,0:2:0:0:
273,189,25258,2,0,P|309:197|350:205,1,77.0000023498536,10|0,0:2|0:2,0:2:0:0:
307,376,25633,2,0,P|269:367|232:360,1,77.0000023498536,2|2,0:0|3:2,0:0:0:0:
72,253,26008,5,2,0:2:0:0:
75,278,26101,1,2,0:2:0:0:
91,298,26195,1,2,0:2:0:0:
116,306,26289,1,2,0:2:0:0:
140,301,26383,2,0,L|158:224,1,77.0000023498536,2|0,3:2|0:2,0:2:0:0:
143,89,26758,1,10,0:2:0:0:
48,129,26945,1,0,1:2:0:0:
143,89,27133,1,2,1:2:0:0:
279,215,27320,1,2,0:2:0:0:
279,215,27414,1,2,0:2:0:0:
279,215,27508,5,4,1:3:0:0:
384,174,27695,1,0,1:2:0:0:
287,28,27883,2,0,P|278:69|268:106,1,77.0000023498536,2|0,3:3|0:2,0:2:0:0:
477,260,28258,2,0,P|485:223|495:184,1,77.0000023498536,10|0,0:2|0:2,0:2:0:0:
447,107,28633,1,2,0:2:0:0:
447,107,28820,1,2,3:2:0:0:
342,258,29008,5,2,1:2:0:0:
242,183,29195,1,0,1:2:0:0:
334,59,29383,1,2,1:2:0:0:
334,59,29476,1,0,3:2:0:0:
334,59,29570,1,0,3:2:0:0:
113,60,29758,5,10,0:2:0:0:
179,99,29945,1,2,0:2:0:0:
237,45,30133,2,0,L|228:5,2,38.5000011749268,2|0|0,0:2|0:2|3:2,0:2:0:0:
20,151,30508,5,4,1:3:0:0:
128,234,30695,1,0,1:2:0:0:
29,346,30883,2,0,B|2:316|2:316|21:284,1,77.0000023498536,2|0,3:3|3:2,0:2:0:0:
261,236,31258,2,0,P|252:273|245:311,1,77.0000023498536,10|0,0:2|0:2,0:2:0:0:
167,343,31633,1,2,0:2:0:0:
167,343,31820,1,2,3:2:0:0:
199,173,32008,5,2,3:2:0:0:
199,173,32101,1,0,3:2:0:0:
199,173,32195,1,0,1:2:0:0:
341,269,32383,1,2,1:2:0:0:
439,180,32570,1,2,0:2:0:0:
270,72,32758,5,10,0:2:0:0:
346,144,32945,1,2,3:2:0:0:
441,81,33133,1,2,3:2:0:0:
435,58,33226,1,2,3:2:0:0:
413,51,33320,1,2,3:2:0:0:
400,66,33414,1,2,3:2:0:0:
407,83,33508,5,4,1:3:0:0:
305,220,33695,1,0,1:2:0:0:
246,152,33883,2,0,P|259:111|270:68,1,83.9999974365235,2|0,3:3|0:2,0:2:0:0:
493,263,34258,2,0,P|415:253|372:320,1,167.999994873047,10|0,0:2|0:2,0:2:0:0:
435,370,34820,1,0,3:2:0:0:
321,225,35008,5,2,1:2:0:0:
208,349,35195,1,0,1:2:0:0:
111,255,35383,1,2,1:2:0:0:
111,255,35476,1,2,3:2:0:0:
111,255,35570,1,2,3:2:0:0:
181,193,35758,2,0,L|247:206,2,56,0|0|0,0:2|0:2|0:2,0:2:0:0:
110,27,36320,5,8,0:2:0:0:
78,60,36414,1,8,0:2:0:0:
89,107,36508,1,4,1:3:0:0:
180,82,36695,1,2,1:2:0:0:
43,261,36883,2,0,P|33:213|22:171,1,83.9999974365235,2|0,1:2|0:2,0:2:0:0:
286,41,37258,2,0,P|276:81|268:122,1,83.9999974365235,10|0,0:2|0:2,0:2:0:0:
402,289,37633,2,0,P|440:277|484:267,1,83.9999974365235,2|0,0:2|1:2,0:2:0:0:
421,155,38008,5,2,3:2:0:0:
421,155,38101,1,0,3:2:0:0:
421,155,38195,1,0,1:2:0:0:
298,347,38383,1,2,1:2:0:0:
196,283,38570,1,2,0:2:0:0:
334,181,38758,2,0,L|347:227,3,47.9999985351563,10|0|0|0,0:2|3:2|3:2|3:2,0:2:0:0:
269,243,39133,2,0,L|259:208,7,23.9999992675781,2|0|0|0|0|0|0|0,3:2|3:2|3:2|3:2|3:2|3:2|3:2|1:2,0:2:0:0:
20,319,40070,5,0,3:2:0:0:
20,319,40258,2,0,L|77:334,1,56,0|0,3:2|0:2,0:2:0:0:
184,276,40633,1,0,3:2:0:0:
184,276,40740,1,0,3:2:0:0:
184,276,40847,1,0,3:2:0:0:
142,205,41008,2,0,P|153:141|164:86,3,112,2|2|2|2,3:2|3:2|3:3|3:2,0:2:0:0:
162,94,42508,5,0,3:2:0:0:
503,245,43070,1,0,3:2:0:0:
503,245,43258,2,0,L|512:190,1,56,0|0,3:2|0:2,0:2:0:0:
496,97,43633,1,0,3:2:0:0:
451,81,43758,1,0,3:2:0:0:
407,101,43883,1,0,3:2:0:0:
395,148,44008,2,0,P|335:135|283:122,3,112,2|2|2|2,3:2|3:2|3:3|3:2,0:2:0:0:
285,122,45508,5,0,3:2:0:0:
384,365,46117,1,0,3:2:0:0:
376,361,46258,2,0,P|379:333|385:305,1,56,0|0,3:2|0:2,0:2:0:0:
291,286,46633,2,0,P|287:313|281:341,1,56,0|0,3:2|0:2,0:2:0:0:
181,367,47008,2,0,B|115:365|128:347|73:339,1,112,2|0,3:2|3:2,0:2:0:0:
0,300,47570,1,0,3:2:0:0:
87,183,47758,1,2,3:3:0:0:
87,183,48133,1,0,3:2:0:0:
261,365,48508,5,0,3:2:0:0:
492,131,49070,1,0,3:2:0:0:
409,116,49258,2,0,L|418:171,1,56,0|0,3:2|0:2,0:2:0:0:
331,193,49633,2,0,L|321:137,1,56,0|0,3:2|0:2,0:2:0:0:
249,95,50008,2,0,P|201:104|128:113,3,112,0|0|0|0,3:2|0:2|0:2|0:2,0:2:0:0:
99,384,52258,5,2,0:3:0:0:
95,375,52445,1,2,0:3:0:0:
92,367,52633,1,2,0:3:0:0:
89,359,52820,1,2,0:3:0:0:
131,262,53008,5,2,3:2:0:0:
131,262,53383,1,0,3:2:0:0:
187,208,53570,1,0,3:2:0:0:
265,222,53758,1,0,3:2:0:0:
305,295,53945,1,0,3:2:0:0:
305,295,54320,5,0,1:2:0:0:
466,112,54508,2,0,B|436:79|436:79|398:95,1,84,4|0,1:3|0:2,0:2:0:0:
382,84,54883,2,0,P|373:127|364:181,1,90.9999958343508,2|2,1:2|0:2,0:2:0:0:
420,353,55258,1,10,2:2:0:0:
489,275,55445,1,2,0:2:0:0:
239,210,55633,1,2,0:2:0:0:
239,210,56008,6,0,L|248:252,1,42,4|0,1:3|0:2,0:2:0:0:
156,293,56383,2,0,P|147:243|137:201,1,90.9999958343508,2|2,0:2|0:2,0:2:0:0:
266,74,56758,1,10,0:2:0:0:
365,131,56945,1,2,0:2:0:0:
417,2,57133,1,2,1:2:0:0:
365,131,57320,1,2,1:2:0:0:
179,38,57508,6,0,P|112:57|46:68,1,136.499993751526,2|0,3:2|0:2,0:2:0:0:
46,67,57883,1,2,1:2:0:0:
191,166,58070,1,2,3:3:0:0:
107,318,58258,1,10,0:2:0:0:
40,255,58445,2,0,B|68:217|68:217|110:225,1,90.9999958343508,2|0,0:2|3:2,0:2:0:0:
110,225,58726,1,0,3:2:0:0:
110,225,58820,1,0,3:2:0:0:
402,137,59008,6,0,P|332:139|306:199,1,136.499993751526,4|0,1:3|0:2,0:2:0:0:
310,280,59383,2,0,P|359:278|384:240,1,90.9999958343508,2|2,0:2|0:2,0:2:0:0:
211,76,59758,2,0,B|138:86|160:114|85:131,1,136.499993751526,10|0,0:2|0:2,0:2:0:0:
13,91,60133,1,2,0:2:0:0:
13,91,60320,1,2,0:2:0:0:
153,224,60508,5,2,3:2:0:0:
228,156,60695,1,0,3:2:0:0:
102,38,60883,1,2,1:2:0:0:
87,130,61070,1,2,3:3:0:0:
236,24,61258,2,0,P|277:33|326:45,1,90.9999958343508,10|2,0:2|0:2,0:2:0:0:
324,44,61539,1,2,0:2:0:0:
324,44,61633,1,2,0:2:0:0:
462,190,61820,1,2,0:2:0:0:
473,97,62008,5,4,1:3:0:0:
343,273,62195,1,2,3:2:0:0:
433,276,62383,1,2,0:2:0:0:
350,170,62570,1,2,3:2:0:0:
245,274,62758,1,10,0:2:0:0:
151,190,62945,1,0,3:2:0:0:
264,36,63133,1,2,1:2:0:0:
151,190,63320,1,0,1:2:0:0:
8,41,63508,5,2,3:2:0:0:
124,95,63695,1,2,0:2:0:0:
43,263,63883,2,0,P|34:214|20:166,1,90.9999958343508,2|2,1:2|3:3,0:2:0:0:
264,36,64258,2,0,B|332:49|318:75|383:98,1,136.499993751526,10|0,0:2|0:2,0:2:0:0:
450,148,64633,2,0,B|485:117|485:117|464:76,1,90.9999958343508,2|0,3:2|0:2,0:2:0:0:
165,160,65008,6,0,L|174:205,1,42,4|0,1:3|0:2,0:2:0:0:
173,201,65383,2,0,P|217:190|261:181,1,90.9999958343508,2|2,0:2|0:2,0:2:0:0:
434,219,65758,1,10,0:2:0:0:
364,363,65945,2,0,B|331:330|331:330|348:288,1,90.9999958343508,2|0,0:2|0:2,0:2:0:0:
347,288,66508,6,0,P|327:293|303:302,1,42,4|0,3:3|0:2,0:2:0:0:
247,213,66883,2,0,P|293:203|337:190,1,90.9999958343508,2|2,1:2|0:2,0:2:0:0:
192,347,67258,1,10,0:2:0:0:
111,252,67445,1,2,0:2:0:0:
250,84,67633,1,2,0:2:0:0:
250,84,68008,6,0,P|254:105|259:126,1,42,4|0,1:3|0:2,0:2:0:0:
165,179,68383,2,0,L|142:90,1,90.9999958343508,2|2,0:2|0:2,0:2:0:0:
419,130,68758,1,10,0:2:0:0:
347,212,68945,1,2,0:2:0:0:
419,130,69133,1,2,1:2:0:0:
296,33,69320,1,2,1:2:0:0:
165,179,69508,6,0,B|92:202|117:223|45:242,1,136.499993751526,2|0,3:2|0:2,0:2:0:0:
45,241,69883,1,2,1:2:0:0:
45,152,70070,1,2,3:3:0:0:
190,287,70258,1,10,0:2:0:0:
266,221,70445,2,0,B|294:185|294:185|272:144,1,90.9999958343508,2|0,0:2|3:2,0:2:0:0:
283,111,70726,1,0,3:2:0:0:
283,111,70820,1,0,3:2:0:0:
283,111,70914,1,0,3:2:0:0:
283,111,71008,6,0,P|353:127|416:146,1,136.499993751526,4|0,1:3|0:2,0:2:0:0:
497,77,71383,2,0,P|454:61|410:50,1,90.9999958343508,2|2,0:2|0:2,0:2:0:0:
351,354,71758,2,0,P|415:342|436:281,1,136.499993751526,10|0,0:2|0:2,0:2:0:0:
374,230,72133,1,2,0:2:0:0:
374,230,72320,1,2,0:2:0:0:
220,369,72508,5,2,3:2:0:0:
160,205,72695,1,0,3:2:0:0:
250,265,72883,1,2,1:2:0:0:
117,372,73070,1,0,3:2:0:0:
0,252,73258,2,0,P|15:202|23:164,1,90.9999958343508,10|2,0:2|0:2,0:2:0:0:
22,164,73539,1,2,0:2:0:0:
22,164,73633,1,2,0:2:0:0:
126,274,73820,1,2,0:2:0:0:
206,195,74008,5,4,1:3:0:0:
126,274,74195,1,2,3:2:0:0:
116,144,74383,1,2,0:2:0:0:
211,95,74570,1,2,3:2:0:0:
351,202,74758,1,10,0:2:0:0:
452,67,74945,1,0,3:2:0:0:
351,202,75133,1,2,1:2:0:0:
291,38,75320,1,0,1:2:0:0:
459,165,75508,5,2,3:2:0:0:
339,115,75695,1,2,0:2:0:0:
250,210,75883,2,0,P|261:261|268:307,1,90.9999958343508,2|0,1:2|0:2,0:2:0:0:
512,370,76258,2,0,B|530:319|530:319|487:286,1,105,10|0,0:2|0:2,0:2:0:0:
431,351,76633,2,0,B|382:359|394:375|334:387,1,90.9999958343508,2|0,0:2|0:2,0:2:0:0:
256,192,79258,12,0,81414,0:2:0:0:
114,155,81508,5,6,1:3:0:0:
114,155,82258,2,0,B|76:171|76:171|54:225|54:225|16:243,1,140,2|0,0:3|1:2,0:2:0:0:
347,266,83008,5,8,0:2:0:0:
347,266,83758,2,0,B|384:282|384:282|406:336|406:336|444:354,1,140,2|0,0:3|0:2,0:2:0:0:
388,63,84508,5,6,1:3:0:0:
388,63,84883,2,0,L|457:48,1,70,2|2,0:3|0:3,0:2:0:0:
409,158,85258,2,0,L|482:142,1,70,2|2,0:3|0:3,0:2:0:0:
426,260,85633,2,0,L|509:242,1,70,2|2,1:3|0:3,0:2:0:0:
260,237,86008,5,8,0:2:0:0:
260,237,86758,2,0,B|222:253|222:253|200:307|200:307|162:325,1,140,2|0,1:3|0:2,0:2:0:0:
0,87,87508,5,6,1:3:0:0:
0,87,88258,2,0,B|65:56|65:56|109:109,2,140,2|0|8,0:3|1:2|0:2,0:2:0:0:
0,87,89758,1,2,0:3:0:0:
115,280,90508,5,6,1:3:0:0:
115,280,90883,2,0,L|107:341,1,52.5,2|2,0:3|0:3,0:2:0:0:
219,296,91258,2,0,L|212:363,1,52.5,2|2,0:3|0:3,0:2:0:0:
325,303,91633,2,0,L|317:373,1,70,2|2,1:3|0:3,0:2:0:0:
512,182,92008,5,8,0:2:0:0:
512,182,92722,2,0,B|471:132|471:132|413:154,1,125.999996154785,2|2,1:3|0:2,0:2:0:0:
315,133,93150,2,0,P|325:171|336:229,1,93.3333333333333,2|0,0:2|0:2,0:2:0:0:
190,242,93502,6,0,B|112:260|139:278|65:302,1,140,2|0,1:2|0:2,0:2:0:0:
0,246,94064,1,2,0:2:0:0:
63,150,94252,2,0,P|52:113|40:71,1,70,2|0,0:2|0:2,0:2:0:0:
174,0,94627,2,0,P|187:39|201:101,1,105,2|0,1:2|0:2,0:2:0:0:
276,142,95002,2,0,P|314:133|355:118,1,70,10|0,0:2|0:2,0:2:0:0:
512,163,95377,1,2,0:2:0:0:
462,96,95564,1,2,0:2:0:0:
398,218,95752,1,2,0:2:0:0:
398,218,96127,2,0,P|412:267|428:325,1,105,2|0,0:2|0:2,0:2:0:0:
499,349,96502,6,0,P|432:338|382:384,1,140,2|0,1:2|0:2,0:2:0:0:
199,285,97064,1,2,0:2:0:0:
199,285,97158,1,2,0:2:0:0:
199,285,97252,2,0,P|246:271|292:257,1,93.3333333333333,2|2,0:2|0:2,0:2:0:0:
373,181,97627,2,0,P|328:169|281:154,1,93.3333333333333,2|2,1:2|0:2,0:2:0:0:
198,73,98002,2,0,P|206:38|214:5,1,70,10|2,0:2|0:2,0:2:0:0:
65,136,98377,2,0,P|77:168|90:213,1,70,2|2,0:2|0:2,0:2:0:0:
199,285,98752,2,0,P|131:291|98:350,2,140,2|2|0,1:2|0:2|1:2,0:2:0:0:
360,313,99689,5,2,0:2:0:0:
270,384,99877,1,2,0:2:0:0:
199,285,100064,1,2,0:2:0:0:
258,216,100252,2,0,P|268:147|283:75,1,140,2|0,0:2|1:2,0:2:0:0:
238,13,100814,1,2,0:2:0:0:
103,122,101002,5,10,0:2:0:0:
103,122,101377,1,2,0:2:0:0:
154,190,101564,1,2,0:2:0:0:
82,234,101752,2,0,P|45:221|8:212,1,70,2|0,0:2|0:2,0:2:0:0:
234,111,102127,2,0,B|310:130|281:153|359:171,1,140,2|0,0:2|1:2,0:2:0:0:
370,79,102689,5,2,0:2:0:0:
228,213,102877,1,2,0:2:0:0:
306,283,103064,1,2,0:2:0:0:
221,365,103252,2,0,P|214:330|206:292,1,70,2|0,0:2|0:2,0:2:0:0:
408,256,103627,2,0,P|415:290|423:332,1,73.4999977569581,2|0,1:2|0:2,0:2:0:0:
422,328,104008,5,2,0:2:0:0:
256,192,104758,12,0,105414,0:2:0:0:
214,153,105508,6,0,P|218:129|225:94,1,56,4|0,3:3|0:2,0:2:0:0:
323,117,105883,2,0,P|318:140|311:175,1,56,0|0,3:2|0:2,0:2:0:0:
422,328,106258,1,0,3:2:0:0:
458,257,106445,1,0,3:2:0:0:
399,210,106633,1,0,3:2:0:0:
399,210,107008,5,4,3:3:0:0:
325,294,107195,1,0,3:2:0:0:
170,132,107383,2,0,P|207:122|243:109,1,77.0000023498536,2|2,1:2|0:3,0:2:0:0:
187,366,107758,2,0,P|124:326|127:253,1,154.000004699707,10|0,0:2|0:2,0:2:0:0:
0,133,108320,2,0,L|20:213,1,77.0000023498536,2|4,0:2|1:3,0:2:0:0:
207,284,108695,5,2,0:2:0:0:
281,153,108883,1,2,0:2:0:0:
396,259,109070,2,0,L|322:280,1,77.0000023498536,2|8,0:2|0:2,0:2:0:0:
322,280,109351,1,0,3:2:0:0:
322,280,109445,1,2,3:2:0:0:
387,128,109633,1,0,1:2:0:0:
512,238,109820,2,0,P|502:201|493:164,1,77.0000023498536,2|0,1:2|0:2,0:2:0:0:
325,59,110195,5,2,0:2:0:0:
284,161,110383,1,2,1:2:0:0:
409,229,110570,1,2,0:2:0:0:
441,43,110758,1,10,0:2:0:0:
441,43,111133,5,2,0:2:0:0:
220,0,111320,2,0,P|231:36|242:73,2,77.0000023498536,2|4|0,0:2|1:3|0:2,0:2:0:0:
79,129,111883,2,0,P|67:92|56:54,1,77.0000023498536,2|0,0:2|0:2,0:2:0:0:
331,184,112258,2,0,P|296:194|255:207,1,77.0000023498536,10|0,0:2|0:2,0:2:0:0:
63,368,112633,2,0,P|56:344|53:321,1,38.5000011749268,2|0,3:2|3:2,0:2:0:0:
148,312,112820,1,2,3:2:0:0:
148,312,112914,1,0,3:2:0:0:
148,312,113008,2,0,P|155:335|158:359,3,38.5000011749268,2|0|0|0,3:2|3:2|3:2|3:2,0:2:0:0:
228,268,113383,5,2,1:3:0:0:
276,259,113476,1,2,3:3:0:0:
324,272,113570,1,2,3:3:0:0:
360,307,113664,1,2,3:3:0:0:
367,360,113758,1,10,3:2:0:0:
512,136,114133,2,0,P|501:165|494:196,1,62.9999980773926,2|2,0:2|0:2,0:2:0:0:
243,122,114508,6,0,P|255:84|263:47,1,77.0000023498536,4|0,1:3|0:2,0:2:0:0:
374,125,114883,1,2,0:2:0:0:
210,222,115070,1,2,0:2:0:0:
210,222,115164,1,2,0:2:0:0:
210,222,115258,1,10,0:2:0:0:
340,312,115445,1,2,0:2:0:0:
323,214,115633,1,2,1:2:0:0:
181,365,115820,1,2,1:2:0:0:
181,365,116195,5,2,0:2:0:0:
98,285,116383,1,2,1:2:0:0:
0,322,116570,1,2,0:3:0:0:
62,149,116758,2,0,B|142:160|122:194|201:209,1,154.000004699707,10|0,0:2|0:2,0:2:0:0:
396,98,117320,1,8,0:2:0:0:
352,23,117508,6,0,P|280:41|260:113,1,154.000004699707,4|0,1:3|0:2,0:2:0:0:
297,201,118070,1,2,0:2:0:0:
480,156,118258,1,10,0:2:0:0:
490,64,118445,1,2,0:2:0:0:
370,124,118633,2,0,P|379:155|393:208,1,77.0000023498536,2|0,0:2|0:2,0:2:0:0:
193,258,119008,6,0,P|183:220|175:183,1,77.0000023498536,2|0,3:2|0:2,0:2:0:0:
334,295,119383,1,2,1:2:0:0:
334,295,119570,1,2,0:2:0:0:
165,384,119758,1,10,0:2:0:0:
165,384,120133,2,0,P|200:374|250:359,1,77.0000023498536,2|0,0:2|0:2,0:2:0:0:
26,219,120508,6,0,P|37:258|51:307,1,77.0000023498536,4|0,1:3|0:2,0:2:0:0:
178,134,120883,1,2,0:2:0:0:
87,72,121070,1,0,3:2:0:0:
178,134,121258,1,10,0:2:0:0:
261,73,121445,1,0,3:2:0:0:
400,159,121633,5,2,1:2:0:0:
283,254,121820,1,0,1:2:0:0:
397,374,122008,2,0,P|402:339|410:291,1,77.0000023498536,2|0,3:2|3:2,0:2:0:0:
137,220,122383,2,0,B|104:255|104:255|122:297,1,94.499997116089,2|0,1:2|0:2,0:2:0:0:
87,368,122758,2,0,P|139:316|212:329,1,154.000004699707,10|0,0:2|0:2,0:2:0:0:
212,329,123508,6,0,P|280:372|347:338,1,154.000004699707,4|0,1:3|0:2,0:2:0:0:
397,277,124070,1,2,0:2:0:0:
296,137,124258,1,10,0:2:0:0:
397,277,124445,1,2,0:2:0:0:
487,140,124633,2,0,L|403:162,1,77.0000023498536,2|0,0:2|0:2,0:2:0:0:
205,248,125008,2,0,P|246:256|280:265,1,77.0000023498536,2|0,3:2|0:2,0:2:0:0:
179,40,125383,2,0,P|169:75|157:113,1,77.0000023498536,2|2,1:2|0:3,0:2:0:0:
15,240,125758,2,0,P|8:201|0:164,1,77.0000023498536,10|0,0:2|0:2,0:2:0:0:
210,340,126133,2,0,P|172:349|136:361,1,77.0000023498536,2|0,0:2|0:2,0:2:0:0:
299,176,126508,5,4,1:3:0:0:
380,271,126695,1,2,0:2:0:0:
487,203,126883,2,0,P|496:146|506:100,1,102.666669799805,2|2,0:2|0:2,0:2:0:0:
379,31,127258,2,0,P|392:81|405:139,1,102.666669799805,10|2,0:2|0:2,0:2:0:0:
474,15,127633,5,2,1:2:0:0:
202,123,127820,1,2,1:2:0:0:
198,106,128429,5,0,3:2:0:0:
194,89,128617,1,0,3:2:0:0:
22,297,129414,5,0,3:2:0:0:
22,297,129508,2,0,B|57:248|57:248|109:264,1,115.50000352478,4|0,1:3|0:2,0:2:0:0:
208,259,129883,2,0,L|188:340,1,77.0000023498536,4|2,1:3|0:2,0:2:0:0:
509,231,131008,2,0,B|474:185|474:185|420:205,1,115.50000352478,4|0,1:3|0:2,0:2:0:0:
332,199,131383,2,0,L|352:280,1,77.0000023498536,4|2,1:3|0:2,0:2:0:0:
248,299,132133,6,0,L|228:218,1,77.0000023498536,2|0,0:2|1:2,0:2:0:0:
364,59,132508,2,0,B|329:104|329:104|275:83,1,115.50000352478,4|0,1:3|0:2,0:2:0:0:
193,23,132883,2,0,L|266:0,1,77.0000023498536,4|2,1:3|0:2,0:2:0:0:
65,365,134758,1,8,0:2:0:0:
16,288,134945,1,8,0:2:0:0:
165,219,135133,1,8,0:2:0:0:
165,219,135226,1,8,0:2:0:0:
165,219,135320,1,8,0:2:0:0:
165,219,135414,1,8,0:2:0:0:
165,219,135508,5,4,1:3:0:0:
137,315,135695,1,0,1:2:0:0:
21,174,135883,1,0,1:2:0:0:
171,47,136070,1,0,1:2:0:0:
330,213,136258,1,10,0:2:0:0:
422,85,136445,1,0,1:2:0:0:
330,213,136633,1,10,0:2:0:0:
422,85,136820,1,0,1:2:0:0:
286,78,137008,5,2,3:2:0:0:
441,203,137195,1,0,1:2:0:0:
286,78,137383,1,0,1:2:0:0:
192,200,137570,1,2,0:2:0:0:
316,320,137758,2,0,B|402:325|377:352|469:361,1,154.000004699707,10|0,0:2|0:2,0:2:0:0:
464,361,138508,6,0,P|419:370|376:385,1,90.9999958343508,4|0,1:3|0:2,0:2:0:0:
308,158,138883,2,0,P|352:148|395:133,1,90.9999958343508,2|0,0:2|0:2,0:2:0:0:
243,372,139258,1,10,0:2:0:0:
122,251,139445,1,0,3:2:0:0:
215,107,139633,1,2,1:2:0:0:
122,251,139820,1,0,1:2:0:0:
230,246,140008,5,2,3:2:0:0:
115,153,140195,1,2,0:2:0:0:
19,288,140383,2,0,P|12:250|-1:191,1,90.9999958343508,2|0,1:2|0:2,0:2:0:0:
357,105,140758,2,0,P|342:176|331:247,1,136.499993751526,10|0,0:2|0:2,0:2:0:0:
381,309,141133,2,0,P|418:335|461:322,1,90.9999958343508,2|0,0:2|0:2,0:2:0:0:
221,173,141508,6,0,L|210:221,1,42,4|0,1:3|0:2,0:2:0:0:
211,213,141883,2,0,L|118:195,1,90.9999958343508,2|2,0:2|0:2,0:2:0:0:
299,61,142258,1,10,0:2:0:0:
428,192,142445,2,0,B|462:160|462:160|445:118,1,90.9999958343508,2|0,0:2|0:2,0:2:0:0:
445,118,143008,6,0,L|403:109,1,42,4|0,3:3|0:2,0:2:0:0:
400,5,143383,2,0,L|495:25,1,90.9999958343508,2|2,1:2|0:2,0:2:0:0:
331,246,143758,1,10,0:2:0:0:
289,145,143945,1,2,0:2:0:0:
512,231,144133,1,2,0:2:0:0:
512,231,144508,6,0,L|504:272,1,42,4|0,1:3|0:2,0:2:0:0:
406,269,144883,2,0,L|424:180,1,90.9999958343508,2|2,0:2|0:2,0:2:0:0:
306,37,145258,1,10,0:2:0:0:
210,191,145445,1,2,0:2:0:0:
331,153,145633,1,2,1:2:0:0:
186,34,145820,1,2,1:2:0:0:
43,213,146008,6,0,P|56:281|69:348,1,136.499993751526,2|0,3:2|0:2,0:2:0:0:
68,347,146383,1,2,1:2:0:0:
182,232,146570,1,2,0:3:0:0:
338,357,146758,1,10,0:2:0:0:
245,374,146945,2,0,B|227:333|227:333|257:298,1,90.9999958343508,2|0,0:2|3:2,0:2:0:0:
287,261,147226,1,0,3:2:0:0:
287,261,147320,1,0,3:2:0:0:
287,261,147414,1,0,3:2:0:0:
287,261,147508,6,0,P|354:275|434:292,1,136.499993751526,4|0,1:3|0:2,0:2:0:0:
496,347,147883,2,0,P|502:302|512:252,1,90.9999958343508,2|2,0:2|0:2,0:2:0:0:
426,50,148258,2,0,P|363:66|347:129,1,136.499993751526,10|0,0:2|0:2,0:2:0:0:
407,192,148633,1,2,0:2:0:0:
407,192,148820,1,2,0:2:0:0:
290,27,149008,5,2,3:2:0:0:
200,156,149195,1,0,3:2:0:0:
82,27,149383,1,2,1:2:0:0:
195,65,149570,1,0,3:2:0:0:
65,237,149758,2,0,P|55:193|45:146,1,90.9999958343508,10|0,0:2|0:2,0:2:0:0:
275,249,150133,1,2,0:2:0:0:
275,249,150226,1,2,0:2:0:0:
275,249,150320,1,2,0:2:0:0:
174,370,150508,5,4,1:3:0:0:
103,323,150695,1,2,3:2:0:0:
164,228,150883,1,2,0:2:0:0:
277,333,151070,1,2,3:2:0:0:
386,214,151258,1,10,0:2:0:0:
277,333,151445,1,0,3:2:0:0:
255,150,151633,1,2,1:2:0:0:
429,301,151820,1,0,1:2:0:0:
500,76,152008,5,2,3:2:0:0:
398,130,152195,1,2,0:2:0:0:
512,264,152383,2,0,P|518:218|530:175,1,90.9999958343508,2|0,1:2|0:2,0:2:0:0:
375,37,152758,5,2,0:3:0:0:
304,70,152945,1,2,0:3:0:0:
289,148,153133,1,2,0:3:0:0:
341,207,153320,1,2,0:3:0:0:
108,133,153508,6,0,B|153:111|153:111|182:144,1,94.499997116089,4|0,1:3|0:2,0:2:0:0:
200,140,153883,2,0,P|193:185|184:229,1,90.9999958343508,2|2,0:2|0:2,0:2:0:0:
309,351,154258,1,10,0:2:0:0:
447,249,154445,2,0,P|438:202|431:159,1,90.9999958343508,2|0,0:2|0:2,0:2:0:0:
431,159,155008,6,0,L|383:169,1,42,4|0,3:3|0:2,0:2:0:0:
345,83,155383,2,0,P|395:74|451:61,1,90.9999958343508,2|2,1:2|0:2,0:2:0:0:
335,266,155758,1,10,0:2:0:0:
240,173,155945,1,2,0:2:0:0:
96,325,156133,1,2,0:2:0:0:
96,325,156508,6,0,L|47:339,1,42,4|0,1:3|0:2,0:2:0:0:
5,246,156883,2,0,L|93:222,1,90.9999958343508,2|2,0:2|0:2,0:2:0:0:
294,290,157258,1,10,0:2:0:0:
212,350,157445,1,2,0:2:0:0:
263,177,157633,1,2,1:2:0:0:
404,295,157820,1,2,1:2:0:0:
512,174,158008,6,0,P|517:109|467:66,1,136.499993751526,2|0,3:2|0:2,0:2:0:0:
387,7,158383,2,0,L|360:104,1,90.9999958343508,2|2,1:2|0:3,0:2:0:0:
430,384,158758,1,10,0:2:0:0:
512,267,158945,1,2,0:2:0:0:
395,197,159133,1,0,3:2:0:0:
395,197,159226,1,0,3:0:0:0:
395,197,159320,1,0,3:2:0:0:
418,285,159508,5,2,3:2:0:0:
